  0
SECTION
  2
HEADER
  9
$ACADVER
  1
AC1015
  9
$ACADMAINTVER
 70
    20
  9
$DWGCODEPAGE
  3
ANSI_1252
  9
$INSBASE
 10
0.0
 20
0.0
 30
0.0
  9
$EXTMIN
 10
-134.650259067358
 20
-100.103626943005
 30
0.0
  9
$EXTMAX
 10
143.354922279793
 20
99.8316062176166
 30
0.0
  9
$LIMMIN
 10
0.0
 20
0.0
  9
$LIMMAX
 10
12.0
 20
9.0
  9
$ORTHOMODE
 70
     0
  9
$REGENMODE
 70
     1
  9
$FILLMODE
 70
     1
  9
$QTEXTMODE
 70
     0
  9
$MIRRTEXT
 70
     1
  9
$LTSCALE
 40
1.0
  9
$ATTMODE
 70
     1
  9
$TEXTSIZE
 40
0.2
  9
$TRACEWID
 40
0.05
  9
$TEXTSTYLE
  7
Standard
  9
$CLAYER
  8
0
  9
$CELTYPE
  6
ByLayer
  9
$CECOLOR
 62
   256
  9
$CELTSCALE
 40
1.0
  9
$DISPSILH
 70
     0
  9
$DIMSCALE
 40
1.0
  9
$DIMASZ
 40
2.5
  9
$DIMEXO
 40
0.625
  9
$DIMDLI
 40
0.38
  9
$DIMRND
 40
0.0
  9
$DIMDLE
 40
0.0
  9
$DIMEXE
 40
1.25
  9
$DIMTP
 40
0.0
  9
$DIMTM
 40
0.000000001
  9
$DIMTXT
 40
2.5
  9
$DIMCEN
 40
0.09
  9
$DIMTSZ
 40
0.0
  9
$DIMTOL
 70
     1
  9
$DIMLIM
 70
     0
  9
$DIMTIH
 70
     0
  9
$DIMTOH
 70
     0
  9
$DIMSE1
 70
     0
  9
$DIMSE2
 70
     0
  9
$DIMTAD
 70
     1
  9
$DIMZIN
 70
     0
  9
$DIMBLK
  1
VDDIM_DEFAULT
  9
$DIMASO
 70
     1
  9
$DIMSHO
 70
     1
  9
$DIMPOST
  1

  9
$DIMAPOST
  1

  9
$DIMALT
 70
     0
  9
$DIMALTD
 70
     2
  9
$DIMALTF
 40
25.4
  9
$DIMLFAC
 40
1.0
  9
$DIMTOFL
 70
     0
  9
$DIMTVP
 40
0.0
  9
$DIMTIX
 70
     0
  9
$DIMSOXD
 70
     0
  9
$DIMSAH
 70
     0
  9
$DIMBLK1
  1

  9
$DIMBLK2
  1

  9
$DIMSTYLE
  2
BEM-ISBE
  9
$DIMCLRD
 70
     0
  9
$DIMCLRE
 70
     0
  9
$DIMCLRT
 70
     0
  9
$DIMTFAC
 40
0.5
  9
$DIMGAP
 40
0.625
  9
$DIMJUST
 70
     0
  9
$DIMSD1
 70
     0
  9
$DIMSD2
 70
     0
  9
$DIMTOLJ
 70
     1
  9
$DIMTZIN
 70
     0
  9
$DIMALTZ
 70
     0
  9
$DIMALTTZ
 70
     0
  9
$DIMUPT
 70
     0
  9
$DIMDEC
 70
     3
  9
$DIMTDEC
 70
     3
  9
$DIMALTU
 70
     2
  9
$DIMALTTD
 70
     2
  9
$DIMTXSTY
  7
Standard
  9
$DIMAUNIT
 70
     0
  9
$DIMADEC
 70
     3
  9
$DIMALTRND
 40
0.0
  9
$DIMAZIN
 70
     0
  9
$DIMDSEP
 70
    46
  9
$DIMATFIT
 70
     3
  9
$DIMFRAC
 70
     0
  9
$DIMLDRBLK
  1

  9
$DIMLUNIT
 70
     2
  9
$DIMLWD
 70
    -2
  9
$DIMLWE
 70
    -2
  9
$DIMTMOVE
 70
     0
  9
$LUNITS
 70
     2
  9
$LUPREC
 70
     4
  9
$SKETCHINC
 40
0.1
  9
$FILLETRAD
 40
0.0
  9
$AUNITS
 70
     0
  9
$AUPREC
 70
     0
  9
$MENU
  1
.
  9
$ELEVATION
 40
0.0
  9
$PELEVATION
 40
0.0
  9
$THICKNESS
 40
0.0
  9
$LIMCHECK
 70
     0
  9
$CHAMFERA
 40
0.5
  9
$CHAMFERB
 40
0.5
  9
$CHAMFERC
 40
1.0
  9
$CHAMFERD
 40
0.0
  9
$SKPOLY
 70
     0
  9
$TDCREATE
 40
2457002.672226366
  9
$TDUCREATE
 40
2457002.630559699
  9
$TDUPDATE
 40
2457002.677114063
  9
$TDUUPDATE
 40
2457002.635447396
  9
$TDINDWG
 40
0.0026139583
  9
$TDUSRTIMER
 40
0.0026138657
  9
$USRTIMER
 70
     1
  9
$ANGBASE
 50
0.0
  9
$ANGDIR
 70
     0
  9
$PDMODE
 70
     0
  9
$PDSIZE
 40
0.0
  9
$PLINEWID
 40
0.0
  9
$SPLFRAME
 70
     0
  9
$SPLINETYPE
 70
     6
  9
$SPLINESEGS
 70
     8
  9
$HANDSEED
  5
F10C38
  9
$SURFTAB1
 70
     6
  9
$SURFTAB2
 70
     6
  9
$SURFTYPE
 70
     6
  9
$SURFU
 70
     6
  9
$SURFV
 70
     6
  9
$UCSBASE
  2

  9
$UCSNAME
  2

  9
$UCSORG
 10
16.53047330278153
 20
3.637564992193881
 30
0.0
  9
$UCSXDIR
 10
1.0
 20
0.0
 30
0.0
  9
$UCSYDIR
 10
0.0
 20
1.0
 30
0.0
  9
$UCSORTHOREF
  2

  9
$UCSORTHOVIEW
 70
     0
  9
$UCSORGTOP
 10
0.0
 20
0.0
 30
0.0
  9
$UCSORGBOTTOM
 10
0.0
 20
0.0
 30
0.0
  9
$UCSORGLEFT
 10
0.0
 20
0.0
 30
0.0
  9
$UCSORGRIGHT
 10
0.0
 20
0.0
 30
0.0
  9
$UCSORGFRONT
 10
0.0
 20
0.0
 30
0.0
  9
$UCSORGBACK
 10
0.0
 20
0.0
 30
0.0
  9
$PUCSBASE
  2

  9
$PUCSNAME
  2

  9
$PUCSORG
 10
0.0
 20
0.0
 30
0.0
  9
$PUCSXDIR
 10
1.0
 20
0.0
 30
0.0
  9
$PUCSYDIR
 10
0.0
 20
1.0
 30
0.0
  9
$PUCSORTHOREF
  2

  9
$PUCSORTHOVIEW
 70
     0
  9
$PUCSORGTOP
 10
0.0
 20
0.0
 30
0.0
  9
$PUCSORGBOTTOM
 10
0.0
 20
0.0
 30
0.0
  9
$PUCSORGLEFT
 10
0.0
 20
0.0
 30
0.0
  9
$PUCSORGRIGHT
 10
0.0
 20
0.0
 30
0.0
  9
$PUCSORGFRONT
 10
0.0
 20
0.0
 30
0.0
  9
$PUCSORGBACK
 10
0.0
 20
0.0
 30
0.0
  9
$USERI1
 70
     0
  9
$USERI2
 70
     0
  9
$USERI3
 70
     0
  9
$USERI4
 70
     0
  9
$USERI5
 70
     0
  9
$USERR1
 40
0.0
  9
$USERR2
 40
0.0
  9
$USERR3
 40
0.0
  9
$USERR4
 40
0.0
  9
$USERR5
 40
0.0
  9
$WORLDVIEW
 70
     1
  9
$SHADEDGE
 70
     3
  9
$SHADEDIF
 70
    70
  9
$TILEMODE
 70
     1
  9
$MAXACTVP
 70
    64
  9
$PINSBASE
 10
0.0
 20
0.0
 30
0.0
  9
$PLIMCHECK
 70
     0
  9
$PEXTMIN
 10
1.000000000000000E+20
 20
1.000000000000000E+20
 30
1.000000000000000E+20
  9
$PEXTMAX
 10
-1.000000000000000E+20
 20
-1.000000000000000E+20
 30
-1.000000000000000E+20
  9
$PLIMMIN
 10
0.0
 20
0.0
  9
$PLIMMAX
 10
12.0
 20
9.0
  9
$UNITMODE
 70
     0
  9
$VISRETAIN
 70
     1
  9
$PLINEGEN
 70
     0
  9
$PSLTSCALE
 70
     1
  9
$TREEDEPTH
 70
  3020
  9
$CMLSTYLE
  2
Standard
  9
$CMLJUST
 70
     0
  9
$CMLSCALE
 40
1.0
  9
$PROXYGRAPHICS
 70
     1
  9
$MEASUREMENT
 70
     0
  9
$CELWEIGHT
370
    -1
  9
$ENDCAPS
280
     0
  9
$JOINSTYLE
280
     0
  9
$LWDISPLAY
290
     0
  9
$INSUNITS
 70
     4
  9
$HYPERLINKBASE
  1

  9
$STYLESHEET
  1

  9
$XEDIT
290
     1
  9
$CEPSNTYPE
380
     0
  9
$PSTYLEMODE
290
     0
  9
$FINGERPRINTGUID
  2
{FAEB1C30-E019-11D5-929B-00C0DF256EC4}
  9
$VERSIONGUID
  2
{1D5EC868-2E33-46F5-A06C-8DCFC77B6DD7}
  9
$EXTNAMES
290
     1
  9
$PSVPSCALE
 40
0.0
  9
$OLESTARTUP
290
     0
  0
ENDSEC
  0
SECTION
  2
CLASSES
  0
CLASS
  1
ACDBDICTIONARYWDFLT
  2
AcDbDictionaryWithDefault
  3
ObjectDBX Classes
 90
        0
280
     0
281
     0
  0
CLASS
  1
MATERIAL
  2
AcDbMaterial
  3
ObjectDBX Classes
 90
     1153
280
     0
281
     0
  0
CLASS
  1
MLEADERSTYLE
  2
AcDbMLeaderStyle
  3
ACDB_MLEADERSTYLE_CLASS
 90
     4095
280
     0
281
     0
  0
CLASS
  1
SCALE
  2
AcDbScale
  3
ObjectDBX Classes
 90
     1153
280
     0
281
     0
  0
CLASS
  1
TABLESTYLE
  2
AcDbTableStyle
  3
ObjectDBX Classes
 90
     4095
280
     0
281
     0
  0
CLASS
  1
VISUALSTYLE
  2
AcDbVisualStyle
  3
ObjectDBX Classes
 90
     4095
280
     0
281
     0
  0
CLASS
  1
DICTIONARYVAR
  2
AcDbDictionaryVar
  3
ObjectDBX Classes
 90
        0
280
     0
281
     0
  0
CLASS
  1
CELLSTYLEMAP
  2
AcDbCellStyleMap
  3
ObjectDBX Classes
 90
     1152
280
     0
281
     0
  0
CLASS
  1
AMGSETTINGSOBJ
  2
AmgSettingsObj
  3
"AcadM|Product Description: AutoCAD Mechanical|Company: Autodesk, Inc."
 90
     1024
280
     0
281
     0
  0
CLASS
  1
ACME_DOCUMENT
  2
AcMeDbDoc
  3
AcMeServices
 90
     1024
280
     0
281
     0
  0
CLASS
  1
ACMESCOPE
  2
AcMeScope
  3
AcMeServices
 90
     1024
280
     0
281
     0
  0
CLASS
  1
ACMECOMMANDHISTORY
  2
AcMeCommandHistory
  3
AcMeServices
 90
     1024
280
     0
281
     0
  0
CLASS
  1
ACIMSYSVARMAN
  2
AcImSysVarManager
  3
AcMeServices
 90
     1024
280
     0
281
     0
  0
CLASS
  1
ACIMINTSYSVAR
  2
AcImIntSysVar
  3
AcMeServices
 90
     1024
280
     0
281
     0
  0
CLASS
  1
ACMESTATEMGR
  2
AcMeStateMgr
  3
AcMeServices
 90
     1024
280
     0
281
     0
  0
CLASS
  1
ACDBENTITYCACHE
  2
AcMeEntityCache
  3
AcMeServices
 90
     1024
280
     0
281
     0
  0
CLASS
  1
ACGREFMASTER
  2
AcGrefMaster
  3
AcAttribServices
 90
     1024
280
     0
281
     0
  0
CLASS
  1
AM_DRAWING_MGR
  2
AcDmDwgMgr
  3
AcMechDwgViewMgmt
 90
     1024
280
     0
281
     0
  0
CLASS
  1
AM_DWG_DOCUMENT
  2
AcDmDwgDocument
  3
AcMechDwgViewMgmt
 90
     1024
280
     0
281
     0
  0
CLASS
  1
AM_DWG_SHEET
  2
AcDmSheet
  3
AcMechDwgViewMgmt
 90
     1024
280
     0
281
     0
  0
CLASS
  1
AM_VIEWDIMPARMAP
  2
AcDmViewDimParMap
  3
AcMechDwgViewMgmt
 90
     1024
280
     0
281
     0
  0
CLASS
  1
AMDTINTERNALREACTOR
  2
AmdtInternalReactor
  3
AcMeServices
 90
     1024
280
     0
281
     0
  0
CLASS
  1
ACIMREALSYSVAR
  2
AcImRealSysVar
  3
AcMeServices
 90
     1024
280
     0
281
     0
  0
CLASS
  1
AM_DWGMGR_NAME
  2
AcDmDwgMgrName
  3
AcMechDwgViewMgmt
 90
     1024
280
     0
281
     0
  0
CLASS
  1
ACME_DATABASE
  2
AcMeDbDatabase
  3
AcMeServices
 90
     1024
280
     0
281
     0
  0
CLASS
  1
ACRFINSADJUSTERMGR
  2
AcRfInsAdjusterMgr
  3
AcMeServices
 90
     1024
280
     0
281
     0
  0
CLASS
  1
ACGREFACADMASTER
  2
AcGrefacadMaster
  3
AcGrefServices
 90
     1024
280
     0
281
     0
  0
CLASS
  1
AMDTMENUSTATEMGR
  2
AmdtMenuStateMgr
  3
McadcomServices
 90
     1024
280
     0
281
     0
  0
CLASS
  1
AMDTMCOMMENUSTATE
  2
AmdtMcomMenuState
  3
McadcomServices
 90
     1024
280
     0
281
     0
  0
CLASS
  1
AMIMASTER
  2
AmiMaster
  3
AmiServices
 90
     1024
280
     0
281
     0
  0
CLASS
  1
MAPIAMMOUDLE
  2
MApiAmModule
  3
MApiAmServices
 90
     1024
280
     0
281
     0
  0
CLASS
  1
ACIMSTRSYSVAR
  2
AcImStrSysVar
  3
AcMeServices
 90
     1024
280
     0
281
     0
  0
CLASS
  1
AMDTDMMENUSTATE
  2
AmdtDmMenuState
  3
AcMechDwgViewMgmt
 90
     1024
280
     0
281
     0
  0
CLASS
  1
AMDTAMMENUSTATE
  2
AmdtAmMenuState
  3
DesignerAssemblies
 90
     1024
280
     0
281
     0
  0
CLASS
  1
ACAMPROJECT
  2
AcAmProject
  3
DesignerAssemblies
 90
     1024
280
     0
281
     0
  0
CLASS
  1
ACAMGRCOMPDEF
  2
AcAmGrCompDef
  3
DesignerAssemblies
 90
     1024
280
     0
281
     0
  0
CLASS
  1
ACAMCOMPDEF
  2
AcAmCompDef
  3
DesignerAssemblies
 90
     1024
280
     0
281
     0
  0
CLASS
  1
ACAMCOMPDEFMGR
  2
AcAmCompDefMgr
  3
DesignerAssemblies
 90
     1024
280
     0
281
     0
  0
CLASS
  1
AMCONTEXTMGR
  2
AcAmContextMgr
  3
DesignerAssemblies
 90
     1024
280
     0
281
     0
  0
CLASS
  1
ACAMCONTEXTMODELER
  2
AcAmContextModeler
  3
DesignerAssemblies
 90
     1024
280
     0
281
     0
  0
CLASS
  1
ACMDATADICTIONARY
  2
AcmDataDictionary
  3
"AcmSymBB|Product Description: AutoCAD Mechanical|Company: Autodesk, Inc."
 90
     1024
280
     0
281
     0
  0
CLASS
  1
ACAMGRCOMPDEFSET
  2
AcAmGrCompDefSet
  3
DesignerAssemblies
 90
     1024
280
     0
281
     0
  0
CLASS
  1
AMDTBROWSERDBTAB
  2
AmdtBrowserDbTab
  3
McadcomServices
 90
     1024
280
     0
281
     0
  0
CLASS
  1
CBROWSERAPPOBJECT
  2
CBrowserAppObject
  3
McadcomServices
 90
     1024
280
     0
281
     0
  0
CLASS
  1
DM_PLACEHOLDER
  2
AcDmSelsetPlaceholder
  3
AcMechDwgViewMgmt
 90
     1024
280
     0
281
     0
  0
CLASS
  1
EXACXREFPANELOBJECT
  2
ExAcXREFPanelObject
  3
EXAC_ESW
 90
     1025
280
     0
281
     0
  0
CLASS
  1
NPOCOLLECTION
  2
AcDbImpNonPersistentObjectsCollection
  3
ObjectDBX Classes
 90
     1153
280
     0
281
     0
  0
CLASS
  1
ACMSTANDARDANSI
  2
AcmStandardANSI
  3
"Amdt_StdImp|Product Description: AutoCAD Mechanical|Company: Autodesk, Inc."
 90
     1024
280
     0
281
     0
  0
CLASS
  1
ACMSURFSTANDARDANSI
  2
AcmSurfTextStdANSI
  3
"Amdt_StdImp|Product Description: AutoCAD Mechanical|Company: Autodesk, Inc."
 90
     1024
280
     0
281
     0
  0
CLASS
  1
ACMFCFSTANDARDANSI
  2
AcmFCFStdANSI
  3
"Amdt_StdImp|Product Description: AutoCAD Mechanical|Company: Autodesk, Inc."
 90
     1024
280
     0
281
     0
  0
CLASS
  1
ACMWELDSTANDARDANSI
  2
AcmWeldingStdANSI
  3
"Amdt_StdImp|Product Description: AutoCAD Mechanical|Company: Autodesk, Inc."
 90
     1024
280
     0
281
     0
  0
CLASS
  1
ACMIDSTANDARDANSI
  2
AcmIdStdANSI
  3
"Amdt_StdImp|Product Description: AutoCAD Mechanical|Company: Autodesk, Inc."
 90
     1024
280
     0
281
     0
  0
CLASS
  1
ACMDATUMSTANDARDANSI
  2
AcmDatumStdANSI
  3
"Amdt_StdImp|Product Description: AutoCAD Mechanical|Company: Autodesk, Inc."
 90
     1024
280
     0
281
     0
  0
CLASS
  1
ACMBOMSTANDARDANSI
  2
AcmBOMStdANSI
  3
"Amdt_StdImp|Product Description: AutoCAD Mechanical|Company: Autodesk, Inc."
 90
     1024
280
     0
281
     0
  0
CLASS
  1
ACMDETAILSTANDARDANSI
  2
AmdtDetailSymStdANSI
  3
"Amdt_StdImp|Product Description: AutoCAD Mechanical|Company: Autodesk, Inc."
 90
     1024
280
     0
281
     0
  0
CLASS
  1
ACMSECTIONSTANDARDANSI
  2
AmdtSectionSymStdANSI
  3
"Amdt_StdImp|Product Description: AutoCAD Mechanical|Company: Autodesk, Inc."
 90
     1024
280
     0
281
     0
  0
CLASS
  1
ACMCENTERLINESTANDARDANSI
  2
AmdtCenterLineStdANSI
  3
"Amdt_StdImp|Product Description: AutoCAD Mechanical|Company: Autodesk, Inc."
 90
     1024
280
     0
281
     0
  0
CLASS
  1
ACMTHREADLINESTANDARDANSI
  2
AmdtThreadLineStdANSI
  3
"Amdt_StdImp|Product Description: AutoCAD Mechanical|Company: Autodesk, Inc."
 90
     1024
280
     0
281
     0
  0
CLASS
  1
ACMNOTESTANDARDANSI
  2
AmdtNoteStdANSI
  3
"Amdt_StdImp|Product Description: AutoCAD Mechanical|Company: Autodesk, Inc."
 90
     1024
280
     0
281
     0
  0
CLASS
  1
ACMTAPERSTANDARDANSI
  2
AcmTaperStdANSI
  3
"Amdt_StdImp|Product Description: AutoCAD Mechanical|Company: Autodesk, Inc."
 90
     1024
280
     0
281
     0
  0
CLASS
  1
ACMANOOTATIONVIEWSTANDARDANSI
  2
AmdtAnViewStdANSI
  3
"Amdt_StdImp|Product Description: AutoCAD Mechanical|Company: Autodesk, Inc."
 90
     1024
280
     0
281
     0
  0
CLASS
  1
ACAMGLAYSTD
  2
AcAmgLayStd
  3
"AmgLay|Product Description: AutoCAD Mechanical|Company: Autodesk, Inc."
 90
     1024
280
     0
281
     0
  0
CLASS
  1
ACAMGDIMSTD
  2
AcAmgDimStd
  3
"AmgDim|Product Description: AutoCAD Mechanical|Company: Autodesk, Inc."
 90
     1024
280
     0
281
     0
  0
CLASS
  1
AMGOBJPROPCFG
  2
AmgObjPropCfg
  3
"AmgLay|Product Description: AutoCAD Mechanical|Company: Autodesk, Inc."
 90
     1025
280
     0
281
     0
  0
CLASS
  1
ACAMGHOLECHARTSTDANSI
  2
AcAmgHoleChartStdANSI
  3
AmgDim|Product Description: AutoCAD Mechanical|Company: Autodesk, Inc.
 90
     1024
280
     0
281
     0
  0
CLASS
  1
ACAMGTITLESTD
  2
AcAmgTitleStd
  3
"AmgTitle|Product Description: AutoCAD Mechanical|Company: Autodesk, Inc."
 90
     4095
280
     0
281
     0
  0
CLASS
  1
AMDTNOTETEMPLATEDB
  2
AmdtNoteTemplateDB
  3
AcmSymBB|Product Description: AutoCAD Mechanical|Company: Autodesk, Inc.
 90
     1024
280
     0
281
     0
  0
CLASS
  1
ACAMGFILTERDAT
  2
AcAmgFilterDat
  3
"AcadM|Product Description: AutoCAD Mechanical|Company: Autodesk, Inc."
 90
    33792
280
     0
281
     0
  0
CLASS
  1
ACDBPLACEHOLDER
  2
AcDbPlaceHolder
  3
ObjectDBX Classes
 90
        0
280
     0
281
     0
  0
CLASS
  1
LAYOUT
  2
AcDbLayout
  3
ObjectDBX Classes
 90
        0
280
     0
281
     0
  0
ENDSEC
  0
SECTION
  2
TABLES
  0
TABLE
  2
VPORT
  5
24A
330
0
100
AcDbSymbolTable
 70
     1
  0
VPORT
  5
26B
330
24A
100
AcDbSymbolTableRecord
100
AcDbViewportTableRecord
  2
*Active
 70
     0
 10
0.0
 20
0.0
 11
1.0
 21
1.0
 12
16.92580316015848
 22
-2.587039168959051
 13
0.0
 23
0.0
 14
10.0
 24
10.0
 15
10.0
 25
10.0
 16
0.0
 26
0.0
 36
1.0
 17
0.0
 27
0.0
 37
0.0
 40
157.9379551524743
 41
1.492489270386266
 42
1.0
 43
0.0
 44
0.0
 50
0.0
 51
0.0000000000007958
 71
     0
 72
   100
 73
     1
 74
     3
 75
     0
 76
     0
 77
     0
 78
     1
281
     0
 65
     0
110
0.0
120
0.0
130
0.0
111
1.0
121
0.0
131
0.0
112
0.0
122
1.0
132
0.0
 79
     0
146
0.0
  0
ENDTAB
  0
TABLE
  2
LTYPE
  5
247
330
0
100
AcDbSymbolTable
 70
    35
  0
LTYPE
  5
256
330
247
100
AcDbSymbolTableRecord
100
AcDbLinetypeTableRecord
  2
ByBlock
 70
     0
  3

 72
    65
 73
     0
 40
0.0
  0
LTYPE
  5
257
330
247
100
AcDbSymbolTableRecord
100
AcDbLinetypeTableRecord
  2
ByLayer
 70
     0
  3

 72
    65
 73
     0
 40
0.0
  0
LTYPE
  5
258
330
247
100
AcDbSymbolTableRecord
100
AcDbLinetypeTableRecord
  2
Continuous
 70
     0
  3
Solid line
 72
    65
 73
     0
 40
0.0
  0
LTYPE
  5
273
330
247
100
AcDbSymbolTableRecord
100
AcDbLinetypeTableRecord
  2
CENTER
 70
     0
  3
Center ____ _ ____ _ ____ _ ____ _ ____ _ ____
 72
    65
 73
     4
 40
2.0
 49
1.25
 74
     0
 49
-0.25
 74
     0
 49
0.25
 74
     0
 49
-0.25
 74
     0
  0
LTYPE
  5
274
330
247
100
AcDbSymbolTableRecord
100
AcDbLinetypeTableRecord
  2
DASHDOT
 70
     0
  3
Dashdot __ . __ . __ . __ . __ . __ . __ . __
 72
    65
 73
     4
 40
1.0
 49
0.5
 74
     0
 49
-0.25
 74
     0
 49
0.0
 74
     0
 49
-0.25
 74
     0
  0
LTYPE
  5
275
330
247
100
AcDbSymbolTableRecord
100
AcDbLinetypeTableRecord
  2
DASHED
 70
     0
  3
Dashed __ __ __ __ __ __ __ __ __ __ __ __ __ _
 72
    65
 73
     2
 40
0.75
 49
0.5
 74
     0
 49
-0.25
 74
     0
  0
LTYPE
  5
276
330
247
100
AcDbSymbolTableRecord
100
AcDbLinetypeTableRecord
  2
HIDDEN
 70
     0
  3
Hidden __ __ __ __ __ __ __ __ __ __ __ __ __ __
 72
    65
 73
     2
 40
0.375
 49
0.25
 74
     0
 49
-0.125
 74
     0
  0
LTYPE
  5
277
330
247
100
AcDbSymbolTableRecord
100
AcDbLinetypeTableRecord
  2
HIDDEN2
 70
     0
  3
Hidden2 _ _ _ _ _ _ _ _ _ _ _ _ _ _ _ _ _
 72
    65
 73
     2
 40
0.1875
 49
0.125
 74
     0
 49
-0.0625
 74
     0
  0
LTYPE
  5
278
330
247
100
AcDbSymbolTableRecord
100
AcDbLinetypeTableRecord
  2
BORDER
 70
     0
  3
Border __ __ . __ __ . __ __ . __ __ . __ __ .
 72
    65
 73
     6
 40
1.75
 49
0.5
 74
     0
 49
-0.25
 74
     0
 49
0.5
 74
     0
 49
-0.25
 74
     0
 49
0.0
 74
     0
 49
-0.25
 74
     0
  0
LTYPE
  5
279
330
247
100
AcDbSymbolTableRecord
100
AcDbLinetypeTableRecord
  2
BORDER2
 70
     0
  3
Border2 __.__.__.__.__.__.__.__.__.__.__.
 72
    65
 73
     6
 40
0.875
 49
0.25
 74
     0
 49
-0.125
 74
     0
 49
0.25
 74
     0
 49
-0.125
 74
     0
 49
0.0
 74
     0
 49
-0.125
 74
     0
  0
LTYPE
  5
27A
330
247
100
AcDbSymbolTableRecord
100
AcDbLinetypeTableRecord
  2
BORDERX2
 70
     0
  3
Borderx2  ____  ____  .  ____  ____  .  ___
 72
    65
 73
     6
 40
3.5
 49
1.0
 74
     0
 49
-0.5
 74
     0
 49
1.0
 74
     0
 49
-0.5
 74
     0
 49
0.0
 74
     0
 49
-0.5
 74
     0
  0
LTYPE
  5
27B
330
247
100
AcDbSymbolTableRecord
100
AcDbLinetypeTableRecord
  2
CENTER2
 70
     0
  3
Center2  ___ _ ___ _ ___ _ ___ _ ___ _ ___
 72
    65
 73
     4
 40
1.125
 49
0.75
 74
     0
 49
-0.125
 74
     0
 49
0.125
 74
     0
 49
-0.125
 74
     0
  0
LTYPE
  5
27C
330
247
100
AcDbSymbolTableRecord
100
AcDbLinetypeTableRecord
  2
CENTERX2
 70
     0
  3
Centerx2  ________  __  ________  __  _____
 72
    65
 73
     4
 40
4.0
 49
2.5
 74
     0
 49
-0.5
 74
     0
 49
0.5
 74
     0
 49
-0.5
 74
     0
  0
LTYPE
  5
27D
330
247
100
AcDbSymbolTableRecord
100
AcDbLinetypeTableRecord
  2
DASHDOT2
 70
     0
  3
Dashdot2  _._._._._._._._._._._._._._._.
 72
    65
 73
     4
 40
0.5
 49
0.25
 74
     0
 49
-0.125
 74
     0
 49
0.0
 74
     0
 49
-0.125
 74
     0
  0
LTYPE
  5
27E
330
247
100
AcDbSymbolTableRecord
100
AcDbLinetypeTableRecord
  2
DASHDOTX2
 70
     0
  3
Dashdotx2 ____  .  ____  .  ____  .  ___
 72
    65
 73
     4
 40
2.0
 49
1.0
 74
     0
 49
-0.5
 74
     0
 49
0.0
 74
     0
 49
-0.5
 74
     0
  0
LTYPE
  5
27F
330
247
100
AcDbSymbolTableRecord
100
AcDbLinetypeTableRecord
  2
DASHED2
 70
     0
  3
Dashed2 _ _ _ _ _ _ _ _ _ _ _ _ _ _ _ _ _
 72
    65
 73
     2
 40
0.375
 49
0.25
 74
     0
 49
-0.125
 74
     0
  0
LTYPE
  5
280
330
247
100
AcDbSymbolTableRecord
100
AcDbLinetypeTableRecord
  2
DASHEDX2
 70
     0
  3
Dashedx2 ____  ____  ____  ____  ____  ___
 72
    65
 73
     2
 40
1.5
 49
1.0
 74
     0
 49
-0.5
 74
     0
  0
LTYPE
  5
281
330
247
100
AcDbSymbolTableRecord
100
AcDbLinetypeTableRecord
  2
DIVIDE
 70
     0
  3
Divide ____ . . ____ . . ____ . . ____ . . ____
 72
    65
 73
     6
 40
1.25
 49
0.5
 74
     0
 49
-0.25
 74
     0
 49
0.0
 74
     0
 49
-0.25
 74
     0
 49
0.0
 74
     0
 49
-0.25
 74
     0
  0
LTYPE
  5
282
330
247
100
AcDbSymbolTableRecord
100
AcDbLinetypeTableRecord
  2
DIVIDE2
 70
     0
  3
Divide2 __..__..__..__..__..__..__..__.._
 72
    65
 73
     6
 40
0.625
 49
0.25
 74
     0
 49
-0.125
 74
     0
 49
0.0
 74
     0
 49
-0.125
 74
     0
 49
0.0
 74
     0
 49
-0.125
 74
     0
  0
LTYPE
  5
283
330
247
100
AcDbSymbolTableRecord
100
AcDbLinetypeTableRecord
  2
DIVIDEX2
 70
     0
  3
Dividex2 ________  .  .  ________  .  .  _
 72
    65
 73
     6
 40
2.5
 49
1.0
 74
     0
 49
-0.5
 74
     0
 49
0.0
 74
     0
 49
-0.5
 74
     0
 49
0.0
 74
     0
 49
-0.5
 74
     0
  0
LTYPE
  5
284
330
247
100
AcDbSymbolTableRecord
100
AcDbLinetypeTableRecord
  2
DOT
 70
     0
  3
Dot . . . . . . . . . . . . . . . . . . . . . . . .
 72
    65
 73
     2
 40
0.25
 49
0.0
 74
     0
 49
-0.25
 74
     0
  0
LTYPE
  5
285
330
247
100
AcDbSymbolTableRecord
100
AcDbLinetypeTableRecord
  2
DOT2
 70
     0
  3
Dot2 ........................................
 72
    65
 73
     2
 40
0.125
 49
0.0
 74
     0
 49
-0.125
 74
     0
  0
LTYPE
  5
286
330
247
100
AcDbSymbolTableRecord
100
AcDbLinetypeTableRecord
  2
DOTX2
 70
     0
  3
Dotx2 .  .  .  .  .  .  .  .  .  .  .  .  .  .
 72
    65
 73
     2
 40
0.5
 49
0.0
 74
     0
 49
-0.5
 74
     0
  0
LTYPE
  5
287
330
247
100
AcDbSymbolTableRecord
100
AcDbLinetypeTableRecord
  2
HIDDENX2
 70
     0
  3
Hiddenx2 ____ ____ ____ ____ ____ ____ ____
 72
    65
 73
     2
 40
0.75
 49
0.5
 74
     0
 49
-0.25
 74
     0
  0
LTYPE
  5
288
330
247
100
AcDbSymbolTableRecord
100
AcDbLinetypeTableRecord
  2
PHANTOM
 70
     0
  3
Phantom ______  __  __  ______  __  __  ______
 72
    65
 73
     6
 40
2.5
 49
1.25
 74
     0
 49
-0.25
 74
     0
 49
0.25
 74
     0
 49
-0.25
 74
     0
 49
0.25
 74
     0
 49
-0.25
 74
     0
  0
LTYPE
  5
289
330
247
100
AcDbSymbolTableRecord
100
AcDbLinetypeTableRecord
  2
PHANTOM2
 70
     0
  3
Phantom2 ___ _ _ ___ _ _ ___ _ _ ___ _ _
 72
    65
 73
     6
 40
1.25
 49
0.625
 74
     0
 49
-0.125
 74
     0
 49
0.125
 74
     0
 49
-0.125
 74
     0
 49
0.125
 74
     0
 49
-0.125
 74
     0
  0
LTYPE
  5
28A
330
247
100
AcDbSymbolTableRecord
100
AcDbLinetypeTableRecord
  2
PHANTOMX2
 70
     0
  3
Phantomx2 ____________    ____    ____   _
 72
    65
 73
     6
 40
5.0
 49
2.5
 74
     0
 49
-0.5
 74
     0
 49
0.5
 74
     0
 49
-0.5
 74
     0
 49
0.5
 74
     0
 49
-0.5
 74
     0
  0
LTYPE
  5
F1099C
330
247
100
AcDbSymbolTableRecord
100
AcDbLinetypeTableRecord
  2
AM_ISO02W050
 70
     0
  3
__ __ __ __ __ __ __ __ __ __ __ __ __ __ __
 72
    65
 73
     2
 40
7.5
 49
6.0
 74
     0
 49
-1.5
 74
     0
  0
LTYPE
  5
F1099D
330
247
100
AcDbSymbolTableRecord
100
AcDbLinetypeTableRecord
  2
AM_ISO08W050
 70
     0
  3
____ . ____ . ____ . ____ . ____ . ____ . ____
 72
    65
 73
     4
 40
18.0
 49
12.0
 74
     0
 49
-1.5
 74
     0
 49
3.0
 74
     0
 49
-1.5
 74
     0
  0
LTYPE
  5
F1099E
330
247
100
AcDbSymbolTableRecord
100
AcDbLinetypeTableRecord
  2
AM_ISO09W050
 70
     0
  3
_____ . . _____ . . _____ . . ____ .. ____
 72
    65
 73
     6
 40
22.5
 49
12.0
 74
     0
 49
-1.5
 74
     0
 49
3.0
 74
     0
 49
-1.5
 74
     0
 49
3.0
 74
     0
 49
-1.5
 74
     0
  0
LTYPE
  5
F1099F
330
247
100
AcDbSymbolTableRecord
100
AcDbLinetypeTableRecord
  2
Amconstr
 70
     0
  3
_______________________
 72
    65
 73
     2
 40
9999.0
 49
9999.0
 74
     0
 49
0.0
 74
     0
  0
LTYPE
  5
F109A0
330
247
100
AcDbSymbolTableRecord
100
AcDbLinetypeTableRecord
  2
AM_ISO08W050x2
 70
     0
  3
__ . __ . __ . __ . __ . __
 72
    65
 73
     4
 40
9.0
 49
6.0
 74
     0
 49
-0.75
 74
     0
 49
1.5
 74
     0
 49
-0.75
 74
     0
  0
LTYPE
  5
F109A1
330
247
100
AcDbSymbolTableRecord
100
AcDbLinetypeTableRecord
  2
AM_ISO02W050x2
 70
     0
  3
 _ _ _ _ _ _ _ _ _ _ _ _
 72
    65
 73
     2
 40
3.75
 49
3.0
 74
     0
 49
-0.75
 74
     0
  0
LTYPE
  5
F109A4
330
247
100
AcDbSymbolTableRecord
100
AcDbLinetypeTableRecord
  2
Amzigzag
 70
     0
  3
/\/-/\/-/\/-/\/-/\/-/\/
 72
    65
 73
     2
 40
11.0001
 49
0.0001
 74
     4
 75
   136
340
F109A3
 46
0.04
 50
0.0
 44
0.0
 45
0.0
 49
-11.0
 74
     0
  0
LTYPE
  5
F109A5
330
247
100
AcDbSymbolTableRecord
100
AcDbLinetypeTableRecord
  2
Amzigzag2
 70
     0
  3
/\/-/\/-/\/-/\/-/\/-/\/
 72
    65
 73
     2
 40
0.4401
 49
0.0001
 74
     4
 75
   136
340
F109A3
 46
0.0016
 50
0.0
 44
0.0
 45
0.0
 49
-0.4400000000000002
 74
     0
  0
LTYPE
  5
F109B3
330
247
100
AcDbSymbolTableRecord
100
AcDbLinetypeTableRecord
  2
ACANSTGB
 70
     0
  3
__ . . __ . .
 72
    65
 73
     6
 40
0.35433070866
 49
0.15748031496
 74
     0
 49
-0.03937007874
 74
     0
 49
0.03937007874
 74
     0
 49
-0.03937007874
 74
     0
 49
0.03937007874
 74
     0
 49
-0.03937007874
 74
     0
  0
LTYPE
  5
F109B4
330
247
100
AcDbSymbolTableRecord
100
AcDbLinetypeTableRecord
  2
ACANSTGL
 70
     0
  3
_ _ _ _ _
 72
    65
 73
     2
 40
0.11811023622
 49
0.07874015748
 74
     0
 49
-0.03937007874
 74
     0
  0
ENDTAB
  0
TABLE
  2
LAYER
  5
244
330
0
100
AcDbSymbolTable
 70
     6
  0
LAYER
  5
252
102
{ACAD_XDICTIONARY
360
F10B20
102
}
330
244
100
AcDbSymbolTableRecord
100
AcDbLayerTableRecord
  2
0
 70
     0
 62
     7
  6
Continuous
370
     0
390
19
  0
LAYER
  5
23F
102
{ACAD_XDICTIONARY
360
F10B22
102
}
330
244
100
AcDbSymbolTableRecord
100
AcDbLayerTableRecord
  2
Bemassung
 70
     0
 62
     7
  6
Continuous
370
     0
390
19
  0
LAYER
  5
240
102
{ACAD_XDICTIONARY
360
F10B24
102
}
330
244
100
AcDbSymbolTableRecord
100
AcDbLayerTableRecord
  2
Rahmen
 70
     0
 62
     7
  6
Continuous
370
     0
390
19
  0
LAYER
  5
241
102
{ACAD_XDICTIONARY
360
F10B26
102
}
330
244
100
AcDbSymbolTableRecord
100
AcDbLayerTableRecord
  2
Geo
 70
     0
 62
     7
  6
Continuous
370
     0
390
19
  0
LAYER
  5
33A
330
244
100
AcDbSymbolTableRecord
100
AcDbLayerTableRecord
  2
Defpoints
 70
     0
 62
     7
  6
Continuous
290
     0
370
    -3
390
19
  0
LAYER
  5
57E
102
{ACAD_XDICTIONARY
360
F10B28
102
}
330
244
100
AcDbSymbolTableRecord
100
AcDbLayerTableRecord
  2
Text
 70
     0
 62
     7
  6
Continuous
370
     0
390
19
1001
AcAecLayerStandard
1000

1000

  0
ENDTAB
  0
TABLE
  2
STYLE
  5
245
330
0
100
AcDbSymbolTable
 70
     5
  0
STYLE
  5
253
330
245
100
AcDbSymbolTableRecord
100
AcDbTextStyleTableRecord
  2
Standard
 70
     0
 40
0.0
 41
1.0
 50
0.0
 71
     0
 42
0.2
  3
Arial
  4

1001
ACAD
1000
Arial
1071
        0
  0
STYLE
  5
132
330
245
100
AcDbSymbolTableRecord
100
AcDbTextStyleTableRecord
  2
Beschriftung
 70
     0
 40
0.0
 41
1.0
 50
0.0
 71
     0
 42
0.2
  3
Arial
  4

1001
ACAD
1000
Arial
1071
        0
1001
AcadAnnotative
1000
AnnotativeData
1070
     1
1070
     1
  0
STYLE
  5
F109A3
330
245
100
AcDbSymbolTableRecord
100
AcDbTextStyleTableRecord
  2

 70
     1
 40
0.0
 41
1.0
 50
0.0
 71
     0
 42
0.2
  3
genltshp.shx
  4

  0
STYLE
  5
F109B1
330
245
100
AcDbSymbolTableRecord
100
AcDbTextStyleTableRecord
  2
ACANSTS
 70
     0
 40
1.0
 41
1.0
 50
0.0
 71
     0
 42
0.2
  3
romans.shx
  4

  0
STYLE
  5
F109B2
330
245
100
AcDbSymbolTableRecord
100
AcDbTextStyleTableRecord
  2
ACANSGDT
 70
     0
 40
0.0
 41
1.0
 50
0.0
 71
     0
 42
0.2
  3
amgdt.shx
  4

  0
ENDTAB
  0
TABLE
  2
VIEW
  5
248
330
0
100
AcDbSymbolTable
 70
     0
  0
ENDTAB
  0
TABLE
  2
UCS
  5
249
330
0
100
AcDbSymbolTable
 70
     0
  0
ENDTAB
  0
TABLE
  2
APPID
  5
24B
330
0
100
AcDbSymbolTable
 70
    29
  0
APPID
  5
254
330
24B
100
AcDbSymbolTableRecord
100
AcDbRegAppTableRecord
  2
ACAD
 70
     0
  0
APPID
  5
26C
330
24B
100
AcDbSymbolTableRecord
100
AcDbRegAppTableRecord
  2
VD_INVISIBLE_NOT_FOR_READ
 70
     0
  0
APPID
  5
26D
330
24B
100
AcDbSymbolTableRecord
100
AcDbRegAppTableRecord
  2
VD_TEMPHATCH
 70
     0
  0
APPID
  5
26E
330
24B
100
AcDbSymbolTableRecord
100
AcDbRegAppTableRecord
  2
VDEXTRAPARAM
 70
     0
  0
APPID
  5
26F
330
24B
100
AcDbSymbolTableRecord
100
AcDbRegAppTableRecord
  2
PE_URL
 70
     0
  0
APPID
  5
270
330
24B
100
AcDbSymbolTableRecord
100
AcDbRegAppTableRecord
  2
VD_UNKNOWN
 70
     0
  0
APPID
  5
28F
330
24B
100
AcDbSymbolTableRecord
100
AcDbRegAppTableRecord
  2
AcadAnnotative
 70
     0
  0
APPID
  5
290
330
24B
100
AcDbSymbolTableRecord
100
AcDbRegAppTableRecord
  2
ACAD_DSTYLE_DIMJAG
 70
     0
  0
APPID
  5
291
330
24B
100
AcDbSymbolTableRecord
100
AcDbRegAppTableRecord
  2
ACAD_DSTYLE_DIMTALN
 70
     0
  0
APPID
  5
293
330
24B
100
AcDbSymbolTableRecord
100
AcDbRegAppTableRecord
  2
ACAD_PSEXT
 70
     0
  0
APPID
  5
42A
330
24B
100
AcDbSymbolTableRecord
100
AcDbRegAppTableRecord
  2
ACAD_MLEADERVER
 70
     0
  0
APPID
  5
532
330
24B
100
AcDbSymbolTableRecord
100
AcDbRegAppTableRecord
  2
ACAD_EXEMPT_FROM_CAD_STANDARDS
 70
     0
  0
APPID
  5
57F
330
24B
100
AcDbSymbolTableRecord
100
AcDbRegAppTableRecord
  2
AcAecLayerStandard
 70
     0
  0
APPID
  5
F10936
330
24B
100
AcDbSymbolTableRecord
100
AcDbRegAppTableRecord
  2
MCAD_NO_VIS
 70
     0
  0
APPID
  5
F10937
330
24B
100
AcDbSymbolTableRecord
100
AcDbRegAppTableRecord
  2
ACAD_TEMP_GRAPHIC
 70
     0
  0
APPID
  5
F10960
330
24B
100
AcDbSymbolTableRecord
100
AcDbRegAppTableRecord
  2
AD_DRAW
 70
     0
  0
APPID
  5
F10963
330
24B
100
AcDbSymbolTableRecord
100
AcDbRegAppTableRecord
  2
ACATTRIBSERVICES
 70
     0
  0
APPID
  5
F1097C
330
24B
100
AcDbSymbolTableRecord
100
AcDbRegAppTableRecord
  2
DESIGNERASSEMBLIES
 70
     0
  0
APPID
  5
F10981
330
24B
100
AcDbSymbolTableRecord
100
AcDbRegAppTableRecord
  2
ACADM_DIM_EDIT
 70
     0
  0
APPID
  5
F10982
330
24B
100
AcDbSymbolTableRecord
100
AcDbRegAppTableRecord
  2
AMDT_DM_ADJ
 70
     0
  0
APPID
  5
F1099A
330
24B
100
AcDbSymbolTableRecord
100
AcDbRegAppTableRecord
  2
ACAD_DSTYLE_DIMBREAK
 70
     0
  0
APPID
  5
F109BB
330
24B
100
AcDbSymbolTableRecord
100
AcDbRegAppTableRecord
  2
GENIUS_GENSCREG_15
 70
     0
  0
APPID
  5
F109BC
330
24B
100
AcDbSymbolTableRecord
100
AcDbRegAppTableRecord
  2
GENIUS_GENOBJ-N-SDF_13
 70
     0
  0
APPID
  5
F109BD
330
24B
100
AcDbSymbolTableRecord
100
AcDbRegAppTableRecord
  2
GENIUS_GENODEF_13
 70
     0
  0
APPID
  5
F10AE5
330
24B
100
AcDbSymbolTableRecord
100
AcDbRegAppTableRecord
  2
GENIUS_GENDTOL_13
 70
     0
  0
APPID
  5
F10B76
330
24B
100
AcDbSymbolTableRecord
100
AcDbRegAppTableRecord
  2
ACAD_DSTYLE_DIMARC_LENGTH_SYMBOL
 70
     0
  0
APPID
  5
F10B77
330
24B
100
AcDbSymbolTableRecord
100
AcDbRegAppTableRecord
  2
ACAD_DSTYLE_DIM_LINETYPE
 70
     0
  0
APPID
  5
F10B78
330
24B
100
AcDbSymbolTableRecord
100
AcDbRegAppTableRecord
  2
ACAD_DSTYLE_DIM_EXT1_LINETYPE
 70
     0
  0
APPID
  5
F10B79
330
24B
100
AcDbSymbolTableRecord
100
AcDbRegAppTableRecord
  2
ACAD_DSTYLE_DIM_EXT2_LINETYPE
 70
     0
  0
ENDTAB
  0
TABLE
  2
DIMSTYLE
  5
24C
330
0
100
AcDbSymbolTable
 70
     9
100
AcDbDimStyleTable
 71
     2
340
27
340
269
  0
DIMSTYLE
105
269
330
24C
100
AcDbSymbolTableRecord
100
AcDbDimStyleTableRecord
  2
Standard
 70
     0
172
     1
174
     1
288
     1
340
253
342
23C
  0
DIMSTYLE
105
137
330
24C
100
AcDbSymbolTableRecord
100
AcDbDimStyleTableRecord
  2
Beschriftung
 70
     0
 41
2.5
 42
0.625
 44
1.25
 73
     0
 74
     0
 77
     1
140
2.5
147
0.625
172
     1
174
     1
271
     2
288
     1
340
253
342
23C
1001
AcadAnnotative
1000
AnnotativeData
1070
     1
1070
     1
1001
ACAD_DSTYLE_DIMJAG
1070
   388
1040
1.5
1001
ACAD_DSTYLE_DIMTALN
1070
   392
1070
     0
  0
DIMSTYLE
105
27
102
{ACAD_REACTORS
330
F1000D
330
F1001C
330
F1002B
330
F10030
330
F10008
330
F10012
330
F10021
330
F10AD8
102
}
330
24C
100
AcDbSymbolTableRecord
100
AcDbDimStyleTableRecord
  2
BEM-ISBE
 70
     0
 41
2.5
 42
0.625
 44
1.25
 48
0.000000001
 71
     1
 73
     0
 74
     0
 77
     1
140
2.5
146
0.5
147
0.625
171
     3
172
     1
179
     3
271
     3
272
     3
274
     3
340
253
342
23C
1001
ACAD_DSTYLE_DIMJAG
1070
   388
1040
1.5
1001
ACAD_DSTYLE_DIMTALN
1070
   392
1070
     1
  0
DIMSTYLE
105
F10999
102
{ACAD_REACTORS
330
F10BD3
102
}
330
24C
100
AcDbSymbolTableRecord
100
AcDbDimStyleTableRecord
  2
AM_ANSI
 70
     0
  4
mm
 41
0.12
 42
0.05
 43
0.5
 44
0.1
 47
0.1
 48
0.1
 78
     7
 79
     2
140
0.12
141
0.0
146
0.71
147
0.06
176
   256
177
   256
178
     2
274
     4
284
     7
340
253
371
    -1
372
    -1
1001
ACAD_DSTYLE_DIMJAG
1070
   388
1040
1.5
1001
ACAD_DSTYLE_DIMBREAK
1070
   391
1040
0.125
1001
ACAD_DSTYLE_DIMARC_LENGTH_SYMBOL
1070
   379
1070
     1
1001
ACAD_DSTYLE_DIM_LINETYPE
1070
   380
1005
256
1001
ACAD_DSTYLE_DIM_EXT1_LINETYPE
1070
   381
1005
256
1001
ACAD_DSTYLE_DIM_EXT2_LINETYPE
1070
   382
1005
256
  0
DIMSTYLE
105
F109A6
330
24C
100
AcDbSymbolTableRecord
100
AcDbDimStyleTableRecord
  2
AM_ANSI$3
 70
     0
  4
mm
 41
0.12
 42
0.05
 43
0.5
 44
0.1
 47
0.1
 48
0.1
 78
     7
 79
     2
140
0.12
141
0.0
146
0.71
147
0.06
176
   256
177
   256
178
     2
274
     4
284
     7
288
     1
289
     0
340
253
371
    -1
372
    -1
1001
ACAD_DSTYLE_DIMBREAK
1070
   391
1040
0.125
1001
ACAD_DSTYLE_DIMJAG
1070
   388
1040
1.5
1001
ACAD_DSTYLE_DIMARC_LENGTH_SYMBOL
1070
   379
1070
     1
1001
ACAD_DSTYLE_DIM_LINETYPE
1070
   380
1005
256
1001
ACAD_DSTYLE_DIM_EXT1_LINETYPE
1070
   381
1005
256
1001
ACAD_DSTYLE_DIM_EXT2_LINETYPE
1070
   382
1005
256
  0
DIMSTYLE
105
F109A7
330
24C
100
AcDbSymbolTableRecord
100
AcDbDimStyleTableRecord
  2
AM_ANSI$4
 70
     0
  4
mm
 41
0.12
 42
0.05
 43
0.5
 44
0.1
 47
0.1
 48
0.1
 78
     7
 79
     2
140
0.12
141
0.0
146
0.71
147
0.06
176
   256
177
   256
178
     2
274
     4
284
     7
288
     1
289
     0
340
253
371
    -1
372
    -1
1001
ACAD_DSTYLE_DIMBREAK
1070
   391
1040
0.125
1001
ACAD_DSTYLE_DIMJAG
1070
   388
1040
1.5
1001
ACAD_DSTYLE_DIMARC_LENGTH_SYMBOL
1070
   379
1070
     1
1001
ACAD_DSTYLE_DIM_LINETYPE
1070
   380
1005
256
1001
ACAD_DSTYLE_DIM_EXT1_LINETYPE
1070
   381
1005
256
1001
ACAD_DSTYLE_DIM_EXT2_LINETYPE
1070
   382
1005
256
  0
DIMSTYLE
105
F109A8
330
24C
100
AcDbSymbolTableRecord
100
AcDbDimStyleTableRecord
  2
AM_ANSI$7
 70
     0
  4
mm
 41
0.12
 42
0.05
 43
0.5
 44
0.1
 47
0.1
 48
0.1
 78
     7
 79
     2
140
0.12
141
0.0
146
0.71
147
0.06
176
   256
177
   256
178
     2
274
     4
284
     7
340
253
371
    -1
372
    -1
1001
ACAD_DSTYLE_DIMBREAK
1070
   391
1040
0.125
1001
ACAD_DSTYLE_DIMJAG
1070
   388
1040
1.5
1001
ACAD_DSTYLE_DIMARC_LENGTH_SYMBOL
1070
   379
1070
     1
1001
ACAD_DSTYLE_DIM_LINETYPE
1070
   380
1005
256
1001
ACAD_DSTYLE_DIM_EXT1_LINETYPE
1070
   381
1005
256
1001
ACAD_DSTYLE_DIM_EXT2_LINETYPE
1070
   382
1005
256
  0
DIMSTYLE
105
F109A9
330
24C
100
AcDbSymbolTableRecord
100
AcDbDimStyleTableRecord
  2
AM_ANSI$SF
 70
     0
  4
mm
 41
0.12
 42
0.05
 43
0.5
 44
0.1
 47
0.1
 48
0.1
 75
     1
 76
     1
 78
     7
 79
     2
140
0.12
141
0.0
146
0.71
147
0.06
176
   256
177
   256
178
     2
274
     4
284
     7
340
253
371
    -1
372
    -1
1001
ACAD_DSTYLE_DIMBREAK
1070
   391
1040
0.125
1001
ACAD_DSTYLE_DIMJAG
1070
   388
1040
1.5
1001
ACAD_DSTYLE_DIMARC_LENGTH_SYMBOL
1070
   379
1070
     1
1001
ACAD_DSTYLE_DIM_LINETYPE
1070
   380
1005
256
1001
ACAD_DSTYLE_DIM_EXT1_LINETYPE
1070
   381
1005
256
1001
ACAD_DSTYLE_DIM_EXT2_LINETYPE
1070
   382
1005
256
  0
DIMSTYLE
105
F109AE
330
24C
100
AcDbSymbolTableRecord
100
AcDbDimStyleTableRecord
  2
AM_ANSI$SH
 70
     0
  4
mm
 41
0.12
 42
0.05
 43
0.5
 44
0.1
 47
0.1
 48
0.1
 75
     1
 76
     1
 78
     7
 79
     2
140
0.12
141
0.0
146
0.71
147
0.06
173
     1
176
   256
177
   256
178
     2
274
     4
284
     7
340
253
343
F109AA
371
    -1
372
    -1
1001
ACAD_DSTYLE_DIMBREAK
1070
   391
1040
0.125
1001
ACAD_DSTYLE_DIMJAG
1070
   388
1040
1.5
1001
ACAD_DSTYLE_DIMARC_LENGTH_SYMBOL
1070
   379
1070
     1
1001
ACAD_DSTYLE_DIM_LINETYPE
1070
   380
1005
256
1001
ACAD_DSTYLE_DIM_EXT1_LINETYPE
1070
   381
1005
256
1001
ACAD_DSTYLE_DIM_EXT2_LINETYPE
1070
   382
1005
256
  0
ENDTAB
  0
TABLE
  2
BLOCK_RECORD
  5
243
330
0
100
AcDbSymbolTable
 70
    16
  0
BLOCK_RECORD
  5
261
330
243
100
AcDbSymbolTableRecord
100
AcDbBlockTableRecord
  2
*Model_Space
340
FD0
  0
BLOCK_RECORD
  5
25D
330
243
100
AcDbSymbolTableRecord
100
AcDbBlockTableRecord
  2
*Paper_Space
340
FD1
  0
BLOCK_RECORD
  5
265
330
243
100
AcDbSymbolTableRecord
100
AcDbBlockTableRecord
  2
*Paper_Space0
340
0
  0
BLOCK_RECORD
  5
23C
330
243
100
AcDbSymbolTableRecord
100
AcDbBlockTableRecord
  2
VDDIM_DEFAULT
340
0
102
{BLKREFS
331
F109C3
331
F109C4
331
F109ED
331
F109EE
331
F10A0C
331
F10A0D
331
F10AA0
331
F10AA1
331
F10ABF
331
F10AC0
331
F10AC8
331
F10AC9
331
F10AD1
331
F10AD2
331
F10AF2
331
F10AF3
331
F10B04
331
F10B05
331
F10B0F
331
F10B10
331
F10B1A
331
F10B1B
102
}
  0
BLOCK_RECORD
  5
23E
330
243
100
AcDbSymbolTableRecord
100
AcDbBlockTableRecord
  2
VDDIM_NONE
340
0
  0
BLOCK_RECORD
  5
F10002
330
243
100
AcDbSymbolTableRecord
100
AcDbBlockTableRecord
  2
*D3
340
0
  0
BLOCK_RECORD
  5
F1000C
330
243
100
AcDbSymbolTableRecord
100
AcDbBlockTableRecord
  2
*D4
340
0
  0
BLOCK_RECORD
  5
F1001B
330
243
100
AcDbSymbolTableRecord
100
AcDbBlockTableRecord
  2
*D5
340
0
  0
BLOCK_RECORD
  5
F10025
330
243
100
AcDbSymbolTableRecord
100
AcDbBlockTableRecord
  2
*D6
340
0
  0
BLOCK_RECORD
  5
F1002A
330
243
100
AcDbSymbolTableRecord
100
AcDbBlockTableRecord
  2
*D7
340
0
  0
BLOCK_RECORD
  5
F1002F
330
243
100
AcDbSymbolTableRecord
100
AcDbBlockTableRecord
  2
*D8
340
0
  0
BLOCK_RECORD
  5
F10016
330
243
100
AcDbSymbolTableRecord
100
AcDbBlockTableRecord
  2
*D9
340
0
  0
BLOCK_RECORD
  5
F10007
330
243
100
AcDbSymbolTableRecord
100
AcDbBlockTableRecord
  2
*D10
340
0
  0
BLOCK_RECORD
  5
F10011
330
243
100
AcDbSymbolTableRecord
100
AcDbBlockTableRecord
  2
*D11
340
0
  0
BLOCK_RECORD
  5
F10020
330
243
100
AcDbSymbolTableRecord
100
AcDbBlockTableRecord
  2
*D12
340
0
  0
BLOCK_RECORD
  5
F109AA
330
243
100
AcDbSymbolTableRecord
100
AcDbBlockTableRecord
  2
GENAXEH
340
0
  0
BLOCK_RECORD
  5
F10AD9
330
243
100
AcDbSymbolTableRecord
100
AcDbBlockTableRecord
  2
*D14
340
0
  0
ENDTAB
  0
ENDSEC
  0
SECTION
  2
BLOCKS
  0
BLOCK
  5
262
330
261
100
AcDbEntity
  8
0
100
AcDbBlockBegin
  2
*Model_Space
 70
     0
 10
0.0
 20
0.0
 30
0.0
  3
*Model_Space
  1

  0
ENDBLK
  5
263
330
261
100
AcDbEntity
  8
0
100
AcDbBlockEnd
  0
BLOCK
  5
25E
330
25D
100
AcDbEntity
 67
     1
  8
0
100
AcDbBlockBegin
  2
*Paper_Space
 70
     0
 10
0.0
 20
0.0
 30
0.0
  3
*Paper_Space
  1

  0
ENDBLK
  5
25F
330
25D
100
AcDbEntity
 67
     1
  8
0
100
AcDbBlockEnd
  0
BLOCK
  5
266
330
265
100
AcDbEntity
  8
0
100
AcDbBlockBegin
  2
*Paper_Space0
 70
     0
 10
0.0
 20
0.0
 30
0.0
  3
*Paper_Space0
  1

  0
VIEWPORT
  5
296
102
{ACAD_XDICTIONARY
360
F10BF9
102
}
330
265
100
AcDbEntity
  8
0
 60
     1
100
AcDbViewport
 10
0.0
 20
0.0
 30
0.0
 40
10.0
 41
10.0
 69
     0
 12
0.0
 22
0.0
 13
0.0
 23
0.0
 14
1.0
 24
1.0
 15
0.0
 25
0.0
 16
0.0
 26
0.0
 36
1.0
 17
0.0
 27
0.0
 37
0.0
 42
0.0
 43
0.0
 44
0.0
 45
10.0
 50
0.0
 51
0.0000000000007958
 72
   100
 90
   163872
  1

281
     0
 71
     0
 74
     0
110
0.0
120
0.0
130
0.0
111
1.0
121
0.0
131
0.0
112
0.0
122
1.0
132
0.0
 79
     0
146
0.0
1001
VD_INVISIBLE_NOT_FOR_READ
1000
VD_INVISIBLE_NOT_FOR_READ
  0
VIEWPORT
  5
297
102
{ACAD_XDICTIONARY
360
F10BFB
102
}
330
265
100
AcDbEntity
  8
0
 60
     1
100
AcDbViewport
 10
0.0
 20
0.0
 30
0.0
 40
10.0
 41
10.0
 69
     0
 12
0.0
 22
0.0
 13
0.0
 23
0.0
 14
1.0
 24
1.0
 15
0.0
 25
0.0
 16
0.0
 26
0.0
 36
1.0
 17
0.0
 27
0.0
 37
0.0
 42
0.0
 43
0.0
 44
0.0
 45
10.0
 50
0.0
 51
0.0000000000007958
 72
   100
 90
   163872
  1

281
     0
 71
     0
 74
     0
110
0.0
120
0.0
130
0.0
111
1.0
121
0.0
131
0.0
112
0.0
122
1.0
132
0.0
 79
     0
146
0.0
1001
VD_INVISIBLE_NOT_FOR_READ
1000
VD_INVISIBLE_NOT_FOR_READ
  0
ENDBLK
  5
267
330
265
100
AcDbEntity
  8
0
100
AcDbBlockEnd
  0
BLOCK
  5
28B
330
23C
100
AcDbEntity
  8
0
100
AcDbBlockBegin
  2
VDDIM_DEFAULT
 70
     0
 10
0.0
 20
0.0
 30
0.0
  3
VDDIM_DEFAULT
  1

  0
LWPOLYLINE
  5
23D
330
23C
100
AcDbEntity
  8
0
  6
Continuous
 62
     0
100
AcDbPolyline
 90
        4
 70
     0
 43
0.0
 10
0.0
 20
0.0
 10
-1.0
 20
-0.1665
 10
-1.0
 20
0.1665
 10
0.0
 20
0.0
1001
VDEXTRAPARAM
1071
        1
1071
        0
1071
        0
1040
1.0
1000

1000

1040
0.0
1040
0.0
  0
HATCH
  5
292
330
23C
100
AcDbEntity
  8
0
  6
Continuous
 62
     0
100
AcDbHatch
 10
0.0
 20
0.0
 30
0.0
210
0.0
220
0.0
230
1.0
  2
SOLID
 70
     1
 71
     0
 91
        1
 92
        2
 72
     0
 73
     1
 93
        3
 10
0.0
 20
0.0
 10
-1.0
 20
-0.1665
 10
-1.0
 20
0.1665
 97
        0
 75
     0
 76
     1
 98
        1
 10
0.0
 20
0.0
1001
VDEXTRAPARAM
1071
        1
1071
        0
1071
        0
1040
1.0
1000

1000

1040
0.0
1040
0.0
1001
VD_TEMPHATCH
1000
VD_TEMPHATCH
  0
ENDBLK
  5
28C
330
23C
100
AcDbEntity
  8
0
100
AcDbBlockEnd
  0
BLOCK
  5
28D
330
23E
100
AcDbEntity
  8
0
100
AcDbBlockBegin
  2
VDDIM_NONE
 70
     0
 10
0.0
 20
0.0
 30
0.0
  3
VDDIM_NONE
  1

  0
ENDBLK
  5
28E
330
23E
100
AcDbEntity
  8
0
100
AcDbBlockEnd
  0
BLOCK
  5
F10034
330
F10002
100
AcDbEntity
  8
0
100
AcDbBlockBegin
  2
*D3
 70
     1
 10
0.0
 20
0.0
 30
0.0
  3
*D3
  1

  0
LINE
  5
F109BE
330
F10002
100
AcDbEntity
  8
Bemassung
 62
     0
370
    -2
100
AcDbLine
 10
-49.65151515151521
 20
-3.587121212121199
 30
0.0
 11
-49.65151515151521
 21
34.9145307702576
 31
0.0
  0
LINE
  5
F109BF
330
F10002
100
AcDbEntity
  8
Bemassung
 62
     0
370
    -2
100
AcDbLine
 10
-49.5515151515152
 20
23.9128787878788
 30
0.0
 11
-49.5515151515152
 21
34.9145307702576
 31
0.0
  0
LINE
  5
F109C0
330
F10002
100
AcDbEntity
  8
Bemassung
 62
     0
370
    -2
100
AcDbLine
 10
-52.15151515151521
 20
33.6645307702576
 30
0.0
 11
-54.65151515151521
 21
33.6645307702576
 31
0.0
  0
LINE
  5
F109C1
330
F10002
100
AcDbEntity
  8
Bemassung
 62
     0
370
    -2
100
AcDbLine
 10
-47.0515151515152
 20
33.6645307702576
 30
0.0
 11
-39.23262019926418
 21
33.6645307702576
 31
0.0
  0
LINE
  5
F109C2
330
F10002
100
AcDbEntity
  8
Bemassung
 62
     0
370
    -2
100
AcDbLine
 10
-49.65151515151521
 20
33.6645307702576
 30
0.0
 11
-49.5515151515152
 21
33.6645307702576
 31
0.0
  0
INSERT
  5
F109C3
330
F10002
100
AcDbEntity
  8
Bemassung
 62
     0
370
    -2
100
AcDbBlockReference
  2
VDDIM_DEFAULT
 10
-49.65151515151521
 20
33.6645307702576
 30
0.0
 41
2.5
 42
2.5
 43
2.5
  0
INSERT
  5
F109C4
330
F10002
100
AcDbEntity
  8
Bemassung
 62
     0
370
    -2
100
AcDbBlockReference
  2
VDDIM_DEFAULT
 10
-49.5515151515152
 20
33.6645307702576
 30
0.0
 41
2.5
 42
2.5
 43
2.5
 50
180.0
  0
MTEXT
  5
F109C5
330
F10002
100
AcDbEntity
  8
Bemassung
 62
     0
100
AcDbMText
 10
-41.89206767538968
 20
34.2895307702576
 30
0.0
 40
2.5
 41
0.0
 71
     8
 72
     1
  1
\A1;0.1
 73
     1
 44
1.0
1001
ACAD
1000
MTEXTBEGIN
1070
    73
1070
     1
1070
    44
1040
1.0
1070
    74
1070
     0
1000
MTEXTEND
  0
POINT
  5
F109C6
330
F10002
100
AcDbEntity
  8
Defpoints
 62
     0
100
AcDbPoint
 10
-49.65151515151521
 20
-4.2121212121212
 30
0.0
  0
POINT
  5
F109C7
330
F10002
100
AcDbEntity
  8
Defpoints
 62
     0
100
AcDbPoint
 10
-49.5515151515152
 20
23.2878787878788
 30
0.0
  0
POINT
  5
F109C8
330
F10002
100
AcDbEntity
  8
Defpoints
 62
     0
100
AcDbPoint
 10
-49.5515151515152
 20
33.6645307702576
 30
0.0
  0
ENDBLK
  5
F1003D
330
F10002
100
AcDbEntity
  8
0
100
AcDbBlockEnd
  0
BLOCK
  5
F1003E
330
F1000C
100
AcDbEntity
  8
0
100
AcDbBlockBegin
  2
*D4
 70
     1
 10
0.0
 20
0.0
 30
0.0
  3
*D4
  1

  0
LINE
  5
F10A9D
330
F1000C
100
AcDbEntity
  8
Bemassung
 62
     0
370
    -2
100
AcDbLine
 10
-27.46952669721848
 20
4.262564992193882
 30
0.0
 11
-27.46952669721848
 21
17.88756499219388
 31
0.0
  0
LINE
  5
F10A9E
330
F1000C
100
AcDbEntity
  8
Bemassung
 62
     0
370
    -2
100
AcDbLine
 10
-14.46952669721848
 20
6.76256499219388
 30
0.0
 11
-14.46952669721848
 21
17.88756499219388
 31
0.0
  0
LINE
  5
F10A9F
330
F1000C
100
AcDbEntity
  8
Bemassung
 62
     0
370
    -2
100
AcDbLine
 10
-24.96952669721848
 20
16.63756499219388
 30
0.0
 11
-16.96952669721848
 21
16.63756499219388
 31
0.0
  0
INSERT
  5
F10AA0
330
F1000C
100
AcDbEntity
  8
Bemassung
 62
     0
370
    -2
100
AcDbBlockReference
  2
VDDIM_DEFAULT
 10
-27.46952669721848
 20
16.63756499219388
 30
0.0
 41
2.5
 42
2.5
 43
2.5
 50
180.0
  0
INSERT
  5
F10AA1
330
F1000C
100
AcDbEntity
  8
Bemassung
 62
     0
370
    -2
100
AcDbBlockReference
  2
VDDIM_DEFAULT
 10
-14.46952669721848
 20
16.63756499219388
 30
0.0
 41
2.5
 42
2.5
 43
2.5
  0
MTEXT
  5
F10AA2
330
F1000C
100
AcDbEntity
  8
Bemassung
 62
     0
100
AcDbMText
 10
-20.96952669721848
 20
17.26256499219388
 30
0.0
 40
2.5
 41
0.0
 71
     8
 72
     1
  1
\A1;13
 73
     1
 44
1.0
1001
ACAD
1000
MTEXTBEGIN
1070
    73
1070
     1
1070
    44
1040
1.0
1070
    74
1070
     0
1000
MTEXTEND
  0
POINT
  5
F10AA3
330
F1000C
100
AcDbEntity
  8
Defpoints
 62
     0
100
AcDbPoint
 10
-27.46952669721848
 20
3.637564992193882
 30
0.0
  0
POINT
  5
F10AA4
330
F1000C
100
AcDbEntity
  8
Defpoints
 62
     0
100
AcDbPoint
 10
-14.46952669721848
 20
6.13756499219388
 30
0.0
  0
POINT
  5
F10AA5
330
F1000C
100
AcDbEntity
  8
Defpoints
 62
     0
100
AcDbPoint
 10
-14.46952669721848
 20
16.63756499219388
 30
0.0
  0
ENDBLK
  5
F10047
330
F1000C
100
AcDbEntity
  8
0
100
AcDbBlockEnd
  0
BLOCK
  5
F10048
330
F1001B
100
AcDbEntity
  8
0
100
AcDbBlockBegin
  2
*D5
 70
     1
 10
0.0
 20
0.0
 30
0.0
  3
*D5
  1

  0
LINE
  5
F10B01
330
F1001B
100
AcDbEntity
  8
Bemassung
 62
     0
370
    -2
100
AcDbLine
 10
4.53047330278153
 20
7.26256499219388
 30
0.0
 11
4.530473302781531
 21
27.88756499219388
 31
0.0
  0
LINE
  5
F10B02
330
F1001B
100
AcDbEntity
  8
Bemassung
 62
     0
370
    -2
100
AcDbLine
 10
52.53047330278153
 20
6.76256499219388
 30
0.0
 11
52.53047330278153
 21
27.88756499219388
 31
0.0
  0
LINE
  5
F10B03
330
F1001B
100
AcDbEntity
  8
Bemassung
 62
     0
370
    -2
100
AcDbLine
 10
7.030473302781532
 20
26.63756499219388
 30
0.0
 11
50.03047330278153
 21
26.63756499219388
 31
0.0
  0
INSERT
  5
F10B04
330
F1001B
100
AcDbEntity
  8
Bemassung
 62
     0
370
    -2
100
AcDbBlockReference
  2
VDDIM_DEFAULT
 10
4.530473302781531
 20
26.63756499219388
 30
0.0
 41
2.5
 42
2.5
 43
2.5
 50
180.0
  0
INSERT
  5
F10B05
330
F1001B
100
AcDbEntity
  8
Bemassung
 62
     0
370
    -2
100
AcDbBlockReference
  2
VDDIM_DEFAULT
 10
52.53047330278153
 20
26.63756499219388
 30
0.0
 41
2.5
 42
2.5
 43
2.5
  0
MTEXT
  5
F10B06
330
F1001B
100
AcDbEntity
  8
Bemassung
 62
     0
100
AcDbMText
 10
28.53047330278153
 20
27.26256499219388
 30
0.0
 40
2.5
 41
0.0
 71
     8
 72
     1
  1
\A1;(48)
 73
     1
 44
1.0
1001
ACAD
1000
MTEXTBEGIN
1070
    73
1070
     1
1070
    44
1040
1.0
1070
    74
1070
     0
1000
MTEXTEND
  0
POINT
  5
F10B07
330
F1001B
100
AcDbEntity
  8
Defpoints
 62
     0
100
AcDbPoint
 10
4.53047330278153
 20
6.63756499219388
 30
0.0
  0
POINT
  5
F10B08
330
F1001B
100
AcDbEntity
  8
Defpoints
 62
     0
100
AcDbPoint
 10
52.53047330278153
 20
6.13756499219388
 30
0.0
  0
POINT
  5
F10B09
330
F1001B
100
AcDbEntity
  8
Defpoints
 62
     0
100
AcDbPoint
 10
52.53047330278153
 20
26.63756499219388
 30
0.0
  0
ENDBLK
  5
F10051
330
F1001B
100
AcDbEntity
  8
0
100
AcDbBlockEnd
  0
BLOCK
  5
F10052
330
F10025
100
AcDbEntity
  8
0
100
AcDbBlockBegin
  2
*D6
 70
     1
 10
0.0
 20
0.0
 30
0.0
  3
*D6
  1

  0
LINE
  5
F10A09
330
F10025
100
AcDbEntity
  8
Bemassung
 62
     0
370
    -2
100
AcDbLine
 10
-43.35151515151521
 20
17.6628787878788
 30
0.0
 11
-43.35151515151521
 21
-3.462121212121199
 31
0.0
  0
LINE
  5
F10A0A
330
F10025
100
AcDbEntity
  8
Bemassung
 62
     0
370
    -2
100
AcDbLine
 10
-49.65151515151521
 20
-3.587121212121199
 30
0.0
 11
-49.65151515151521
 21
-0.9621212121212003
 31
0.0
  0
LINE
  5
F10A0B
330
F10025
100
AcDbEntity
  8
Bemassung
 62
     0
370
    -2
100
AcDbLine
 10
-45.85151515151521
 20
-2.2121212121212
 30
0.0
 11
-47.15151515151521
 21
-2.2121212121212
 31
0.0
  0
INSERT
  5
F10A0C
330
F10025
100
AcDbEntity
  8
Bemassung
 62
     0
370
    -2
100
AcDbBlockReference
  2
VDDIM_DEFAULT
 10
-43.35151515151521
 20
-2.2121212121212
 30
0.0
 41
2.5
 42
2.5
 43
2.5
  0
INSERT
  5
F10A0D
330
F10025
100
AcDbEntity
  8
Bemassung
 62
     0
370
    -2
100
AcDbBlockReference
  2
VDDIM_DEFAULT
 10
-49.65151515151521
 20
-2.2121212121212
 30
0.0
 41
2.5
 42
2.5
 43
2.5
 50
180.0
  0
MTEXT
  5
F10A0E
330
F10025
100
AcDbEntity
  8
Bemassung
 62
     0
100
AcDbMText
 10
-46.5015151515152
 20
-1.587121212121199
 30
0.0
 40
2.5
 41
0.0
 71
     8
 72
     1
  1
\A1;6.3
 73
     1
 44
1.0
1001
ACAD
1000
MTEXTBEGIN
1070
    73
1070
     1
1070
    44
1040
1.0
1070
    74
1070
     0
1000
MTEXTEND
  0
POINT
  5
F10A0F
330
F10025
100
AcDbEntity
  8
Defpoints
 62
     0
100
AcDbPoint
 10
-43.35151515151521
 20
18.2878787878788
 30
0.0
  0
POINT
  5
F10A10
330
F10025
100
AcDbEntity
  8
Defpoints
 62
     0
100
AcDbPoint
 10
-49.65151515151521
 20
-4.2121212121212
 30
0.0
  0
POINT
  5
F10A11
330
F10025
100
AcDbEntity
  8
Defpoints
 62
     0
100
AcDbPoint
 10
-49.65151515151521
 20
-2.2121212121212
 30
0.0
  0
ENDBLK
  5
F1005B
330
F10025
100
AcDbEntity
  8
0
100
AcDbBlockEnd
  0
BLOCK
  5
F1005C
330
F1002A
100
AcDbEntity
  8
0
100
AcDbBlockBegin
  2
*D7
 70
     1
 10
0.0
 20
0.0
 30
0.0
  3
*D7
  1

  0
LINE
  5
F10AC5
330
F1002A
100
AcDbEntity
  8
Bemassung
 62
     0
370
    -2
100
AcDbLine
 10
52.53047330278153
 20
6.76256499219388
 30
0.0
 11
52.53047330278153
 21
32.88756499219387
 31
0.0
  0
LINE
  5
F10AC6
330
F1002A
100
AcDbEntity
  8
Bemassung
 62
     0
370
    -2
100
AcDbLine
 10
-27.46952669721848
 20
4.262564992193882
 30
0.0
 11
-27.46952669721848
 21
32.88756499219387
 31
0.0
  0
LINE
  5
F10AC7
330
F1002A
100
AcDbEntity
  8
Bemassung
 62
     0
370
    -2
100
AcDbLine
 10
50.03047330278153
 20
31.63756499219388
 30
0.0
 11
-24.96952669721848
 21
31.63756499219388
 31
0.0
  0
INSERT
  5
F10AC8
330
F1002A
100
AcDbEntity
  8
Bemassung
 62
     0
370
    -2
100
AcDbBlockReference
  2
VDDIM_DEFAULT
 10
52.53047330278153
 20
31.63756499219388
 30
0.0
 41
2.5
 42
2.5
 43
2.5
  0
INSERT
  5
F10AC9
330
F1002A
100
AcDbEntity
  8
Bemassung
 62
     0
370
    -2
100
AcDbBlockReference
  2
VDDIM_DEFAULT
 10
-27.46952669721848
 20
31.63756499219388
 30
0.0
 41
2.5
 42
2.5
 43
2.5
 50
180.0
  0
MTEXT
  5
F10ACA
330
F1002A
100
AcDbEntity
  8
Bemassung
 62
     0
100
AcDbMText
 10
12.53047330278153
 20
32.26256499219387
 30
0.0
 40
2.5
 41
0.0
 71
     8
 72
     1
  1
\A1;80
 73
     1
 44
1.0
1001
ACAD
1000
MTEXTBEGIN
1070
    73
1070
     1
1070
    44
1040
1.0
1070
    74
1070
     0
1000
MTEXTEND
  0
POINT
  5
F10ACB
330
F1002A
100
AcDbEntity
  8
Defpoints
 62
     0
100
AcDbPoint
 10
52.53047330278153
 20
6.13756499219388
 30
0.0
  0
POINT
  5
F10ACC
330
F1002A
100
AcDbEntity
  8
Defpoints
 62
     0
100
AcDbPoint
 10
-27.46952669721848
 20
3.637564992193882
 30
0.0
  0
POINT
  5
F10ACD
330
F1002A
100
AcDbEntity
  8
Defpoints
 62
     0
100
AcDbPoint
 10
-27.46952669721848
 20
31.63756499219388
 30
0.0
  0
ENDBLK
  5
F10065
330
F1002A
100
AcDbEntity
  8
0
100
AcDbBlockEnd
  0
BLOCK
  5
F10066
330
F1002F
100
AcDbEntity
  8
0
100
AcDbBlockBegin
  2
*D8
 70
     1
 10
0.0
 20
0.0
 30
0.0
  3
*D8
  1

  0
LINE
  5
F10ACE
330
F1002F
100
AcDbEntity
  8
Bemassung
 62
     0
370
    -2
100
AcDbLine
 10
2.530473302781522
 20
6.612564992193881
 30
0.0
 11
2.530473302781524
 21
26.24505878413888
 31
0.0
  0
LINE
  5
F10ACF
330
F1002F
100
AcDbEntity
  8
Bemassung
 62
     0
370
    -2
100
AcDbLine
 10
-27.46952669721848
 20
6.662564992193877
 30
0.0
 11
-27.46952669721848
 21
26.24505878413888
 31
0.0
  0
LINE
  5
F10AD0
330
F1002F
100
AcDbEntity
  8
Bemassung
 62
     0
370
    -2
100
AcDbLine
 10
0.0304733027815245
 20
24.99505878413888
 30
0.0
 11
-24.96952669721848
 21
24.99505878413888
 31
0.0
  0
INSERT
  5
F10AD1
330
F1002F
100
AcDbEntity
  8
Bemassung
 62
     0
370
    -2
100
AcDbBlockReference
  2
VDDIM_DEFAULT
 10
2.530473302781524
 20
24.99505878413888
 30
0.0
 41
2.5
 42
2.5
 43
2.5
  0
INSERT
  5
F10AD2
330
F1002F
100
AcDbEntity
  8
Bemassung
 62
     0
370
    -2
100
AcDbBlockReference
  2
VDDIM_DEFAULT
 10
-27.46952669721848
 20
24.99505878413888
 30
0.0
 41
2.5
 42
2.5
 43
2.5
 50
180.0
  0
MTEXT
  5
F10AD3
330
F1002F
100
AcDbEntity
  8
Bemassung
 62
     0
100
AcDbMText
 10
-12.46952669721848
 20
25.62005878413888
 30
0.0
 40
2.5
 41
0.0
 71
     8
 72
     1
  1
\A1;30
 73
     1
 44
1.0
1001
ACAD
1000
MTEXTBEGIN
1070
    73
1070
     1
1070
    44
1040
1.0
1070
    74
1070
     0
1000
MTEXTEND
  0
POINT
  5
F10AD4
330
F1002F
100
AcDbEntity
  8
Defpoints
 62
     0
100
AcDbPoint
 10
2.530473302781522
 20
5.987564992193881
 30
0.0
  0
POINT
  5
F10AD5
330
F1002F
100
AcDbEntity
  8
Defpoints
 62
     0
100
AcDbPoint
 10
-27.46952669721848
 20
6.037564992193877
 30
0.0
  0
POINT
  5
F10AD6
330
F1002F
100
AcDbEntity
  8
Defpoints
 62
     0
100
AcDbPoint
 10
-27.46952669721848
 20
24.99505878413888
 30
0.0
  0
ENDBLK
  5
F1006F
330
F1002F
100
AcDbEntity
  8
0
100
AcDbBlockEnd
  0
BLOCK
  5
F10070
330
F10016
100
AcDbEntity
  8
0
100
AcDbBlockBegin
  2
*D9
 70
     1
 10
0.0
 20
0.0
 30
0.0
  3
*D9
  1

  0
ARC
  5
F109E8
330
F10016
100
AcDbEntity
  8
Bemassung
 62
     0
370
    -2
100
AcDbCircle
 10
-18.6515151515152
 20
23.7878787878788
 30
0.0
 40
4.999999999999955
100
AcDbArc
 50
299.9999999999994
 51
0.0
  0
LINE
  5
F109E9
330
F10016
100
AcDbEntity
  8
Bemassung
 62
     0
370
    -2
100
AcDbLine
 10
-16.15151515151526
 20
19.45775176895662
 30
0.0
 11
-21.47999342036635
 21
16.38135340606445
 31
0.0
  0
ARC
  5
F109EA
330
F10016
100
AcDbEntity
  8
Bemassung
 62
     0
370
    -2
100
AcDbCircle
 10
-18.6515151515152
 20
23.7878787878788
 30
0.0
 40
4.999999999999955
100
AcDbArc
 50
302.0899512562797
 51
331.0449756281399
  0
ARC
  5
F109EB
330
F10016
100
AcDbEntity
  8
Bemassung
 62
     0
370
    -2
100
AcDbCircle
 10
-18.6515151515152
 20
23.7878787878788
 30
0.0
 40
4.999999999999955
100
AcDbArc
 50
58.95502437185997
 51
87.91004874372006
  0
ARC
  5
F109EC
330
F10016
100
AcDbEntity
  8
Bemassung
 62
     0
370
    -2
100
AcDbCircle
 10
-18.6515151515152
 20
23.7878787878788
 30
0.0
 40
4.999999999999955
100
AcDbArc
 50
0.0
 51
29.99999999999987
  0
INSERT
  5
F109ED
330
F10016
100
AcDbEntity
  8
Bemassung
 62
     0
370
    -2
100
AcDbBlockReference
  2
VDDIM_DEFAULT
 10
-13.65151515151524
 20
23.7878787878788
 30
0.0
 41
2.5
 42
2.5
 43
2.5
 50
75.52248781406993
  0
INSERT
  5
F109EE
330
F10016
100
AcDbEntity
  8
Bemassung
 62
     0
370
    -2
100
AcDbBlockReference
  2
VDDIM_DEFAULT
 10
-14.32138813259304
 20
26.28787878787877
 30
0.0
 41
2.5
 42
2.5
 43
2.5
 50
314.4775121859299
  0
MTEXT
  5
F109EF
102
{ACAD_XDICTIONARY
360
F10C36
102
}
330
F10016
100
AcDbEntity
  8
Bemassung
 62
     0
100
AcDbMText
 10
-18.50325428594081
 20
17.37828671014525
 30
0.0
 40
2.5
 41
0.0
 71
     8
 72
     1
  1
\A1;30\U+00B0
 11
-0.8660254037844438
 21
-0.4999999999999911
 31
0.0
 73
     1
 44
1.0
1001
ACAD
1000
MTEXTBEGIN
1070
    73
1070
     1
1070
    44
1040
1.0
1070
    74
1070
     0
1000
MTEXTEND
  0
POINT
  5
F109F0
330
F10016
100
AcDbEntity
  8
Defpoints
 62
     0
100
AcDbPoint
 10
-13.95305204758569
 20
25.49797950450712
 30
0.0
  0
POINT
  5
F109F1
330
F10016
100
AcDbEntity
  8
Defpoints
 62
     0
100
AcDbPoint
 10
-12.5893373250241
 20
27.2878787878788
 30
0.0
  0
POINT
  5
F109F2
330
F10016
100
AcDbEntity
  8
Defpoints
 62
     0
100
AcDbPoint
 10
-18.6515151515152
 20
23.7878787878788
 30
0.0
  0
POINT
  5
F109F3
330
F10016
100
AcDbEntity
  8
Defpoints
 62
     0
100
AcDbPoint
 10
-11.6515151515152
 20
23.7878787878788
 30
0.0
  0
POINT
  5
F109F4
330
F10016
100
AcDbEntity
  8
Defpoints
 62
     0
100
AcDbPoint
 10
-18.6515151515152
 20
23.7878787878788
 30
0.0
  0
ENDBLK
  5
F1007B
330
F10016
100
AcDbEntity
  8
0
100
AcDbBlockEnd
  0
BLOCK
  5
F1007C
330
F10007
100
AcDbEntity
  8
0
100
AcDbBlockBegin
  2
*D10
 70
     1
 10
0.0
 20
0.0
 30
0.0
  3
*D10
  1

  0
LINE
  5
F10B15
330
F10007
100
AcDbEntity
  8
Bemassung
 62
     0
370
    -2
100
AcDbLine
 10
-27.99452669721848
 20
1.137564992193883
 30
0.0
 11
-37.43854947471822
 21
1.137564992193885
 31
0.0
  0
LINE
  5
F10B16
330
F10007
100
AcDbEntity
  8
Bemassung
 62
     0
370
    -2
100
AcDbLine
 10
-27.99452669721848
 20
6.13756499219388
 30
0.0
 11
-37.43854947471822
 21
6.137564992193882
 31
0.0
  0
LINE
  5
F10B17
330
F10007
100
AcDbEntity
  8
Bemassung
 62
     0
370
    -2
100
AcDbLine
 10
-36.18854947471822
 20
8.637564992193881
 30
0.0
 11
-36.18854947471822
 21
11.13756499219388
 31
0.0
  0
LINE
  5
F10B18
330
F10007
100
AcDbEntity
  8
Bemassung
 62
     0
370
    -2
100
AcDbLine
 10
-36.18854947471822
 20
-1.362435007806113
 30
0.0
 11
-36.18854947471822
 21
-9.48999298870652
 31
0.0
  0
LINE
  5
F10B19
330
F10007
100
AcDbEntity
  8
Bemassung
 62
     0
370
    -2
100
AcDbLine
 10
-36.18854947471822
 20
6.137564992193882
 30
0.0
 11
-36.18854947471822
 21
1.137564992193885
 31
0.0
  0
INSERT
  5
F10B1A
330
F10007
100
AcDbEntity
  8
Bemassung
 62
     0
370
    -2
100
AcDbBlockReference
  2
VDDIM_DEFAULT
 10
-36.18854947471822
 20
6.137564992193882
 30
0.0
 41
2.5
 42
2.5
 43
2.5
 50
270.0
  0
INSERT
  5
F10B1B
330
F10007
100
AcDbEntity
  8
Bemassung
 62
     0
370
    -2
100
AcDbBlockReference
  2
VDDIM_DEFAULT
 10
-36.18854947471822
 20
1.137564992193885
 30
0.0
 41
2.5
 42
2.5
 43
2.5
 50
90.0
  0
MTEXT
  5
F10B1C
330
F10007
100
AcDbEntity
  8
Bemassung
 62
     0
100
AcDbMText
 10
-36.81354947471822
 20
-6.676213998256321
 30
0.0
 40
2.5
 41
0.0
 71
     8
 72
     1
  1
\A1;%%c5
 11
0.0000000000000001
 21
1.0
 31
0.0
 73
     1
 44
1.0
1001
ACAD
1000
MTEXTBEGIN
1070
    73
1070
     1
1070
    44
1040
1.0
1070
    74
1070
     0
1000
MTEXTEND
  0
POINT
  5
F10B1D
330
F10007
100
AcDbEntity
  8
Defpoints
 62
     0
100
AcDbPoint
 10
-27.36952669721848
 20
1.137564992193883
 30
0.0
  0
POINT
  5
F10B1E
330
F10007
100
AcDbEntity
  8
Defpoints
 62
     0
100
AcDbPoint
 10
-27.36952669721848
 20
6.13756499219388
 30
0.0
  0
POINT
  5
F10B1F
330
F10007
100
AcDbEntity
  8
Defpoints
 62
     0
100
AcDbPoint
 10
-36.18854947471822
 20
6.137564992193882
 30
0.0
  0
ENDBLK
  5
F10085
330
F10007
100
AcDbEntity
  8
0
100
AcDbBlockEnd
  0
BLOCK
  5
F10086
330
F10011
100
AcDbEntity
  8
0
100
AcDbBlockBegin
  2
*D11
 70
     1
 10
0.0
 20
0.0
 30
0.0
  3
*D11
  1

  0
LINE
  5
F10B0A
330
F10011
100
AcDbEntity
  8
Bemassung
 62
     0
370
    -2
100
AcDbLine
 10
-8.970359722138269
 20
1.287564992193882
 30
0.0
 11
-8.056706262394277
 21
1.28756499219388
 31
0.0
  0
LINE
  5
F10B0B
330
F10011
100
AcDbEntity
  8
Bemassung
 62
     0
370
    -2
100
AcDbLine
 10
-8.970359722138269
 20
5.987564992193881
 30
0.0
 11
-8.056706262394277
 21
5.987564992193881
 31
0.0
  0
LINE
  5
F10B0C
330
F10011
100
AcDbEntity
  8
Bemassung
 62
     0
370
    -2
100
AcDbLine
 10
-9.306706262394275
 20
8.487564992193881
 30
0.0
 11
-9.306706262394275
 21
10.98756499219388
 31
0.0
  0
LINE
  5
F10B0D
330
F10011
100
AcDbEntity
  8
Bemassung
 62
     0
370
    -2
100
AcDbLine
 10
-9.306706262394277
 20
-1.212435007806117
 30
0.0
 11
-9.306706262394282
 21
-12.23392204736956
 31
0.0
  0
LINE
  5
F10B0E
330
F10011
100
AcDbEntity
  8
Bemassung
 62
     0
370
    -2
100
AcDbLine
 10
-9.306706262394275
 20
5.987564992193881
 30
0.0
 11
-9.306706262394277
 21
1.287564992193882
 31
0.0
  0
INSERT
  5
F10B0F
330
F10011
100
AcDbEntity
  8
Bemassung
 62
     0
370
    -2
100
AcDbBlockReference
  2
VDDIM_DEFAULT
 10
-9.306706262394275
 20
5.987564992193881
 30
0.0
 41
2.5
 42
2.5
 43
2.5
 50
270.0
  0
INSERT
  5
F10B10
330
F10011
100
AcDbEntity
  8
Bemassung
 62
     0
370
    -2
100
AcDbBlockReference
  2
VDDIM_DEFAULT
 10
-9.306706262394277
 20
1.287564992193882
 30
0.0
 41
2.5
 42
2.5
 43
2.5
 50
90.0
  0
MTEXT
  5
F10B11
330
F10011
100
AcDbEntity
  8
Bemassung
 62
     0
100
AcDbMText
 10
-9.931706262394277
 20
-7.973178527587838
 30
0.0
 40
2.5
 41
0.0
 71
     8
 72
     1
  1
\A1;%%c4.7
 11
0.0000000000000001
 21
1.0
 31
0.0
 73
     1
 44
1.0
1001
ACAD
1000
MTEXTBEGIN
1070
    73
1070
     1
1070
    44
1040
1.0
1070
    74
1070
     0
1000
MTEXTEND
  0
POINT
  5
F10B12
330
F10011
100
AcDbEntity
  8
Defpoints
 62
     0
100
AcDbPoint
 10
-9.595359722138267
 20
1.287564992193882
 30
0.0
  0
POINT
  5
F10B13
330
F10011
100
AcDbEntity
  8
Defpoints
 62
     0
100
AcDbPoint
 10
-9.595359722138267
 20
5.987564992193881
 30
0.0
  0
POINT
  5
F10B14
330
F10011
100
AcDbEntity
  8
Defpoints
 62
     0
100
AcDbPoint
 10
-9.306706262394275
 20
5.987564992193881
 30
0.0
  0
ENDBLK
  5
F1008F
330
F10011
100
AcDbEntity
  8
0
100
AcDbBlockEnd
  0
BLOCK
  5
F10090
330
F10020
100
AcDbEntity
  8
0
100
AcDbBlockBegin
  2
*D12
 70
     1
 10
0.0
 20
0.0
 30
0.0
  3
*D12
  1

  0
LINE
  5
F10ABA
330
F10020
100
AcDbEntity
  8
Bemassung
 62
     0
370
    -2
100
AcDbLine
 10
52.65547330278153
 20
0.6375649921938838
 30
0.0
 11
63.78047330278152
 21
0.6375649921938804
 31
0.0
  0
LINE
  5
F10ABB
330
F10020
100
AcDbEntity
  8
Bemassung
 62
     0
370
    -2
100
AcDbLine
 10
52.65547330278153
 20
6.63756499219388
 30
0.0
 11
63.78047330278152
 21
6.637564992193876
 31
0.0
  0
LINE
  5
F10ABC
330
F10020
100
AcDbEntity
  8
Bemassung
 62
     0
370
    -2
100
AcDbLine
 10
62.53047330278152
 20
-1.862435007806118
 30
0.0
 11
62.53047330278152
 21
-4.362435007806118
 31
0.0
  0
LINE
  5
F10ABD
330
F10020
100
AcDbEntity
  8
Bemassung
 62
     0
370
    -2
100
AcDbLine
 10
62.53047330278152
 20
9.137564992193876
 30
0.0
 11
62.53047330278153
 21
22.09970687486782
 31
0.0
  0
LINE
  5
F10ABE
330
F10020
100
AcDbEntity
  8
Bemassung
 62
     0
370
    -2
100
AcDbLine
 10
62.53047330278152
 20
0.6375649921938809
 30
0.0
 11
62.53047330278152
 21
6.637564992193876
 31
0.0
  0
INSERT
  5
F10ABF
330
F10020
100
AcDbEntity
  8
Bemassung
 62
     0
370
    -2
100
AcDbBlockReference
  2
VDDIM_DEFAULT
 10
62.53047330278152
 20
0.6375649921938809
 30
0.0
 41
2.5
 42
2.5
 43
2.5
 50
90.0
  0
INSERT
  5
F10AC0
330
F10020
100
AcDbEntity
  8
Bemassung
 62
     0
370
    -2
100
AcDbBlockReference
  2
VDDIM_DEFAULT
 10
62.53047330278152
 20
6.637564992193876
 30
0.0
 41
2.5
 42
2.5
 43
2.5
 50
270.0
  0
MTEXT
  5
F10AC1
330
F10020
100
AcDbEntity
  8
Bemassung
 62
     0
100
AcDbMText
 10
61.90547330278152
 20
16.86863593353085
 30
0.0
 40
2.5
 41
0.0
 71
     8
 72
     1
  1
\A1;%%c6 h6
 11
0.0000000000000001
 21
1.0
 31
0.0
 73
     1
 44
1.0
1001
ACAD
1000
MTEXTBEGIN
1070
    73
1070
     1
1070
    44
1040
1.0
1070
    74
1070
     0
1000
MTEXTEND
  0
POINT
  5
F10AC2
330
F10020
100
AcDbEntity
  8
Defpoints
 62
     0
100
AcDbPoint
 10
52.03047330278153
 20
0.6375649921938839
 30
0.0
  0
POINT
  5
F10AC3
330
F10020
100
AcDbEntity
  8
Defpoints
 62
     0
100
AcDbPoint
 10
52.03047330278153
 20
6.63756499219388
 30
0.0
  0
POINT
  5
F10AC4
330
F10020
100
AcDbEntity
  8
Defpoints
 62
     0
100
AcDbPoint
 10
62.53047330278152
 20
6.637564992193876
 30
0.0
  0
ENDBLK
  5
F10099
330
F10020
100
AcDbEntity
  8
0
100
AcDbBlockEnd
  0
BLOCK
  5
F109AC
330
F109AA
100
AcDbEntity
  8
0
100
AcDbBlockBegin
  2
GENAXEH
 70
     0
 10
0.0
 20
0.0
 30
0.0
  3
GENAXEH
  1

  0
LINE
  5
F109AB
330
F109AA
100
AcDbEntity
  8
0
100
AcDbLine
 10
-1.0
 20
0.0
 30
0.0
 11
1.0
 21
0.0
 31
0.0
  0
ENDBLK
  5
F109AD
330
F109AA
100
AcDbEntity
  8
0
100
AcDbBlockEnd
  0
BLOCK
  5
F10ADA
330
F10AD9
100
AcDbEntity
  8
0
100
AcDbBlockBegin
  2
*D14
 70
     1
 10
0.0
 20
0.0
 30
0.0
  3
*D14
  1

  0
LINE
  5
F10AEF
330
F10AD9
100
AcDbEntity
  8
Bemassung
 62
     0
370
    -2
100
AcDbLine
 10
52.53047330278153
 20
6.76256499219388
 30
0.0
 11
52.53047330278153
 21
17.50873037032661
 31
0.0
  0
LINE
  5
F10AF0
330
F10AD9
100
AcDbEntity
  8
Bemassung
 62
     0
370
    -2
100
AcDbLine
 10
16.53047330278153
 20
7.26256499219388
 30
0.0
 11
16.53047330278153
 21
17.50873037032661
 31
0.0
  0
LINE
  5
F10AF1
330
F10AD9
100
AcDbEntity
  8
Bemassung
 62
     0
370
    -2
100
AcDbLine
 10
50.03047330278153
 20
16.25873037032661
 30
0.0
 11
19.03047330278153
 21
16.25873037032661
 31
0.0
  0
INSERT
  5
F10AF2
330
F10AD9
100
AcDbEntity
  8
Bemassung
 62
     0
370
    -2
100
AcDbBlockReference
  2
VDDIM_DEFAULT
 10
52.53047330278153
 20
16.25873037032661
 30
0.0
 41
2.5
 42
2.5
 43
2.5
  0
INSERT
  5
F10AF3
330
F10AD9
100
AcDbEntity
  8
Bemassung
 62
     0
370
    -2
100
AcDbBlockReference
  2
VDDIM_DEFAULT
 10
16.53047330278153
 20
16.25873037032661
 30
0.0
 41
2.5
 42
2.5
 43
2.5
 50
180.0
  0
MTEXT
  5
F10AF4
330
F10AD9
100
AcDbEntity
  8
Bemassung
 62
     0
100
AcDbMText
 10
34.53047330278153
 20
18.16101549993097
 30
0.0
 40
2.5
 41
0.0
 71
     5
 72
     1
  1
\A1;36
 73
     1
 44
1.0
1001
ACAD
1000
MTEXTBEGIN
1070
    73
1070
     1
1070
    44
1040
1.0
1070
    74
1070
     0
1000
MTEXTEND
  0
POINT
  5
F10AF5
330
F10AD9
100
AcDbEntity
  8
Defpoints
 62
     0
100
AcDbPoint
 10
52.53047330278153
 20
6.13756499219388
 30
0.0
  0
POINT
  5
F10AF6
330
F10AD9
100
AcDbEntity
  8
Defpoints
 62
     0
100
AcDbPoint
 10
16.53047330278153
 20
6.63756499219388
 30
0.0
  0
POINT
  5
F10AF7
330
F10AD9
100
AcDbEntity
  8
Defpoints
 62
     0
100
AcDbPoint
 10
16.53047330278153
 20
16.25873037032661
 30
0.0
  0
ENDBLK
  5
F10ADB
330
F10AD9
100
AcDbEntity
  8
0
100
AcDbBlockEnd
  0
ENDSEC
  0
SECTION
  2
ENTITIES
  0
DIMENSION
  5
F1000D
330
261
100
AcDbEntity
  8
Bemassung
100
AcDbDimension
  2
*D4
 10
-14.46952669721848
 20
16.63756499219388
 30
0.0
 11
-20.96952669721848
 21
18.53985012179824
 31
0.0
 70
    32
  1
<>
 71
     8
 42
13.0
  3
BEM-ISBE
100
AcDbAlignedDimension
 13
-27.46952669721848
 23
3.637564992193882
 33
0.0
 14
-14.46952669721848
 24
6.13756499219388
 34
0.0
100
AcDbRotatedDimension
1001
ACAD
1000
DSTYLE
1002
{
1070
   147
1040
0.625
1070
    72
1070
     0
1070
    71
1070
     0
1070
   284
1070
     8
1070
    78
1070
     8
1070
   144
1040
1.0
1070
    47
1040
1.5
1070
    48
1040
0.0
1002
}
  0
DIMENSION
  5
F1001C
330
261
100
AcDbEntity
  8
Bemassung
100
AcDbDimension
  2
*D5
 10
52.53047330278153
 20
26.63756499219388
 30
0.0
 11
28.53047330278153
 21
28.90137808905609
 31
0.0
 70
    32
  1
(<>)
 71
     8
 42
48.0
  3
BEM-ISBE
100
AcDbAlignedDimension
 13
4.53047330278153
 23
6.63756499219388
 33
0.0
 14
52.53047330278153
 24
6.13756499219388
 34
0.0
100
AcDbRotatedDimension
1001
ACAD
1000
DSTYLE
1002
{
1070
   284
1070
     8
1070
    78
1070
     8
1070
   144
1040
1.0
1070
   147
1040
0.625
1070
    72
1070
     0
1070
    71
1070
     0
1002
}
  0
DIMENSION
  5
F1002B
330
261
100
AcDbEntity
  8
Bemassung
100
AcDbDimension
  2
*D7
 10
-27.46952669721848
 20
31.63756499219388
 30
0.0
 11
12.53047330278153
 21
33.53899746149811
 31
0.0
 70
    32
  1
<>
 71
     8
 42
80.0
  3
BEM-ISBE
100
AcDbAlignedDimension
 13
52.53047330278153
 23
6.13756499219388
 33
0.0
 14
-27.46952669721848
 24
3.637564992193882
 34
0.0
100
AcDbRotatedDimension
1001
ACAD
1000
DSTYLE
1002
{
1070
   147
1040
0.625
1070
    72
1070
     0
1070
    71
1070
     0
1070
   284
1070
     8
1070
    78
1070
     8
1070
   144
1040
1.0
1070
    47
1040
2.0
1070
    48
1040
0.0
1002
}
  0
DIMENSION
  5
F10030
330
261
100
AcDbEntity
  8
Bemassung
100
AcDbDimension
  2
*D8
 10
-27.46952669721848
 20
24.99505878413888
 30
0.0
 11
-12.46952669721848
 21
26.89734391374325
 31
0.0
 70
    32
  1
<>
 71
     8
 42
30.0
  3
BEM-ISBE
100
AcDbAlignedDimension
 13
2.530473302781522
 23
5.987564992193881
 33
0.0
 14
-27.46952669721848
 24
6.037564992193877
 34
0.0
100
AcDbRotatedDimension
1001
ACAD
1000
DSTYLE
1002
{
1070
   147
1040
0.625
1070
    72
1070
     0
1070
    71
1070
     0
1070
   284
1070
     8
1070
    78
1070
     8
1070
   144
1040
1.0
1070
    47
1040
2.0
1070
    48
1040
0.0
1002
}
  0
DIMENSION
  5
F10008
330
261
100
AcDbEntity
  8
Bemassung
100
AcDbDimension
  2
*D10
 10
-36.18854947471822
 20
6.137564992193882
 30
0.0
 11
-36.18854947471822
 21
-6.676213998256324
 31
0.0
 70
   160
  1
%%c<>
 71
     8
 42
4.999999999999995
  3
BEM-ISBE
100
AcDbAlignedDimension
 13
-27.36952669721848
 23
1.137564992193883
 33
0.0
 14
-27.36952669721848
 24
6.13756499219388
 34
0.0
 50
90.0
100
AcDbRotatedDimension
1001
ACAD
1000
DSTYLE
1002
{
1070
   147
1040
0.625
1070
    72
1070
     0
1070
    71
1070
     0
1070
   284
1070
     8
1070
    78
1070
     8
1070
   144
1040
1.0
1070
    47
1040
0.0
1070
    48
1040
-0.048
1002
}
  0
DIMENSION
  5
F10012
330
261
100
AcDbEntity
  8
Bemassung
100
AcDbDimension
  2
*D11
 10
-9.306706262394275
 20
5.987564992193881
 30
0.0
 11
-9.306706262394277
 21
-7.973178527587838
 31
0.0
 70
   160
  1
%%c<>
 71
     8
 42
4.699999999999998
  3
BEM-ISBE
100
AcDbAlignedDimension
 13
-9.595359722138267
 23
1.287564992193882
 33
0.0
 14
-9.595359722138267
 24
5.987564992193881
 34
0.0
 50
90.0
100
AcDbRotatedDimension
1001
ACAD
1000
DSTYLE
1002
{
1070
   147
1040
0.625
1070
    72
1070
     0
1070
    71
1070
     0
1070
   284
1070
     8
1070
    78
1070
     8
1070
   144
1040
1.0
1070
    47
1040
0.0
1070
    48
1040
-0.1
1002
}
  0
DIMENSION
  5
F10021
330
261
100
AcDbEntity
  8
Bemassung
100
AcDbDimension
  2
*D12
 10
62.53047330278152
 20
6.637564992193876
 30
0.0
 11
60.5591226888661
 21
16.86863593353085
 31
0.0
 70
    32
  1
%%c<> h6
 71
     8
 42
5.999999999999996
  3
BEM-ISBE
100
AcDbAlignedDimension
 13
52.03047330278153
 23
0.6375649921938839
 33
0.0
 14
52.03047330278153
 24
6.63756499219388
 34
0.0
 50
90.0
100
AcDbRotatedDimension
1001
ACAD
1000
DSTYLE
1002
{
1070
   284
1070
     8
1070
    78
1070
     8
1070
   144
1040
1.0
1070
   147
1040
0.625
1070
    72
1070
     0
1070
    71
1070
     0
1002
}
  0
TEXT
  5
F100A0
330
261
100
AcDbEntity
  8
Geo
100
AcDbText
 10
-69.2651515151515
 20
-39.7727272727273
 30
0.0
 40
4.0
  1

 50
-48.81407483429072
100
AcDbText
  0
LINE
  5
F100A2
330
261
100
AcDbEntity
  8
Geo
100
AcDbLine
 10
-27.46952669721848
 20
3.637564992193882
 30
0.0
 11
-27.46952669721848
 21
6.037564992193877
 31
0.0
  0
LINE
  5
F100A4
330
261
100
AcDbEntity
  8
Geo
100
AcDbLine
 10
-27.46952669721848
 20
6.037564992193877
 30
0.0
 11
-27.36952669721848
 21
6.13756499219388
 31
0.0
  0
LINE
  5
F100A6
330
261
100
AcDbEntity
  8
Geo
100
AcDbLine
 10
-27.36952669721848
 20
6.13756499219388
 30
0.0
 11
-14.46952669721848
 21
6.13756499219388
 31
0.0
  0
LINE
  5
F100A8
330
261
100
AcDbEntity
  8
Geo
100
AcDbLine
 10
-14.46952669721848
 20
6.13756499219388
 30
0.0
 11
-14.46952669721848
 21
5.987564992193881
 31
0.0
  0
LINE
  5
F100AA
330
261
100
AcDbEntity
  8
Geo
100
AcDbLine
 10
-14.46952669721848
 20
5.987564992193881
 30
0.0
 11
2.530473302781522
 21
5.987564992193881
 31
0.0
  0
LINE
  5
F100AC
330
261
100
AcDbEntity
  8
Geo
100
AcDbLine
 10
2.530473302781522
 20
5.987564992193881
 30
0.0
 11
4.53047330278153
 21
6.63756499219388
 31
0.0
  0
LINE
  5
F100AE
330
261
100
AcDbEntity
  8
Geo
100
AcDbLine
 10
4.53047330278153
 20
6.63756499219388
 30
0.0
 11
52.03047330278153
 21
6.63756499219388
 31
0.0
  0
LINE
  5
F100B0
330
261
100
AcDbEntity
  8
Geo
100
AcDbLine
 10
52.03047330278153
 20
6.63756499219388
 30
0.0
 11
52.53047330278153
 21
6.13756499219388
 31
0.0
  0
LINE
  5
F100B2
330
261
100
AcDbEntity
  8
Geo
100
AcDbLine
 10
-25.76952669721848
 20
6.137444079791577
 30
0.0
 11
-25.66952669721848
 21
6.136135627753278
 31
0.0
  0
LINE
  5
F100B4
330
261
100
AcDbEntity
  8
Geo
100
AcDbLine
 10
-25.66952669721848
 20
6.136135627753278
 30
0.0
 11
-25.56952669721848
 21
6.130066838413782
 31
0.0
  0
LINE
  5
F100B6
330
261
100
AcDbEntity
  8
Geo
100
AcDbLine
 10
-25.56952669721848
 20
6.130066838413782
 30
0.0
 11
-25.46952669721848
 21
6.11924927417748
 31
0.0
  0
LINE
  5
F100B8
330
261
100
AcDbEntity
  8
Geo
100
AcDbLine
 10
-25.46952669721848
 20
6.11924927417748
 30
0.0
 11
-25.36952669721848
 21
6.103703544929881
 31
0.0
  0
LINE
  5
F100BA
330
261
100
AcDbEntity
  8
Geo
100
AcDbLine
 10
-25.36952669721848
 20
6.103703544929881
 30
0.0
 11
-25.26952669721848
 21
6.083459268770782
 31
0.0
  0
LINE
  5
F100BC
330
261
100
AcDbEntity
  8
Geo
100
AcDbLine
 10
-25.26952669721848
 20
6.083459268770782
 30
0.0
 11
-25.16952669721848
 21
6.058555015585781
 31
0.0
  0
LINE
  5
F100BE
330
261
100
AcDbEntity
  8
Geo
100
AcDbLine
 10
-25.16952669721848
 20
6.058555015585781
 30
0.0
 11
-25.06952669721848
 21
6.02903823356108
 31
0.0
  0
LINE
  5
F100C0
330
261
100
AcDbEntity
  8
Geo
100
AcDbLine
 10
-25.06952669721848
 20
6.02903823356108
 30
0.0
 11
-24.96952669721848
 21
5.994965158784982
 31
0.0
  0
LINE
  5
F100C2
330
261
100
AcDbEntity
  8
Geo
100
AcDbLine
 10
-24.96952669721848
 20
5.994965158784982
 30
0.0
 11
-24.86952669721848
 21
5.956400708104779
 31
0.0
  0
LINE
  5
F100C4
330
261
100
AcDbEntity
  8
Geo
100
AcDbLine
 10
-24.86952669721848
 20
5.956400708104779
 30
0.0
 11
-24.76952669721848
 21
5.913418355446379
 31
0.0
  0
LINE
  5
F100C6
330
261
100
AcDbEntity
  8
Geo
100
AcDbLine
 10
-24.76952669721848
 20
5.913418355446379
 30
0.0
 11
-24.66952669721848
 21
5.866099991828981
 31
0.0
  0
LINE
  5
F100C8
330
261
100
AcDbEntity
  8
Geo
100
AcDbLine
 10
-24.66952669721848
 20
5.866099991828981
 30
0.0
 11
-24.56952669721848
 21
5.814535769345479
 31
0.0
  0
LINE
  5
F100CA
330
261
100
AcDbEntity
  8
Geo
100
AcDbLine
 10
-24.56952669721848
 20
5.814535769345479
 30
0.0
 11
-24.46952669721848
 21
5.758823929401478
 31
0.0
  0
LINE
  5
F100CC
330
261
100
AcDbEntity
  8
Geo
100
AcDbLine
 10
-24.46952669721848
 20
5.758823929401478
 30
0.0
 11
-24.36952669721847
 21
5.699070615544079
 31
0.0
  0
LINE
  5
F100CE
330
261
100
AcDbEntity
  8
Geo
100
AcDbLine
 10
-24.36952669721847
 20
5.699070615544079
 30
0.0
 11
-24.26952669721848
 21
5.63538967123438
 31
0.0
  0
LINE
  5
F100D0
330
261
100
AcDbEntity
  8
Geo
100
AcDbLine
 10
-24.26952669721848
 20
5.63538967123438
 30
0.0
 11
-24.16952669721848
 21
5.567902422949976
 31
0.0
  0
LINE
  5
F100D2
330
261
100
AcDbEntity
  8
Geo
100
AcDbLine
 10
-24.16952669721848
 20
5.567902422949976
 30
0.0
 11
-24.06952669721848
 21
5.496737449031381
 31
0.0
  0
LINE
  5
F100D4
330
261
100
AcDbEntity
  8
Geo
100
AcDbLine
 10
-24.06952669721848
 20
5.496737449031381
 30
0.0
 11
-23.96952669721848
 21
5.42203033471058
 31
0.0
  0
LINE
  5
F100D6
330
261
100
AcDbEntity
  8
Geo
100
AcDbLine
 10
-23.96952669721848
 20
5.42203033471058
 30
0.0
 11
-23.86952669721848
 21
5.343923413791578
 31
0.0
  0
LINE
  5
F100D8
330
261
100
AcDbEntity
  8
Geo
100
AcDbLine
 10
-23.86952669721848
 20
5.343923413791578
 30
0.0
 11
-23.76952669721848
 21
5.26256549747228
 31
0.0
  0
LINE
  5
F100DA
330
261
100
AcDbEntity
  8
Geo
100
AcDbLine
 10
-23.76952669721848
 20
5.26256549747228
 30
0.0
 11
-23.66952669721848
 21
5.178111590825782
 31
0.0
  0
LINE
  5
F100DC
330
261
100
AcDbEntity
  8
Geo
100
AcDbLine
 10
-23.66952669721848
 20
5.178111590825782
 30
0.0
 11
-23.56952669721848
 21
5.090722597480578
 31
0.0
  0
LINE
  5
F100DE
330
261
100
AcDbEntity
  8
Geo
100
AcDbLine
 10
-23.56952669721848
 20
5.090722597480578
 30
0.0
 11
-23.46952669721848
 21
5.00056501306398
 31
0.0
  0
LINE
  5
F100E0
330
261
100
AcDbEntity
  8
Geo
100
AcDbLine
 10
-23.46952669721848
 20
5.00056501306398
 30
0.0
 11
-23.36952669721847
 21
4.907810607989777
 31
0.0
  0
LINE
  5
F100E2
330
261
100
AcDbEntity
  8
Geo
100
AcDbLine
 10
-23.36952669721847
 20
4.907810607989777
 30
0.0
 11
-23.26952669721848
 21
4.812636100197476
 31
0.0
  0
LINE
  5
F100E4
330
261
100
AcDbEntity
  8
Geo
100
AcDbLine
 10
-23.26952669721848
 20
4.812636100197476
 30
0.0
 11
-23.16952669721848
 21
4.715222818464781
 31
0.0
  0
LINE
  5
F100E6
330
261
100
AcDbEntity
  8
Geo
100
AcDbLine
 10
-23.16952669721848
 20
4.715222818464781
 30
0.0
 11
-23.06952669721848
 21
4.615756356935776
 31
0.0
  0
LINE
  5
F100E8
330
261
100
AcDbEntity
  8
Geo
100
AcDbLine
 10
-23.06952669721848
 20
4.615756356935776
 30
0.0
 11
-22.96952669721848
 21
4.514426221522683
 31
0.0
  0
LINE
  5
F100EA
330
261
100
AcDbEntity
  8
Geo
100
AcDbLine
 10
-22.96952669721848
 20
4.514426221522683
 30
0.0
 11
-22.86952669721848
 21
4.411425468853976
 31
0.0
  0
LINE
  5
F100EC
330
261
100
AcDbEntity
  8
Geo
100
AcDbLine
 10
-22.86952669721848
 20
4.411425468853976
 30
0.0
 11
-22.76952669721848
 21
4.306950338458778
 31
0.0
  0
LINE
  5
F100EE
330
261
100
AcDbEntity
  8
Geo
100
AcDbLine
 10
-22.76952669721848
 20
4.306950338458778
 30
0.0
 11
-22.66952669721848
 21
4.201199878886476
 31
0.0
  0
LINE
  5
F100F0
330
261
100
AcDbEntity
  8
Geo
100
AcDbLine
 10
-22.66952669721848
 20
4.201199878886476
 30
0.0
 11
-22.56952669721848
 21
4.094375568474379
 31
0.0
  0
LINE
  5
F100F2
330
261
100
AcDbEntity
  8
Geo
100
AcDbLine
 10
-22.56952669721848
 20
4.094375568474379
 30
0.0
 11
-22.46952669721848
 21
3.986680931486278
 31
0.0
  0
LINE
  5
F100F4
330
261
100
AcDbEntity
  8
Geo
100
AcDbLine
 10
-22.46952669721848
 20
3.986680931486278
 30
0.0
 11
-22.36952669721848
 21
3.878321150353578
 31
0.0
  0
LINE
  5
F100F6
330
261
100
AcDbEntity
  8
Geo
100
AcDbLine
 10
-22.36952669721848
 20
3.878321150353578
 30
0.0
 11
-22.26952669721848
 21
3.769502674756181
 31
0.0
  0
LINE
  5
F100F8
330
261
100
AcDbEntity
  8
Geo
100
AcDbLine
 10
-22.26952669721848
 20
3.769502674756181
 30
0.0
 11
-22.16952669721848
 21
3.660432828289881
 31
0.0
  0
LINE
  5
F100FA
330
261
100
AcDbEntity
  8
Geo
100
AcDbLine
 10
-22.16952669721848
 20
3.660432828289881
 30
0.0
 11
-22.06952669721848
 21
3.55131941346828
 31
0.0
  0
LINE
  5
F100FC
330
261
100
AcDbEntity
  8
Geo
100
AcDbLine
 10
-22.06952669721848
 20
3.55131941346828
 30
0.0
 11
-21.96952669721848
 21
3.442370315812477
 31
0.0
  0
LINE
  5
F100FE
330
261
100
AcDbEntity
  8
Geo
100
AcDbLine
 10
-21.96952669721848
 20
3.442370315812477
 30
0.0
 11
-21.86952669721847
 21
3.333793107782681
 31
0.0
  0
LINE
  5
F10100
330
261
100
AcDbEntity
  8
Geo
100
AcDbLine
 10
-21.86952669721847
 20
3.333793107782681
 30
0.0
 11
-21.76952669721848
 21
3.225794653305682
 31
0.0
  0
LINE
  5
F10102
330
261
100
AcDbEntity
  8
Geo
100
AcDbLine
 10
-21.76952669721848
 20
3.225794653305682
 30
0.0
 11
-21.66952669721848
 21
3.118580713653183
 31
0.0
  0
LINE
  5
F10104
330
261
100
AcDbEntity
  8
Geo
100
AcDbLine
 10
-21.66952669721848
 20
3.118580713653183
 30
0.0
 11
-21.56952669721848
 21
3.012355555420278
 31
0.0
  0
LINE
  5
F10106
330
261
100
AcDbEntity
  8
Geo
100
AcDbLine
 10
-21.56952669721848
 20
3.012355555420278
 30
0.0
 11
-21.46952669721848
 21
2.907321561351681
 31
0.0
  0
LINE
  5
F10108
330
261
100
AcDbEntity
  8
Geo
100
AcDbLine
 10
-21.46952669721848
 20
2.907321561351681
 30
0.0
 11
-21.36952669721848
 21
2.803678844757181
 31
0.0
  0
LINE
  5
F1010A
330
261
100
AcDbEntity
  8
Geo
100
AcDbLine
 10
-21.36952669721848
 20
2.803678844757181
 30
0.0
 11
-21.26952669721848
 21
2.701624868251183
 31
0.0
  0
LINE
  5
F1010C
330
261
100
AcDbEntity
  8
Geo
100
AcDbLine
 10
-21.26952669721848
 20
2.701624868251183
 30
0.0
 11
-21.16952669721848
 21
2.601354067541879
 31
0.0
  0
LINE
  5
F1010E
330
261
100
AcDbEntity
  8
Geo
100
AcDbLine
 10
-21.16952669721848
 20
2.601354067541879
 30
0.0
 11
-21.06952669721848
 21
2.503057480987884
 31
0.0
  0
LINE
  5
F10110
330
261
100
AcDbEntity
  8
Geo
100
AcDbLine
 10
-21.06952669721848
 20
2.503057480987884
 30
0.0
 11
-20.96952669721848
 21
2.406922385626977
 31
0.0
  0
LINE
  5
F10112
330
261
100
AcDbEntity
  8
Geo
100
AcDbLine
 10
-20.96952669721848
 20
2.406922385626977
 30
0.0
 11
-20.86952669721847
 21
2.313131940371579
 31
0.0
  0
LINE
  5
F10114
330
261
100
AcDbEntity
  8
Geo
100
AcDbLine
 10
-20.86952669721847
 20
2.313131940371579
 30
0.0
 11
-20.76952669721848
 21
2.221864837050183
 31
0.0
  0
LINE
  5
F10116
330
261
100
AcDbEntity
  8
Geo
100
AcDbLine
 10
-20.76952669721848
 20
2.221864837050183
 30
0.0
 11
-20.66952669721847
 21
2.13329495995888
 31
0.0
  0
LINE
  5
F10118
330
261
100
AcDbEntity
  8
Geo
100
AcDbLine
 10
-20.66952669721847
 20
2.13329495995888
 30
0.0
 11
-20.56952669721847
 21
2.047591054572978
 31
0.0
  0
LINE
  5
F1011A
330
261
100
AcDbEntity
  8
Geo
100
AcDbLine
 10
-20.56952669721847
 20
2.047591054572978
 30
0.0
 11
-20.46952669721848
 21
1.96491640604928
 31
0.0
  0
LINE
  5
F1011C
330
261
100
AcDbEntity
  8
Geo
100
AcDbLine
 10
-20.46952669721848
 20
1.96491640604928
 30
0.0
 11
-20.36952669721848
 21
1.885428528130777
 31
0.0
  0
LINE
  5
F1011E
330
261
100
AcDbEntity
  8
Geo
100
AcDbLine
 10
-20.36952669721848
 20
1.885428528130777
 30
0.0
 11
-20.26952669721847
 21
1.809278863047977
 31
0.0
  0
LINE
  5
F10120
330
261
100
AcDbEntity
  8
Geo
100
AcDbLine
 10
-20.26952669721847
 20
1.809278863047977
 30
0.0
 11
-20.16952669721847
 21
1.73661249298768
 31
0.0
  0
LINE
  5
F10122
330
261
100
AcDbEntity
  8
Geo
100
AcDbLine
 10
-20.16952669721847
 20
1.73661249298768
 30
0.0
 11
-20.06952669721847
 21
1.667567863678178
 31
0.0
  0
LINE
  5
F10124
330
261
100
AcDbEntity
  8
Geo
100
AcDbLine
 10
-20.06952669721847
 20
1.667567863678178
 30
0.0
 11
-19.96952669721848
 21
1.602276520619976
 31
0.0
  0
LINE
  5
F10126
330
261
100
AcDbEntity
  8
Geo
100
AcDbLine
 10
-19.96952669721848
 20
1.602276520619976
 30
0.0
 11
-19.86952669721847
 21
1.540862858461479
 31
0.0
  0
LINE
  5
F10128
330
261
100
AcDbEntity
  8
Geo
100
AcDbLine
 10
-19.86952669721847
 20
1.540862858461479
 30
0.0
 11
-19.76952669721846
 21
1.483443883999476
 31
0.0
  0
LINE
  5
F1012A
330
261
100
AcDbEntity
  8
Geo
100
AcDbLine
 10
-19.76952669721846
 20
1.483443883999476
 30
0.0
 11
-19.66952669721847
 21
1.430128993255181
 31
0.0
  0
LINE
  5
F1012C
330
261
100
AcDbEntity
  8
Geo
100
AcDbLine
 10
-19.66952669721847
 20
1.430128993255181
 30
0.0
 11
-19.56952669721847
 21
1.381019763049778
 31
0.0
  0
LINE
  5
F1012E
330
261
100
AcDbEntity
  8
Geo
100
AcDbLine
 10
-19.56952669721847
 20
1.381019763049778
 30
0.0
 11
-19.46952669721848
 21
1.336209757478477
 31
0.0
  0
LINE
  5
F10130
330
261
100
AcDbEntity
  8
Geo
100
AcDbLine
 10
-19.46952669721848
 20
1.336209757478477
 30
0.0
 11
-19.36952669721847
 21
1.295784349649277
 31
0.0
  0
LINE
  5
F10132
330
261
100
AcDbEntity
  8
Geo
100
AcDbLine
 10
-19.36952669721847
 20
1.295784349649277
 30
0.0
 11
-19.26952669721847
 21
1.259820559028479
 31
0.0
  0
LINE
  5
F10134
330
261
100
AcDbEntity
  8
Geo
100
AcDbLine
 10
-19.26952669721847
 20
1.259820559028479
 30
0.0
 11
-19.16952669721847
 21
1.228386904701078
 31
0.0
  0
LINE
  5
F10136
330
261
100
AcDbEntity
  8
Geo
100
AcDbLine
 10
-19.16952669721847
 20
1.228386904701078
 30
0.0
 11
-19.06952669721847
 21
1.201543274826978
 31
0.0
  0
LINE
  5
F10138
330
261
100
AcDbEntity
  8
Geo
100
AcDbLine
 10
-19.06952669721847
 20
1.201543274826978
 30
0.0
 11
-18.96952669721848
 21
1.179340812539975
 31
0.0
  0
LINE
  5
F1013A
330
261
100
AcDbEntity
  8
Geo
100
AcDbLine
 10
-18.96952669721848
 20
1.179340812539975
 30
0.0
 11
-18.86952669721847
 21
1.161821818508979
 31
0.0
  0
LINE
  5
F1013C
330
261
100
AcDbEntity
  8
Geo
100
AcDbLine
 10
-18.86952669721847
 20
1.161821818508979
 30
0.0
 11
-18.76952669721847
 21
1.149019670345879
 31
0.0
  0
LINE
  5
F1013E
330
261
100
AcDbEntity
  8
Geo
100
AcDbLine
 10
-18.76952669721847
 20
1.149019670345879
 30
0.0
 11
-18.66952669721847
 21
1.140958759013582
 31
0.0
  0
LINE
  5
F10140
330
261
100
AcDbEntity
  8
Geo
100
AcDbLine
 10
-18.66952669721847
 20
1.140958759013582
 30
0.0
 11
-18.56952669721847
 21
1.137654442355382
 31
0.0
  0
LINE
  5
F10142
330
261
100
AcDbEntity
  8
Geo
100
AcDbLine
 10
-11.76952669721846
 20
5.987564992193881
 30
0.0
 11
-11.66952669721847
 21
5.98748407826278
 31
0.0
  0
LINE
  5
F10144
330
261
100
AcDbEntity
  8
Geo
100
AcDbLine
 10
-11.66952669721847
 20
5.98748407826278
 30
0.0
 11
-11.56952669721847
 21
5.984503867480977
 31
0.0
  0
LINE
  5
F10146
330
261
100
AcDbEntity
  8
Geo
100
AcDbLine
 10
-11.56952669721847
 20
5.984503867480977
 30
0.0
 11
-11.46952669721847
 21
5.97744368500388
 31
0.0
  0
LINE
  5
F10148
330
261
100
AcDbEntity
  8
Geo
100
AcDbLine
 10
-11.46952669721847
 20
5.97744368500388
 30
0.0
 11
-11.36952669721847
 21
5.966595178172383
 31
0.0
  0
LINE
  5
F1014A
330
261
100
AcDbEntity
  8
Geo
100
AcDbLine
 10
-11.36952669721847
 20
5.966595178172383
 30
0.0
 11
-11.26952669721847
 21
5.952248372420277
 31
0.0
  0
LINE
  5
F1014C
330
261
100
AcDbEntity
  8
Geo
100
AcDbLine
 10
-11.26952669721847
 20
5.952248372420277
 30
0.0
 11
-11.16952669721847
 21
5.93469027415708
 31
0.0
  0
LINE
  5
F1014E
330
261
100
AcDbEntity
  8
Geo
100
AcDbLine
 10
-11.16952669721847
 20
5.93469027415708
 30
0.0
 11
-11.06952669721847
 21
5.914203625657178
 31
0.0
  0
LINE
  5
F10150
330
261
100
AcDbEntity
  8
Geo
100
AcDbLine
 10
-11.06952669721847
 20
5.914203625657178
 30
0.0
 11
-10.96952669721847
 21
5.891065806207379
 31
0.0
  0
LINE
  5
F10152
330
261
100
AcDbEntity
  8
Geo
100
AcDbLine
 10
-10.96952669721847
 20
5.891065806207379
 30
0.0
 11
-10.86952669721847
 21
5.865547873102576
 31
0.0
  0
LINE
  5
F10154
330
261
100
AcDbEntity
  8
Geo
100
AcDbLine
 10
-10.86952669721847
 20
5.865547873102576
 30
0.0
 11
-10.76952669721847
 21
5.837913735545277
 31
0.0
  0
LINE
  5
F10156
330
261
100
AcDbEntity
  8
Geo
100
AcDbLine
 10
-10.76952669721847
 20
5.837913735545277
 30
0.0
 11
-10.66952669721847
 21
5.808419454107681
 31
0.0
  0
LINE
  5
F10158
330
261
100
AcDbEntity
  8
Geo
100
AcDbLine
 10
-10.66952669721847
 20
5.808419454107681
 30
0.0
 11
-10.56952669721847
 21
5.777312658120184
 31
0.0
  0
LINE
  5
F1015A
330
261
100
AcDbEntity
  8
Geo
100
AcDbLine
 10
-10.56952669721847
 20
5.777312658120184
 30
0.0
 11
-10.46952669721847
 21
5.74483207317058
 31
0.0
  0
LINE
  5
F1015C
330
261
100
AcDbEntity
  8
Geo
100
AcDbLine
 10
-27.46952669721848
 20
5.337052047864183
 30
0.0
 11
-27.36952669721848
 21
5.32914559498588
 31
0.0
  0
LINE
  5
F1015E
330
261
100
AcDbEntity
  8
Geo
100
AcDbLine
 10
-27.36952669721848
 20
5.32914559498588
 30
0.0
 11
-27.26952669721848
 21
5.247204341112681
 31
0.0
  0
LINE
  5
F10160
330
261
100
AcDbEntity
  8
Geo
100
AcDbLine
 10
-27.26952669721848
 20
5.247204341112681
 30
0.0
 11
-27.16952669721848
 21
5.162196363359377
 31
0.0
  0
LINE
  5
F10162
330
261
100
AcDbEntity
  8
Geo
100
AcDbLine
 10
-27.16952669721848
 20
5.162196363359377
 30
0.0
 11
-27.06952669721848
 21
5.07428362098438
 31
0.0
  0
LINE
  5
F10164
330
261
100
AcDbEntity
  8
Geo
100
AcDbLine
 10
-27.06952669721848
 20
5.07428362098438
 30
0.0
 11
-26.96952669721848
 21
4.983633607474278
 31
0.0
  0
LINE
  5
F10166
330
261
100
AcDbEntity
  8
Geo
100
AcDbLine
 10
-26.96952669721848
 20
4.983633607474278
 30
0.0
 11
-26.86952669721847
 21
4.890419031430582
 31
0.0
  0
LINE
  5
F10168
330
261
100
AcDbEntity
  8
Geo
100
AcDbLine
 10
-26.86952669721847
 20
4.890419031430582
 30
0.0
 11
-26.76952669721848
 21
4.794817487521679
 31
0.0
  0
LINE
  5
F1016A
330
261
100
AcDbEntity
  8
Geo
100
AcDbLine
 10
-26.76952669721848
 20
4.794817487521679
 30
0.0
 11
-26.66952669721848
 21
4.697011118124978
 31
0.0
  0
LINE
  5
F1016C
330
261
100
AcDbEntity
  8
Geo
100
AcDbLine
 10
-26.66952669721848
 20
4.697011118124978
 30
0.0
 11
-26.56952669721848
 21
4.597186266304682
 31
0.0
  0
LINE
  5
F1016E
330
261
100
AcDbEntity
  8
Geo
100
AcDbLine
 10
-26.56952669721848
 20
4.597186266304682
 30
0.0
 11
-26.46952669721848
 21
4.495533120786781
 31
0.0
  0
LINE
  5
F10170
330
261
100
AcDbEntity
  8
Geo
100
AcDbLine
 10
-26.46952669721848
 20
4.495533120786781
 30
0.0
 11
-26.36952669721848
 21
4.392245353606379
 31
0.0
  0
LINE
  5
F10172
330
261
100
AcDbEntity
  8
Geo
100
AcDbLine
 10
-26.36952669721848
 20
4.392245353606379
 30
0.0
 11
-26.26952669721848
 21
4.287519751119879
 31
0.0
  0
LINE
  5
F10174
330
261
100
AcDbEntity
  8
Geo
100
AcDbLine
 10
-26.26952669721848
 20
4.287519751119879
 30
0.0
 11
-26.16952669721848
 21
4.181555839081781
 31
0.0
  0
LINE
  5
F10176
330
261
100
AcDbEntity
  8
Geo
100
AcDbLine
 10
-26.16952669721848
 20
4.181555839081781
 30
0.0
 11
-26.06952669721848
 21
4.074555502504479
 31
0.0
  0
LINE
  5
F10178
330
261
100
AcDbEntity
  8
Geo
100
AcDbLine
 10
-26.06952669721848
 20
4.074555502504479
 30
0.0
 11
-25.96952669721848
 21
3.966722601020978
 31
0.0
  0
LINE
  5
F1017A
330
261
100
AcDbEntity
  8
Geo
100
AcDbLine
 10
-25.96952669721848
 20
3.966722601020978
 30
0.0
 11
-25.86952669721848
 21
3.858262580487578
 31
0.0
  0
LINE
  5
F1017C
330
261
100
AcDbEntity
  8
Geo
100
AcDbLine
 10
-25.86952669721848
 20
3.858262580487578
 30
0.0
 11
-25.76952669721848
 21
3.749382081562578
 31
0.0
  0
LINE
  5
F1017E
330
261
100
AcDbEntity
  8
Geo
100
AcDbLine
 10
-25.76952669721848
 20
3.749382081562578
 30
0.0
 11
-25.66952669721848
 21
3.640288546010278
 31
0.0
  0
LINE
  5
F10180
330
261
100
AcDbEntity
  8
Geo
100
AcDbLine
 10
-25.66952669721848
 20
3.640288546010278
 30
0.0
 11
-25.56952669721848
 21
3.531189821477279
 31
0.0
  0
LINE
  5
F10182
330
261
100
AcDbEntity
  8
Geo
100
AcDbLine
 10
-25.56952669721848
 20
3.531189821477279
 30
0.0
 11
-25.46952669721848
 21
3.422293765496476
 31
0.0
  0
LINE
  5
F10184
330
261
100
AcDbEntity
  8
Geo
100
AcDbLine
 10
-25.46952669721848
 20
3.422293765496476
 30
0.0
 11
-25.36952669721848
 21
3.313807849471475
 31
0.0
  0
LINE
  5
F10186
330
261
100
AcDbEntity
  8
Geo
100
AcDbLine
 10
-25.36952669721848
 20
3.313807849471475
 30
0.0
 11
-25.26952669721848
 21
3.205938763397681
 31
0.0
  0
LINE
  5
F10188
330
261
100
AcDbEntity
  8
Geo
100
AcDbLine
 10
-25.26952669721848
 20
3.205938763397681
 30
0.0
 11
-25.16952669721848
 21
3.098892022070881
 31
0.0
  0
LINE
  5
F1018A
330
261
100
AcDbEntity
  8
Geo
100
AcDbLine
 10
-25.16952669721848
 20
3.098892022070881
 30
0.0
 11
-25.06952669721848
 21
2.992871573535778
 31
0.0
  0
LINE
  5
F1018C
330
261
100
AcDbEntity
  8
Geo
100
AcDbLine
 10
-25.06952669721848
 20
2.992871573535778
 30
0.0
 11
-24.96952669721848
 21
2.888079410519181
 31
0.0
  0
LINE
  5
F1018E
330
261
100
AcDbEntity
  8
Geo
100
AcDbLine
 10
-24.96952669721848
 20
2.888079410519181
 30
0.0
 11
-24.86952669721848
 21
2.78471518558858
 31
0.0
  0
LINE
  5
F10190
330
261
100
AcDbEntity
  8
Geo
100
AcDbLine
 10
-24.86952669721848
 20
2.78471518558858
 30
0.0
 11
-24.76952669721848
 21
2.682975830769381
 31
0.0
  0
LINE
  5
F10192
330
261
100
AcDbEntity
  8
Geo
100
AcDbLine
 10
-24.76952669721848
 20
2.682975830769381
 30
0.0
 11
-24.66952669721848
 21
2.583055182344881
 31
0.0
  0
LINE
  5
F10194
330
261
100
AcDbEntity
  8
Geo
100
AcDbLine
 10
-24.66952669721848
 20
2.583055182344881
 30
0.0
 11
-24.56952669721848
 21
2.485143611554978
 31
0.0
  0
LINE
  5
F10196
330
261
100
AcDbEntity
  8
Geo
100
AcDbLine
 10
-24.56952669721848
 20
2.485143611554978
 30
0.0
 11
-24.46952669721848
 21
2.389427661896082
 31
0.0
  0
LINE
  5
F10198
330
261
100
AcDbEntity
  8
Geo
100
AcDbLine
 10
-24.46952669721848
 20
2.389427661896082
 30
0.0
 11
-24.36952669721847
 21
2.296089693714377
 31
0.0
  0
LINE
  5
F1019A
330
261
100
AcDbEntity
  8
Geo
100
AcDbLine
 10
-24.36952669721847
 20
2.296089693714377
 30
0.0
 11
-24.26952669721848
 21
2.205307536767683
 31
0.0
  0
LINE
  5
F1019C
330
261
100
AcDbEntity
  8
Geo
100
AcDbLine
 10
-24.26952669721848
 20
2.205307536767683
 30
0.0
 11
-24.16952669721848
 21
2.11725415142068
 31
0.0
  0
LINE
  5
F1019E
330
261
100
AcDbEntity
  8
Geo
100
AcDbLine
 10
-24.16952669721848
 20
2.11725415142068
 30
0.0
 11
-24.06952669721848
 21
2.032097299116081
 31
0.0
  0
LINE
  5
F101A0
330
261
100
AcDbEntity
  8
Geo
100
AcDbLine
 10
-24.06952669721848
 20
2.032097299116081
 30
0.0
 11
-23.96952669721848
 21
1.94999922275188
 31
0.0
  0
LINE
  5
F101A2
330
261
100
AcDbEntity
  8
Geo
100
AcDbLine
 10
-23.96952669721848
 20
1.94999922275188
 30
0.0
 11
-23.86952669721848
 21
1.87111633757188
 31
0.0
  0
LINE
  5
F101A4
330
261
100
AcDbEntity
  8
Geo
100
AcDbLine
 10
-23.86952669721848
 20
1.87111633757188
 30
0.0
 11
-23.76952669721848
 21
1.795598933159779
 31
0.0
  0
LINE
  5
F101A6
330
261
100
AcDbEntity
  8
Geo
100
AcDbLine
 10
-23.76952669721848
 20
1.795598933159779
 30
0.0
 11
-23.66952669721848
 21
1.723590887103981
 31
0.0
  0
LINE
  5
F101A8
330
261
100
AcDbEntity
  8
Geo
100
AcDbLine
 10
-23.66952669721848
 20
1.723590887103981
 30
0.0
 11
-23.56952669721848
 21
1.655229390877976
 31
0.0
  0
LINE
  5
F101AA
330
261
100
AcDbEntity
  8
Geo
100
AcDbLine
 10
-23.56952669721848
 20
1.655229390877976
 30
0.0
 11
-23.46952669721848
 21
1.590644688460479
 31
0.0
  0
LINE
  5
F101AC
330
261
100
AcDbEntity
  8
Geo
100
AcDbLine
 10
-23.46952669721848
 20
1.590644688460479
 30
0.0
 11
-23.36952669721847
 21
1.52995982819118
 31
0.0
  0
LINE
  5
F101AE
330
261
100
AcDbEntity
  8
Geo
100
AcDbLine
 10
-23.36952669721847
 20
1.52995982819118
 30
0.0
 11
-23.26952669721848
 21
1.473290428335683
 31
0.0
  0
LINE
  5
F101B0
330
261
100
AcDbEntity
  8
Geo
100
AcDbLine
 10
-23.26952669721848
 20
1.473290428335683
 30
0.0
 11
-23.16952669721848
 21
1.420744456807579
 31
0.0
  0
LINE
  5
F101B2
330
261
100
AcDbEntity
  8
Geo
100
AcDbLine
 10
-23.16952669721848
 20
1.420744456807579
 30
0.0
 11
-23.06952669721848
 21
1.37242202546458
 31
0.0
  0
LINE
  5
F101B4
330
261
100
AcDbEntity
  8
Geo
100
AcDbLine
 10
-23.06952669721848
 20
1.37242202546458
 30
0.0
 11
-22.96952669721848
 21
1.328415199373579
 31
0.0
  0
LINE
  5
F101B6
330
261
100
AcDbEntity
  8
Geo
100
AcDbLine
 10
-22.96952669721848
 20
1.328415199373579
 30
0.0
 11
-22.86952669721848
 21
1.28880782140558
 31
0.0
  0
LINE
  5
F101B8
330
261
100
AcDbEntity
  8
Geo
100
AcDbLine
 10
-22.86952669721848
 20
1.28880782140558
 30
0.0
 11
-22.76952669721848
 21
1.253675352496582
 31
0.0
  0
LINE
  5
F101BA
330
261
100
AcDbEntity
  8
Geo
100
AcDbLine
 10
-22.76952669721848
 20
1.253675352496582
 30
0.0
 11
-22.66952669721848
 21
1.223084727877477
 31
0.0
  0
LINE
  5
F101BC
330
261
100
AcDbEntity
  8
Geo
100
AcDbLine
 10
-22.66952669721848
 20
1.223084727877477
 30
0.0
 11
-22.56952669721848
 21
1.197094229547278
 31
0.0
  0
LINE
  5
F101BE
330
261
100
AcDbEntity
  8
Geo
100
AcDbLine
 10
-22.56952669721848
 20
1.197094229547278
 30
0.0
 11
-22.46952669721848
 21
1.175753375232978
 31
0.0
  0
LINE
  5
F101C0
330
261
100
AcDbEntity
  8
Geo
100
AcDbLine
 10
-22.46952669721848
 20
1.175753375232978
 30
0.0
 11
-22.36952669721848
 21
1.15910282404728
 31
0.0
  0
LINE
  5
F101C2
330
261
100
AcDbEntity
  8
Geo
100
AcDbLine
 10
-22.36952669721848
 20
1.15910282404728
 30
0.0
 11
-22.26952669721848
 21
1.147174299023479
 31
0.0
  0
LINE
  5
F101C4
330
261
100
AcDbEntity
  8
Geo
100
AcDbLine
 10
-22.26952669721848
 20
1.147174299023479
 30
0.0
 11
-22.16952669721848
 21
1.13999052667668
 31
0.0
  0
LINE
  5
F101C6
330
261
100
AcDbEntity
  8
Geo
100
AcDbLine
 10
-22.16952669721848
 20
1.13999052667668
 30
0.0
 11
-22.06952669721848
 21
1.137565193703682
 31
0.0
  0
LINE
  5
F101C8
330
261
100
AcDbEntity
  8
Geo
100
AcDbLine
 10
-14.96952669721848
 20
6.135288571273078
 30
0.0
 11
-14.86952669721847
 21
6.137563805563575
 31
0.0
  0
LINE
  5
F101CA
330
261
100
AcDbEntity
  8
Geo
100
AcDbLine
 10
-14.86952669721847
 20
6.137563805563575
 30
0.0
 11
-14.76952669721847
 21
6.135075981553882
 31
0.0
  0
LINE
  5
F101CC
330
261
100
AcDbEntity
  8
Geo
100
AcDbLine
 10
-14.76952669721847
 20
6.135075981553882
 30
0.0
 11
-14.66952669721847
 21
6.127829839106577
 31
0.0
  0
LINE
  5
F101CE
330
261
100
AcDbEntity
  8
Geo
100
AcDbLine
 10
-14.66952669721847
 20
6.127829839106577
 30
0.0
 11
-14.56952669721847
 21
6.115839183747681
 31
0.0
  0
LINE
  5
F101D0
330
261
100
AcDbEntity
  8
Geo
100
AcDbLine
 10
-14.56952669721847
 20
6.115839183747681
 30
0.0
 11
-14.46952669721848
 21
6.099126860364377
 31
0.0
  0
LINE
  5
F101D2
330
261
100
AcDbEntity
  8
Geo
100
AcDbLine
 10
-14.46952669721848
 20
6.099126860364377
 30
0.0
 11
-14.36952669721847
 21
5.93131512663088
 31
0.0
  0
LINE
  5
F101D4
330
261
100
AcDbEntity
  8
Geo
100
AcDbLine
 10
-14.36952669721847
 20
5.93131512663088
 30
0.0
 11
-14.26952669721847
 21
5.906826996666683
 31
0.0
  0
LINE
  5
F101D6
330
261
100
AcDbEntity
  8
Geo
100
AcDbLine
 10
-14.26952669721847
 20
5.906826996666683
 30
0.0
 11
-14.16952669721847
 21
5.878015413760081
 31
0.0
  0
LINE
  5
F101D8
330
261
100
AcDbEntity
  8
Geo
100
AcDbLine
 10
-14.16952669721847
 20
5.878015413760081
 30
0.0
 11
-14.06952669721847
 21
5.844935270436682
 31
0.0
  0
LINE
  5
F101DA
330
261
100
AcDbEntity
  8
Geo
100
AcDbLine
 10
-14.06952669721847
 20
5.844935270436682
 30
0.0
 11
-13.96952669721847
 21
5.807649591787079
 31
0.0
  0
LINE
  5
F101DC
330
261
100
AcDbEntity
  8
Geo
100
AcDbLine
 10
-13.96952669721847
 20
5.807649591787079
 30
0.0
 11
-13.86952669721847
 21
5.766229415389277
 31
0.0
  0
LINE
  5
F101DE
330
261
100
AcDbEntity
  8
Geo
100
AcDbLine
 10
-13.86952669721847
 20
5.766229415389277
 30
0.0
 11
-13.76952669721847
 21
5.720753655966777
 31
0.0
  0
LINE
  5
F101E0
330
261
100
AcDbEntity
  8
Geo
100
AcDbLine
 10
-13.76952669721847
 20
5.720753655966777
 30
0.0
 11
-13.66952669721847
 21
5.671308955038076
 31
0.0
  0
LINE
  5
F101E2
330
261
100
AcDbEntity
  8
Geo
100
AcDbLine
 10
-13.66952669721847
 20
5.671308955038076
 30
0.0
 11
-13.56952669721847
 21
5.617989515845078
 31
0.0
  0
LINE
  5
F101E4
330
261
100
AcDbEntity
  8
Geo
100
AcDbLine
 10
-13.56952669721847
 20
5.617989515845078
 30
0.0
 11
-13.46952669721847
 21
5.560896923875076
 31
0.0
  0
LINE
  5
F101E6
330
261
100
AcDbEntity
  8
Geo
100
AcDbLine
 10
-13.46952669721847
 20
5.560896923875076
 30
0.0
 11
-13.36952669721847
 21
5.569836045110778
 31
0.0
  0
LINE
  5
F101E8
330
261
100
AcDbEntity
  8
Geo
100
AcDbLine
 10
-13.36952669721847
 20
5.569836045110778
 30
0.0
 11
-13.26952669721847
 21
5.578549707803682
 31
0.0
  0
LINE
  5
F101EA
330
261
100
AcDbEntity
  8
Geo
100
AcDbLine
 10
-13.26952669721847
 20
5.578549707803682
 30
0.0
 11
-13.16952669721847
 21
5.587041556770977
 31
0.0
  0
LINE
  5
F101EC
330
261
100
AcDbEntity
  8
Geo
100
AcDbLine
 10
-13.16952669721847
 20
5.587041556770977
 30
0.0
 11
-13.06952669721847
 21
5.595315210693978
 31
0.0
  0
LINE
  5
F101EE
330
261
100
AcDbEntity
  8
Geo
100
AcDbLine
 10
-13.06952669721847
 20
5.595315210693978
 30
0.0
 11
-12.96952669721847
 21
5.60337426016088
 31
0.0
  0
LINE
  5
F101F0
330
261
100
AcDbEntity
  8
Geo
100
AcDbLine
 10
-12.96952669721847
 20
5.60337426016088
 30
0.0
 11
-12.86952669721847
 21
5.611222265769979
 31
0.0
  0
LINE
  5
F101F2
330
261
100
AcDbEntity
  8
Geo
100
AcDbLine
 10
-12.86952669721847
 20
5.611222265769979
 30
0.0
 11
-12.76952669721846
 21
5.61886275629088
 31
0.0
  0
LINE
  5
F101F4
330
261
100
AcDbEntity
  8
Geo
100
AcDbLine
 10
-12.76952669721846
 20
5.61886275629088
 30
0.0
 11
-12.66952669721847
 21
5.626299226883276
 31
0.0
  0
LINE
  5
F101F6
330
261
100
AcDbEntity
  8
Geo
100
AcDbLine
 10
-12.66952669721847
 20
5.626299226883276
 30
0.0
 11
-12.56952669721847
 21
5.633535137372184
 31
0.0
  0
LINE
  5
F101F8
330
261
100
AcDbEntity
  8
Geo
100
AcDbLine
 10
-12.56952669721847
 20
5.633535137372184
 30
0.0
 11
-12.46952669721847
 21
5.640573910577682
 31
0.0
  0
LINE
  5
F101FA
330
261
100
AcDbEntity
  8
Geo
100
AcDbLine
 10
-12.46952669721847
 20
5.640573910577682
 30
0.0
 11
-12.36952669721847
 21
5.647418930699582
 31
0.0
  0
LINE
  5
F101FC
330
261
100
AcDbEntity
  8
Geo
100
AcDbLine
 10
-12.36952669721847
 20
5.647418930699582
 30
0.0
 11
-12.26952669721846
 21
5.654073541754477
 31
0.0
  0
LINE
  5
F101FE
330
261
100
AcDbEntity
  8
Geo
100
AcDbLine
 10
-12.26952669721846
 20
5.654073541754477
 30
0.0
 11
-12.16952669721847
 21
5.66054104606438
 31
0.0
  0
LINE
  5
F10200
330
261
100
AcDbEntity
  8
Geo
100
AcDbLine
 10
-12.16952669721847
 20
5.66054104606438
 30
0.0
 11
-12.06952669721847
 21
5.666824702796477
 31
0.0
  0
LINE
  5
F10202
330
261
100
AcDbEntity
  8
Geo
100
AcDbLine
 10
-12.06952669721847
 20
5.666824702796477
 30
0.0
 11
-11.96952669721847
 21
5.672927726552476
 31
0.0
  0
LINE
  5
F10204
330
261
100
AcDbEntity
  8
Geo
100
AcDbLine
 10
-11.96952669721847
 20
5.672927726552476
 30
0.0
 11
-11.86952669721847
 21
5.678853286005883
 31
0.0
  0
LINE
  5
F10206
330
261
100
AcDbEntity
  8
Geo
100
AcDbLine
 10
-11.86952669721847
 20
5.678853286005883
 30
0.0
 11
-11.76952669721846
 21
5.684604502587379
 31
0.0
  0
LINE
  5
F10208
330
261
100
AcDbEntity
  8
Geo
100
AcDbLine
 10
-11.76952669721846
 20
5.684604502587379
 30
0.0
 11
-11.66952669721847
 21
5.690184449215879
 31
0.0
  0
LINE
  5
F1020A
330
261
100
AcDbEntity
  8
Geo
100
AcDbLine
 10
-11.66952669721847
 20
5.690184449215879
 30
0.0
 11
-11.56952669721847
 21
5.695596149075078
 31
0.0
  0
LINE
  5
F1020C
330
261
100
AcDbEntity
  8
Geo
100
AcDbLine
 10
-11.56952669721847
 20
5.695596149075078
 30
0.0
 11
-11.46952669721847
 21
5.70084257443388
 31
0.0
  0
LINE
  5
F1020E
330
261
100
AcDbEntity
  8
Geo
100
AcDbLine
 10
-11.46952669721847
 20
5.70084257443388
 30
0.0
 11
-11.36952669721847
 21
5.705926645510182
 31
0.0
  0
LINE
  5
F10210
330
261
100
AcDbEntity
  8
Geo
100
AcDbLine
 10
-11.36952669721847
 20
5.705926645510182
 30
0.0
 11
-11.26952669721847
 21
5.710851229376384
 31
0.0
  0
LINE
  5
F10212
330
261
100
AcDbEntity
  8
Geo
100
AcDbLine
 10
-11.26952669721847
 20
5.710851229376384
 30
0.0
 11
-11.16952669721847
 21
5.715619138905976
 31
0.0
  0
LINE
  5
F10214
330
261
100
AcDbEntity
  8
Geo
100
AcDbLine
 10
-11.16952669721847
 20
5.715619138905976
 30
0.0
 11
-11.06952669721847
 21
5.720233131759974
 31
0.0
  0
LINE
  5
F10216
330
261
100
AcDbEntity
  8
Geo
100
AcDbLine
 10
-11.06952669721847
 20
5.720233131759974
 30
0.0
 11
-10.96952669721847
 21
5.72469590941208
 31
0.0
  0
LINE
  5
F10218
330
261
100
AcDbEntity
  8
Geo
100
AcDbLine
 10
-10.96952669721847
 20
5.72469590941208
 30
0.0
 11
-10.86952669721847
 21
5.729010116212581
 31
0.0
  0
LINE
  5
F1021A
330
261
100
AcDbEntity
  8
Geo
100
AcDbLine
 10
-10.86952669721847
 20
5.729010116212581
 30
0.0
 11
-10.76952669721847
 21
5.733178338487582
 31
0.0
  0
LINE
  5
F1021C
330
261
100
AcDbEntity
  8
Geo
100
AcDbLine
 10
-10.76952669721847
 20
5.733178338487582
 30
0.0
 11
-10.66952669721847
 21
5.73720310367588
 31
0.0
  0
LINE
  5
F1021E
330
261
100
AcDbEntity
  8
Geo
100
AcDbLine
 10
-10.66952669721847
 20
5.73720310367588
 30
0.0
 11
-10.56952669721847
 21
5.741086879499881
 31
0.0
  0
LINE
  5
F10220
330
261
100
AcDbEntity
  8
Geo
100
AcDbLine
 10
-10.56952669721847
 20
5.741086879499881
 30
0.0
 11
-10.46952669721847
 21
5.74483207317058
 31
0.0
  0
LINE
  5
F10222
330
261
100
AcDbEntity
  8
Geo
100
AcDbLine
 10
-27.46952669721848
 20
4.180667645465681
 30
0.0
 11
-27.36952669721848
 21
4.10546443717158
 31
0.0
  0
LINE
  5
F10224
330
261
100
AcDbEntity
  8
Geo
100
AcDbLine
 10
-27.36952669721848
 20
4.10546443717158
 30
0.0
 11
-27.26952669721848
 21
4.006883412359182
 31
0.0
  0
LINE
  5
F10226
330
261
100
AcDbEntity
  8
Geo
100
AcDbLine
 10
-27.26952669721848
 20
4.006883412359182
 30
0.0
 11
-27.16952669721848
 21
3.907711556858181
 31
0.0
  0
LINE
  5
F10228
330
261
100
AcDbEntity
  8
Geo
100
AcDbLine
 10
-27.16952669721848
 20
3.907711556858181
 30
0.0
 11
-27.06952669721848
 21
3.808107524481878
 31
0.0
  0
LINE
  5
F1022A
330
261
100
AcDbEntity
  8
Geo
100
AcDbLine
 10
-27.06952669721848
 20
3.808107524481878
 30
0.0
 11
-26.96952669721848
 21
3.708230660434479
 31
0.0
  0
LINE
  5
F1022C
330
261
100
AcDbEntity
  8
Geo
100
AcDbLine
 10
-26.96952669721848
 20
3.708230660434479
 30
0.0
 11
-26.86952669721847
 21
3.608240746392378
 31
0.0
  0
LINE
  5
F1022E
330
261
100
AcDbEntity
  8
Geo
100
AcDbLine
 10
-26.86952669721847
 20
3.608240746392378
 30
0.0
 11
-26.76952669721848
 21
3.508297744888082
 31
0.0
  0
LINE
  5
F10230
330
261
100
AcDbEntity
  8
Geo
100
AcDbLine
 10
-26.76952669721848
 20
3.508297744888082
 30
0.0
 11
-26.66952669721848
 21
3.408561543403879
 31
0.0
  0
LINE
  5
F10232
330
261
100
AcDbEntity
  8
Geo
100
AcDbLine
 10
-26.66952669721848
 20
3.408561543403879
 30
0.0
 11
-26.56952669721848
 21
3.309191698586278
 31
0.0
  0
LINE
  5
F10234
330
261
100
AcDbEntity
  8
Geo
100
AcDbLine
 10
-26.56952669721848
 20
3.309191698586278
 30
0.0
 11
-26.46952669721848
 21
3.210347180989279
 31
0.0
  0
LINE
  5
F10236
330
261
100
AcDbEntity
  8
Geo
100
AcDbLine
 10
-26.46952669721848
 20
3.210347180989279
 30
0.0
 11
-26.36952669721848
 21
3.112186120755279
 31
0.0
  0
LINE
  5
F10238
330
261
100
AcDbEntity
  8
Geo
100
AcDbLine
 10
-26.36952669721848
 20
3.112186120755279
 30
0.0
 11
-26.26952669721848
 21
3.014865554640681
 31
0.0
  0
LINE
  5
F1023A
330
261
100
AcDbEntity
  8
Geo
100
AcDbLine
 10
-26.26952669721848
 20
3.014865554640681
 30
0.0
 11
-26.16952669721848
 21
2.918541174790681
 31
0.0
  0
LINE
  5
F1023C
330
261
100
AcDbEntity
  8
Geo
100
AcDbLine
 10
-26.16952669721848
 20
2.918541174790681
 30
0.0
 11
-26.06952669721848
 21
2.823367079664978
 31
0.0
  0
LINE
  5
F1023E
330
261
100
AcDbEntity
  8
Geo
100
AcDbLine
 10
-26.06952669721848
 20
2.823367079664978
 30
0.0
 11
-25.96952669721848
 21
2.72949552751308
 31
0.0
  0
LINE
  5
F10240
330
261
100
AcDbEntity
  8
Geo
100
AcDbLine
 10
-25.96952669721848
 20
2.72949552751308
 30
0.0
 11
-25.86952669721848
 21
2.637076692793478
 31
0.0
  0
LINE
  5
F10242
330
261
100
AcDbEntity
  8
Geo
100
AcDbLine
 10
-25.86952669721848
 20
2.637076692793478
 30
0.0
 11
-25.76952669721848
 21
2.546258425926779
 31
0.0
  0
LINE
  5
F10244
330
261
100
AcDbEntity
  8
Geo
100
AcDbLine
 10
-25.76952669721848
 20
2.546258425926779
 30
0.0
 11
-25.66952669721848
 21
2.457186016766478
 31
0.0
  0
LINE
  5
F10246
330
261
100
AcDbEntity
  8
Geo
100
AcDbLine
 10
-25.66952669721848
 20
2.457186016766478
 30
0.0
 11
-25.56952669721848
 21
2.370001962166082
 31
0.0
  0
LINE
  5
F10248
330
261
100
AcDbEntity
  8
Geo
100
AcDbLine
 10
-25.56952669721848
 20
2.370001962166082
 30
0.0
 11
-25.46952669721848
 21
2.284845738014779
 31
0.0
  0
LINE
  5
F1024A
330
261
100
AcDbEntity
  8
Geo
100
AcDbLine
 10
-25.46952669721848
 20
2.284845738014779
 30
0.0
 11
-25.36952669721848
 21
2.201853576105381
 31
0.0
  0
LINE
  5
F1024C
330
261
100
AcDbEntity
  8
Geo
100
AcDbLine
 10
-25.36952669721848
 20
2.201853576105381
 30
0.0
 11
-25.26952669721848
 21
2.12115824619298
 31
0.0
  0
LINE
  5
F1024E
330
261
100
AcDbEntity
  8
Geo
100
AcDbLine
 10
-25.26952669721848
 20
2.12115824619298
 30
0.0
 11
-25.16952669721848
 21
2.042888843591278
 31
0.0
  0
LINE
  5
F10250
330
261
100
AcDbEntity
  8
Geo
100
AcDbLine
 10
-25.16952669721848
 20
2.042888843591278
 30
0.0
 11
-25.06952669721848
 21
1.967170582647979
 31
0.0
  0
LINE
  5
F10252
330
261
100
AcDbEntity
  8
Geo
100
AcDbLine
 10
-25.06952669721848
 20
1.967170582647979
 30
0.0
 11
-24.96952669721848
 21
1.894124596428181
 31
0.0
  0
LINE
  5
F10254
330
261
100
AcDbEntity
  8
Geo
100
AcDbLine
 10
-24.96952669721848
 20
1.894124596428181
 30
0.0
 11
-24.86952669721848
 21
1.823867742927383
 31
0.0
  0
LINE
  5
F10256
330
261
100
AcDbEntity
  8
Geo
100
AcDbLine
 10
-24.86952669721848
 20
1.823867742927383
 30
0.0
 11
-24.76952669721848
 21
1.756512418123978
 31
0.0
  0
LINE
  5
F10258
330
261
100
AcDbEntity
  8
Geo
100
AcDbLine
 10
-24.76952669721848
 20
1.756512418123978
 30
0.0
 11
-24.66952669721848
 21
1.692166376169381
 31
0.0
  0
LINE
  5
F1025A
330
261
100
AcDbEntity
  8
Geo
100
AcDbLine
 10
-24.66952669721848
 20
1.692166376169381
 30
0.0
 11
-24.56952669721848
 21
1.630932557004079
 31
0.0
  0
LINE
  5
F1025C
330
261
100
AcDbEntity
  8
Geo
100
AcDbLine
 10
-24.56952669721848
 20
1.630932557004079
 30
0.0
 11
-24.46952669721848
 21
1.572908921676379
 31
0.0
  0
LINE
  5
F1025E
330
261
100
AcDbEntity
  8
Geo
100
AcDbLine
 10
-24.46952669721848
 20
1.572908921676379
 30
0.0
 11
-24.36952669721847
 21
1.518188295624976
 31
0.0
  0
LINE
  5
F10260
330
261
100
AcDbEntity
  8
Geo
100
AcDbLine
 10
-24.36952669721847
 20
1.518188295624976
 30
0.0
 11
-24.26952669721848
 21
1.466858220178579
 31
0.0
  0
LINE
  5
F10262
330
261
100
AcDbEntity
  8
Geo
100
AcDbLine
 10
-24.26952669721848
 20
1.466858220178579
 30
0.0
 11
-24.16952669721848
 21
1.419000812507981
 31
0.0
  0
LINE
  5
F10264
330
261
100
AcDbEntity
  8
Geo
100
AcDbLine
 10
-24.16952669721848
 20
1.419000812507981
 30
0.0
 11
-24.06952669721848
 21
1.374692634256379
 31
0.0
  0
LINE
  5
F10266
330
261
100
AcDbEntity
  8
Geo
100
AcDbLine
 10
-24.06952669721848
 20
1.374692634256379
 30
0.0
 11
-23.96952669721848
 21
1.334004569057182
 31
0.0
  0
LINE
  5
F10268
330
261
100
AcDbEntity
  8
Geo
100
AcDbLine
 10
-23.96952669721848
 20
1.334004569057182
 30
0.0
 11
-23.86952669721848
 21
1.297001709134882
 31
0.0
  0
LINE
  5
F1026A
330
261
100
AcDbEntity
  8
Geo
100
AcDbLine
 10
-23.86952669721848
 20
1.297001709134882
 30
0.0
 11
-23.76952669721848
 21
1.26374325117208
 31
0.0
  0
LINE
  5
F1026C
330
261
100
AcDbEntity
  8
Geo
100
AcDbLine
 10
-23.76952669721848
 20
1.26374325117208
 30
0.0
 11
-23.66952669721848
 21
1.234282401606478
 31
0.0
  0
LINE
  5
F1026E
330
261
100
AcDbEntity
  8
Geo
100
AcDbLine
 10
-23.66952669721848
 20
1.234282401606478
 30
0.0
 11
-23.56952669721848
 21
1.208666291512975
 31
0.0
  0
LINE
  5
F10270
330
261
100
AcDbEntity
  8
Geo
100
AcDbLine
 10
-23.56952669721848
 20
1.208666291512975
 30
0.0
 11
-23.46952669721848
 21
1.186935901203082
 31
0.0
  0
LINE
  5
F10272
330
261
100
AcDbEntity
  8
Geo
100
AcDbLine
 10
-23.46952669721848
 20
1.186935901203082
 30
0.0
 11
-23.36952669721847
 21
1.16912599466578
 31
0.0
  0
LINE
  5
F10274
330
261
100
AcDbEntity
  8
Geo
100
AcDbLine
 10
-23.36952669721847
 20
1.16912599466578
 30
0.0
 11
-23.26952669721848
 21
1.15526506395238
 31
0.0
  0
LINE
  5
F10276
330
261
100
AcDbEntity
  8
Geo
100
AcDbLine
 10
-23.26952669721848
 20
1.15526506395238
 30
0.0
 11
-23.16952669721848
 21
1.145375283594979
 31
0.0
  0
LINE
  5
F10278
330
261
100
AcDbEntity
  8
Geo
100
AcDbLine
 10
-23.16952669721848
 20
1.145375283594979
 30
0.0
 11
-23.06952669721848
 21
1.139472475132577
 31
0.0
  0
LINE
  5
F1027A
330
261
100
AcDbEntity
  8
Geo
100
AcDbLine
 10
-15.16952669721847
 20
6.137031517641477
 30
0.0
 11
-15.06952669721847
 21
6.13709741455078
 31
0.0
  0
LINE
  5
F1027C
330
261
100
AcDbEntity
  8
Geo
100
AcDbLine
 10
-15.06952669721847
 20
6.13709741455078
 30
0.0
 11
-14.96952669721848
 21
6.133164592789476
 31
0.0
  0
LINE
  5
F1027E
330
261
100
AcDbEntity
  8
Geo
100
AcDbLine
 10
-14.96952669721848
 20
6.133164592789476
 30
0.0
 11
-14.86952669721847
 21
6.125239344033378
 31
0.0
  0
LINE
  5
F10280
330
261
100
AcDbEntity
  8
Geo
100
AcDbLine
 10
-14.86952669721847
 20
6.125239344033378
 30
0.0
 11
-14.76952669721847
 21
6.113334346989879
 31
0.0
  0
LINE
  5
F10282
330
261
100
AcDbEntity
  8
Geo
100
AcDbLine
 10
-14.76952669721847
 20
6.113334346989879
 30
0.0
 11
-14.66952669721847
 21
6.097468647114681
 31
0.0
  0
LINE
  5
F10284
330
261
100
AcDbEntity
  8
Geo
100
AcDbLine
 10
-14.66952669721847
 20
6.097468647114681
 30
0.0
 11
-14.56952669721847
 21
6.077667626143077
 31
0.0
  0
LINE
  5
F10286
330
261
100
AcDbEntity
  8
Geo
100
AcDbLine
 10
-14.56952669721847
 20
6.077667626143077
 30
0.0
 11
-14.46952669721848
 21
6.053962961484677
 31
0.0
  0
LINE
  5
F10288
330
261
100
AcDbEntity
  8
Geo
100
AcDbLine
 10
-14.46952669721848
 20
6.053962961484677
 30
0.0
 11
-14.36952669721847
 21
5.883062920544976
 31
0.0
  0
LINE
  5
F1028A
330
261
100
AcDbEntity
  8
Geo
100
AcDbLine
 10
-14.36952669721847
 20
5.883062920544976
 30
0.0
 11
-14.26952669721847
 21
5.853554440091378
 31
0.0
  0
LINE
  5
F1028C
330
261
100
AcDbEntity
  8
Geo
100
AcDbLine
 10
-14.26952669721847
 20
5.853554440091378
 30
0.0
 11
-14.16952669721847
 21
5.820500849240277
 31
0.0
  0
LINE
  5
F1028E
330
261
100
AcDbEntity
  8
Geo
100
AcDbLine
 10
-14.16952669721847
 20
5.820500849240277
 30
0.0
 11
-14.06952669721847
 21
5.783955026686181
 31
0.0
  0
LINE
  5
F10290
330
261
100
AcDbEntity
  8
Geo
100
AcDbLine
 10
-14.06952669721847
 20
5.783955026686181
 30
0.0
 11
-13.96952669721847
 21
5.743975437948878
 31
0.0
  0
LINE
  5
F10292
330
261
100
AcDbEntity
  8
Geo
100
AcDbLine
 10
-13.96952669721847
 20
5.743975437948878
 30
0.0
 11
-13.86952669721847
 21
5.700626041842077
 31
0.0
  0
LINE
  5
F10294
330
261
100
AcDbEntity
  8
Geo
100
AcDbLine
 10
-13.86952669721847
 20
5.700626041842077
 30
0.0
 11
-13.76952669721847
 21
5.653976188151978
 31
0.0
  0
LINE
  5
F10296
330
261
100
AcDbEntity
  8
Geo
100
AcDbLine
 10
-13.76952669721847
 20
5.653976188151978
 30
0.0
 11
-13.66952669721847
 21
5.604100506693182
 31
0.0
  0
LINE
  5
F10298
330
261
100
AcDbEntity
  8
Geo
100
AcDbLine
 10
-13.66952669721847
 20
5.604100506693182
 30
0.0
 11
-13.56952669721847
 21
5.551078787916384
 31
0.0
  0
LINE
  5
F1029A
330
261
100
AcDbEntity
  8
Geo
100
AcDbLine
 10
-13.56952669721847
 20
5.551078787916384
 30
0.0
 11
-13.46952669721847
 21
5.494995855260881
 31
0.0
  0
LINE
  5
F1029C
330
261
100
AcDbEntity
  8
Geo
100
AcDbLine
 10
-13.46952669721847
 20
5.494995855260881
 30
0.0
 11
-13.36952669721847
 21
5.413072385151583
 31
0.0
  0
LINE
  5
F1029E
330
261
100
AcDbEntity
  8
Geo
100
AcDbLine
 10
-13.36952669721847
 20
5.413072385151583
 30
0.0
 11
-13.26952669721847
 21
5.326786317813777
 31
0.0
  0
LINE
  5
F102A0
330
261
100
AcDbEntity
  8
Geo
100
AcDbLine
 10
-13.26952669721847
 20
5.326786317813777
 30
0.0
 11
-13.16952669721847
 21
5.236566183208879
 31
0.0
  0
LINE
  5
F102A2
330
261
100
AcDbEntity
  8
Geo
100
AcDbLine
 10
-13.16952669721847
 20
5.236566183208879
 30
0.0
 11
-13.06952669721847
 21
5.142835455389381
 31
0.0
  0
LINE
  5
F102A4
330
261
100
AcDbEntity
  8
Geo
100
AcDbLine
 10
-13.06952669721847
 20
5.142835455389381
 30
0.0
 11
-12.96952669721847
 21
5.046010740199181
 31
0.0
  0
LINE
  5
F102A6
330
261
100
AcDbEntity
  8
Geo
100
AcDbLine
 10
-12.96952669721847
 20
5.046010740199181
 30
0.0
 11
-12.86952669721847
 21
4.946500126528381
 31
0.0
  0
LINE
  5
F102A8
330
261
100
AcDbEntity
  8
Geo
100
AcDbLine
 10
-12.86952669721847
 20
4.946500126528381
 30
0.0
 11
-12.76952669721846
 21
4.844701699255079
 31
0.0
  0
LINE
  5
F102AA
330
261
100
AcDbEntity
  8
Geo
100
AcDbLine
 10
-12.76952669721846
 20
4.844701699255079
 30
0.0
 11
-12.66952669721847
 21
4.741002211007579
 31
0.0
  0
LINE
  5
F102AC
330
261
100
AcDbEntity
  8
Geo
100
AcDbLine
 10
-12.66952669721847
 20
4.741002211007579
 30
0.0
 11
-12.56952669721847
 21
4.635775908988381
 31
0.0
  0
LINE
  5
F102AE
330
261
100
AcDbEntity
  8
Geo
100
AcDbLine
 10
-12.56952669721847
 20
4.635775908988381
 30
0.0
 11
-12.46952669721847
 21
4.529383512325181
 31
0.0
  0
LINE
  5
F102B0
330
261
100
AcDbEntity
  8
Geo
100
AcDbLine
 10
-12.46952669721847
 20
4.529383512325181
 30
0.0
 11
-12.36952669721847
 21
4.42217133473628
 31
0.0
  0
LINE
  5
F102B2
330
261
100
AcDbEntity
  8
Geo
100
AcDbLine
 10
-12.36952669721847
 20
4.42217133473628
 30
0.0
 11
-12.26952669721846
 21
4.314470546728781
 31
0.0
  0
LINE
  5
F102B4
330
261
100
AcDbEntity
  8
Geo
100
AcDbLine
 10
-12.26952669721846
 20
4.314470546728781
 30
0.0
 11
-12.16952669721847
 21
4.206596571065777
 31
0.0
  0
LINE
  5
F102B6
330
261
100
AcDbEntity
  8
Geo
100
AcDbLine
 10
-12.16952669721847
 20
4.206596571065777
 30
0.0
 11
-12.06952669721847
 21
4.098848604856679
 31
0.0
  0
LINE
  5
F102B8
330
261
100
AcDbEntity
  8
Geo
100
AcDbLine
 10
-12.06952669721847
 20
4.098848604856679
 30
0.0
 11
-11.96952669721847
 21
3.991509261322779
 31
0.0
  0
LINE
  5
F102BA
330
261
100
AcDbEntity
  8
Geo
100
AcDbLine
 10
-11.96952669721847
 20
3.991509261322779
 30
0.0
 11
-11.86952669721847
 21
3.884844324066679
 31
0.0
  0
LINE
  5
F102BC
330
261
100
AcDbEntity
  8
Geo
100
AcDbLine
 10
-11.86952669721847
 20
3.884844324066679
 30
0.0
 11
-11.76952669721846
 21
3.779102606529078
 31
0.0
  0
LINE
  5
F102BE
330
261
100
AcDbEntity
  8
Geo
100
AcDbLine
 10
-11.76952669721846
 20
3.779102606529078
 30
0.0
 11
-11.66952669721847
 21
3.674515909236378
 31
0.0
  0
LINE
  5
F102C0
330
261
100
AcDbEntity
  8
Geo
100
AcDbLine
 10
-11.66952669721847
 20
3.674515909236378
 30
0.0
 11
-11.56952669721847
 21
3.571299067421779
 31
0.0
  0
LINE
  5
F102C2
330
261
100
AcDbEntity
  8
Geo
100
AcDbLine
 10
-11.56952669721847
 20
3.571299067421779
 30
0.0
 11
-11.46952669721847
 21
3.469650081644278
 31
0.0
  0
LINE
  5
F102C4
330
261
100
AcDbEntity
  8
Geo
100
AcDbLine
 10
-11.46952669721847
 20
3.469650081644278
 30
0.0
 11
-11.36952669721847
 21
3.369750324116181
 31
0.0
  0
LINE
  5
F102C6
330
261
100
AcDbEntity
  8
Geo
100
AcDbLine
 10
-11.36952669721847
 20
3.369750324116181
 30
0.0
 11
-11.26952669721847
 21
3.271764813582978
 31
0.0
  0
LINE
  5
F102C8
330
261
100
AcDbEntity
  8
Geo
100
AcDbLine
 10
-11.26952669721847
 20
3.271764813582978
 30
0.0
 11
-11.16952669721847
 21
3.175842551772478
 31
0.0
  0
LINE
  5
F102CA
330
261
100
AcDbEntity
  8
Geo
100
AcDbLine
 10
-11.16952669721847
 20
3.175842551772478
 30
0.0
 11
-11.06952669721847
 21
3.082116914635078
 31
0.0
  0
LINE
  5
F102CC
330
261
100
AcDbEntity
  8
Geo
100
AcDbLine
 10
-11.06952669721847
 20
3.082116914635078
 30
0.0
 11
-10.96952669721847
 21
2.990706091836379
 31
0.0
  0
LINE
  5
F102CE
330
261
100
AcDbEntity
  8
Geo
100
AcDbLine
 10
-10.96952669721847
 20
2.990706091836379
 30
0.0
 11
-10.86952669721847
 21
2.901713568218081
 31
0.0
  0
LINE
  5
F102D0
330
261
100
AcDbEntity
  8
Geo
100
AcDbLine
 10
-10.86952669721847
 20
2.901713568218081
 30
0.0
 11
-10.76952669721847
 21
2.815228641228976
 31
0.0
  0
LINE
  5
F102D2
330
261
100
AcDbEntity
  8
Geo
100
AcDbLine
 10
-10.76952669721847
 20
2.815228641228976
 30
0.0
 11
-10.66952669721847
 21
2.731326968620681
 31
0.0
  0
LINE
  5
F102D4
330
261
100
AcDbEntity
  8
Geo
100
AcDbLine
 10
-10.66952669721847
 20
2.731326968620681
 30
0.0
 11
-10.56952669721847
 21
2.65007114101288
 31
0.0
  0
LINE
  5
F102D6
330
261
100
AcDbEntity
  8
Geo
100
AcDbLine
 10
-10.56952669721847
 20
2.65007114101288
 30
0.0
 11
-10.46952669721847
 21
2.571511274249878
 31
0.0
  0
LINE
  5
F102D8
330
261
100
AcDbEntity
  8
Geo
100
AcDbLine
 10
-27.46952669721848
 20
1.32020069539228
 30
0.0
 11
-27.36952669721848
 21
1.199566755771279
 31
0.0
  0
LINE
  5
F102DA
330
261
100
AcDbEntity
  8
Geo
100
AcDbLine
 10
-27.36952669721848
 20
1.199566755771279
 30
0.0
 11
-27.26952669721848
 21
1.179389938950182
 31
0.0
  0
LINE
  5
F102DC
330
261
100
AcDbEntity
  8
Geo
100
AcDbLine
 10
-27.26952669721848
 20
1.179389938950182
 30
0.0
 11
-27.16952669721848
 21
1.163145677831475
 31
0.0
  0
LINE
  5
F102DE
330
261
100
AcDbEntity
  8
Geo
100
AcDbLine
 10
-27.16952669721848
 20
1.163145677831475
 30
0.0
 11
-27.06952669721848
 21
1.150859959767777
 31
0.0
  0
LINE
  5
F102E0
330
261
100
AcDbEntity
  8
Geo
100
AcDbLine
 10
-27.06952669721848
 20
1.150859959767777
 30
0.0
 11
-26.96952669721848
 21
1.142552439287182
 31
0.0
  0
LINE
  5
F102E2
330
261
100
AcDbEntity
  8
Geo
100
AcDbLine
 10
-26.96952669721848
 20
1.142552439287182
 30
0.0
 11
-26.86952669721847
 21
1.138236406650281
 31
0.0
  0
LINE
  5
F102E4
330
261
100
AcDbEntity
  8
Geo
100
AcDbLine
 10
-18.96952669721848
 20
6.137536559811582
 30
0.0
 11
-18.86952669721847
 21
6.136013647360882
 31
0.0
  0
LINE
  5
F102E6
330
261
100
AcDbEntity
  8
Geo
100
AcDbLine
 10
-18.86952669721847
 20
6.136013647360882
 30
0.0
 11
-18.76952669721847
 21
6.13049375003588
 31
0.0
  0
LINE
  5
F102E8
330
261
100
AcDbEntity
  8
Geo
100
AcDbLine
 10
-18.76952669721847
 20
6.13049375003588
 30
0.0
 11
-18.66952669721847
 21
6.120985698494777
 31
0.0
  0
LINE
  5
F102EA
330
261
100
AcDbEntity
  8
Geo
100
AcDbLine
 10
-18.66952669721847
 20
6.120985698494777
 30
0.0
 11
-18.56952669721847
 21
6.107504703591677
 31
0.0
  0
LINE
  5
F102EC
330
261
100
AcDbEntity
  8
Geo
100
AcDbLine
 10
-18.56952669721847
 20
6.107504703591677
 30
0.0
 11
-18.46952669721847
 21
6.09007233204278
 31
0.0
  0
LINE
  5
F102EE
330
261
100
AcDbEntity
  8
Geo
100
AcDbLine
 10
-18.46952669721847
 20
6.09007233204278
 30
0.0
 11
-18.36952669721847
 21
6.068716471923782
 31
0.0
  0
LINE
  5
F102F0
330
261
100
AcDbEntity
  8
Geo
100
AcDbLine
 10
-18.36952669721847
 20
6.068716471923782
 30
0.0
 11
-18.26952669721847
 21
6.043471288055179
 31
0.0
  0
LINE
  5
F102F2
330
261
100
AcDbEntity
  8
Geo
100
AcDbLine
 10
-18.26952669721847
 20
6.043471288055179
 30
0.0
 11
-18.16952669721847
 21
6.014377167345879
 31
0.0
  0
LINE
  5
F102F4
330
261
100
AcDbEntity
  8
Geo
100
AcDbLine
 10
-18.16952669721847
 20
6.014377167345879
 30
0.0
 11
-18.06952669721846
 21
5.981480654182477
 31
0.0
  0
LINE
  5
F102F6
330
261
100
AcDbEntity
  8
Geo
100
AcDbLine
 10
-18.06952669721846
 20
5.981480654182477
 30
0.0
 11
-17.96952669721848
 21
5.944834375968579
 31
0.0
  0
LINE
  5
F102F8
330
261
100
AcDbEntity
  8
Geo
100
AcDbLine
 10
-17.96952669721848
 20
5.944834375968579
 30
0.0
 11
-17.86952669721847
 21
5.904496958931878
 31
0.0
  0
LINE
  5
F102FA
330
261
100
AcDbEntity
  8
Geo
100
AcDbLine
 10
-17.86952669721847
 20
5.904496958931878
 30
0.0
 11
-17.76952669721846
 21
5.860532934334777
 31
0.0
  0
LINE
  5
F102FC
330
261
100
AcDbEntity
  8
Geo
100
AcDbLine
 10
-17.76952669721846
 20
5.860532934334777
 30
0.0
 11
-17.66952669721847
 21
5.813012635238179
 31
0.0
  0
LINE
  5
F102FE
330
261
100
AcDbEntity
  8
Geo
100
AcDbLine
 10
-17.66952669721847
 20
5.813012635238179
 30
0.0
 11
-17.56952669721847
 21
5.762012083983383
 31
0.0
  0
LINE
  5
F10300
330
261
100
AcDbEntity
  8
Geo
100
AcDbLine
 10
-17.56952669721847
 20
5.762012083983383
 30
0.0
 11
-17.46952669721848
 21
5.707612870572879
 31
0.0
  0
LINE
  5
F10302
330
261
100
AcDbEntity
  8
Geo
100
AcDbLine
 10
-17.46952669721848
 20
5.707612870572879
 30
0.0
 11
-17.36952669721847
 21
5.649902022143777
 31
0.0
  0
LINE
  5
F10304
330
261
100
AcDbEntity
  8
Geo
100
AcDbLine
 10
-17.36952669721847
 20
5.649902022143777
 30
0.0
 11
-17.26952669721847
 21
5.58897186374228
 31
0.0
  0
LINE
  5
F10306
330
261
100
AcDbEntity
  8
Geo
100
AcDbLine
 10
-17.26952669721847
 20
5.58897186374228
 30
0.0
 11
-17.16952669721847
 21
5.524919870624279
 31
0.0
  0
LINE
  5
F10308
330
261
100
AcDbEntity
  8
Geo
100
AcDbLine
 10
-17.16952669721847
 20
5.524919870624279
 30
0.0
 11
-17.06952669721847
 21
5.457848512315081
 31
0.0
  0
LINE
  5
F1030A
330
261
100
AcDbEntity
  8
Geo
100
AcDbLine
 10
-17.06952669721847
 20
5.457848512315081
 30
0.0
 11
-16.96952669721848
 21
5.387865088680078
 31
0.0
  0
LINE
  5
F1030C
330
261
100
AcDbEntity
  8
Geo
100
AcDbLine
 10
-16.96952669721848
 20
5.387865088680078
 30
0.0
 11
-16.86952669721847
 21
5.315081558268178
 31
0.0
  0
LINE
  5
F1030E
330
261
100
AcDbEntity
  8
Geo
100
AcDbLine
 10
-16.86952669721847
 20
5.315081558268178
 30
0.0
 11
-16.76952669721847
 21
5.239614359201683
 31
0.0
  0
LINE
  5
F10310
330
261
100
AcDbEntity
  8
Geo
100
AcDbLine
 10
-16.76952669721847
 20
5.239614359201683
 30
0.0
 11
-16.66952669721847
 21
5.161584222900181
 31
0.0
  0
LINE
  5
F10312
330
261
100
AcDbEntity
  8
Geo
100
AcDbLine
 10
-16.66952669721847
 20
5.161584222900181
 30
0.0
 11
-16.56952669721847
 21
5.081115980936377
 31
0.0
  0
LINE
  5
F10314
330
261
100
AcDbEntity
  8
Geo
100
AcDbLine
 10
-16.56952669721847
 20
5.081115980936377
 30
0.0
 11
-16.46952669721847
 21
4.998338365331683
 31
0.0
  0
LINE
  5
F10316
330
261
100
AcDbEntity
  8
Geo
100
AcDbLine
 10
-16.46952669721847
 20
4.998338365331683
 30
0.0
 11
-16.36952669721847
 21
4.913383802612879
 31
0.0
  0
LINE
  5
F10318
330
261
100
AcDbEntity
  8
Geo
100
AcDbLine
 10
-16.36952669721847
 20
4.913383802612879
 30
0.0
 11
-16.26952669721847
 21
4.826388201957477
 31
0.0
  0
LINE
  5
F1031A
330
261
100
AcDbEntity
  8
Geo
100
AcDbLine
 10
-16.26952669721847
 20
4.826388201957477
 30
0.0
 11
-16.16952669721847
 21
4.737490737768577
 31
0.0
  0
LINE
  5
F1031C
330
261
100
AcDbEntity
  8
Geo
100
AcDbLine
 10
-16.16952669721847
 20
4.737490737768577
 30
0.0
 11
-16.06952669721847
 21
4.646833627025078
 31
0.0
  0
LINE
  5
F1031E
330
261
100
AcDbEntity
  8
Geo
100
AcDbLine
 10
-16.06952669721847
 20
4.646833627025078
 30
0.0
 11
-15.96952669721847
 21
4.55456190176498
 31
0.0
  0
LINE
  5
F10320
330
261
100
AcDbEntity
  8
Geo
100
AcDbLine
 10
-15.96952669721847
 20
4.55456190176498
 30
0.0
 11
-15.86952669721847
 21
4.460823177065183
 31
0.0
  0
LINE
  5
F10322
330
261
100
AcDbEntity
  8
Geo
100
AcDbLine
 10
-15.86952669721847
 20
4.460823177065183
 30
0.0
 11
-15.76952669721847
 21
4.365767414888683
 31
0.0
  0
LINE
  5
F10324
330
261
100
AcDbEntity
  8
Geo
100
AcDbLine
 10
-15.76952669721847
 20
4.365767414888683
 30
0.0
 11
-15.66952669721847
 21
4.269546684177381
 31
0.0
  0
LINE
  5
F10326
330
261
100
AcDbEntity
  8
Geo
100
AcDbLine
 10
-15.66952669721847
 20
4.269546684177381
 30
0.0
 11
-15.56952669721847
 21
4.172314917574477
 31
0.0
  0
LINE
  5
F10328
330
261
100
AcDbEntity
  8
Geo
100
AcDbLine
 10
-15.56952669721847
 20
4.172314917574477
 30
0.0
 11
-15.46952669721848
 21
4.074227665164779
 31
0.0
  0
LINE
  5
F1032A
330
261
100
AcDbEntity
  8
Geo
100
AcDbLine
 10
-15.46952669721848
 20
4.074227665164779
 30
0.0
 11
-15.36952669721847
 21
3.975441845628181
 31
0.0
  0
LINE
  5
F1032C
330
261
100
AcDbEntity
  8
Geo
100
AcDbLine
 10
-15.36952669721847
 20
3.975441845628181
 30
0.0
 11
-15.26952669721847
 21
3.876115495202578
 31
0.0
  0
LINE
  5
F1032E
330
261
100
AcDbEntity
  8
Geo
100
AcDbLine
 10
-15.26952669721847
 20
3.876115495202578
 30
0.0
 11
-15.16952669721847
 21
3.776407514860276
 31
0.0
  0
LINE
  5
F10330
330
261
100
AcDbEntity
  8
Geo
100
AcDbLine
 10
-15.16952669721847
 20
3.776407514860276
 30
0.0
 11
-15.06952669721847
 21
3.676477416099778
 31
0.0
  0
LINE
  5
F10332
330
261
100
AcDbEntity
  8
Geo
100
AcDbLine
 10
-15.06952669721847
 20
3.676477416099778
 30
0.0
 11
-14.96952669721848
 21
3.576485065761977
 31
0.0
  0
LINE
  5
F10334
330
261
100
AcDbEntity
  8
Geo
100
AcDbLine
 10
-14.96952669721848
 20
3.576485065761977
 30
0.0
 11
-14.86952669721847
 21
3.476590430276778
 31
0.0
  0
LINE
  5
F10336
330
261
100
AcDbEntity
  8
Geo
100
AcDbLine
 10
-14.86952669721847
 20
3.476590430276778
 30
0.0
 11
-14.76952669721847
 21
3.376953319751278
 31
0.0
  0
LINE
  5
F10338
330
261
100
AcDbEntity
  8
Geo
100
AcDbLine
 10
-14.76952669721847
 20
3.376953319751278
 30
0.0
 11
-14.66952669721847
 21
3.277733132307381
 31
0.0
  0
LINE
  5
F1033A
330
261
100
AcDbEntity
  8
Geo
100
AcDbLine
 10
-14.66952669721847
 20
3.277733132307381
 30
0.0
 11
-14.56952669721847
 21
3.179088599079381
 31
0.0
  0
LINE
  5
F1033C
330
261
100
AcDbEntity
  8
Geo
100
AcDbLine
 10
-14.56952669721847
 20
3.179088599079381
 30
0.0
 11
-14.46952669721848
 21
3.081177530277183
 31
0.0
  0
LINE
  5
F1033E
330
261
100
AcDbEntity
  8
Geo
100
AcDbLine
 10
-14.46952669721848
 20
3.081177530277183
 30
0.0
 11
-14.36952669721847
 21
3.02336106849258
 31
0.0
  0
LINE
  5
F10340
330
261
100
AcDbEntity
  8
Geo
100
AcDbLine
 10
-14.36952669721847
 20
3.02336106849258
 30
0.0
 11
-14.26952669721847
 21
2.933143954247777
 31
0.0
  0
LINE
  5
F10342
330
261
100
AcDbEntity
  8
Geo
100
AcDbLine
 10
-14.26952669721847
 20
2.933143954247777
 30
0.0
 11
-14.16952669721847
 21
2.844053763395183
 31
0.0
  0
LINE
  5
F10344
330
261
100
AcDbEntity
  8
Geo
100
AcDbLine
 10
-14.16952669721847
 20
2.844053763395183
 30
0.0
 11
-14.06952669721847
 21
2.756233021235278
 31
0.0
  0
LINE
  5
F10346
330
261
100
AcDbEntity
  8
Geo
100
AcDbLine
 10
-14.06952669721847
 20
2.756233021235278
 30
0.0
 11
-13.96952669721847
 21
2.669822222221479
 31
0.0
  0
LINE
  5
F10348
330
261
100
AcDbEntity
  8
Geo
100
AcDbLine
 10
-13.96952669721847
 20
2.669822222221479
 30
0.0
 11
-13.86952669721847
 21
2.584959605198779
 31
0.0
  0
LINE
  5
F1034A
330
261
100
AcDbEntity
  8
Geo
100
AcDbLine
 10
-13.86952669721847
 20
2.584959605198779
 30
0.0
 11
-13.76952669721847
 21
2.501780932251477
 31
0.0
  0
LINE
  5
F1034C
330
261
100
AcDbEntity
  8
Geo
100
AcDbLine
 10
-13.76952669721847
 20
2.501780932251477
 30
0.0
 11
-13.66952669721847
 21
2.420419271512479
 31
0.0
  0
LINE
  5
F1034E
330
261
100
AcDbEntity
  8
Geo
100
AcDbLine
 10
-13.66952669721847
 20
2.420419271512479
 30
0.0
 11
-13.56952669721847
 21
2.34100478428258
 31
0.0
  0
LINE
  5
F10350
330
261
100
AcDbEntity
  8
Geo
100
AcDbLine
 10
-13.56952669721847
 20
2.34100478428258
 30
0.0
 11
-13.46952669721847
 21
2.26366451680058
 31
0.0
  0
LINE
  5
F10352
330
261
100
AcDbEntity
  8
Geo
100
AcDbLine
 10
-13.46952669721847
 20
2.26366451680058
 30
0.0
 11
-13.36952669721847
 21
2.275337958119879
 31
0.0
  0
LINE
  5
F10354
330
261
100
AcDbEntity
  8
Geo
100
AcDbLine
 10
-13.36952669721847
 20
2.275337958119879
 30
0.0
 11
-13.26952669721847
 21
2.286930967666979
 31
0.0
  0
LINE
  5
F10356
330
261
100
AcDbEntity
  8
Geo
100
AcDbLine
 10
-13.26952669721847
 20
2.286930967666979
 30
0.0
 11
-13.16952669721847
 21
2.298441444185079
 31
0.0
  0
LINE
  5
F10358
330
261
100
AcDbEntity
  8
Geo
100
AcDbLine
 10
-13.16952669721847
 20
2.298441444185079
 30
0.0
 11
-13.06952669721847
 21
2.309867331960681
 31
0.0
  0
LINE
  5
F1035A
330
261
100
AcDbEntity
  8
Geo
100
AcDbLine
 10
-13.06952669721847
 20
2.309867331960681
 30
0.0
 11
-12.96952669721847
 21
2.32120662022888
 31
0.0
  0
LINE
  5
F1035C
330
261
100
AcDbEntity
  8
Geo
100
AcDbLine
 10
-12.96952669721847
 20
2.32120662022888
 30
0.0
 11
-12.86952669721847
 21
2.332457342576478
 31
0.0
  0
LINE
  5
F1035E
330
261
100
AcDbEntity
  8
Geo
100
AcDbLine
 10
-12.86952669721847
 20
2.332457342576478
 30
0.0
 11
-12.76952669721846
 21
2.343617576341777
 31
0.0
  0
LINE
  5
F10360
330
261
100
AcDbEntity
  8
Geo
100
AcDbLine
 10
-12.76952669721846
 20
2.343617576341777
 30
0.0
 11
-12.66952669721847
 21
2.354685442012478
 31
0.0
  0
LINE
  5
F10362
330
261
100
AcDbEntity
  8
Geo
100
AcDbLine
 10
-12.66952669721847
 20
2.354685442012478
 30
0.0
 11
-12.56952669721847
 21
2.365659102621979
 31
0.0
  0
LINE
  5
F10364
330
261
100
AcDbEntity
  8
Geo
100
AcDbLine
 10
-12.56952669721847
 20
2.365659102621979
 30
0.0
 11
-12.46952669721847
 21
2.376536763143882
 31
0.0
  0
LINE
  5
F10366
330
261
100
AcDbEntity
  8
Geo
100
AcDbLine
 10
-12.46952669721847
 20
2.376536763143882
 30
0.0
 11
-12.36952669721847
 21
2.387316669885978
 31
0.0
  0
LINE
  5
F10368
330
261
100
AcDbEntity
  8
Geo
100
AcDbLine
 10
-12.36952669721847
 20
2.387316669885978
 30
0.0
 11
-12.26952669721846
 21
2.397997109882979
 31
0.0
  0
LINE
  5
F1036A
330
261
100
AcDbEntity
  8
Geo
100
AcDbLine
 10
-12.26952669721846
 20
2.397997109882979
 30
0.0
 11
-12.16952669721847
 21
2.408576410289779
 31
0.0
  0
LINE
  5
F1036C
330
261
100
AcDbEntity
  8
Geo
100
AcDbLine
 10
-12.16952669721847
 20
2.408576410289779
 30
0.0
 11
-12.06952669721847
 21
2.41905293777448
 31
0.0
  0
LINE
  5
F1036E
330
261
100
AcDbEntity
  8
Geo
100
AcDbLine
 10
-12.06952669721847
 20
2.41905293777448
 30
0.0
 11
-11.96952669721847
 21
2.429425097912079
 31
0.0
  0
LINE
  5
F10370
330
261
100
AcDbEntity
  8
Geo
100
AcDbLine
 10
-11.96952669721847
 20
2.429425097912079
 30
0.0
 11
-11.86952669721847
 21
2.43969133457888
 31
0.0
  0
LINE
  5
F10372
330
261
100
AcDbEntity
  8
Geo
100
AcDbLine
 10
-11.86952669721847
 20
2.43969133457888
 30
0.0
 11
-11.76952669721846
 21
2.449850129348681
 31
0.0
  0
LINE
  5
F10374
330
261
100
AcDbEntity
  8
Geo
100
AcDbLine
 10
-11.76952669721846
 20
2.449850129348681
 30
0.0
 11
-11.66952669721847
 21
2.459900000889579
 31
0.0
  0
LINE
  5
F10376
330
261
100
AcDbEntity
  8
Geo
100
AcDbLine
 10
-11.66952669721847
 20
2.459900000889579
 30
0.0
 11
-11.56952669721847
 21
2.469839504363882
 31
0.0
  0
LINE
  5
F10378
330
261
100
AcDbEntity
  8
Geo
100
AcDbLine
 10
-11.56952669721847
 20
2.469839504363882
 30
0.0
 11
-11.46952669721847
 21
2.479667230828879
 31
0.0
  0
LINE
  5
F1037A
330
261
100
AcDbEntity
  8
Geo
100
AcDbLine
 10
-11.46952669721847
 20
2.479667230828879
 30
0.0
 11
-11.36952669721847
 21
2.489381806641681
 31
0.0
  0
LINE
  5
F1037C
330
261
100
AcDbEntity
  8
Geo
100
AcDbLine
 10
-11.36952669721847
 20
2.489381806641681
 30
0.0
 11
-11.26952669721847
 21
2.498981892865582
 31
0.0
  0
LINE
  5
F1037E
330
261
100
AcDbEntity
  8
Geo
100
AcDbLine
 10
-11.26952669721847
 20
2.498981892865582
 30
0.0
 11
-11.16952669721847
 21
2.50846618468008
 31
0.0
  0
LINE
  5
F10380
330
261
100
AcDbEntity
  8
Geo
100
AcDbLine
 10
-11.16952669721847
 20
2.50846618468008
 30
0.0
 11
-11.06952669721847
 21
2.517833410794878
 31
0.0
  0
LINE
  5
F10382
330
261
100
AcDbEntity
  8
Geo
100
AcDbLine
 10
-11.06952669721847
 20
2.517833410794878
 30
0.0
 11
-10.96952669721847
 21
2.527082332866079
 31
0.0
  0
LINE
  5
F10384
330
261
100
AcDbEntity
  8
Geo
100
AcDbLine
 10
-10.96952669721847
 20
2.527082332866079
 30
0.0
 11
-10.86952669721847
 21
2.53621174491818
 31
0.0
  0
LINE
  5
F10386
330
261
100
AcDbEntity
  8
Geo
100
AcDbLine
 10
-10.86952669721847
 20
2.53621174491818
 30
0.0
 11
-10.76952669721847
 21
2.545220472768881
 31
0.0
  0
LINE
  5
F10388
330
261
100
AcDbEntity
  8
Geo
100
AcDbLine
 10
-10.76952669721847
 20
2.545220472768881
 30
0.0
 11
-10.66952669721847
 21
2.554107373459181
 31
0.0
  0
LINE
  5
F1038A
330
261
100
AcDbEntity
  8
Geo
100
AcDbLine
 10
-10.66952669721847
 20
2.554107373459181
 30
0.0
 11
-10.56952669721847
 21
2.562871334687581
 31
0.0
  0
LINE
  5
F1038C
330
261
100
AcDbEntity
  8
Geo
100
AcDbLine
 10
-10.56952669721847
 20
2.562871334687581
 30
0.0
 11
-10.46952669721847
 21
2.571511274249878
 31
0.0
  0
LINE
  5
F1038E
330
261
100
AcDbEntity
  8
Geo
100
AcDbLine
 10
-19.76952669721846
 20
6.136751598926777
 30
0.0
 11
-19.66952669721847
 21
6.137409773290976
 31
0.0
  0
LINE
  5
F10390
330
261
100
AcDbEntity
  8
Geo
100
AcDbLine
 10
-19.66952669721847
 20
6.137409773290976
 30
0.0
 11
-19.56952669721847
 21
6.134709880881479
 31
0.0
  0
LINE
  5
F10392
330
261
100
AcDbEntity
  8
Geo
100
AcDbLine
 10
-19.56952669721847
 20
6.134709880881479
 30
0.0
 11
-19.46952669721848
 21
6.128655548491082
 31
0.0
  0
LINE
  5
F10394
330
261
100
AcDbEntity
  8
Geo
100
AcDbLine
 10
-19.46952669721848
 20
6.128655548491082
 30
0.0
 11
-19.36952669721847
 21
6.119254908965777
 31
0.0
  0
LINE
  5
F10396
330
261
100
AcDbEntity
  8
Geo
100
AcDbLine
 10
-19.36952669721847
 20
6.119254908965777
 30
0.0
 11
-19.26952669721847
 21
6.106520590279578
 31
0.0
  0
LINE
  5
F10398
330
261
100
AcDbEntity
  8
Geo
100
AcDbLine
 10
-19.26952669721847
 20
6.106520590279578
 30
0.0
 11
-19.16952669721847
 21
6.09046969857158
 31
0.0
  0
LINE
  5
F1039A
330
261
100
AcDbEntity
  8
Geo
100
AcDbLine
 10
-19.16952669721847
 20
6.09046969857158
 30
0.0
 11
-19.06952669721847
 21
6.071123795166978
 31
0.0
  0
LINE
  5
F1039C
330
261
100
AcDbEntity
  8
Geo
100
AcDbLine
 10
-19.06952669721847
 20
6.071123795166978
 30
0.0
 11
-18.96952669721848
 21
6.048508867613477
 31
0.0
  0
LINE
  5
F1039E
330
261
100
AcDbEntity
  8
Geo
100
AcDbLine
 10
-18.96952669721848
 20
6.048508867613477
 30
0.0
 11
-18.86952669721847
 21
6.02265529477188
 31
0.0
  0
LINE
  5
F103A0
330
261
100
AcDbEntity
  8
Geo
100
AcDbLine
 10
-18.86952669721847
 20
6.02265529477188
 30
0.0
 11
-18.76952669721847
 21
5.993597806007978
 31
0.0
  0
LINE
  5
F103A2
330
261
100
AcDbEntity
  8
Geo
100
AcDbLine
 10
-18.76952669721847
 20
5.993597806007978
 30
0.0
 11
-18.66952669721847
 21
5.961375434540382
 31
0.0
  0
LINE
  5
F103A4
330
261
100
AcDbEntity
  8
Geo
100
AcDbLine
 10
-18.66952669721847
 20
5.961375434540382
 30
0.0
 11
-18.56952669721847
 21
5.926031465006377
 31
0.0
  0
LINE
  5
F103A6
330
261
100
AcDbEntity
  8
Geo
100
AcDbLine
 10
-18.56952669721847
 20
5.926031465006377
 30
0.0
 11
-18.46952669721847
 21
5.887613375317882
 31
0.0
  0
LINE
  5
F103A8
330
261
100
AcDbEntity
  8
Geo
100
AcDbLine
 10
-18.46952669721847
 20
5.887613375317882
 30
0.0
 11
-18.36952669721847
 21
5.846172772882979
 31
0.0
  0
LINE
  5
F103AA
330
261
100
AcDbEntity
  8
Geo
100
AcDbLine
 10
-18.36952669721847
 20
5.846172772882979
 30
0.0
 11
-18.26952669721847
 21
5.801765325282277
 31
0.0
  0
LINE
  5
F103AC
330
261
100
AcDbEntity
  8
Geo
100
AcDbLine
 10
-18.26952669721847
 20
5.801765325282277
 30
0.0
 11
-18.16952669721847
 21
5.754450685488976
 31
0.0
  0
LINE
  5
F103AE
330
261
100
AcDbEntity
  8
Geo
100
AcDbLine
 10
-18.16952669721847
 20
5.754450685488976
 30
0.0
 11
-18.06952669721846
 21
5.704292411737281
 31
0.0
  0
LINE
  5
F103B0
330
261
100
AcDbEntity
  8
Geo
100
AcDbLine
 10
-18.06952669721846
 20
5.704292411737281
 30
0.0
 11
-17.96952669721848
 21
5.651357882143478
 31
0.0
  0
LINE
  5
F103B2
330
261
100
AcDbEntity
  8
Geo
100
AcDbLine
 10
-17.96952669721848
 20
5.651357882143478
 30
0.0
 11
-17.86952669721847
 21
5.595718204196477
 31
0.0
  0
LINE
  5
F103B4
330
261
100
AcDbEntity
  8
Geo
100
AcDbLine
 10
-17.86952669721847
 20
5.595718204196477
 30
0.0
 11
-17.76952669721846
 21
5.53744811923838
 31
0.0
  0
LINE
  5
F103B6
330
261
100
AcDbEntity
  8
Geo
100
AcDbLine
 10
-17.76952669721846
 20
5.53744811923838
 30
0.0
 11
-17.66952669721847
 21
5.476625902063478
 31
0.0
  0
LINE
  5
F103B8
330
261
100
AcDbEntity
  8
Geo
100
AcDbLine
 10
-17.66952669721847
 20
5.476625902063478
 30
0.0
 11
-17.56952669721847
 21
5.413333255771185
 31
0.0
  0
LINE
  5
F103BA
330
261
100
AcDbEntity
  8
Geo
100
AcDbLine
 10
-17.56952669721847
 20
5.413333255771185
 30
0.0
 11
-17.46952669721848
 21
5.347655202013278
 31
0.0
  0
LINE
  5
F103BC
330
261
100
AcDbEntity
  8
Geo
100
AcDbLine
 10
-17.46952669721848
 20
5.347655202013278
 30
0.0
 11
-17.36952669721847
 21
5.279679966783579
 31
0.0
  0
LINE
  5
F103BE
330
261
100
AcDbEntity
  8
Geo
100
AcDbLine
 10
-17.36952669721847
 20
5.279679966783579
 30
0.0
 11
-17.26952669721847
 21
5.209498861902878
 31
0.0
  0
LINE
  5
F103C0
330
261
100
AcDbEntity
  8
Geo
100
AcDbLine
 10
-17.26952669721847
 20
5.209498861902878
 30
0.0
 11
-17.16952669721847
 21
5.137206162359182
 31
0.0
  0
LINE
  5
F103C2
330
261
100
AcDbEntity
  8
Geo
100
AcDbLine
 10
-17.16952669721847
 20
5.137206162359182
 30
0.0
 11
-17.06952669721847
 21
5.062898979666679
 31
0.0
  0
LINE
  5
F103C4
330
261
100
AcDbEntity
  8
Geo
100
AcDbLine
 10
-17.06952669721847
 20
5.062898979666679
 30
0.0
 11
-16.96952669721848
 21
4.986677131415379
 31
0.0
  0
LINE
  5
F103C6
330
261
100
AcDbEntity
  8
Geo
100
AcDbLine
 10
-16.96952669721848
 20
4.986677131415379
 30
0.0
 11
-16.86952669721847
 21
4.908643007184782
 31
0.0
  0
LINE
  5
F103C8
330
261
100
AcDbEntity
  8
Geo
100
AcDbLine
 10
-16.86952669721847
 20
4.908643007184782
 30
0.0
 11
-16.76952669721847
 21
4.828901431003184
 31
0.0
  0
LINE
  5
F103CA
330
261
100
AcDbEntity
  8
Geo
100
AcDbLine
 10
-16.76952669721847
 20
4.828901431003184
 30
0.0
 11
-16.66952669721847
 21
4.747559520536078
 31
0.0
  0
LINE
  5
F103CC
330
261
100
AcDbEntity
  8
Geo
100
AcDbLine
 10
-16.66952669721847
 20
4.747559520536078
 30
0.0
 11
-16.56952669721847
 21
4.664726543194478
 31
0.0
  0
LINE
  5
F103CE
330
261
100
AcDbEntity
  8
Geo
100
AcDbLine
 10
-16.56952669721847
 20
4.664726543194478
 30
0.0
 11
-16.46952669721847
 21
4.580513769354478
 31
0.0
  0
LINE
  5
F103D0
330
261
100
AcDbEntity
  8
Geo
100
AcDbLine
 10
-16.46952669721847
 20
4.580513769354478
 30
0.0
 11
-16.36952669721847
 21
4.495034322886681
 31
0.0
  0
LINE
  5
F103D2
330
261
100
AcDbEntity
  8
Geo
100
AcDbLine
 10
-16.36952669721847
 20
4.495034322886681
 30
0.0
 11
-16.26952669721847
 21
4.408403029195881
 31
0.0
  0
LINE
  5
F103D4
330
261
100
AcDbEntity
  8
Geo
100
AcDbLine
 10
-16.26952669721847
 20
4.408403029195881
 30
0.0
 11
-16.16952669721847
 21
4.320736260975078
 31
0.0
  0
LINE
  5
F103D6
330
261
100
AcDbEntity
  8
Geo
100
AcDbLine
 10
-16.16952669721847
 20
4.320736260975078
 30
0.0
 11
-16.06952669721847
 21
4.23215178188058
 31
0.0
  0
LINE
  5
F103D8
330
261
100
AcDbEntity
  8
Geo
100
AcDbLine
 10
-16.06952669721847
 20
4.23215178188058
 30
0.0
 11
-15.96952669721847
 21
4.142768588338681
 31
0.0
  0
LINE
  5
F103DA
330
261
100
AcDbEntity
  8
Geo
100
AcDbLine
 10
-15.96952669721847
 20
4.142768588338681
 30
0.0
 11
-15.86952669721847
 21
4.052706749697382
 31
0.0
  0
LINE
  5
F103DC
330
261
100
AcDbEntity
  8
Geo
100
AcDbLine
 10
-15.86952669721847
 20
4.052706749697382
 30
0.0
 11
-15.76952669721847
 21
3.96208724693518
 31
0.0
  0
LINE
  5
F103DE
330
261
100
AcDbEntity
  8
Geo
100
AcDbLine
 10
-15.76952669721847
 20
3.96208724693518
 30
0.0
 11
-15.66952669721847
 21
3.87103181014648
 31
0.0
  0
LINE
  5
F103E0
330
261
100
AcDbEntity
  8
Geo
100
AcDbLine
 10
-15.66952669721847
 20
3.87103181014648
 30
0.0
 11
-15.56952669721847
 21
3.779662755020381
 31
0.0
  0
LINE
  5
F103E2
330
261
100
AcDbEntity
  8
Geo
100
AcDbLine
 10
-15.56952669721847
 20
3.779662755020381
 30
0.0
 11
-15.46952669721848
 21
3.688102818532478
 31
0.0
  0
LINE
  5
F103E4
330
261
100
AcDbEntity
  8
Geo
100
AcDbLine
 10
-15.46952669721848
 20
3.688102818532478
 30
0.0
 11
-15.36952669721847
 21
3.596474994071478
 31
0.0
  0
LINE
  5
F103E6
330
261
100
AcDbEntity
  8
Geo
100
AcDbLine
 10
-15.36952669721847
 20
3.596474994071478
 30
0.0
 11
-15.26952669721847
 21
3.504902366220477
 31
0.0
  0
LINE
  5
F103E8
330
261
100
AcDbEntity
  8
Geo
100
AcDbLine
 10
-15.26952669721847
 20
3.504902366220477
 30
0.0
 11
-15.16952669721847
 21
3.41350794541638
 31
0.0
  0
LINE
  5
F103EA
330
261
100
AcDbEntity
  8
Geo
100
AcDbLine
 10
-15.16952669721847
 20
3.41350794541638
 30
0.0
 11
-15.06952669721847
 21
3.322414502708976
 31
0.0
  0
LINE
  5
F103EC
330
261
100
AcDbEntity
  8
Geo
100
AcDbLine
 10
-15.06952669721847
 20
3.322414502708976
 30
0.0
 11
-14.96952669721848
 21
3.23174440484108
 31
0.0
  0
LINE
  5
F103EE
330
261
100
AcDbEntity
  8
Geo
100
AcDbLine
 10
-14.96952669721848
 20
3.23174440484108
 30
0.0
 11
-14.86952669721847
 21
3.141619449871881
 31
0.0
  0
LINE
  5
F103F0
330
261
100
AcDbEntity
  8
Geo
100
AcDbLine
 10
-14.86952669721847
 20
3.141619449871881
 30
0.0
 11
-14.76952669721847
 21
3.052160703564883
 31
0.0
  0
LINE
  5
F103F2
330
261
100
AcDbEntity
  8
Geo
100
AcDbLine
 10
-14.76952669721847
 20
3.052160703564883
 30
0.0
 11
-14.66952669721847
 21
2.96348833675858
 31
0.0
  0
LINE
  5
F103F4
330
261
100
AcDbEntity
  8
Geo
100
AcDbLine
 10
-14.66952669721847
 20
2.96348833675858
 30
0.0
 11
-14.56952669721847
 21
2.875721463939978
 31
0.0
  0
LINE
  5
F103F6
330
261
100
AcDbEntity
  8
Geo
100
AcDbLine
 10
-14.56952669721847
 20
2.875721463939978
 30
0.0
 11
-14.46952669721848
 21
2.788977983236978
 31
0.0
  0
LINE
  5
F103F8
330
261
100
AcDbEntity
  8
Geo
100
AcDbLine
 10
-14.46952669721848
 20
2.788977983236978
 30
0.0
 11
-14.36952669721847
 21
2.759425852493179
 31
0.0
  0
LINE
  5
F103FA
330
261
100
AcDbEntity
  8
Geo
100
AcDbLine
 10
-14.36952669721847
 20
2.759425852493179
 30
0.0
 11
-14.26952669721847
 21
2.68013811439838
 31
0.0
  0
LINE
  5
F103FC
330
261
100
AcDbEntity
  8
Geo
100
AcDbLine
 10
-14.26952669721847
 20
2.68013811439838
 30
0.0
 11
-14.16952669721847
 21
2.602136497510279
 31
0.0
  0
LINE
  5
F103FE
330
261
100
AcDbEntity
  8
Geo
100
AcDbLine
 10
-14.16952669721847
 20
2.602136497510279
 30
0.0
 11
-14.06952669721847
 21
2.525525782189681
 31
0.0
  0
LINE
  5
F10400
330
261
100
AcDbEntity
  8
Geo
100
AcDbLine
 10
-14.06952669721847
 20
2.525525782189681
 30
0.0
 11
-13.96952669721847
 21
2.450408880385278
 31
0.0
  0
LINE
  5
F10402
330
261
100
AcDbEntity
  8
Geo
100
AcDbLine
 10
-13.96952669721847
 20
2.450408880385278
 30
0.0
 11
-13.86952669721847
 21
2.376886697390681
 31
0.0
  0
LINE
  5
F10404
330
261
100
AcDbEntity
  8
Geo
100
AcDbLine
 10
-13.86952669721847
 20
2.376886697390681
 30
0.0
 11
-13.76952669721847
 21
2.305057996297882
 31
0.0
  0
LINE
  5
F10406
330
261
100
AcDbEntity
  8
Geo
100
AcDbLine
 10
-13.76952669721847
 20
2.305057996297882
 30
0.0
 11
-13.66952669721847
 21
2.235019265327379
 31
0.0
  0
LINE
  5
F10408
330
261
100
AcDbEntity
  8
Geo
100
AcDbLine
 10
-13.66952669721847
 20
2.235019265327379
 30
0.0
 11
-13.56952669721847
 21
2.166864588214778
 31
0.0
  0
LINE
  5
F1040A
330
261
100
AcDbEntity
  8
Geo
100
AcDbLine
 10
-13.56952669721847
 20
2.166864588214778
 30
0.0
 11
-13.46952669721847
 21
2.100685517827081
 31
0.0
  0
LINE
  5
F1040C
330
261
100
AcDbEntity
  8
Geo
100
AcDbLine
 10
-13.46952669721847
 20
2.100685517827081
 30
0.0
 11
-13.36952669721847
 21
2.01288328016288
 31
0.0
  0
LINE
  5
F1040E
330
261
100
AcDbEntity
  8
Geo
100
AcDbLine
 10
-13.36952669721847
 20
2.01288328016288
 30
0.0
 11
-13.26952669721847
 21
1.929719395027681
 31
0.0
  0
LINE
  5
F10410
330
261
100
AcDbEntity
  8
Geo
100
AcDbLine
 10
-13.26952669721847
 20
1.929719395027681
 30
0.0
 11
-13.16952669721847
 21
1.851326729126276
 31
0.0
  0
LINE
  5
F10412
330
261
100
AcDbEntity
  8
Geo
100
AcDbLine
 10
-13.16952669721847
 20
1.851326729126276
 30
0.0
 11
-13.06952669721847
 21
1.777820493754879
 31
0.0
  0
LINE
  5
F10414
330
261
100
AcDbEntity
  8
Geo
100
AcDbLine
 10
-13.06952669721847
 20
1.777820493754879
 30
0.0
 11
-12.96952669721847
 21
1.709298532324381
 31
0.0
  0
LINE
  5
F10416
330
261
100
AcDbEntity
  8
Geo
100
AcDbLine
 10
-12.96952669721847
 20
1.709298532324381
 30
0.0
 11
-12.86952669721847
 21
1.645841658603976
 31
0.0
  0
LINE
  5
F10418
330
261
100
AcDbEntity
  8
Geo
100
AcDbLine
 10
-12.86952669721847
 20
1.645841658603976
 30
0.0
 11
-12.76952669721846
 21
1.587514041766183
 31
0.0
  0
LINE
  5
F1041A
330
261
100
AcDbEntity
  8
Geo
100
AcDbLine
 10
-12.76952669721846
 20
1.587514041766183
 30
0.0
 11
-12.66952669721847
 21
1.53436363432178
 31
0.0
  0
LINE
  5
F1041C
330
261
100
AcDbEntity
  8
Geo
100
AcDbLine
 10
-12.66952669721847
 20
1.53436363432178
 30
0.0
 11
-12.56952669721847
 21
1.486422639069181
 31
0.0
  0
LINE
  5
F1041E
330
261
100
AcDbEntity
  8
Geo
100
AcDbLine
 10
-12.56952669721847
 20
1.486422639069181
 30
0.0
 11
-12.46952669721847
 21
1.443708011224976
 31
0.0
  0
LINE
  5
F10420
330
261
100
AcDbEntity
  8
Geo
100
AcDbLine
 10
-12.46952669721847
 20
1.443708011224976
 30
0.0
 11
-12.36952669721847
 21
1.406221991966379
 31
0.0
  0
LINE
  5
F10422
330
261
100
AcDbEntity
  8
Geo
100
AcDbLine
 10
-12.36952669721847
 20
1.406221991966379
 30
0.0
 11
-12.26952669721846
 21
1.373952669692684
 31
0.0
  0
LINE
  5
F10424
330
261
100
AcDbEntity
  8
Geo
100
AcDbLine
 10
-12.26952669721846
 20
1.373952669692684
 30
0.0
 11
-12.16952669721847
 21
1.346874565401684
 31
0.0
  0
LINE
  5
F10426
330
261
100
AcDbEntity
  8
Geo
100
AcDbLine
 10
-12.16952669721847
 20
1.346874565401684
 30
0.0
 11
-12.06952669721847
 21
1.32494923867528
 31
0.0
  0
LINE
  5
F10428
330
261
100
AcDbEntity
  8
Geo
100
AcDbLine
 10
-12.06952669721847
 20
1.32494923867528
 30
0.0
 11
-11.96952669721847
 21
1.308125910881379
 31
0.0
  0
LINE
  5
F1042A
330
261
100
AcDbEntity
  8
Geo
100
AcDbLine
 10
-11.96952669721847
 20
1.308125910881379
 30
0.0
 11
-11.86952669721847
 21
1.296342102316478
 31
0.0
  0
LINE
  5
F1042C
330
261
100
AcDbEntity
  8
Geo
100
AcDbLine
 10
-11.86952669721847
 20
1.296342102316478
 30
0.0
 11
-11.76952669721846
 21
1.28952428014158
 31
0.0
  0
LINE
  5
F1042E
330
261
100
AcDbEntity
  8
Geo
100
AcDbLine
 10
-11.76952669721846
 20
1.28952428014158
 30
0.0
 11
-11.66952669721847
 21
1.287564992193882
 31
0.0
  0
LINE
  5
F10430
330
261
100
AcDbEntity
  8
Geo
100
AcDbLine
 10
-23.96952669721848
 20
6.136509721234181
 30
0.0
 11
-23.86952669721848
 21
6.137492853019579
 31
0.0
  0
LINE
  5
F10432
330
261
100
AcDbEntity
  8
Geo
100
AcDbLine
 10
-23.86952669721848
 20
6.137492853019579
 30
0.0
 11
-23.76952669721848
 21
6.13511780642958
 31
0.0
  0
LINE
  5
F10434
330
261
100
AcDbEntity
  8
Geo
100
AcDbLine
 10
-23.76952669721848
 20
6.13511780642958
 30
0.0
 11
-23.66952669721848
 21
6.12938777188808
 31
0.0
  0
LINE
  5
F10436
330
261
100
AcDbEntity
  8
Geo
100
AcDbLine
 10
-23.66952669721848
 20
6.12938777188808
 30
0.0
 11
-23.56952669721848
 21
6.120310446608581
 31
0.0
  0
LINE
  5
F10438
330
261
100
AcDbEntity
  8
Geo
100
AcDbLine
 10
-23.56952669721848
 20
6.120310446608581
 30
0.0
 11
-23.46952669721848
 21
6.107898024253777
 31
0.0
  0
LINE
  5
F1043A
330
261
100
AcDbEntity
  8
Geo
100
AcDbLine
 10
-23.46952669721848
 20
6.107898024253777
 30
0.0
 11
-23.36952669721847
 21
6.092167178556279
 31
0.0
  0
LINE
  5
F1043C
330
261
100
AcDbEntity
  8
Geo
100
AcDbLine
 10
-23.36952669721847
 20
6.092167178556279
 30
0.0
 11
-23.26952669721848
 21
6.073139040920082
 31
0.0
  0
LINE
  5
F1043E
330
261
100
AcDbEntity
  8
Geo
100
AcDbLine
 10
-23.26952669721848
 20
6.073139040920082
 30
0.0
 11
-23.16952669721848
 21
6.050839172034979
 31
0.0
  0
LINE
  5
F10440
330
261
100
AcDbEntity
  8
Geo
100
AcDbLine
 10
-23.16952669721848
 20
6.050839172034979
 30
0.0
 11
-23.06952669721848
 21
6.025297527540277
 31
0.0
  0
LINE
  5
F10442
330
261
100
AcDbEntity
  8
Geo
100
AcDbLine
 10
-23.06952669721848
 20
6.025297527540277
 30
0.0
 11
-22.96952669721848
 21
5.996548417785382
 31
0.0
  0
LINE
  5
F10444
330
261
100
AcDbEntity
  8
Geo
100
AcDbLine
 10
-22.96952669721848
 20
5.996548417785382
 30
0.0
 11
-22.86952669721848
 21
5.964630461739978
 31
0.0
  0
LINE
  5
F10446
330
261
100
AcDbEntity
  8
Geo
100
AcDbLine
 10
-22.86952669721848
 20
5.964630461739978
 30
0.0
 11
-22.76952669721848
 21
5.929586535117382
 31
0.0
  0
LINE
  5
F10448
330
261
100
AcDbEntity
  8
Geo
100
AcDbLine
 10
-22.76952669721848
 20
5.929586535117382
 30
0.0
 11
-22.66952669721848
 21
5.89146371277858
 31
0.0
  0
LINE
  5
F1044A
330
261
100
AcDbEntity
  8
Geo
100
AcDbLine
 10
-22.66952669721848
 20
5.89146371277858
 30
0.0
 11
-22.56952669721848
 21
5.85031320549618
 31
0.0
  0
LINE
  5
F1044C
330
261
100
AcDbEntity
  8
Geo
100
AcDbLine
 10
-22.56952669721848
 20
5.85031320549618
 30
0.0
 11
-22.46952669721848
 21
5.80619029116288
 31
0.0
  0
LINE
  5
F1044E
330
261
100
AcDbEntity
  8
Geo
100
AcDbLine
 10
-22.46952669721848
 20
5.80619029116288
 30
0.0
 11
-22.36952669721848
 21
5.759154240535682
 31
0.0
  0
LINE
  5
F10450
330
261
100
AcDbEntity
  8
Geo
100
AcDbLine
 10
-22.36952669721848
 20
5.759154240535682
 30
0.0
 11
-22.26952669721848
 21
5.709268237616882
 31
0.0
  0
LINE
  5
F10452
330
261
100
AcDbEntity
  8
Geo
100
AcDbLine
 10
-22.26952669721848
 20
5.709268237616882
 30
0.0
 11
-22.16952669721848
 21
5.656599294778882
 31
0.0
  0
LINE
  5
F10454
330
261
100
AcDbEntity
  8
Geo
100
AcDbLine
 10
-22.16952669721848
 20
5.656599294778882
 30
0.0
 11
-22.06952669721848
 21
5.601218162745079
 31
0.0
  0
LINE
  5
F10456
330
261
100
AcDbEntity
  8
Geo
100
AcDbLine
 10
-22.06952669721848
 20
5.601218162745079
 30
0.0
 11
-21.96952669721848
 21
5.543199235550183
 31
0.0
  0
LINE
  5
F10458
330
261
100
AcDbEntity
  8
Geo
100
AcDbLine
 10
-21.96952669721848
 20
5.543199235550183
 30
0.0
 11
-21.86952669721847
 21
5.482620450605778
 31
0.0
  0
LINE
  5
F1045A
330
261
100
AcDbEntity
  8
Geo
100
AcDbLine
 10
-21.86952669721847
 20
5.482620450605778
 30
0.0
 11
-21.76952669721848
 21
5.41956318400638
 31
0.0
  0
LINE
  5
F1045C
330
261
100
AcDbEntity
  8
Geo
100
AcDbLine
 10
-21.76952669721848
 20
5.41956318400638
 30
0.0
 11
-21.66952669721848
 21
5.354112141215781
 31
0.0
  0
LINE
  5
F1045E
330
261
100
AcDbEntity
  8
Geo
100
AcDbLine
 10
-21.66952669721848
 20
5.354112141215781
 30
0.0
 11
-21.56952669721848
 21
5.28635524328158
 31
0.0
  0
LINE
  5
F10460
330
261
100
AcDbEntity
  8
Geo
100
AcDbLine
 10
-21.56952669721848
 20
5.28635524328158
 30
0.0
 11
-21.46952669721848
 21
5.216383508729975
 31
0.0
  0
LINE
  5
F10462
330
261
100
AcDbEntity
  8
Geo
100
AcDbLine
 10
-21.46952669721848
 20
5.216383508729975
 30
0.0
 11
-21.36952669721848
 21
5.144290931299681
 31
0.0
  0
LINE
  5
F10464
330
261
100
AcDbEntity
  8
Geo
100
AcDbLine
 10
-21.36952669721848
 20
5.144290931299681
 30
0.0
 11
-21.26952669721848
 21
5.07017435367878
 31
0.0
  0
LINE
  5
F10466
330
261
100
AcDbEntity
  8
Geo
100
AcDbLine
 10
-21.26952669721848
 20
5.07017435367878
 30
0.0
 11
-21.16952669721848
 21
4.994133337415678
 31
0.0
  0
LINE
  5
F10468
330
261
100
AcDbEntity
  8
Geo
100
AcDbLine
 10
-21.16952669721848
 20
4.994133337415678
 30
0.0
 11
-21.06952669721848
 21
4.91627002917638
 31
0.0
  0
LINE
  5
F1046A
330
261
100
AcDbEntity
  8
Geo
100
AcDbLine
 10
-21.06952669721848
 20
4.91627002917638
 30
0.0
 11
-20.96952669721848
 21
4.836689023530183
 31
0.0
  0
LINE
  5
F1046C
330
261
100
AcDbEntity
  8
Geo
100
AcDbLine
 10
-20.96952669721848
 20
4.836689023530183
 30
0.0
 11
-20.86952669721847
 21
4.755497222446879
 31
0.0
  0
LINE
  5
F1046E
330
261
100
AcDbEntity
  8
Geo
100
AcDbLine
 10
-20.86952669721847
 20
4.755497222446879
 30
0.0
 11
-20.76952669721848
 21
4.672803691693683
 31
0.0
  0
LINE
  5
F10470
330
261
100
AcDbEntity
  8
Geo
100
AcDbLine
 10
-20.76952669721848
 20
4.672803691693683
 30
0.0
 11
-20.66952669721847
 21
4.588719514326881
 31
0.0
  0
LINE
  5
F10472
330
261
100
AcDbEntity
  8
Geo
100
AcDbLine
 10
-20.66952669721847
 20
4.588719514326881
 30
0.0
 11
-20.56952669721847
 21
4.503357641471978
 31
0.0
  0
LINE
  5
F10474
330
261
100
AcDbEntity
  8
Geo
100
AcDbLine
 10
-20.56952669721847
 20
4.503357641471978
 30
0.0
 11
-20.46952669721848
 21
4.416832740596279
 31
0.0
  0
LINE
  5
F10476
330
261
100
AcDbEntity
  8
Geo
100
AcDbLine
 10
-20.46952669721848
 20
4.416832740596279
 30
0.0
 11
-20.36952669721848
 21
4.329261041473881
 31
0.0
  0
LINE
  5
F10478
330
261
100
AcDbEntity
  8
Geo
100
AcDbLine
 10
-20.36952669721848
 20
4.329261041473881
 30
0.0
 11
-20.26952669721847
 21
4.240760180053778
 31
0.0
  0
LINE
  5
F1047A
330
261
100
AcDbEntity
  8
Geo
100
AcDbLine
 10
-20.26952669721847
 20
4.240760180053778
 30
0.0
 11
-20.16952669721847
 21
4.151449040438182
 31
0.0
  0
LINE
  5
F1047C
330
261
100
AcDbEntity
  8
Geo
100
AcDbLine
 10
-20.16952669721847
 20
4.151449040438182
 30
0.0
 11
-20.06952669721847
 21
4.06144759518408
 31
0.0
  0
LINE
  5
F1047E
330
261
100
AcDbEntity
  8
Geo
100
AcDbLine
 10
-20.06952669721847
 20
4.06144759518408
 30
0.0
 11
-19.96952669721848
 21
3.970876744142881
 31
0.0
  0
LINE
  5
F10480
330
261
100
AcDbEntity
  8
Geo
100
AcDbLine
 10
-19.96952669721848
 20
3.970876744142881
 30
0.0
 11
-19.86952669721847
 21
3.87985815205468
 31
0.0
  0
LINE
  5
F10482
330
261
100
AcDbEntity
  8
Geo
100
AcDbLine
 10
-19.86952669721847
 20
3.87985815205468
 30
0.0
 11
-19.76952669721846
 21
3.78851408511478
 31
0.0
  0
LINE
  5
F10484
330
261
100
AcDbEntity
  8
Geo
100
AcDbLine
 10
-19.76952669721846
 20
3.78851408511478
 30
0.0
 11
-19.66952669721847
 21
3.696967246731883
 31
0.0
  0
LINE
  5
F10486
330
261
100
AcDbEntity
  8
Geo
100
AcDbLine
 10
-19.66952669721847
 20
3.696967246731883
 30
0.0
 11
-19.56952669721847
 21
3.605340612699779
 31
0.0
  0
LINE
  5
F10488
330
261
100
AcDbEntity
  8
Geo
100
AcDbLine
 10
-19.56952669721847
 20
3.605340612699779
 30
0.0
 11
-19.46952669721848
 21
3.513757266002477
 31
0.0
  0
LINE
  5
F1048A
330
261
100
AcDbEntity
  8
Geo
100
AcDbLine
 10
-19.46952669721848
 20
3.513757266002477
 30
0.0
 11
-19.36952669721847
 21
3.422340231475778
 31
0.0
  0
LINE
  5
F1048C
330
261
100
AcDbEntity
  8
Geo
100
AcDbLine
 10
-19.36952669721847
 20
3.422340231475778
 30
0.0
 11
-19.26952669721847
 21
3.331212310546581
 31
0.0
  0
LINE
  5
F1048E
330
261
100
AcDbEntity
  8
Geo
100
AcDbLine
 10
-19.26952669721847
 20
3.331212310546581
 30
0.0
 11
-19.16952669721847
 21
3.240495916272578
 31
0.0
  0
LINE
  5
F10490
330
261
100
AcDbEntity
  8
Geo
100
AcDbLine
 10
-19.16952669721847
 20
3.240495916272578
 30
0.0
 11
-19.06952669721847
 21
3.15031290890348
 31
0.0
  0
LINE
  5
F10492
330
261
100
AcDbEntity
  8
Geo
100
AcDbLine
 10
-19.06952669721847
 20
3.15031290890348
 30
0.0
 11
-18.96952669721848
 21
3.060784432185183
 31
0.0
  0
LINE
  5
F10494
330
261
100
AcDbEntity
  8
Geo
100
AcDbLine
 10
-18.96952669721848
 20
3.060784432185183
 30
0.0
 11
-18.86952669721847
 21
2.972030750625779
 31
0.0
  0
LINE
  5
F10496
330
261
100
AcDbEntity
  8
Geo
100
AcDbLine
 10
-18.86952669721847
 20
2.972030750625779
 30
0.0
 11
-18.76952669721847
 21
2.88417108794308
 31
0.0
  0
LINE
  5
F10498
330
261
100
AcDbEntity
  8
Geo
100
AcDbLine
 10
-18.76952669721847
 20
2.88417108794308
 30
0.0
 11
-18.66952669721847
 21
2.797323466910579
 31
0.0
  0
LINE
  5
F1049A
330
261
100
AcDbEntity
  8
Geo
100
AcDbLine
 10
-18.66952669721847
 20
2.797323466910579
 30
0.0
 11
-18.56952669721847
 21
2.711604550815681
 31
0.0
  0
LINE
  5
F1049C
330
261
100
AcDbEntity
  8
Geo
100
AcDbLine
 10
-18.56952669721847
 20
2.711604550815681
 30
0.0
 11
-18.46952669721847
 21
2.62712948674538
 31
0.0
  0
LINE
  5
F1049E
330
261
100
AcDbEntity
  8
Geo
100
AcDbLine
 10
-18.46952669721847
 20
2.62712948674538
 30
0.0
 11
-18.36952669721847
 21
2.54401175090738
 31
0.0
  0
LINE
  5
F104A0
330
261
100
AcDbEntity
  8
Geo
100
AcDbLine
 10
-18.36952669721847
 20
2.54401175090738
 30
0.0
 11
-18.26952669721847
 21
2.462362996196779
 31
0.0
  0
LINE
  5
F104A2
330
261
100
AcDbEntity
  8
Geo
100
AcDbLine
 10
-18.26952669721847
 20
2.462362996196779
 30
0.0
 11
-18.16952669721847
 21
2.382292902211381
 31
0.0
  0
LINE
  5
F104A4
330
261
100
AcDbEntity
  8
Geo
100
AcDbLine
 10
-18.16952669721847
 20
2.382292902211381
 30
0.0
 11
-18.06952669721846
 21
2.30390902791818
 31
0.0
  0
LINE
  5
F104A6
330
261
100
AcDbEntity
  8
Geo
100
AcDbLine
 10
-18.06952669721846
 20
2.30390902791818
 30
0.0
 11
-17.96952669721848
 21
2.227316667168181
 31
0.0
  0
LINE
  5
F104A8
330
261
100
AcDbEntity
  8
Geo
100
AcDbLine
 10
-17.96952669721848
 20
2.227316667168181
 30
0.0
 11
-17.86952669721847
 21
2.152618707253977
 31
0.0
  0
LINE
  5
F104AA
330
261
100
AcDbEntity
  8
Geo
100
AcDbLine
 10
-17.86952669721847
 20
2.152618707253977
 30
0.0
 11
-17.76952669721846
 21
2.07991549070068
 31
0.0
  0
LINE
  5
F104AC
330
261
100
AcDbEntity
  8
Geo
100
AcDbLine
 10
-17.76952669721846
 20
2.07991549070068
 30
0.0
 11
-17.66952669721847
 21
2.009304680474079
 31
0.0
  0
LINE
  5
F104AE
330
261
100
AcDbEntity
  8
Geo
100
AcDbLine
 10
-17.66952669721847
 20
2.009304680474079
 30
0.0
 11
-17.56952669721847
 21
1.940881128789778
 31
0.0
  0
LINE
  5
F104B0
330
261
100
AcDbEntity
  8
Geo
100
AcDbLine
 10
-17.56952669721847
 20
1.940881128789778
 30
0.0
 11
-17.46952669721848
 21
1.87473674969658
 31
0.0
  0
LINE
  5
F104B2
330
261
100
AcDbEntity
  8
Geo
100
AcDbLine
 10
-17.46952669721848
 20
1.87473674969658
 30
0.0
 11
-17.36952669721847
 21
1.810960395607881
 31
0.0
  0
LINE
  5
F104B4
330
261
100
AcDbEntity
  8
Geo
100
AcDbLine
 10
-17.36952669721847
 20
1.810960395607881
 30
0.0
 11
-17.26952669721847
 21
1.749637737944879
 31
0.0
  0
LINE
  5
F104B6
330
261
100
AcDbEntity
  8
Geo
100
AcDbLine
 10
-17.26952669721847
 20
1.749637737944879
 30
0.0
 11
-17.16952669721847
 21
1.690851152053879
 31
0.0
  0
LINE
  5
F104B8
330
261
100
AcDbEntity
  8
Geo
100
AcDbLine
 10
-17.16952669721847
 20
1.690851152053879
 30
0.0
 11
-17.06952669721847
 21
1.634679606550079
 31
0.0
  0
LINE
  5
F104BA
330
261
100
AcDbEntity
  8
Geo
100
AcDbLine
 10
-17.06952669721847
 20
1.634679606550079
 30
0.0
 11
-16.96952669721848
 21
1.581198557238681
 31
0.0
  0
LINE
  5
F104BC
330
261
100
AcDbEntity
  8
Geo
100
AcDbLine
 10
-16.96952669721848
 20
1.581198557238681
 30
0.0
 11
-16.86952669721847
 21
1.530479845753979
 31
0.0
  0
LINE
  5
F104BE
330
261
100
AcDbEntity
  8
Geo
100
AcDbLine
 10
-16.86952669721847
 20
1.530479845753979
 30
0.0
 11
-16.76952669721847
 21
1.482591603053978
 31
0.0
  0
LINE
  5
F104C0
330
261
100
AcDbEntity
  8
Geo
100
AcDbLine
 10
-16.76952669721847
 20
1.482591603053978
 30
0.0
 11
-16.66952669721847
 21
1.437598157899383
 31
0.0
  0
LINE
  5
F104C2
330
261
100
AcDbEntity
  8
Geo
100
AcDbLine
 10
-16.66952669721847
 20
1.437598157899383
 30
0.0
 11
-16.56952669721847
 21
1.39555995044008
 31
0.0
  0
LINE
  5
F104C4
330
261
100
AcDbEntity
  8
Geo
100
AcDbLine
 10
-16.56952669721847
 20
1.39555995044008
 30
0.0
 11
-16.46952669721847
 21
1.35653345102528
 31
0.0
  0
LINE
  5
F104C6
330
261
100
AcDbEntity
  8
Geo
100
AcDbLine
 10
-16.46952669721847
 20
1.35653345102528
 30
0.0
 11
-16.36952669721847
 21
1.320571084346179
 31
0.0
  0
LINE
  5
F104C8
330
261
100
AcDbEntity
  8
Geo
100
AcDbLine
 10
-16.36952669721847
 20
1.320571084346179
 30
0.0
 11
-16.26952669721847
 21
1.28772115901368
 31
0.0
  0
LINE
  5
F104CA
330
261
100
AcDbEntity
  8
Geo
100
AcDbLine
 10
-16.26952669721847
 20
1.28772115901368
 30
0.0
 11
-16.16952669721847
 21
1.25802780266468
 31
0.0
  0
LINE
  5
F104CC
330
261
100
AcDbEntity
  8
Geo
100
AcDbLine
 10
-16.16952669721847
 20
1.25802780266468
 30
0.0
 11
-16.06952669721847
 21
1.23153090268498
 31
0.0
  0
LINE
  5
F104CE
330
261
100
AcDbEntity
  8
Geo
100
AcDbLine
 10
-16.06952669721847
 20
1.23153090268498
 30
0.0
 11
-15.96952669721847
 21
1.208266052628278
 31
0.0
  0
LINE
  5
F104D0
330
261
100
AcDbEntity
  8
Geo
100
AcDbLine
 10
-15.96952669721847
 20
1.208266052628278
 30
0.0
 11
-15.86952669721847
 21
1.188264504402979
 31
0.0
  0
LINE
  5
F104D2
330
261
100
AcDbEntity
  8
Geo
100
AcDbLine
 10
-15.86952669721847
 20
1.188264504402979
 30
0.0
 11
-15.76952669721847
 21
1.17155312629108
 31
0.0
  0
LINE
  5
F104D4
330
261
100
AcDbEntity
  8
Geo
100
AcDbLine
 10
-15.76952669721847
 20
1.17155312629108
 30
0.0
 11
-15.66952669721847
 21
1.158154366855682
 31
0.0
  0
LINE
  5
F104D6
330
261
100
AcDbEntity
  8
Geo
100
AcDbLine
 10
-15.66952669721847
 20
1.158154366855682
 30
0.0
 11
-15.56952669721847
 21
1.14808622478588
 31
0.0
  0
LINE
  5
F104D8
330
261
100
AcDbEntity
  8
Geo
100
AcDbLine
 10
-15.56952669721847
 20
1.14808622478588
 30
0.0
 11
-15.46952669721848
 21
1.141362224718779
 31
0.0
  0
LINE
  5
F104DA
330
261
100
AcDbEntity
  8
Geo
100
AcDbLine
 10
-15.46952669721848
 20
1.141362224718779
 30
0.0
 11
-15.36952669721847
 21
1.137991399071679
 31
0.0
  0
LINE
  5
F104DC
330
261
100
AcDbEntity
  8
Geo
100
AcDbLine
 10
-27.46952669721848
 20
5.26401450902038
 30
0.0
 11
-27.36952669721848
 21
5.253196923955183
 31
0.0
  0
LINE
  5
F104DE
330
261
100
AcDbEntity
  8
Geo
100
AcDbLine
 10
-27.46952669721848
 20
4.773017078671577
 30
0.0
 11
-27.36952669721848
 21
4.747618494540976
 31
0.0
  0
LINE
  5
F104E0
330
261
100
AcDbEntity
  8
Geo
100
AcDbLine
 10
-27.46952669721848
 20
1.297571418172579
 30
0.0
 11
-27.36952669721848
 21
1.180850777972182
 31
0.0
  0
LINE
  5
F104E2
330
261
100
AcDbEntity
  8
Geo
100
AcDbLine
 10
-27.36952669721848
 20
5.253196923955183
 30
0.0
 11
-27.26952669721848
 21
5.168489237142978
 31
0.0
  0
LINE
  5
F104E4
330
261
100
AcDbEntity
  8
Geo
100
AcDbLine
 10
-27.36952669721848
 20
4.747618494540976
 30
0.0
 11
-27.26952669721848
 21
4.649293048934278
 31
0.0
  0
LINE
  5
F104E6
330
261
100
AcDbEntity
  8
Geo
100
AcDbLine
 10
-27.36952669721848
 20
1.180850777972182
 30
0.0
 11
-27.26952669721848
 21
1.164617202143478
 31
0.0
  0
LINE
  5
F104E8
330
261
100
AcDbEntity
  8
Geo
100
AcDbLine
 10
-27.26952669721848
 20
5.168489237142978
 30
0.0
 11
-27.16952669721848
 21
5.080864796373582
 31
0.0
  0
LINE
  5
F104EA
330
261
100
AcDbEntity
  8
Geo
100
AcDbLine
 10
-27.26952669721848
 20
4.649293048934278
 30
0.0
 11
-27.16952669721848
 21
4.549040034525478
 31
0.0
  0
LINE
  5
F104EC
330
261
100
AcDbEntity
  8
Geo
100
AcDbLine
 10
-27.26952669721848
 20
1.164617202143478
 30
0.0
 11
-27.16952669721848
 21
1.152339815244882
 31
0.0
  0
LINE
  5
F104EE
330
261
100
AcDbEntity
  8
Geo
100
AcDbLine
 10
-27.16952669721848
 20
5.080864796373582
 30
0.0
 11
-27.06952669721848
 21
4.990490545854083
 31
0.0
  0
LINE
  5
F104F0
330
261
100
AcDbEntity
  8
Geo
100
AcDbLine
 10
-27.16952669721848
 20
4.549040034525478
 30
0.0
 11
-27.06952669721848
 21
4.447050455786079
 31
0.0
  0
LINE
  5
F104F2
330
261
100
AcDbEntity
  8
Geo
100
AcDbLine
 10
-27.16952669721848
 20
1.152339815244882
 30
0.0
 11
-27.06952669721848
 21
1.144038258476278
 31
0.0
  0
LINE
  5
F104F4
330
261
100
AcDbEntity
  8
Geo
100
AcDbLine
 10
-27.06952669721848
 20
4.990490545854083
 30
0.0
 11
-26.96952669721848
 21
4.89753866879608
 31
0.0
  0
LINE
  5
F104F6
330
261
100
AcDbEntity
  8
Geo
100
AcDbLine
 10
-27.06952669721848
 20
4.447050455786079
 30
0.0
 11
-26.96952669721848
 21
4.343518625732076
 31
0.0
  0
LINE
  5
F104F8
330
261
100
AcDbEntity
  8
Geo
100
AcDbLine
 10
-27.06952669721848
 20
1.144038258476278
 30
0.0
 11
-26.96952669721848
 21
1.139725812557577
 31
0.0
  0
LINE
  5
F104FA
330
261
100
AcDbEntity
  8
Geo
100
AcDbLine
 10
-26.96952669721848
 20
4.89753866879608
 30
0.0
 11
-26.86952669721847
 21
4.802186259367278
 31
0.0
  0
LINE
  5
F104FC
330
261
100
AcDbEntity
  8
Geo
100
AcDbLine
 10
-26.96952669721848
 20
4.343518625732076
 30
0.0
 11
-26.86952669721847
 21
4.238641795714278
 31
0.0
  0
LINE
  5
F104FE
330
261
100
AcDbEntity
  8
Geo
100
AcDbLine
 10
-26.86952669721847
 20
4.802186259367278
 30
0.0
 11
-26.76952669721848
 21
4.704614985287981
 31
0.0
  0
LINE
  5
F10500
330
261
100
AcDbEntity
  8
Geo
100
AcDbLine
 10
-26.86952669721847
 20
4.238641795714278
 30
0.0
 11
-26.76952669721848
 21
4.132619779609579
 31
0.0
  0
LINE
  5
F10502
330
261
100
AcDbEntity
  8
Geo
100
AcDbLine
 10
-26.76952669721848
 20
4.704614985287981
 30
0.0
 11
-26.66952669721848
 21
4.605010741713178
 31
0.0
  0
LINE
  5
F10504
330
261
100
AcDbEntity
  8
Geo
100
AcDbLine
 10
-26.76952669721848
 20
4.132619779609579
 30
0.0
 11
-26.66952669721848
 21
4.025654573131578
 31
0.0
  0
LINE
  5
F10506
330
261
100
AcDbEntity
  8
Geo
100
AcDbLine
 10
-26.66952669721848
 20
4.605010741713178
 30
0.0
 11
-26.56952669721848
 21
4.503563297060678
 31
0.0
  0
LINE
  5
F10508
330
261
100
AcDbEntity
  8
Geo
100
AcDbLine
 10
-26.66952669721848
 20
4.025654573131578
 30
0.0
 11
-26.56952669721848
 21
3.917949968982681
 31
0.0
  0
LINE
  5
F1050A
330
261
100
AcDbEntity
  8
Geo
100
AcDbLine
 10
-26.56952669721848
 20
4.503563297060678
 30
0.0
 11
-26.46952669721848
 21
4.400465931459379
 31
0.0
  0
LINE
  5
F1050C
330
261
100
AcDbEntity
  8
Geo
100
AcDbLine
 10
-26.56952669721848
 20
3.917949968982681
 30
0.0
 11
-26.46952669721848
 21
3.809711168583881
 31
0.0
  0
LINE
  5
F1050E
330
261
100
AcDbEntity
  8
Geo
100
AcDbLine
 10
-26.46952669721848
 20
4.400465931459379
 30
0.0
 11
-26.36952669721848
 21
4.29591506850778
 31
0.0
  0
LINE
  5
F10510
330
261
100
AcDbEntity
  8
Geo
100
AcDbLine
 10
-26.46952669721848
 20
3.809711168583881
 30
0.0
 11
-26.36952669721848
 21
3.70114439111958
 31
0.0
  0
LINE
  5
F10512
330
261
100
AcDbEntity
  8
Geo
100
AcDbLine
 10
-26.36952669721848
 20
4.29591506850778
 30
0.0
 11
-26.26952669721848
 21
4.19010990104268
 31
0.0
  0
LINE
  5
F10514
330
261
100
AcDbEntity
  8
Geo
100
AcDbLine
 10
-26.36952669721848
 20
3.70114439111958
 30
0.0
 11
-26.26952669721848
 21
3.592456480644378
 31
0.0
  0
LINE
  5
F10516
330
261
100
AcDbEntity
  8
Geo
100
AcDbLine
 10
-26.26952669721848
 20
4.19010990104268
 30
0.0
 11
-26.16952669721848
 21
4.083252011632183
 31
0.0
  0
LINE
  5
F10518
330
261
100
AcDbEntity
  8
Geo
100
AcDbLine
 10
-26.26952669721848
 20
3.592456480644378
 30
0.0
 11
-26.16952669721848
 21
3.483854511998081
 31
0.0
  0
LINE
  5
F1051A
330
261
100
AcDbEntity
  8
Geo
100
AcDbLine
 10
-26.16952669721848
 20
4.083252011632183
 30
0.0
 11
-26.06952669721848
 21
3.975544988515681
 31
0.0
  0
LINE
  5
F1051C
330
261
100
AcDbEntity
  8
Geo
100
AcDbLine
 10
-26.16952669721848
 20
3.483854511998081
 30
0.0
 11
-26.06952669721848
 21
3.375545396282181
 31
0.0
  0
LINE
  5
F1051E
330
261
100
AcDbEntity
  8
Geo
100
AcDbLine
 10
-26.06952669721848
 20
3.975544988515681
 30
0.0
 11
-25.96952669721848
 21
3.867194037722882
 31
0.0
  0
LINE
  5
F10520
330
261
100
AcDbEntity
  8
Geo
100
AcDbLine
 10
-26.06952669721848
 20
3.375545396282181
 30
0.0
 11
-25.96952669721848
 21
3.267735486647778
 31
0.0
  0
LINE
  5
F10522
330
261
100
AcDbEntity
  8
Geo
100
AcDbLine
 10
-25.96952669721848
 20
3.867194037722882
 30
0.0
 11
-25.86952669721848
 21
3.75840559210988
 31
0.0
  0
LINE
  5
F10524
330
261
100
AcDbEntity
  8
Geo
100
AcDbLine
 10
-25.96952669721848
 20
3.267735486647778
 30
0.0
 11
-25.86952669721848
 21
3.160630185146081
 31
0.0
  0
LINE
  5
F10526
330
261
100
AcDbEntity
  8
Geo
100
AcDbLine
 10
-25.86952669721848
 20
3.75840559210988
 30
0.0
 11
-25.76952669721848
 21
3.64938691805868
 31
0.0
  0
LINE
  5
F10528
330
261
100
AcDbEntity
  8
Geo
100
AcDbLine
 10
-25.86952669721848
 20
3.160630185146081
 30
0.0
 11
-25.76952669721848
 21
3.054433551392381
 31
0.0
  0
LINE
  5
F1052A
330
261
100
AcDbEntity
  8
Geo
100
AcDbLine
 10
-25.76952669721848
 20
3.64938691805868
 30
0.0
 11
-25.66952669721848
 21
3.540345720587977
 31
0.0
  0
LINE
  5
F1052C
330
261
100
AcDbEntity
  8
Geo
100
AcDbLine
 10
-25.76952669721848
 20
3.054433551392381
 30
0.0
 11
-25.66952669721848
 21
2.949347913785579
 31
0.0
  0
LINE
  5
F1052E
330
261
100
AcDbEntity
  8
Geo
100
AcDbLine
 10
-25.66952669721848
 20
3.540345720587977
 30
0.0
 11
-25.56952669721848
 21
3.431489747628478
 31
0.0
  0
LINE
  5
F10530
330
261
100
AcDbEntity
  8
Geo
100
AcDbLine
 10
-25.66952669721848
 20
2.949347913785579
 30
0.0
 11
-25.56952669721848
 21
2.845573484028278
 31
0.0
  0
LINE
  5
F10532
330
261
100
AcDbEntity
  8
Geo
100
AcDbLine
 10
-25.56952669721848
 20
3.431489747628478
 30
0.0
 11
-25.46952669721848
 21
3.323026394217079
 31
0.0
  0
LINE
  5
F10534
330
261
100
AcDbEntity
  8
Geo
100
AcDbLine
 10
-25.56952669721848
 20
2.845573484028278
 30
0.0
 11
-25.46952669721848
 21
2.743307975677878
 31
0.0
  0
LINE
  5
F10536
330
261
100
AcDbEntity
  8
Geo
100
AcDbLine
 10
-25.46952669721848
 20
3.323026394217079
 30
0.0
 11
-25.36952669721848
 21
3.215162307362077
 31
0.0
  0
LINE
  5
F10538
330
261
100
AcDbEntity
  8
Geo
100
AcDbLine
 10
-25.46952669721848
 20
2.743307975677878
 30
0.0
 11
-25.36952669721848
 21
2.642746227458079
 31
0.0
  0
LINE
  5
F1053A
330
261
100
AcDbEntity
  8
Geo
100
AcDbLine
 10
-25.36952669721848
 20
3.215162307362077
 30
0.0
 11
-25.26952669721848
 21
3.108102992334578
 31
0.0
  0
LINE
  5
F1053C
330
261
100
AcDbEntity
  8
Geo
100
AcDbLine
 10
-25.36952669721848
 20
2.642746227458079
 30
0.0
 11
-25.26952669721848
 21
2.544079832047778
 31
0.0
  0
LINE
  5
F1053E
330
261
100
AcDbEntity
  8
Geo
100
AcDbLine
 10
-25.26952669721848
 20
3.108102992334578
 30
0.0
 11
-25.16952669721848
 21
3.002052421135181
 31
0.0
  0
LINE
  5
F10540
330
261
100
AcDbEntity
  8
Geo
100
AcDbLine
 10
-25.26952669721848
 20
2.544079832047778
 30
0.0
 11
-25.16952669721848
 21
2.447496771053681
 31
0.0
  0
LINE
  5
F10542
330
261
100
AcDbEntity
  8
Geo
100
AcDbLine
 10
-25.16952669721848
 20
3.002052421135181
 30
0.0
 11
-25.06952669721848
 21
2.897212643881078
 31
0.0
  0
LINE
  5
F10544
330
261
100
AcDbEntity
  8
Geo
100
AcDbLine
 10
-25.16952669721848
 20
2.447496771053681
 30
0.0
 11
-25.06952669721848
 21
2.353181056863081
 31
0.0
  0
LINE
  5
F10546
330
261
100
AcDbEntity
  8
Geo
100
AcDbLine
 10
-25.06952669721848
 20
2.897212643881078
 30
0.0
 11
-24.96952669721848
 21
2.793783403855478
 31
0.0
  0
LINE
  5
F10548
330
261
100
AcDbEntity
  8
Geo
100
AcDbLine
 10
-25.06952669721848
 20
2.353181056863081
 30
0.0
 11
-24.96952669721848
 21
2.261312382059581
 31
0.0
  0
LINE
  5
F1054A
330
261
100
AcDbEntity
  8
Geo
100
AcDbLine
 10
-24.96952669721848
 20
2.793783403855478
 30
0.0
 11
-24.86952669721848
 21
2.69196175695218
 31
0.0
  0
LINE
  5
F1054C
330
261
100
AcDbEntity
  8
Geo
100
AcDbLine
 10
-24.96952669721848
 20
2.261312382059581
 30
0.0
 11
-24.86952669721848
 21
2.172065777067778
 31
0.0
  0
LINE
  5
F1054E
330
261
100
AcDbEntity
  8
Geo
100
AcDbLine
 10
-24.86952669721848
 20
2.69196175695218
 30
0.0
 11
-24.76952669721848
 21
2.59194169623928
 31
0.0
  0
LINE
  5
F10550
330
261
100
AcDbEntity
  8
Geo
100
AcDbLine
 10
-24.86952669721848
 20
2.172065777067778
 30
0.0
 11
-24.76952669721848
 21
2.085611276681478
 31
0.0
  0
LINE
  5
F10552
330
261
100
AcDbEntity
  8
Geo
100
AcDbLine
 10
-24.76952669721848
 20
2.59194169623928
 30
0.0
 11
-24.66952669721848
 21
2.493913782359476
 31
0.0
  0
LINE
  5
F10554
330
261
100
AcDbEntity
  8
Geo
100
AcDbLine
 10
-24.76952669721848
 20
2.085611276681478
 30
0.0
 11
-24.66952669721848
 21
2.002113596109182
 31
0.0
  0
LINE
  5
F10556
330
261
100
AcDbEntity
  8
Geo
100
AcDbLine
 10
-24.66952669721848
 20
2.493913782359476
 30
0.0
 11
-24.56952669721848
 21
2.398064780468881
 31
0.0
  0
LINE
  5
F10558
330
261
100
AcDbEntity
  8
Geo
100
AcDbLine
 10
-24.66952669721848
 20
2.002113596109182
 30
0.0
 11
-24.56952669721848
 21
1.921731817154379
 31
0.0
  0
LINE
  5
F1055A
330
261
100
AcDbEntity
  8
Geo
100
AcDbLine
 10
-24.56952669721848
 20
2.398064780468881
 30
0.0
 11
-24.46952669721848
 21
2.304577304407779
 31
0.0
  0
LINE
  5
F1055C
330
261
100
AcDbEntity
  8
Geo
100
AcDbLine
 10
-24.56952669721848
 20
1.921731817154379
 30
0.0
 11
-24.46952669721848
 21
1.844619085129781
 31
0.0
  0
LINE
  5
F1055E
330
261
100
AcDbEntity
  8
Geo
100
AcDbLine
 10
-24.56952669721848
 20
6.12634654282278
 30
0.0
 11
-24.46952669721848
 21
6.12174235674778
 31
0.0
  0
LINE
  5
F10560
330
261
100
AcDbEntity
  8
Geo
100
AcDbLine
 10
-24.46952669721848
 20
2.304577304407779
 30
0.0
 11
-24.36952669721847
 21
2.213629468780382
 31
0.0
  0
LINE
  5
F10562
330
261
100
AcDbEntity
  8
Geo
100
AcDbLine
 10
-24.46952669721848
 20
1.844619085129781
 30
0.0
 11
-24.36952669721847
 21
1.77092231708038
 31
0.0
  0
LINE
  5
F10564
330
261
100
AcDbEntity
  8
Geo
100
AcDbLine
 10
-24.46952669721848
 20
6.12174235674778
 30
0.0
 11
-24.36952669721847
 21
6.113801150098278
 31
0.0
  0
LINE
  5
F10566
330
261
100
AcDbEntity
  8
Geo
100
AcDbLine
 10
-24.36952669721847
 20
2.213629468780382
 30
0.0
 11
-24.26952669721848
 21
2.125394549606081
 31
0.0
  0
LINE
  5
F10568
330
261
100
AcDbEntity
  8
Geo
100
AcDbLine
 10
-24.36952669721847
 20
1.77092231708038
 30
0.0
 11
-24.26952669721848
 21
1.700781921873883
 31
0.0
  0
LINE
  5
F1056A
330
261
100
AcDbEntity
  8
Geo
100
AcDbLine
 10
-24.36952669721847
 20
6.113801150098278
 30
0.0
 11
-24.26952669721848
 21
6.102533590377277
 31
0.0
  0
LINE
  5
F1056C
330
261
100
AcDbEntity
  8
Geo
100
AcDbLine
 10
-24.26952669721848
 20
2.125394549606081
 30
0.0
 11
-24.16952669721848
 21
2.04004065419038
 31
0.0
  0
LINE
  5
F1056E
330
261
100
AcDbEntity
  8
Geo
100
AcDbLine
 10
-24.26952669721848
 20
1.700781921873883
 30
0.0
 11
-24.16952669721848
 21
1.634331532690381
 31
0.0
  0
LINE
  5
F10570
330
261
100
AcDbEntity
  8
Geo
100
AcDbLine
 10
-24.26952669721848
 20
6.102533590377277
 30
0.0
 11
-24.16952669721848
 21
6.08795481341178
 31
0.0
  0
LINE
  5
F10572
330
261
100
AcDbEntity
  8
Geo
100
AcDbLine
 10
-24.16952669721848
 20
2.04004065419038
 30
0.0
 11
-24.06952669721848
 21
1.957730400842581
 31
0.0
  0
LINE
  5
F10574
330
261
100
AcDbEntity
  8
Geo
100
AcDbLine
 10
-24.16952669721848
 20
1.634331532690381
 30
0.0
 11
-24.06952669721848
 21
1.571697752420976
 31
0.0
  0
LINE
  5
F10576
330
261
100
AcDbEntity
  8
Geo
100
AcDbLine
 10
-24.16952669721848
 20
6.08795481341178
 30
0.0
 11
-24.06952669721848
 21
6.070084403020281
 31
0.0
  0
LINE
  5
F10578
330
261
100
AcDbEntity
  8
Geo
100
AcDbLine
 10
-24.06952669721848
 20
1.957730400842581
 30
0.0
 11
-23.96952669721848
 21
1.878620609051181
 31
0.0
  0
LINE
  5
F1057A
330
261
100
AcDbEntity
  8
Geo
100
AcDbLine
 10
-24.06952669721848
 20
1.571697752420976
 30
0.0
 11
-23.96952669721848
 21
1.512999912461282
 31
0.0
  0
LINE
  5
F1057C
330
261
100
AcDbEntity
  8
Geo
100
AcDbLine
 10
-24.06952669721848
 20
6.070084403020281
 30
0.0
 11
-23.96952669721848
 21
6.048946364705879
 31
0.0
  0
LINE
  5
F1057E
330
261
100
AcDbEntity
  8
Geo
100
AcDbLine
 10
-23.96952669721848
 20
1.878620609051181
 30
0.0
 11
-23.86952669721848
 21
1.802862000707978
 31
0.0
  0
LINE
  5
F10580
330
261
100
AcDbEntity
  8
Geo
100
AcDbLine
 10
-23.96952669721848
 20
1.512999912461282
 30
0.0
 11
-23.86952669721848
 21
1.45834984535778
 31
0.0
  0
LINE
  5
F10582
330
261
100
AcDbEntity
  8
Geo
100
AcDbLine
 10
-23.96952669721848
 20
6.135924709139281
 30
0.0
 11
-23.86952669721848
 21
6.13324379251048
 31
0.0
  0
LINE
  5
F10584
330
261
100
AcDbEntity
  8
Geo
100
AcDbLine
 10
-23.96952669721848
 20
6.048946364705879
 30
0.0
 11
-23.86952669721848
 21
6.024569093409179
 31
0.0
  0
LINE
  5
F10586
330
261
100
AcDbEntity
  8
Geo
100
AcDbLine
 10
-23.86952669721848
 20
1.802862000707978
 30
0.0
 11
-23.76952669721848
 21
1.730598912948682
 31
0.0
  0
LINE
  5
F10588
330
261
100
AcDbEntity
  8
Geo
100
AcDbLine
 10
-23.86952669721848
 20
1.45834984535778
 30
0.0
 11
-23.76952669721848
 21
1.407851671742181
 31
0.0
  0
LINE
  5
F1058A
330
261
100
AcDbEntity
  8
Geo
100
AcDbLine
 10
-23.86952669721848
 20
6.13324379251048
 30
0.0
 11
-23.76952669721848
 21
6.127210405311981
 31
0.0
  0
LINE
  5
F1058C
330
261
100
AcDbEntity
  8
Geo
100
AcDbLine
 10
-23.86952669721848
 20
6.024569093409179
 30
0.0
 11
-23.76952669721848
 21
5.996985335365081
 31
0.0
  0
LINE
  5
F1058E
330
261
100
AcDbEntity
  8
Geo
100
AcDbLine
 10
-23.76952669721848
 20
1.730598912948682
 30
0.0
 11
-23.66952669721848
 21
1.661969023158683
 31
0.0
  0
LINE
  5
F10590
330
261
100
AcDbEntity
  8
Geo
100
AcDbLine
 10
-23.76952669721848
 20
1.407851671742181
 30
0.0
 11
-23.66952669721848
 21
1.36160160195818
 31
0.0
  0
LINE
  5
F10592
330
261
100
AcDbEntity
  8
Geo
100
AcDbLine
 10
-23.76952669721848
 20
6.127210405311981
 30
0.0
 11
-23.66952669721848
 21
6.11783265225408
 31
0.0
  0
LINE
  5
F10594
330
261
100
AcDbEntity
  8
Geo
100
AcDbLine
 10
-23.76952669721848
 20
5.996985335365081
 30
0.0
 11
-23.66952669721848
 21
5.96623214411478
 31
0.0
  0
LINE
  5
F10596
330
261
100
AcDbEntity
  8
Geo
100
AcDbLine
 10
-23.66952669721848
 20
1.661969023158683
 30
0.0
 11
-23.56952669721848
 21
1.597103086666479
 31
0.0
  0
LINE
  5
F10598
330
261
100
AcDbEntity
  8
Geo
100
AcDbLine
 10
-23.66952669721848
 20
1.36160160195818
 30
0.0
 11
-23.56952669721848
 21
1.31968775275908
 31
0.0
  0
LINE
  5
F1059A
330
261
100
AcDbEntity
  8
Geo
100
AcDbLine
 10
-23.66952669721848
 20
6.11783265225408
 30
0.0
 11
-23.56952669721848
 21
6.105123130567078
 31
0.0
  0
LINE
  5
F1059C
330
261
100
AcDbEntity
  8
Geo
100
AcDbLine
 10
-23.66952669721848
 20
5.96623214411478
 30
0.0
 11
-23.56952669721848
 21
5.932350830731182
 31
0.0
  0
LINE
  5
F1059E
330
261
100
AcDbEntity
  8
Geo
100
AcDbLine
 10
-23.56952669721848
 20
1.597103086666479
 30
0.0
 11
-23.46952669721848
 21
1.536124687625683
 31
0.0
  0
LINE
  5
F105A0
330
261
100
AcDbEntity
  8
Geo
100
AcDbLine
 10
-23.56952669721848
 20
1.31968775275908
 30
0.0
 11
-23.46952669721848
 21
1.28218997942578
 31
0.0
  0
LINE
  5
F105A2
330
261
100
AcDbEntity
  8
Geo
100
AcDbLine
 10
-23.56952669721848
 20
6.105123130567078
 30
0.0
 11
-23.46952669721848
 21
6.089098913080081
 31
0.0
  0
LINE
  5
F105A4
330
261
100
AcDbEntity
  8
Geo
100
AcDbLine
 10
-23.56952669721848
 20
5.932350830731182
 30
0.0
 11
-23.46952669721848
 21
5.895386908324978
 31
0.0
  0
LINE
  5
F105A6
330
261
100
AcDbEntity
  8
Geo
100
AcDbLine
 10
-23.46952669721848
 20
1.536124687625683
 30
0.0
 11
-23.36952669721847
 21
1.479150003559279
 31
0.0
  0
LINE
  5
F105A8
330
261
100
AcDbEntity
  8
Geo
100
AcDbLine
 10
-23.46952669721848
 20
1.28218997942578
 30
0.0
 11
-23.36952669721847
 21
1.24917972362428
 31
0.0
  0
LINE
  5
F105AA
330
261
100
AcDbEntity
  8
Geo
100
AcDbLine
 10
-23.46952669721848
 20
6.089098913080081
 30
0.0
 11
-23.36952669721847
 21
6.069781525286479
 31
0.0
  0
LINE
  5
F105AC
330
261
100
AcDbEntity
  8
Geo
100
AcDbLine
 10
-23.46952669721848
 20
5.895386908324978
 30
0.0
 11
-23.36952669721847
 21
5.855390030907081
 31
0.0
  0
LINE
  5
F105AE
330
261
100
AcDbEntity
  8
Geo
100
AcDbLine
 10
-23.36952669721847
 20
1.479150003559279
 30
0.0
 11
-23.26952669721848
 21
1.426287584015581
 31
0.0
  0
LINE
  5
F105B0
330
261
100
AcDbEntity
  8
Geo
100
AcDbLine
 10
-23.36952669721847
 20
1.24917972362428
 30
0.0
 11
-23.26952669721848
 21
1.220719877293682
 31
0.0
  0
LINE
  5
F105B2
330
261
100
AcDbEntity
  8
Geo
100
AcDbLine
 10
-23.36952669721847
 20
6.069781525286479
 30
0.0
 11
-23.26952669721848
 21
6.047196916428681
 31
0.0
  0
LINE
  5
F105B4
330
261
100
AcDbEntity
  8
Geo
100
AcDbLine
 10
-23.36952669721847
 20
5.855390030907081
 30
0.0
 11
-23.26952669721848
 21
5.812413926687277
 31
0.0
  0
LINE
  5
F105B6
330
261
100
AcDbEntity
  8
Geo
100
AcDbLine
 10
-23.26952669721848
 20
1.426287584015581
 30
0.0
 11
-23.16952669721848
 21
1.377638143756684
 31
0.0
  0
LINE
  5
F105B8
330
261
100
AcDbEntity
  8
Geo
100
AcDbLine
 10
-23.26952669721848
 20
1.220719877293682
 30
0.0
 11
-23.16952669721848
 21
1.196864662822682
 31
0.0
  0
LINE
  5
F105BA
330
261
100
AcDbEntity
  8
Geo
100
AcDbLine
 10
-23.26952669721848
 20
6.047196916428681
 30
0.0
 11
-23.16952669721848
 21
6.021375424640075
 31
0.0
  0
LINE
  5
F105BC
330
261
100
AcDbEntity
  8
Geo
100
AcDbLine
 10
-23.26952669721848
 20
5.812413926687277
 30
0.0
 11
-23.16952669721848
 21
5.76651632590098
 31
0.0
  0
LINE
  5
F105BE
330
261
100
AcDbEntity
  8
Geo
100
AcDbLine
 10
-23.16952669721848
 20
1.377638143756684
 30
0.0
 11
-23.06952669721848
 21
1.33329437087488
 31
0.0
  0
LINE
  5
F105C0
330
261
100
AcDbEntity
  8
Geo
100
AcDbLine
 10
-23.16952669721848
 20
1.196864662822682
 30
0.0
 11
-23.06952669721848
 21
1.177659529743682
 31
0.0
  0
LINE
  5
F105C2
330
261
100
AcDbEntity
  8
Geo
100
AcDbLine
 10
-23.16952669721848
 20
6.021375424640075
 30
0.0
 11
-23.06952669721848
 21
5.992351736191682
 31
0.0
  0
LINE
  5
F105C4
330
261
100
AcDbEntity
  8
Geo
100
AcDbLine
 10
-23.16952669721848
 20
5.76651632590098
 30
0.0
 11
-23.06952669721848
 21
5.71775888325958
 31
0.0
  0
LINE
  5
F105C6
330
261
100
AcDbEntity
  8
Geo
100
AcDbLine
 10
-23.06952669721848
 20
1.33329437087488
 30
0.0
 11
-22.96952669721848
 21
1.293340750200381
 31
0.0
  0
LINE
  5
F105C8
330
261
100
AcDbEntity
  8
Geo
100
AcDbLine
 10
-23.06952669721848
 20
1.177659529743682
 30
0.0
 11
-22.96952669721848
 21
1.16314106814138
 31
0.0
  0
LINE
  5
F105CA
330
261
100
AcDbEntity
  8
Geo
100
AcDbLine
 10
-23.06952669721848
 20
5.992351736191682
 30
0.0
 11
-22.96952669721848
 21
5.960164838897682
 31
0.0
  0
LINE
  5
F105CC
330
261
100
AcDbEntity
  8
Geo
100
AcDbLine
 10
-23.06952669721848
 20
5.71775888325958
 30
0.0
 11
-22.96952669721848
 21
5.666207095128682
 31
0.0
  0
LINE
  5
F105CE
330
261
100
AcDbEntity
  8
Geo
100
AcDbLine
 10
-22.96952669721848
 20
1.293340750200381
 30
0.0
 11
-22.86952669721848
 21
1.257853402339182
 31
0.0
  0
LINE
  5
F105D0
330
261
100
AcDbEntity
  8
Geo
100
AcDbLine
 10
-22.96952669721848
 20
1.16314106814138
 30
0.0
 11
-22.86952669721848
 21
1.153336938940682
 31
0.0
  0
LINE
  5
F105D2
330
261
100
AcDbEntity
  8
Geo
100
AcDbLine
 10
-22.96952669721848
 20
5.960164838897682
 30
0.0
 11
-22.86952669721848
 21
5.924857969742777
 31
0.0
  0
LINE
  5
F105D4
330
261
100
AcDbEntity
  8
Geo
100
AcDbLine
 10
-22.96952669721848
 20
5.666207095128682
 30
0.0
 11
-22.86952669721848
 21
5.611930211546578
 31
0.0
  0
LINE
  5
F105D6
330
261
100
AcDbEntity
  8
Geo
100
AcDbLine
 10
-22.86952669721848
 20
1.257853402339182
 30
0.0
 11
-22.76952669721848
 21
1.226899938645978
 31
0.0
  0
LINE
  5
F105D8
330
261
100
AcDbEntity
  8
Geo
100
AcDbLine
 10
-22.86952669721848
 20
1.153336938940682
 30
0.0
 11
-22.76952669721848
 21
1.148265821205978
 31
0.0
  0
LINE
  5
F105DA
330
261
100
AcDbEntity
  8
Geo
100
AcDbLine
 10
-22.86952669721848
 20
5.924857969742777
 30
0.0
 11
-22.76952669721848
 21
5.886478556801278
 31
0.0
  0
LINE
  5
F105DC
330
261
100
AcDbEntity
  8
Geo
100
AcDbLine
 10
-22.86952669721848
 20
5.611930211546578
 30
0.0
 11
-22.76952669721848
 21
5.555001143199977
 31
0.0
  0
LINE
  5
F105DE
330
261
100
AcDbEntity
  8
Geo
100
AcDbLine
 10
-22.76952669721848
 20
1.226899938645978
 30
0.0
 11
-22.66952669721848
 21
1.200539332409778
 31
0.0
  0
LINE
  5
F105E0
330
261
100
AcDbEntity
  8
Geo
100
AcDbLine
 10
-22.76952669721848
 20
5.886478556801278
 30
0.0
 11
-22.66952669721848
 21
5.84507815552678
 31
0.0
  0
LINE
  5
F105E2
330
261
100
AcDbEntity
  8
Geo
100
AcDbLine
 10
-22.76952669721848
 20
5.555001143199977
 30
0.0
 11
-22.66952669721848
 21
5.495496363481978
 31
0.0
  0
LINE
  5
F105E4
330
261
100
AcDbEntity
  8
Geo
100
AcDbLine
 10
-22.66952669721848
 20
1.200539332409778
 30
0.0
 11
-22.56952669721848
 21
1.178821806496081
 31
0.0
  0
LINE
  5
F105E6
330
261
100
AcDbEntity
  8
Geo
100
AcDbLine
 10
-22.66952669721848
 20
5.84507815552678
 30
0.0
 11
-22.56952669721848
 21
5.800712379496878
 31
0.0
  0
LINE
  5
F105E8
330
261
100
AcDbEntity
  8
Geo
100
AcDbLine
 10
-22.66952669721848
 20
5.495496363481978
 30
0.0
 11
-22.56952669721848
 21
5.43349580576498
 31
0.0
  0
LINE
  5
F105EA
330
261
100
AcDbEntity
  8
Geo
100
AcDbLine
 10
-22.56952669721848
 20
1.178821806496081
 30
0.0
 11
-22.46952669721848
 21
1.161788737661278
 31
0.0
  0
LINE
  5
F105EC
330
261
100
AcDbEntity
  8
Geo
100
AcDbLine
 10
-22.56952669721848
 20
5.800712379496878
 30
0.0
 11
-22.46952669721848
 21
5.753440825707182
 31
0.0
  0
LINE
  5
F105EE
330
261
100
AcDbEntity
  8
Geo
100
AcDbLine
 10
-22.56952669721848
 20
5.43349580576498
 30
0.0
 11
-22.46952669721848
 21
5.369082756025079
 31
0.0
  0
LINE
  5
F105F0
330
261
100
AcDbEntity
  8
Geo
100
AcDbLine
 10
-22.46952669721848
 20
1.161788737661278
 30
0.0
 11
-22.36952669721848
 21
1.149472577720882
 31
0.0
  0
LINE
  5
F105F2
330
261
100
AcDbEntity
  8
Geo
100
AcDbLine
 10
-22.46952669721848
 20
5.753440825707182
 30
0.0
 11
-22.36952669721848
 21
5.703326994513882
 31
0.0
  0
LINE
  5
F105F4
330
261
100
AcDbEntity
  8
Geo
100
AcDbLine
 10
-22.46952669721848
 20
5.369082756025079
 30
0.0
 11
-22.36952669721848
 21
5.302343740963276
 31
0.0
  0
LINE
  5
F105F6
330
261
100
AcDbEntity
  8
Geo
100
AcDbLine
 10
-22.36952669721848
 20
1.149472577720882
 30
0.0
 11
-22.26952669721848
 21
1.14189679172108
 31
0.0
  0
LINE
  5
F105F8
330
261
100
AcDbEntity
  8
Geo
100
AcDbLine
 10
-22.36952669721848
 20
5.703326994513882
 30
0.0
 11
-22.26952669721848
 21
5.65043820433318
 31
0.0
  0
LINE
  5
F105FA
330
261
100
AcDbEntity
  8
Geo
100
AcDbLine
 10
-22.36952669721848
 20
5.302343740963276
 30
0.0
 11
-22.26952669721848
 21
5.233368411773581
 31
0.0
  0
LINE
  5
F105FC
330
261
100
AcDbEntity
  8
Geo
100
AcDbLine
 10
-22.26952669721848
 20
1.14189679172108
 30
0.0
 11
-22.16952669721848
 21
1.139075813232778
 31
0.0
  0
LINE
  5
F105FE
330
261
100
AcDbEntity
  8
Geo
100
AcDbLine
 10
-22.26952669721848
 20
5.65043820433318
 30
0.0
 11
-22.16952669721848
 21
5.594845501211882
 31
0.0
  0
LINE
  5
F10600
330
261
100
AcDbEntity
  8
Geo
100
AcDbLine
 10
-22.26952669721848
 20
5.233368411773581
 30
0.0
 11
-22.16952669721848
 21
5.162249423713078
 31
0.0
  0
LINE
  5
F10602
330
261
100
AcDbEntity
  8
Geo
100
AcDbLine
 10
-22.16952669721848
 20
5.594845501211882
 30
0.0
 11
-22.06952669721848
 21
5.536623563390183
 31
0.0
  0
LINE
  5
F10604
330
261
100
AcDbEntity
  8
Geo
100
AcDbLine
 10
-22.16952669721848
 20
5.162249423713078
 30
0.0
 11
-22.06952669721848
 21
5.089082311637581
 31
0.0
  0
LINE
  5
F10606
330
261
100
AcDbEntity
  8
Geo
100
AcDbLine
 10
-22.06952669721848
 20
5.536623563390183
 30
0.0
 11
-21.96952669721848
 21
5.475850600985878
 31
0.0
  0
LINE
  5
F10608
330
261
100
AcDbEntity
  8
Geo
100
AcDbLine
 10
-22.06952669721848
 20
5.089082311637581
 30
0.0
 11
-21.96952669721848
 21
5.013965361668681
 31
0.0
  0
LINE
  5
F1060A
330
261
100
AcDbEntity
  8
Geo
100
AcDbLine
 10
-21.96952669721848
 20
5.475850600985878
 30
0.0
 11
-21.86952669721847
 21
5.412608250933882
 31
0.0
  0
LINE
  5
F1060C
330
261
100
AcDbEntity
  8
Geo
100
AcDbLine
 10
-21.96952669721848
 20
5.013965361668681
 30
0.0
 11
-21.86952669721847
 21
4.936999479164882
 31
0.0
  0
LINE
  5
F1060E
330
261
100
AcDbEntity
  8
Geo
100
AcDbLine
 10
-21.86952669721847
 20
5.412608250933882
 30
0.0
 11
-21.76952669721848
 21
5.346981467322683
 31
0.0
  0
LINE
  5
F10610
330
261
100
AcDbEntity
  8
Geo
100
AcDbLine
 10
-21.86952669721847
 20
4.936999479164882
 30
0.0
 11
-21.76952669721848
 21
4.858288053174478
 31
0.0
  0
LINE
  5
F10612
330
261
100
AcDbEntity
  8
Geo
100
AcDbLine
 10
-21.76952669721848
 20
5.346981467322683
 30
0.0
 11
-21.66952669721848
 21
5.27905840727428
 31
0.0
  0
LINE
  5
F10614
330
261
100
AcDbEntity
  8
Geo
100
AcDbLine
 10
-21.76952669721848
 20
4.858288053174478
 30
0.0
 11
-21.66952669721848
 21
4.777936817551879
 31
0.0
  0
LINE
  5
F10616
330
261
100
AcDbEntity
  8
Geo
100
AcDbLine
 10
-21.66952669721848
 20
5.27905840727428
 30
0.0
 11
-21.56952669721848
 21
5.208930312522181
 31
0.0
  0
LINE
  5
F10618
330
261
100
AcDbEntity
  8
Geo
100
AcDbLine
 10
-21.66952669721848
 20
4.777936817551879
 30
0.0
 11
-21.56952669721848
 21
4.696053708924377
 31
0.0
  0
LINE
  5
F1061A
330
261
100
AcDbEntity
  8
Geo
100
AcDbLine
 10
-21.56952669721848
 20
5.208930312522181
 30
0.0
 11
-21.46952669721848
 21
5.136691386844978
 31
0.0
  0
LINE
  5
F1061C
330
261
100
AcDbEntity
  8
Geo
100
AcDbLine
 10
-21.56952669721848
 20
4.696053708924377
 30
0.0
 11
-21.46952669721848
 21
4.612748721700081
 31
0.0
  0
LINE
  5
F1061E
330
261
100
AcDbEntity
  8
Geo
100
AcDbLine
 10
-21.46952669721848
 20
5.136691386844978
 30
0.0
 11
-21.36952669721848
 21
5.062438669522278
 31
0.0
  0
LINE
  5
F10620
330
261
100
AcDbEntity
  8
Geo
100
AcDbLine
 10
-21.46952669721848
 20
4.612748721700081
 30
0.0
 11
-21.36952669721848
 21
4.528133760310478
 31
0.0
  0
LINE
  5
F10622
330
261
100
AcDbEntity
  8
Geo
100
AcDbLine
 10
-21.36952669721848
 20
5.062438669522278
 30
0.0
 11
-21.26952669721848
 21
4.986271904980082
 31
0.0
  0
LINE
  5
F10624
330
261
100
AcDbEntity
  8
Geo
100
AcDbLine
 10
-21.36952669721848
 20
4.528133760310478
 30
0.0
 11
-21.26952669721848
 21
4.442322488888978
 31
0.0
  0
LINE
  5
F10626
330
261
100
AcDbEntity
  8
Geo
100
AcDbLine
 10
-21.26952669721848
 20
4.986271904980082
 30
0.0
 11
-21.16952669721848
 21
4.90829340880338
 31
0.0
  0
LINE
  5
F10628
330
261
100
AcDbEntity
  8
Geo
100
AcDbLine
 10
-21.26952669721848
 20
4.442322488888978
 30
0.0
 11
-21.16952669721848
 21
4.355430178584177
 31
0.0
  0
LINE
  5
F1062A
330
261
100
AcDbEntity
  8
Geo
100
AcDbLine
 10
-21.16952669721848
 20
4.90829340880338
 30
0.0
 11
-21.06952669721848
 21
4.828607930294579
 31
0.0
  0
LINE
  5
F1062C
330
261
100
AcDbEntity
  8
Geo
100
AcDbLine
 10
-21.16952669721848
 20
4.355430178584177
 30
0.0
 11
-21.06952669721848
 21
4.26757355271528
 31
0.0
  0
LINE
  5
F1062E
330
261
100
AcDbEntity
  8
Geo
100
AcDbLine
 10
-21.06952669721848
 20
4.828607930294579
 30
0.0
 11
-20.96952669721848
 21
4.74732251176288
 31
0.0
  0
LINE
  5
F10630
330
261
100
AcDbEntity
  8
Geo
100
AcDbLine
 10
-21.06952669721848
 20
4.26757355271528
 30
0.0
 11
-20.96952669721848
 21
4.178870629976078
 31
0.0
  0
LINE
  5
F10632
330
261
100
AcDbEntity
  8
Geo
100
AcDbLine
 10
-20.96952669721848
 20
4.74732251176288
 30
0.0
 11
-20.86952669721847
 21
4.66454634473288
 31
0.0
  0
LINE
  5
F10634
330
261
100
AcDbEntity
  8
Geo
100
AcDbLine
 10
-20.96952669721848
 20
4.178870629976078
 30
0.0
 11
-20.86952669721847
 21
4.089440565899881
 31
0.0
  0
LINE
  5
F10636
330
261
100
AcDbEntity
  8
Geo
100
AcDbLine
 10
-20.86952669721847
 20
4.66454634473288
 30
0.0
 11
-20.76952669721848
 21
4.580390623266882
 31
0.0
  0
LINE
  5
F10638
330
261
100
AcDbEntity
  8
Geo
100
AcDbLine
 10
-20.86952669721847
 20
4.089440565899881
 30
0.0
 11
-20.76952669721848
 21
3.99940349279598
 31
0.0
  0
LINE
  5
F1063A
330
261
100
AcDbEntity
  8
Geo
100
AcDbLine
 10
-20.76952669721848
 20
4.580390623266882
 30
0.0
 11
-20.66952669721847
 21
4.49496839459648
 31
0.0
  0
LINE
  5
F1063C
330
261
100
AcDbEntity
  8
Geo
100
AcDbLine
 10
-20.76952669721848
 20
3.99940349279598
 30
0.0
 11
-20.66952669721847
 21
3.90888035837518
 31
0.0
  0
LINE
  5
F1063E
330
261
100
AcDbEntity
  8
Geo
100
AcDbLine
 10
-20.66952669721847
 20
4.49496839459648
 30
0.0
 11
-20.56952669721847
 21
4.40839440726528
 31
0.0
  0
LINE
  5
F10640
330
261
100
AcDbEntity
  8
Geo
100
AcDbLine
 10
-20.66952669721847
 20
3.90888035837518
 30
0.0
 11
-20.56952669721847
 21
3.817992763279381
 31
0.0
  0
LINE
  5
F10642
330
261
100
AcDbEntity
  8
Geo
100
AcDbLine
 10
-20.56952669721847
 20
4.40839440726528
 30
0.0
 11
-20.46952669721848
 21
4.320784956985978
 31
0.0
  0
LINE
  5
F10644
330
261
100
AcDbEntity
  8
Geo
100
AcDbLine
 10
-20.56952669721847
 20
3.817992763279381
 30
0.0
 11
-20.46952669721848
 21
3.726862797734181
 31
0.0
  0
LINE
  5
F10646
330
261
100
AcDbEntity
  8
Geo
100
AcDbLine
 10
-20.46952669721848
 20
4.320784956985978
 30
0.0
 11
-20.36952669721848
 21
4.232257730419077
 31
0.0
  0
LINE
  5
F10648
330
261
100
AcDbEntity
  8
Geo
100
AcDbLine
 10
-20.46952669721848
 20
3.726862797734181
 30
0.0
 11
-20.36952669721848
 21
3.635612877543781
 31
0.0
  0
LINE
  5
F1064A
330
261
100
AcDbEntity
  8
Geo
100
AcDbLine
 10
-20.36952669721848
 20
4.232257730419077
 30
0.0
 11
-20.26952669721847
 21
4.142931647083081
 31
0.0
  0
LINE
  5
F1064C
330
261
100
AcDbEntity
  8
Geo
100
AcDbLine
 10
-20.36952669721848
 20
3.635612877543781
 30
0.0
 11
-20.26952669721847
 21
3.544365579648683
 31
0.0
  0
LINE
  5
F1064E
330
261
100
AcDbEntity
  8
Geo
100
AcDbLine
 10
-20.26952669721847
 20
4.142931647083081
 30
0.0
 11
-20.16952669721847
 21
4.052926699609279
 31
0.0
  0
LINE
  5
F10650
330
261
100
AcDbEntity
  8
Geo
100
AcDbLine
 10
-20.26952669721847
 20
3.544365579648683
 30
0.0
 11
-20.16952669721847
 21
3.453243477466879
 31
0.0
  0
LINE
  5
F10652
330
261
100
AcDbEntity
  8
Geo
100
AcDbLine
 10
-20.16952669721847
 20
4.052926699609279
 30
0.0
 11
-20.06952669721847
 21
3.962363792553578
 31
0.0
  0
LINE
  5
F10654
330
261
100
AcDbEntity
  8
Geo
100
AcDbLine
 10
-20.16952669721847
 20
3.453243477466879
 30
0.0
 11
-20.06952669721847
 21
3.362368976239778
 31
0.0
  0
LINE
  5
F10656
330
261
100
AcDbEntity
  8
Geo
100
AcDbLine
 10
-20.06952669721847
 20
3.962363792553578
 30
0.0
 11
-19.96952669721848
 21
3.871364579984881
 31
0.0
  0
LINE
  5
F10658
330
261
100
AcDbEntity
  8
Geo
100
AcDbLine
 10
-20.06952669721847
 20
3.362368976239778
 30
0.0
 11
-19.96952669721848
 21
3.271864148603881
 31
0.0
  0
LINE
  5
F1065A
330
261
100
AcDbEntity
  8
Geo
100
AcDbLine
 10
-19.96952669721848
 20
3.871364579984881
 30
0.0
 11
-19.86952669721847
 21
3.780051302065578
 31
0.0
  0
LINE
  5
F1065C
330
261
100
AcDbEntity
  8
Geo
100
AcDbLine
 10
-19.96952669721848
 20
3.271864148603881
 30
0.0
 11
-19.86952669721847
 21
3.181850570609082
 31
0.0
  0
LINE
  5
F1065E
330
261
100
AcDbEntity
  8
Geo
100
AcDbLine
 10
-19.86952669721847
 20
3.780051302065578
 30
0.0
 11
-19.76952669721846
 21
3.688546620845478
 31
0.0
  0
LINE
  5
F10660
330
261
100
AcDbEntity
  8
Geo
100
AcDbLine
 10
-19.86952669721847
 20
3.181850570609082
 30
0.0
 11
-19.76952669721846
 21
3.092449158405279
 31
0.0
  0
LINE
  5
F10662
330
261
100
AcDbEntity
  8
Geo
100
AcDbLine
 10
-19.76952669721846
 20
3.688546620845478
 30
0.0
 11
-19.66952669721847
 21
3.596973455487978
 31
0.0
  0
LINE
  5
F10664
330
261
100
AcDbEntity
  8
Geo
100
AcDbLine
 10
-19.76952669721846
 20
3.092449158405279
 30
0.0
 11
-19.66952669721847
 21
3.003780005813278
 31
0.0
  0
LINE
  5
F10666
330
261
100
AcDbEntity
  8
Geo
100
AcDbLine
 10
-19.66952669721847
 20
3.596973455487978
 30
0.0
 11
-19.56952669721847
 21
3.505454817152279
 31
0.0
  0
LINE
  5
F10668
330
261
100
AcDbEntity
  8
Geo
100
AcDbLine
 10
-19.66952669721847
 20
3.003780005813278
 30
0.0
 11
-19.56952669721847
 21
2.915962223002579
 31
0.0
  0
LINE
  5
F1066A
330
261
100
AcDbEntity
  8
Geo
100
AcDbLine
 10
-19.56952669721847
 20
6.125987879514577
 30
0.0
 11
-19.46952669721848
 21
6.120378555092776
 31
0.0
  0
LINE
  5
F1066C
330
261
100
AcDbEntity
  8
Geo
100
AcDbLine
 10
-19.56952669721847
 20
3.505454817152279
 30
0.0
 11
-19.46952669721848
 21
3.414113643750581
 31
0.0
  0
LINE
  5
F1066E
330
261
100
AcDbEntity
  8
Geo
100
AcDbLine
 10
-19.56952669721847
 20
2.915962223002579
 30
0.0
 11
-19.46952669721848
 21
2.829113776488781
 31
0.0
  0
LINE
  5
F10670
330
261
100
AcDbEntity
  8
Geo
100
AcDbLine
 10
-19.46952669721848
 20
6.120378555092776
 30
0.0
 11
-19.36952669721847
 21
6.110797258608879
 31
0.0
  0
LINE
  5
F10672
330
261
100
AcDbEntity
  8
Geo
100
AcDbLine
 10
-19.46952669721848
 20
3.414113643750581
 30
0.0
 11
-19.36952669721847
 21
3.32307263480488
 31
0.0
  0
LINE
  5
F10674
330
261
100
AcDbEntity
  8
Geo
100
AcDbLine
 10
-19.46952669721848
 20
2.829113776488781
 30
0.0
 11
-19.36952669721847
 21
2.743351330668377
 31
0.0
  0
LINE
  5
F10676
330
261
100
AcDbEntity
  8
Geo
100
AcDbLine
 10
-19.36952669721847
 20
6.110797258608879
 30
0.0
 11
-19.26952669721847
 21
6.097259318093581
 31
0.0
  0
LINE
  5
F10678
330
261
100
AcDbEntity
  8
Geo
100
AcDbLine
 10
-19.36952669721847
 20
3.32307263480488
 30
0.0
 11
-19.26952669721847
 21
3.232454086623078
 31
0.0
  0
LINE
  5
F1067A
330
261
100
AcDbEntity
  8
Geo
100
AcDbLine
 10
-19.36952669721847
 20
2.743351330668377
 30
0.0
 11
-19.26952669721847
 21
2.658790091102079
 31
0.0
  0
LINE
  5
F1067C
330
261
100
AcDbEntity
  8
Geo
100
AcDbLine
 10
-19.26952669721847
 20
6.097259318093581
 30
0.0
 11
-19.16952669721847
 21
6.079786391363582
 31
0.0
  0
LINE
  5
F1067E
330
261
100
AcDbEntity
  8
Geo
100
AcDbLine
 10
-19.26952669721847
 20
3.232454086623078
 30
0.0
 11
-19.16952669721847
 21
3.142379728017477
 31
0.0
  0
LINE
  5
F10680
330
261
100
AcDbEntity
  8
Geo
100
AcDbLine
 10
-19.26952669721847
 20
2.658790091102079
 30
0.0
 11
-19.16952669721847
 21
2.575543649758081
 31
0.0
  0
LINE
  5
F10682
330
261
100
AcDbEntity
  8
Geo
100
AcDbLine
 10
-19.16952669721847
 20
6.079786391363582
 30
0.0
 11
-19.06952669721847
 21
6.058406431374276
 31
0.0
  0
LINE
  5
F10684
330
261
100
AcDbEntity
  8
Geo
100
AcDbLine
 10
-19.16952669721847
 20
3.142379728017477
 30
0.0
 11
-19.06952669721847
 21
3.052970556784578
 31
0.0
  0
LINE
  5
F10686
330
261
100
AcDbEntity
  8
Geo
100
AcDbLine
 10
-19.16952669721847
 20
2.575543649758081
 30
0.0
 11
-19.06952669721847
 21
2.49372383242288
 31
0.0
  0
LINE
  5
F10688
330
261
100
AcDbEntity
  8
Geo
100
AcDbLine
 10
-19.06952669721847
 20
6.058406431374276
 30
0.0
 11
-18.96952669721848
 21
6.033153641501079
 31
0.0
  0
LINE
  5
F1068A
330
261
100
AcDbEntity
  8
Geo
100
AcDbLine
 10
-19.06952669721847
 20
3.052970556784578
 30
0.0
 11
-18.96952669721848
 21
2.964346677168381
 31
0.0
  0
LINE
  5
F1068C
330
261
100
AcDbEntity
  8
Geo
100
AcDbLine
 10
-19.06952669721847
 20
2.49372383242288
 30
0.0
 11
-18.96952669721848
 21
2.413440548484476
 31
0.0
  0
LINE
  5
F1068E
330
261
100
AcDbEntity
  8
Geo
100
AcDbLine
 10
-18.96952669721848
 20
6.134523284626278
 30
0.0
 11
-18.86952669721847
 21
6.129005664949182
 31
0.0
  0
LINE
  5
F10690
330
261
100
AcDbEntity
  8
Geo
100
AcDbLine
 10
-18.96952669721848
 20
6.033153641501079
 30
0.0
 11
-18.86952669721847
 21
6.00406842082048
 31
0.0
  0
LINE
  5
F10692
330
261
100
AcDbEntity
  8
Geo
100
AcDbLine
 10
-18.96952669721848
 20
2.964346677168381
 30
0.0
 11
-18.86952669721847
 21
2.876627138522578
 31
0.0
  0
LINE
  5
F10694
330
261
100
AcDbEntity
  8
Geo
100
AcDbLine
 10
-18.96952669721848
 20
2.413440548484476
 30
0.0
 11
-18.86952669721847
 21
2.334801643289977
 31
0.0
  0
LINE
  5
F10696
330
261
100
AcDbEntity
  8
Geo
100
AcDbLine
 10
-18.86952669721847
 20
6.129005664949182
 30
0.0
 11
-18.76952669721847
 21
6.119502271674678
 31
0.0
  0
LINE
  5
F10698
330
261
100
AcDbEntity
  8
Geo
100
AcDbLine
 10
-18.86952669721847
 20
6.00406842082048
 30
0.0
 11
-18.76952669721847
 21
5.971197299481382
 31
0.0
  0
LINE
  5
F1069A
330
261
100
AcDbEntity
  8
Geo
100
AcDbLine
 10
-18.86952669721847
 20
2.876627138522578
 30
0.0
 11
-18.76952669721847
 21
2.789929775390478
 31
0.0
  0
LINE
  5
F1069C
330
261
100
AcDbEntity
  8
Geo
100
AcDbLine
 10
-18.86952669721847
 20
2.334801643289977
 30
0.0
 11
-18.76952669721847
 21
2.25791275327618
 31
0.0
  0
LINE
  5
F1069E
330
261
100
AcDbEntity
  8
Geo
100
AcDbLine
 10
-18.76952669721847
 20
6.119502271674678
 30
0.0
 11
-18.66952669721847
 21
6.106028308204781
 31
0.0
  0
LINE
  5
F106A0
330
261
100
AcDbEntity
  8
Geo
100
AcDbLine
 10
-18.76952669721847
 20
5.971197299481382
 30
0.0
 11
-18.66952669721847
 21
5.934592864265479
 31
0.0
  0
LINE
  5
F106A2
330
261
100
AcDbEntity
  8
Geo
100
AcDbLine
 10
-18.76952669721847
 20
2.789929775390478
 30
0.0
 11
-18.66952669721847
 21
2.704371049216681
 31
0.0
  0
LINE
  5
F106A4
330
261
100
AcDbEntity
  8
Geo
100
AcDbLine
 10
-18.76952669721847
 20
2.25791275327618
 30
0.0
 11
-18.66952669721847
 21
2.18287716406628
 31
0.0
  0
LINE
  5
F106A6
330
261
100
AcDbEntity
  8
Geo
100
AcDbLine
 10
-18.66952669721847
 20
6.106028308204781
 30
0.0
 11
-18.56952669721847
 21
6.088605330006578
 31
0.0
  0
LINE
  5
F106A8
330
261
100
AcDbEntity
  8
Geo
100
AcDbLine
 10
-18.66952669721847
 20
5.934592864265479
 30
0.0
 11
-18.56952669721847
 21
5.894313674460883
 31
0.0
  0
LINE
  5
F106AA
330
261
100
AcDbEntity
  8
Geo
100
AcDbLine
 10
-18.66952669721847
 20
2.704371049216681
 30
0.0
 11
-18.56952669721847
 21
2.62006589190318
 31
0.0
  0
LINE
  5
F106AC
330
261
100
AcDbEntity
  8
Geo
100
AcDbLine
 10
-18.66952669721847
 20
2.18287716406628
 30
0.0
 11
-18.56952669721847
 21
2.109795671726181
 31
0.0
  0
LINE
  5
F106AE
330
261
100
AcDbEntity
  8
Geo
100
AcDbLine
 10
-18.56952669721847
 20
6.088605330006578
 30
0.0
 11
-18.46952669721847
 21
6.067261210128684
 31
0.0
  0
LINE
  5
F106B0
330
261
100
AcDbEntity
  8
Geo
100
AcDbLine
 10
-18.56952669721847
 20
5.894313674460883
 30
0.0
 11
-18.46952669721847
 21
5.850424168178579
 31
0.0
  0
LINE
  5
F106B2
330
261
100
AcDbEntity
  8
Geo
100
AcDbLine
 10
-18.56952669721847
 20
2.62006589190318
 30
0.0
 11
-18.46952669721847
 21
2.537127551420478
 31
0.0
  0
LINE
  5
F106B4
330
261
100
AcDbEntity
  8
Geo
100
AcDbLine
 10
-18.56952669721847
 20
2.109795671726181
 30
0.0
 11
-18.46952669721847
 21
2.038766447363581
 31
0.0
  0
LINE
  5
F106B6
330
261
100
AcDbEntity
  8
Geo
100
AcDbLine
 10
-18.46952669721847
 20
6.067261210128684
 30
0.0
 11
-18.36952669721847
 21
6.042030094609578
 31
0.0
  0
LINE
  5
F106B8
330
261
100
AcDbEntity
  8
Geo
100
AcDbLine
 10
-18.46952669721847
 20
5.850424168178579
 30
0.0
 11
-18.36952669721847
 21
5.802994559266181
 31
0.0
  0
LINE
  5
F106BA
330
261
100
AcDbEntity
  8
Geo
100
AcDbLine
 10
-18.46952669721847
 20
2.537127551420478
 30
0.0
 11
-18.36952669721847
 21
2.455667439679778
 31
0.0
  0
LINE
  5
F106BC
330
261
100
AcDbEntity
  8
Geo
100
AcDbLine
 10
-18.46952669721847
 20
2.038766447363581
 30
0.0
 11
-18.36952669721847
 21
1.969884905253778
 31
0.0
  0
LINE
  5
F106BE
330
261
100
AcDbEntity
  8
Geo
100
AcDbLine
 10
-18.36952669721847
 20
6.042030094609578
 30
0.0
 11
-18.26952669721847
 21
6.012952347851883
 31
0.0
  0
LINE
  5
F106C0
330
261
100
AcDbEntity
  8
Geo
100
AcDbLine
 10
-18.36952669721847
 20
5.802994559266181
 30
0.0
 11
-18.26952669721847
 21
5.752100724980181
 31
0.0
  0
LINE
  5
F106C2
330
261
100
AcDbEntity
  8
Geo
100
AcDbLine
 10
-18.36952669721847
 20
2.455667439679778
 30
0.0
 11
-18.26952669721847
 21
2.375794982873279
 31
0.0
  0
LINE
  5
F106C4
330
261
100
AcDbEntity
  8
Geo
100
AcDbLine
 10
-18.36952669721847
 20
1.969884905253778
 30
0.0
 11
-18.26952669721847
 21
1.903243574668979
 31
0.0
  0
LINE
  5
F106C6
330
261
100
AcDbEntity
  8
Geo
100
AcDbLine
 10
-18.26952669721847
 20
6.012952347851883
 30
0.0
 11
-18.16952669721847
 21
5.980074488047377
 31
0.0
  0
LINE
  5
F106C8
330
261
100
AcDbEntity
  8
Geo
100
AcDbLine
 10
-18.26952669721847
 20
5.752100724980181
 30
0.0
 11
-18.16952669721847
 21
5.697824084598579
 31
0.0
  0
LINE
  5
F106CA
330
261
100
AcDbEntity
  8
Geo
100
AcDbLine
 10
-18.26952669721847
 20
2.375794982873279
 30
0.0
 11
-18.16952669721847
 21
2.297617474479578
 31
0.0
  0
LINE
  5
F106CC
330
261
100
AcDbEntity
  8
Geo
100
AcDbLine
 10
-18.26952669721847
 20
1.903243574668979
 30
0.0
 11
-18.16952669721847
 21
1.83893197558228
 31
0.0
  0
LINE
  5
F106CE
330
261
100
AcDbEntity
  8
Geo
100
AcDbLine
 10
-18.16952669721847
 20
5.980074488047377
 30
0.0
 11
-18.06952669721846
 21
5.943449112758183
 31
0.0
  0
LINE
  5
F106D0
330
261
100
AcDbEntity
  8
Geo
100
AcDbLine
 10
-18.16952669721847
 20
5.697824084598579
 30
0.0
 11
-18.06952669721846
 21
5.640251469167678
 31
0.0
  0
LINE
  5
F106D2
330
261
100
AcDbEntity
  8
Geo
100
AcDbLine
 10
-18.16952669721847
 20
2.297617474479578
 30
0.0
 11
-18.06952669721846
 21
2.22123993113648
 31
0.0
  0
LINE
  5
F106D4
330
261
100
AcDbEntity
  8
Geo
100
AcDbLine
 10
-18.16952669721847
 20
1.83893197558228
 30
0.0
 11
-18.06952669721846
 21
1.777036498415081
 31
0.0
  0
LINE
  5
F106D6
330
261
100
AcDbEntity
  8
Geo
100
AcDbLine
 10
-18.06952669721846
 20
5.943449112758183
 30
0.0
 11
-17.96952669721848
 21
5.903134814771782
 31
0.0
  0
LINE
  5
F106D8
330
261
100
AcDbEntity
  8
Geo
100
AcDbLine
 10
-18.06952669721846
 20
5.640251469167678
 30
0.0
 11
-17.96952669721848
 21
5.579474982590577
 31
0.0
  0
LINE
  5
F106DA
330
261
100
AcDbEntity
  8
Geo
100
AcDbLine
 10
-18.06952669721846
 20
2.22123993113648
 30
0.0
 11
-17.96952669721848
 21
2.14676495157018
 31
0.0
  0
LINE
  5
F106DC
330
261
100
AcDbEntity
  8
Geo
100
AcDbLine
 10
-18.06952669721846
 20
1.777036498415081
 30
0.0
 11
-17.96952669721848
 21
1.717640287987879
 31
0.0
  0
LINE
  5
F106DE
330
261
100
AcDbEntity
  8
Geo
100
AcDbLine
 10
-17.96952669721848
 20
5.903134814771782
 30
0.0
 11
-17.86952669721847
 21
5.859196088365081
 31
0.0
  0
LINE
  5
F106E0
330
261
100
AcDbEntity
  8
Geo
100
AcDbLine
 10
-17.96952669721848
 20
5.579474982590577
 30
0.0
 11
-17.86952669721847
 21
5.51559185428088
 31
0.0
  0
LINE
  5
F106E2
330
261
100
AcDbEntity
  8
Geo
100
AcDbLine
 10
-17.96952669721848
 20
2.14676495157018
 30
0.0
 11
-17.86952669721847
 21
2.074292578773881
 31
0.0
  0
LINE
  5
F106E4
330
261
100
AcDbEntity
  8
Geo
100
AcDbLine
 10
-17.96952669721848
 20
1.717640287987879
 30
0.0
 11
-17.86952669721847
 21
1.660823131830781
 31
0.0
  0
LINE
  5
F106E6
330
261
100
AcDbEntity
  8
Geo
100
AcDbLine
 10
-17.86952669721847
 20
5.859196088365081
 30
0.0
 11
-17.76952669721846
 21
5.811703226127182
 31
0.0
  0
LINE
  5
F106E8
330
261
100
AcDbEntity
  8
Geo
100
AcDbLine
 10
-17.86952669721847
 20
5.51559185428088
 30
0.0
 11
-17.76952669721846
 21
5.448704283616179
 31
0.0
  0
LINE
  5
F106EA
330
261
100
AcDbEntity
  8
Geo
100
AcDbLine
 10
-17.86952669721847
 20
2.074292578773881
 30
0.0
 11
-17.76952669721846
 21
2.003920165618882
 31
0.0
  0
LINE
  5
F106EC
330
261
100
AcDbEntity
  8
Geo
100
AcDbLine
 10
-17.86952669721847
 20
1.660823131830781
 30
0.0
 11
-17.76952669721846
 21
1.60666135300408
 31
0.0
  0
LINE
  5
F106EE
330
261
100
AcDbEntity
  8
Geo
100
AcDbLine
 10
-17.76952669721846
 20
5.811703226127182
 30
0.0
 11
-17.66952669721847
 21
5.760732206506482
 31
0.0
  0
LINE
  5
F106F0
330
261
100
AcDbEntity
  8
Geo
100
AcDbLine
 10
-17.76952669721846
 20
5.448704283616179
 30
0.0
 11
-17.66952669721847
 21
5.378919276440978
 31
0.0
  0
LINE
  5
F106F2
330
261
100
AcDbEntity
  8
Geo
100
AcDbLine
 10
-17.76952669721846
 20
2.003920165618882
 30
0.0
 11
-17.66952669721847
 21
1.935742244079381
 31
0.0
  0
LINE
  5
F106F4
330
261
100
AcDbEntity
  8
Geo
100
AcDbLine
 10
-17.76952669721846
 20
1.60666135300408
 30
0.0
 11
-17.66952669721847
 21
1.55522770757308
 31
0.0
  0
LINE
  5
F106F6
330
261
100
AcDbEntity
  8
Geo
100
AcDbLine
 10
-17.66952669721847
 20
5.760732206506482
 30
0.0
 11
-17.56952669721847
 21
5.70636457226098
 31
0.0
  0
LINE
  5
F106F8
330
261
100
AcDbEntity
  8
Geo
100
AcDbLine
 10
-17.66952669721847
 20
5.378919276440978
 30
0.0
 11
-17.56952669721847
 21
5.306348473880182
 31
0.0
  0
LINE
  5
F106FA
330
261
100
AcDbEntity
  8
Geo
100
AcDbLine
 10
-17.66952669721847
 20
1.935742244079381
 30
0.0
 11
-17.56952669721847
 21
1.869850398246683
 31
0.0
  0
LINE
  5
F106FC
330
261
100
AcDbEntity
  8
Geo
100
AcDbLine
 10
-17.66952669721847
 20
1.55522770757308
 30
0.0
 11
-17.56952669721847
 21
1.506591286873778
 31
0.0
  0
LINE
  5
F106FE
330
261
100
AcDbEntity
  8
Geo
100
AcDbLine
 10
-17.56952669721847
 20
5.70636457226098
 30
0.0
 11
-17.46952669721848
 21
5.648687300007781
 31
0.0
  0
LINE
  5
F10700
330
261
100
AcDbEntity
  8
Geo
100
AcDbLine
 10
-17.56952669721847
 20
5.306348473880182
 30
0.0
 11
-17.46952669721848
 21
5.231107973736783
 31
0.0
  0
LINE
  5
F10702
330
261
100
AcDbEntity
  8
Geo
100
AcDbLine
 10
-17.56952669721847
 20
1.869850398246683
 30
0.0
 11
-17.46952669721848
 21
1.80633314130388
 31
0.0
  0
LINE
  5
F10704
330
261
100
AcDbEntity
  8
Geo
100
AcDbLine
 10
-17.56952669721847
 20
1.506591286873778
 30
0.0
 11
-17.46952669721848
 21
1.460817424701883
 31
0.0
  0
LINE
  5
F10706
330
261
100
AcDbEntity
  8
Geo
100
AcDbLine
 10
-17.46952669721848
 20
5.648687300007781
 30
0.0
 11
-17.36952669721847
 21
5.58779266107858
 31
0.0
  0
LINE
  5
F10708
330
261
100
AcDbEntity
  8
Geo
100
AcDbLine
 10
-17.46952669721848
 20
5.231107973736783
 30
0.0
 11
-17.36952669721847
 21
5.153318144760579
 31
0.0
  0
LINE
  5
F1070A
330
261
100
AcDbEntity
  8
Geo
100
AcDbLine
 10
-17.46952669721848
 20
1.80633314130388
 30
0.0
 11
-17.36952669721847
 21
1.745275796624279
 31
0.0
  0
LINE
  5
F1070C
330
261
100
AcDbEntity
  8
Geo
100
AcDbLine
 10
-17.46952669721848
 20
1.460817424701883
 30
0.0
 11
-17.36952669721847
 21
1.417967609549381
 31
0.0
  0
LINE
  5
F1070E
330
261
100
AcDbEntity
  8
Geo
100
AcDbLine
 10
-17.36952669721847
 20
5.58779266107858
 30
0.0
 11
-17.26952669721847
 21
5.523778073905582
 31
0.0
  0
LINE
  5
F10710
330
261
100
AcDbEntity
  8
Geo
100
AcDbLine
 10
-17.36952669721847
 20
5.153318144760579
 30
0.0
 11
-17.26952669721847
 21
5.07310343408378
 31
0.0
  0
LINE
  5
F10712
330
261
100
AcDbEntity
  8
Geo
100
AcDbLine
 10
-17.36952669721847
 20
1.745275796624279
 30
0.0
 11
-17.26952669721847
 21
1.686760383156478
 31
0.0
  0
LINE
  5
F10714
330
261
100
AcDbEntity
  8
Geo
100
AcDbLine
 10
-17.36952669721847
 20
1.417967609549381
 30
0.0
 11
-17.26952669721847
 21
1.378099402006281
 31
0.0
  0
LINE
  5
F10716
330
261
100
AcDbEntity
  8
Geo
100
AcDbLine
 10
-17.26952669721847
 20
5.523778073905582
 30
0.0
 11
-17.16952669721847
 21
5.456745948172478
 31
0.0
  0
LINE
  5
F10718
330
261
100
AcDbEntity
  8
Geo
100
AcDbLine
 10
-17.26952669721847
 20
5.07310343408378
 30
0.0
 11
-17.16952669721847
 21
4.990592168131679
 31
0.0
  0
LINE
  5
F1071A
330
261
100
AcDbEntity
  8
Geo
100
AcDbLine
 10
-17.26952669721847
 20
1.686760383156478
 30
0.0
 11
-17.16952669721847
 21
1.630865505247282
 31
0.0
  0
LINE
  5
F1071C
330
261
100
AcDbEntity
  8
Geo
100
AcDbLine
 10
-17.26952669721847
 20
1.378099402006281
 30
0.0
 11
-17.16952669721847
 21
1.341266357438883
 31
0.0
  0
LINE
  5
F1071E
330
261
100
AcDbEntity
  8
Geo
100
AcDbLine
 10
-17.16952669721847
 20
5.456745948172478
 30
0.0
 11
-17.06952669721847
 21
5.386803520981081
 31
0.0
  0
LINE
  5
F10720
330
261
100
AcDbEntity
  8
Geo
100
AcDbLine
 10
-17.16952669721847
 20
4.990592168131679
 30
0.0
 11
-17.06952669721847
 21
4.905916347328581
 31
0.0
  0
LINE
  5
F10722
330
261
100
AcDbEntity
  8
Geo
100
AcDbLine
 10
-17.16952669721847
 20
1.630865505247282
 30
0.0
 11
-17.06952669721847
 21
1.57766624705118
 31
0.0
  0
LINE
  5
F10724
330
261
100
AcDbEntity
  8
Geo
100
AcDbLine
 10
-17.16952669721847
 20
1.341266357438883
 30
0.0
 11
-17.06952669721847
 21
1.307517954048478
 31
0.0
  0
LINE
  5
F10726
330
261
100
AcDbEntity
  8
Geo
100
AcDbLine
 10
-17.06952669721847
 20
5.386803520981081
 30
0.0
 11
-16.96952669721848
 21
5.314062685294678
 31
0.0
  0
LINE
  5
F10728
330
261
100
AcDbEntity
  8
Geo
100
AcDbLine
 10
-17.06952669721847
 20
4.905916347328581
 30
0.0
 11
-16.96952669721848
 21
4.819211434924478
 31
0.0
  0
LINE
  5
F1072A
330
261
100
AcDbEntity
  8
Geo
100
AcDbLine
 10
-17.06952669721847
 20
1.57766624705118
 30
0.0
 11
-16.96952669721848
 21
1.527234071669776
 31
0.0
  0
LINE
  5
F1072C
330
261
100
AcDbEntity
  8
Geo
100
AcDbLine
 10
-17.06952669721847
 20
1.307517954048478
 30
0.0
 11
-16.96952669721848
 21
1.27689952640658
 31
0.0
  0
LINE
  5
F1072E
330
261
100
AcDbEntity
  8
Geo
100
AcDbLine
 10
-16.96952669721848
 20
5.314062685294678
 30
0.0
 11
-16.86952669721847
 21
5.23863981093298
 31
0.0
  0
LINE
  5
F10730
330
261
100
AcDbEntity
  8
Geo
100
AcDbLine
 10
-16.96952669721848
 20
4.819211434924478
 30
0.0
 11
-16.86952669721847
 21
4.730616140283184
 31
0.0
  0
LINE
  5
F10732
330
261
100
AcDbEntity
  8
Geo
100
AcDbLine
 10
-16.96952669721848
 20
1.527234071669776
 30
0.0
 11
-16.86952669721847
 21
1.479636725154279
 31
0.0
  0
LINE
  5
F10734
330
261
100
AcDbEntity
  8
Geo
100
AcDbLine
 10
-16.96952669721848
 20
1.27689952640658
 30
0.0
 11
-16.86952669721847
 21
1.249452204556682
 31
0.0
  0
LINE
  5
F10736
330
261
100
AcDbEntity
  8
Geo
100
AcDbLine
 10
-16.86952669721847
 20
5.23863981093298
 30
0.0
 11
-16.76952669721847
 21
5.160655558405679
 31
0.0
  0
LINE
  5
F10738
330
261
100
AcDbEntity
  8
Geo
100
AcDbLine
 10
-16.86952669721847
 20
4.730616140283184
 30
0.0
 11
-16.76952669721847
 21
4.640272196976681
 31
0.0
  0
LINE
  5
F1073A
330
261
100
AcDbEntity
  8
Geo
100
AcDbLine
 10
-16.86952669721847
 20
1.479636725154279
 30
0.0
 11
-16.76952669721847
 21
1.434938145501579
 31
0.0
  0
LINE
  5
F1073C
330
261
100
AcDbEntity
  8
Geo
100
AcDbLine
 10
-16.86952669721847
 20
1.249452204556682
 30
0.0
 11
-16.76952669721847
 21
1.225212858763779
 31
0.0
  0
LINE
  5
F1073E
330
261
100
AcDbEntity
  8
Geo
100
AcDbLine
 10
-16.76952669721847
 20
5.160655558405679
 30
0.0
 11
-16.66952669721847
 21
5.080234685881179
 31
0.0
  0
LINE
  5
F10740
330
261
100
AcDbEntity
  8
Geo
100
AcDbLine
 10
-16.76952669721847
 20
4.640272196976681
 30
0.0
 11
-16.66952669721847
 21
4.54832413604198
 31
0.0
  0
LINE
  5
F10742
330
261
100
AcDbEntity
  8
Geo
100
AcDbLine
 10
-16.76952669721847
 20
1.434938145501579
 30
0.0
 11
-16.66952669721847
 21
1.39319837676568
 31
0.0
  0
LINE
  5
F10744
330
261
100
AcDbEntity
  8
Geo
100
AcDbLine
 10
-16.76952669721847
 20
1.225212858763779
 30
0.0
 11
-16.66952669721847
 21
1.204214049986179
 31
0.0
  0
LINE
  5
F10746
330
261
100
AcDbEntity
  8
Geo
100
AcDbLine
 10
-16.66952669721847
 20
5.080234685881179
 30
0.0
 11
-16.56952669721847
 21
4.997505849599881
 31
0.0
  0
LINE
  5
F10748
330
261
100
AcDbEntity
  8
Geo
100
AcDbLine
 10
-16.66952669721847
 20
4.54832413604198
 30
0.0
 11
-16.56952669721847
 21
4.454919054762083
 31
0.0
  0
LINE
  5
F1074A
330
261
100
AcDbEntity
  8
Geo
100
AcDbLine
 10
-16.66952669721847
 20
1.39319837676568
 30
0.0
 11
-16.56952669721847
 21
1.354473488400081
 31
0.0
  0
LINE
  5
F1074C
330
261
100
AcDbEntity
  8
Geo
100
AcDbLine
 10
-16.66952669721847
 20
1.204214049986179
 30
0.0
 11
-16.56952669721847
 21
1.186483986135979
 31
0.0
  0
LINE
  5
F1074E
330
261
100
AcDbEntity
  8
Geo
100
AcDbLine
 10
-16.56952669721847
 20
4.997505849599881
 30
0.0
 11
-16.46952669721847
 21
4.912601398051974
 31
0.0
  0
LINE
  5
F10750
330
261
100
AcDbEntity
  8
Geo
100
AcDbLine
 10
-16.56952669721847
 20
4.454919054762083
 30
0.0
 11
-16.46952669721847
 21
4.36020638134158
 31
0.0
  0
LINE
  5
F10752
330
261
100
AcDbEntity
  8
Geo
100
AcDbLine
 10
-16.56952669721847
 20
1.354473488400081
 30
0.0
 11
-16.46952669721847
 21
1.318815499938779
 31
0.0
  0
LINE
  5
F10754
330
261
100
AcDbEntity
  8
Geo
100
AcDbLine
 10
-16.56952669721847
 20
1.186483986135979
 30
0.0
 11
-16.46952669721847
 21
1.172046484187478
 31
0.0
  0
LINE
  5
F10756
330
261
100
AcDbEntity
  8
Geo
100
AcDbLine
 10
-16.46952669721847
 20
4.912601398051974
 30
0.0
 11
-16.36952669721847
 21
4.825657160247978
 31
0.0
  0
LINE
  5
F10758
330
261
100
AcDbEntity
  8
Geo
100
AcDbLine
 10
-16.46952669721847
 20
4.36020638134158
 30
0.0
 11
-16.36952669721847
 21
4.264337635853777
 31
0.0
  0
LINE
  5
F1075A
330
261
100
AcDbEntity
  8
Geo
100
AcDbLine
 10
-16.46952669721847
 20
1.318815499938779
 30
0.0
 11
-16.36952669721847
 21
1.286272311118477
 31
0.0
  0
LINE
  5
F1075C
330
261
100
AcDbEntity
  8
Geo
100
AcDbLine
 10
-16.46952669721847
 20
1.172046484187478
 30
0.0
 11
-16.36952669721847
 21
1.16092093818278
 31
0.0
  0
LINE
  5
F1075E
330
261
100
AcDbEntity
  8
Geo
100
AcDbLine
 10
-16.36952669721847
 20
4.825657160247978
 30
0.0
 11
-16.26952669721847
 21
4.736812228421181
 31
0.0
  0
LINE
  5
F10760
330
261
100
AcDbEntity
  8
Geo
100
AcDbLine
 10
-16.36952669721847
 20
4.264337635853777
 30
0.0
 11
-16.26952669721847
 21
4.167466187840477
 31
0.0
  0
LINE
  5
F10762
330
261
100
AcDbEntity
  8
Geo
100
AcDbLine
 10
-16.36952669721847
 20
1.286272311118477
 30
0.0
 11
-16.26952669721847
 21
1.25688763753358
 31
0.0
  0
LINE
  5
F10764
330
261
100
AcDbEntity
  8
Geo
100
AcDbLine
 10
-16.36952669721847
 20
1.16092093818278
 30
0.0
 11
-16.26952669721847
 21
1.15312229318048
 31
0.0
  0
LINE
  5
F10766
330
261
100
AcDbEntity
  8
Geo
100
AcDbLine
 10
-16.26952669721847
 20
4.736812228421181
 30
0.0
 11
-16.16952669721847
 21
4.646208735510081
 31
0.0
  0
LINE
  5
F10768
330
261
100
AcDbEntity
  8
Geo
100
AcDbLine
 10
-16.26952669721847
 20
4.167466187840477
 30
0.0
 11
-16.16952669721847
 21
4.06974701095368
 31
0.0
  0
LINE
  5
F1076A
330
261
100
AcDbEntity
  8
Geo
100
AcDbLine
 10
-16.26952669721847
 20
1.25688763753358
 30
0.0
 11
-16.16952669721847
 21
1.230700951913379
 31
0.0
  0
LINE
  5
F1076C
330
261
100
AcDbEntity
  8
Geo
100
AcDbLine
 10
-16.26952669721847
 20
1.15312229318048
 30
0.0
 11
-16.16952669721847
 21
1.148661025179279
 31
0.0
  0
LINE
  5
F1076E
330
261
100
AcDbEntity
  8
Geo
100
AcDbLine
 10
-16.16952669721847
 20
4.646208735510081
 30
0.0
 11
-16.06952669721847
 21
4.55399162777538
 31
0.0
  0
LINE
  5
F10770
330
261
100
AcDbEntity
  8
Geo
100
AcDbLine
 10
-16.16952669721847
 20
4.06974701095368
 30
0.0
 11
-16.06952669721847
 21
3.971336435030778
 31
0.0
  0
LINE
  5
F10772
330
261
100
AcDbEntity
  8
Geo
100
AcDbLine
 10
-16.16952669721847
 20
1.230700951913379
 30
0.0
 11
-16.06952669721847
 21
1.207747431097477
 31
0.0
  0
LINE
  5
F10774
330
261
100
AcDbEntity
  8
Geo
100
AcDbLine
 10
-16.06952669721847
 20
4.55399162777538
 30
0.0
 11
-15.96952669721847
 21
4.460308432917781
 31
0.0
  0
LINE
  5
F10776
330
261
100
AcDbEntity
  8
Geo
100
AcDbLine
 10
-16.06952669721847
 20
3.971336435030778
 30
0.0
 11
-15.96952669721847
 21
3.872391896000081
 31
0.0
  0
LINE
  5
F10778
330
261
100
AcDbEntity
  8
Geo
100
AcDbLine
 10
-16.06952669721847
 20
1.207747431097477
 30
0.0
 11
-15.96952669721847
 21
1.188057908782478
 31
0.0
  0
LINE
  5
F1077A
330
261
100
AcDbEntity
  8
Geo
100
AcDbLine
 10
-15.96952669721847
 20
4.460308432917781
 30
0.0
 11
-15.86952669721847
 21
4.365309024064276
 31
0.0
  0
LINE
  5
F1077C
330
261
100
AcDbEntity
  8
Geo
100
AcDbLine
 10
-15.96952669721847
 20
3.872391896000081
 30
0.0
 11
-15.86952669721847
 21
3.773071684017081
 31
0.0
  0
LINE
  5
F1077E
330
261
100
AcDbEntity
  8
Geo
100
AcDbLine
 10
-15.96952669721847
 20
1.188057908782478
 30
0.0
 11
-15.86952669721847
 21
1.17165883410288
 31
0.0
  0
LINE
  5
F10780
330
261
100
AcDbEntity
  8
Geo
100
AcDbLine
 10
-15.86952669721847
 20
4.365309024064276
 30
0.0
 11
-15.76952669721847
 21
4.269145380003478
 31
0.0
  0
LINE
  5
F10782
330
261
100
AcDbEntity
  8
Geo
100
AcDbLine
 10
-15.86952669721847
 20
3.773071684017081
 30
0.0
 11
-15.76952669721847
 21
3.67353469023368
 31
0.0
  0
LINE
  5
F10784
330
261
100
AcDbEntity
  8
Geo
100
AcDbLine
 10
-15.86952669721847
 20
1.17165883410288
 30
0.0
 11
-15.76952669721847
 21
1.15857223610138
 31
0.0
  0
LINE
  5
F10786
330
261
100
AcDbEntity
  8
Geo
100
AcDbLine
 10
-15.76952669721847
 20
4.269145380003478
 30
0.0
 11
-15.66952669721847
 21
4.171971342052279
 31
0.0
  0
LINE
  5
F10788
330
261
100
AcDbEntity
  8
Geo
100
AcDbLine
 10
-15.76952669721847
 20
3.67353469023368
 30
0.0
 11
-15.66952669721847
 21
3.573940152606581
 31
0.0
  0
LINE
  5
F1078A
330
261
100
AcDbEntity
  8
Geo
100
AcDbLine
 10
-15.76952669721847
 20
1.15857223610138
 30
0.0
 11
-15.66952669721847
 21
1.14881569413758
 31
0.0
  0
LINE
  5
F1078C
330
261
100
AcDbEntity
  8
Geo
100
AcDbLine
 10
-15.66952669721847
 20
4.171971342052279
 30
0.0
 11
-15.56952669721847
 21
4.073942367941778
 31
0.0
  0
LINE
  5
F1078E
330
261
100
AcDbEntity
  8
Geo
100
AcDbLine
 10
-15.66952669721847
 20
3.573940152606581
 30
0.0
 11
-15.56952669721847
 21
3.474447401150278
 31
0.0
  0
LINE
  5
F10790
330
261
100
AcDbEntity
  8
Geo
100
AcDbLine
 10
-15.66952669721847
 20
1.14881569413758
 30
0.0
 11
-15.56952669721847
 21
1.142402314272882
 31
0.0
  0
LINE
  5
F10792
330
261
100
AcDbEntity
  8
Geo
100
AcDbLine
 10
-15.56952669721847
 20
4.073942367941778
 30
0.0
 11
-15.46952669721848
 21
3.97521528311908
 31
0.0
  0
LINE
  5
F10794
330
261
100
AcDbEntity
  8
Geo
100
AcDbLine
 10
-15.56952669721847
 20
3.474447401150278
 30
0.0
 11
-15.46952669721848
 21
3.375215603042978
 31
0.0
  0
LINE
  5
F10796
330
261
100
AcDbEntity
  8
Geo
100
AcDbLine
 10
-15.56952669721847
 20
1.142402314272882
 30
0.0
 11
-15.46952669721848
 21
1.13934071166528
 31
0.0
  0
LINE
  5
F10798
330
261
100
AcDbEntity
  8
Geo
100
AcDbLine
 10
-15.46952669721848
 20
6.127125833586382
 30
0.0
 11
-15.36952669721847
 21
6.122561569973276
 31
0.0
  0
LINE
  5
F1079A
330
261
100
AcDbEntity
  8
Geo
100
AcDbLine
 10
-15.46952669721848
 20
3.97521528311908
 30
0.0
 11
-15.36952669721847
 21
3.875948029858977
 31
0.0
  0
LINE
  5
F1079C
330
261
100
AcDbEntity
  8
Geo
100
AcDbLine
 10
-15.46952669721848
 20
3.375215603042978
 30
0.0
 11
-15.36952669721847
 21
3.276403507993478
 31
0.0
  0
LINE
  5
F1079E
330
261
100
AcDbEntity
  8
Geo
100
AcDbLine
 10
-15.36952669721847
 20
6.122561569973276
 30
0.0
 11
-15.26952669721847
 21
6.113262830682582
 31
0.0
  0
LINE
  5
F107A0
330
261
100
AcDbEntity
  8
Geo
100
AcDbLine
 10
-15.36952669721847
 20
3.875948029858977
 30
0.0
 11
-15.26952669721847
 21
3.776299414591078
 31
0.0
  0
LINE
  5
F107A2
330
261
100
AcDbEntity
  8
Geo
100
AcDbLine
 10
-15.36952669721847
 20
3.276403507993478
 30
0.0
 11
-15.26952669721847
 21
3.178169194275081
 31
0.0
  0
LINE
  5
F107A4
330
261
100
AcDbEntity
  8
Geo
100
AcDbLine
 10
-15.26952669721847
 20
6.113262830682582
 30
0.0
 11
-15.16952669721847
 21
6.099247331897776
 31
0.0
  0
LINE
  5
F107A6
330
261
100
AcDbEntity
  8
Geo
100
AcDbLine
 10
-15.26952669721847
 20
3.776299414591078
 30
0.0
 11
-15.16952669721847
 21
3.676428853842381
 31
0.0
  0
LINE
  5
F107A8
330
261
100
AcDbEntity
  8
Geo
100
AcDbLine
 10
-15.26952669721847
 20
3.178169194275081
 30
0.0
 11
-15.16952669721847
 21
3.080669815834081
 31
0.0
  0
LINE
  5
F107AA
330
261
100
AcDbEntity
  8
Geo
100
AcDbLine
 10
-15.16952669721847
 20
6.099247331897776
 30
0.0
 11
-15.06952669721847
 21
6.080541776286581
 31
0.0
  0
LINE
  5
F107AC
330
261
100
AcDbEntity
  8
Geo
100
AcDbLine
 10
-15.16952669721847
 20
3.676428853842381
 30
0.0
 11
-15.06952669721847
 21
3.576496119205578
 31
0.0
  0
LINE
  5
F107AE
330
261
100
AcDbEntity
  8
Geo
100
AcDbLine
 10
-15.16952669721847
 20
3.080669815834081
 30
0.0
 11
-15.06952669721847
 21
2.984061350877379
 31
0.0
  0
LINE
  5
F107B0
330
261
100
AcDbEntity
  8
Geo
100
AcDbLine
 10
-15.06952669721847
 20
6.080541776286581
 30
0.0
 11
-14.96952669721848
 21
6.057181802126684
 31
0.0
  0
LINE
  5
F107B2
330
261
100
AcDbEntity
  8
Geo
100
AcDbLine
 10
-15.06952669721847
 20
3.576496119205578
 30
0.0
 11
-14.96952669721848
 21
3.476661081738181
 31
0.0
  0
LINE
  5
F107B4
330
261
100
AcDbEntity
  8
Geo
100
AcDbLine
 10
-15.06952669721847
 20
2.984061350877379
 30
0.0
 11
-14.96952669721848
 21
2.888498352339978
 31
0.0
  0
LINE
  5
F107B6
330
261
100
AcDbEntity
  8
Geo
100
AcDbLine
 10
-14.96952669721848
 20
6.057181802126684
 30
0.0
 11
-14.86952669721847
 21
6.02921191540668
 31
0.0
  0
LINE
  5
F107B8
330
261
100
AcDbEntity
  8
Geo
100
AcDbLine
 10
-14.96952669721848
 20
3.476661081738181
 30
0.0
 11
-14.86952669721847
 21
3.377083456203179
 31
0.0
  0
LINE
  5
F107BA
330
261
100
AcDbEntity
  8
Geo
100
AcDbLine
 10
-14.96952669721848
 20
2.888498352339978
 30
0.0
 11
-14.86952669721847
 21
2.79413370063408
 31
0.0
  0
LINE
  5
F107BC
330
261
100
AcDbEntity
  8
Geo
100
AcDbLine
 10
-14.86952669721847
 20
6.133976484669079
 30
0.0
 11
-14.76952669721847
 21
6.127131038987077
 31
0.0
  0
LINE
  5
F107BE
330
261
100
AcDbEntity
  8
Geo
100
AcDbLine
 10
-14.86952669721847
 20
6.02921191540668
 30
0.0
 11
-14.76952669721847
 21
5.996685405032581
 31
0.0
  0
LINE
  5
F107C0
330
261
100
AcDbEntity
  8
Geo
100
AcDbLine
 10
-14.86952669721847
 20
3.377083456203179
 30
0.0
 11
-14.76952669721847
 21
3.277922545559381
 31
0.0
  0
LINE
  5
F107C2
330
261
100
AcDbEntity
  8
Geo
100
AcDbLine
 10
-14.86952669721847
 20
2.79413370063408
 30
0.0
 11
-14.76952669721847
 21
2.701118359072181
 31
0.0
  0
LINE
  5
F107C4
330
261
100
AcDbEntity
  8
Geo
100
AcDbLine
 10
-14.76952669721847
 20
6.127131038987077
 30
0.0
 11
-14.66952669721847
 21
6.115542411764578
 31
0.0
  0
LINE
  5
F107C6
330
261
100
AcDbEntity
  8
Geo
100
AcDbLine
 10
-14.76952669721847
 20
5.996685405032581
 30
0.0
 11
-14.66952669721847
 21
5.959664241299481
 31
0.0
  0
LINE
  5
F107C8
330
261
100
AcDbEntity
  8
Geo
100
AcDbLine
 10
-14.76952669721847
 20
3.277922545559381
 30
0.0
 11
-14.66952669721847
 21
3.17933698611058
 31
0.0
  0
LINE
  5
F107CA
330
261
100
AcDbEntity
  8
Geo
100
AcDbLine
 10
-14.76952669721847
 20
2.701118359072181
 30
0.0
 11
-14.66952669721847
 21
2.609601132358683
 31
0.0
  0
LINE
  5
F107CC
330
261
100
AcDbEntity
  8
Geo
100
AcDbLine
 10
-14.66952669721847
 20
6.115542411764578
 30
0.0
 11
-14.56952669721847
 21
6.09923268193468
 31
0.0
  0
LINE
  5
F107CE
330
261
100
AcDbEntity
  8
Geo
100
AcDbLine
 10
-14.66952669721847
 20
5.959664241299481
 30
0.0
 11
-14.56952669721847
 21
5.918218957825579
 31
0.0
  0
LINE
  5
F107D0
330
261
100
AcDbEntity
  8
Geo
100
AcDbLine
 10
-14.66952669721847
 20
3.17933698611058
 30
0.0
 11
-14.56952669721847
 21
3.081484493721379
 31
0.0
  0
LINE
  5
F107D2
330
261
100
AcDbEntity
  8
Geo
100
AcDbLine
 10
-14.66952669721847
 20
2.609601132358683
 30
0.0
 11
-14.56952669721847
 21
2.519728428533681
 31
0.0
  0
LINE
  5
F107D4
330
261
100
AcDbEntity
  8
Geo
100
AcDbLine
 10
-14.56952669721847
 20
6.09923268193468
 30
0.0
 11
-14.46952669721848
 21
6.078232923189978
 31
0.0
  0
LINE
  5
F107D6
330
261
100
AcDbEntity
  8
Geo
100
AcDbLine
 10
-14.56952669721847
 20
5.918218957825579
 30
0.0
 11
-14.46952669721848
 21
5.872428517168878
 31
0.0
  0
LINE
  5
F107D8
330
261
100
AcDbEntity
  8
Geo
100
AcDbLine
 10
-14.56952669721847
 20
3.081484493721379
 30
0.0
 11
-14.46952669721848
 21
2.984521611505581
 31
0.0
  0
LINE
  5
F107DA
330
261
100
AcDbEntity
  8
Geo
100
AcDbLine
 10
-14.56952669721847
 20
2.519728428533681
 30
0.0
 11
-14.46952669721848
 21
2.43164402475148
 31
0.0
  0
LINE
  5
F107DC
330
261
100
AcDbEntity
  8
Geo
100
AcDbLine
 10
-14.46952669721848
 20
6.078232923189978
 30
0.0
 11
-14.36952669721847
 21
5.906173561730183
 31
0.0
  0
LINE
  5
F107DE
330
261
100
AcDbEntity
  8
Geo
100
AcDbLine
 10
-14.46952669721848
 20
5.872428517168878
 30
0.0
 11
-14.36952669721847
 21
5.675970577336978
 31
0.0
  0
LINE
  5
F107E0
330
261
100
AcDbEntity
  8
Geo
100
AcDbLine
 10
-14.46952669721848
 20
2.984521611505581
 30
0.0
 11
-14.36952669721847
 21
2.927807965158478
 31
0.0
  0
LINE
  5
F107E2
330
261
100
AcDbEntity
  8
Geo
100
AcDbLine
 10
-14.46952669721848
 20
2.43164402475148
 30
0.0
 11
-14.36952669721847
 21
2.38469334303588
 31
0.0
  0
LINE
  5
F107E4
330
261
100
AcDbEntity
  8
Geo
100
AcDbLine
 10
-14.36952669721847
 20
5.906173561730183
 30
0.0
 11
-14.26952669721847
 21
5.877485704358281
 31
0.0
  0
LINE
  5
F107E6
330
261
100
AcDbEntity
  8
Geo
100
AcDbLine
 10
-14.36952669721847
 20
5.675970577336978
 30
0.0
 11
-14.26952669721847
 21
5.623322729895281
 31
0.0
  0
LINE
  5
F107E8
330
261
100
AcDbEntity
  8
Geo
100
AcDbLine
 10
-14.36952669721847
 20
2.927807965158478
 30
0.0
 11
-14.26952669721847
 21
2.838846530932978
 31
0.0
  0
LINE
  5
F107EA
330
261
100
AcDbEntity
  8
Geo
100
AcDbLine
 10
-14.36952669721847
 20
2.38469334303588
 30
0.0
 11
-14.26952669721847
 21
2.30636374097898
 31
0.0
  0
LINE
  5
F107EC
330
261
100
AcDbEntity
  8
Geo
100
AcDbLine
 10
-14.26952669721847
 20
5.877485704358281
 30
0.0
 11
-14.16952669721847
 21
5.84453029578488
 31
0.0
  0
LINE
  5
F107EE
330
261
100
AcDbEntity
  8
Geo
100
AcDbLine
 10
-14.26952669721847
 20
5.623322729895281
 30
0.0
 11
-14.16952669721847
 21
5.566891568708078
 31
0.0
  0
LINE
  5
F107F0
330
261
100
AcDbEntity
  8
Geo
100
AcDbLine
 10
-14.26952669721847
 20
2.838846530932978
 30
0.0
 11
-14.16952669721847
 21
2.751162875861279
 31
0.0
  0
LINE
  5
F107F2
330
261
100
AcDbEntity
  8
Geo
100
AcDbLine
 10
-14.26952669721847
 20
2.30636374097898
 30
0.0
 11
-14.16952669721847
 21
2.230163776949478
 31
0.0
  0
LINE
  5
F107F4
330
261
100
AcDbEntity
  8
Geo
100
AcDbLine
 10
-14.16952669721847
 20
5.84453029578488
 30
0.0
 11
-14.06952669721847
 21
5.807370123452582
 31
0.0
  0
LINE
  5
F107F6
330
261
100
AcDbEntity
  8
Geo
100
AcDbLine
 10
-14.16952669721847
 20
5.566891568708078
 30
0.0
 11
-14.06952669721847
 21
5.506784607790378
 31
0.0
  0
LINE
  5
F107F8
330
261
100
AcDbEntity
  8
Geo
100
AcDbLine
 10
-14.16952669721847
 20
2.751162875861279
 30
0.0
 11
-14.06952669721847
 21
2.664897275086679
 31
0.0
  0
LINE
  5
F107FA
330
261
100
AcDbEntity
  8
Geo
100
AcDbLine
 10
-14.16952669721847
 20
2.230163776949478
 30
0.0
 11
-14.06952669721847
 21
2.156215354634781
 31
0.0
  0
LINE
  5
F107FC
330
261
100
AcDbEntity
  8
Geo
100
AcDbLine
 10
-14.06952669721847
 20
5.807370123452582
 30
0.0
 11
-13.96952669721847
 21
5.766075985821981
 31
0.0
  0
LINE
  5
F107FE
330
261
100
AcDbEntity
  8
Geo
100
AcDbLine
 10
-14.06952669721847
 20
5.506784607790378
 30
0.0
 11
-13.96952669721847
 21
5.443116364380382
 31
0.0
  0
LINE
  5
F10800
330
261
100
AcDbEntity
  8
Geo
100
AcDbLine
 10
-14.06952669721847
 20
2.664897275086679
 30
0.0
 11
-13.96952669721847
 21
2.580187735168081
 31
0.0
  0
LINE
  5
F10802
330
261
100
AcDbEntity
  8
Geo
100
AcDbLine
 10
-14.06952669721847
 20
2.156215354634781
 30
0.0
 11
-13.96952669721847
 21
2.084636775735879
 31
0.0
  0
LINE
  5
F10804
330
261
100
AcDbEntity
  8
Geo
100
AcDbLine
 10
-13.96952669721847
 20
5.766075985821981
 30
0.0
 11
-13.86952669721847
 21
5.720726557484479
 31
0.0
  0
LINE
  5
F10806
330
261
100
AcDbEntity
  8
Geo
100
AcDbLine
 10
-13.96952669721847
 20
5.443116364380382
 30
0.0
 11
-13.86952669721847
 21
5.376008140757778
 31
0.0
  0
LINE
  5
F10808
330
261
100
AcDbEntity
  8
Geo
100
AcDbLine
 10
-13.96952669721847
 20
2.580187735168081
 30
0.0
 11
-13.86952669721847
 21
2.497169773298881
 31
0.0
  0
LINE
  5
F1080A
330
261
100
AcDbEntity
  8
Geo
100
AcDbLine
 10
-13.96952669721847
 20
2.084636775735879
 30
0.0
 11
-13.86952669721847
 21
2.015542550709581
 31
0.0
  0
LINE
  5
F1080C
330
261
100
AcDbEntity
  8
Geo
100
AcDbLine
 10
-13.86952669721847
 20
5.720726557484479
 30
0.0
 11
-13.76952669721847
 21
5.671408239269482
 31
0.0
  0
LINE
  5
F1080E
330
261
100
AcDbEntity
  8
Geo
100
AcDbLine
 10
-13.86952669721847
 20
5.376008140757778
 30
0.0
 11
-13.76952669721847
 21
5.305587793135681
 31
0.0
  0
LINE
  5
F10810
330
261
100
AcDbEntity
  8
Geo
100
AcDbLine
 10
-13.86952669721847
 20
2.497169773298881
 30
0.0
 11
-13.76952669721847
 21
2.41597620050858
 31
0.0
  0
LINE
  5
F10812
330
261
100
AcDbEntity
  8
Geo
100
AcDbLine
 10
-13.86952669721847
 20
2.015542550709581
 30
0.0
 11
-13.76952669721847
 21
1.94904321557658
 31
0.0
  0
LINE
  5
F10814
330
261
100
AcDbEntity
  8
Geo
100
AcDbLine
 10
-13.76952669721847
 20
5.671408239269482
 30
0.0
 11
-13.66952669721847
 21
5.618214993631474
 31
0.0
  0
LINE
  5
F10816
330
261
100
AcDbEntity
  8
Geo
100
AcDbLine
 10
-13.76952669721847
 20
5.305587793135681
 30
0.0
 11
-13.66952669721847
 21
5.231989488066381
 31
0.0
  0
LINE
  5
F10818
330
261
100
AcDbEntity
  8
Geo
100
AcDbLine
 10
-13.76952669721847
 20
2.41597620050858
 30
0.0
 11
-13.66952669721847
 21
2.336736909193279
 31
0.0
  0
LINE
  5
F1081A
330
261
100
AcDbEntity
  8
Geo
100
AcDbLine
 10
-13.76952669721847
 20
1.94904321557658
 30
0.0
 11
-13.66952669721847
 21
1.885245155087478
 31
0.0
  0
LINE
  5
F1081C
330
261
100
AcDbEntity
  8
Geo
100
AcDbLine
 10
-13.66952669721847
 20
5.618214993631474
 30
0.0
 11
-13.56952669721847
 21
5.561248165630684
 31
0.0
  0
LINE
  5
F1081E
330
261
100
AcDbEntity
  8
Geo
100
AcDbLine
 10
-13.66952669721847
 20
5.231989488066381
 30
0.0
 11
-13.56952669721847
 21
5.155353446823582
 31
0.0
  0
LINE
  5
F10820
330
261
100
AcDbEntity
  8
Geo
100
AcDbLine
 10
-13.66952669721847
 20
2.336736909193279
 30
0.0
 11
-13.56952669721847
 21
2.259578665315681
 31
0.0
  0
LINE
  5
F10822
330
261
100
AcDbEntity
  8
Geo
100
AcDbLine
 10
-13.66952669721847
 20
1.885245155087478
 30
0.0
 11
-13.56952669721847
 21
1.824250432529378
 31
0.0
  0
LINE
  5
F10824
330
261
100
AcDbEntity
  8
Geo
100
AcDbLine
 10
-13.56952669721847
 20
5.561248165630684
 30
0.0
 11
-13.46952669721847
 21
5.500616289847683
 31
0.0
  0
LINE
  5
F10826
330
261
100
AcDbEntity
  8
Geo
100
AcDbLine
 10
-13.56952669721847
 20
5.155353446823582
 30
0.0
 11
-13.46952669721847
 21
5.075825678249579
 31
0.0
  0
LINE
  5
F10828
330
261
100
AcDbEntity
  8
Geo
100
AcDbLine
 10
-13.56952669721847
 20
2.259578665315681
 30
0.0
 11
-13.46952669721847
 21
2.18462490560628
 31
0.0
  0
LINE
  5
F1082A
330
261
100
AcDbEntity
  8
Geo
100
AcDbLine
 10
-13.56952669721847
 20
1.824250432529378
 30
0.0
 11
-13.46952669721847
 21
1.766156626446978
 31
0.0
  0
LINE
  5
F1082C
330
261
100
AcDbEntity
  8
Geo
100
AcDbLine
 10
-27.46952669721848
 20
3.637564992193882
 30
0.0
 11
-27.46952669721848
 21
3.637564992193882
 31
0.0
  0
LINE
  5
F1082E
330
261
100
AcDbEntity
  8
Geo
100
AcDbLine
 10
-27.46952669721848
 20
3.637564992193882
 30
0.0
 11
-27.46952669721848
 21
3.637564992193882
 31
0.0
  0
LINE
  5
F10830
330
261
100
AcDbEntity
  8
Geo
100
AcDbLine
 10
-28.46952669721848
 20
3.637564992193882
 30
0.0
 11
-28.16952669721848
 21
3.637564992193882
 31
0.0
  0
LINE
  5
F10832
330
261
100
AcDbEntity
  8
Geo
100
AcDbLine
 10
-28.04202669721848
 20
3.637564992193882
 30
0.0
 11
-27.95702669721848
 21
3.637564992193882
 31
0.0
  0
LINE
  5
F10834
330
261
100
AcDbEntity
  8
Geo
100
AcDbLine
 10
-27.74452669721848
 20
3.637564992193882
 30
0.0
 11
-27.31952669721848
 21
3.637564992193882
 31
0.0
  0
LINE
  5
F10836
330
261
100
AcDbEntity
  8
Geo
100
AcDbLine
 10
-27.19202669721848
 20
3.637564992193882
 30
0.0
 11
-27.10702669721848
 21
3.637564992193882
 31
0.0
  0
LINE
  5
F10838
330
261
100
AcDbEntity
  8
Geo
100
AcDbLine
 10
-26.89452669721848
 20
3.637564992193882
 30
0.0
 11
-26.46952669721848
 21
3.637564992193882
 31
0.0
  0
LINE
  5
F1083A
330
261
100
AcDbEntity
  8
Geo
100
AcDbLine
 10
52.53047330278153
 20
6.13756499219388
 30
0.0
 11
52.53047330278153
 21
3.637564992193882
 31
0.0
  0
LINE
  5
F1083C
330
261
100
AcDbEntity
  8
Geo
100
AcDbLine
 10
-27.46952669721848
 20
3.637564992193882
 30
0.0
 11
-27.46952669721848
 21
1.23756499219388
 31
0.0
  0
LINE
  5
F1083E
330
261
100
AcDbEntity
  8
Geo
100
AcDbLine
 10
-27.46952669721848
 20
1.23756499219388
 30
0.0
 11
-27.36952669721848
 21
1.137564992193883
 31
0.0
  0
LINE
  5
F10840
330
261
100
AcDbEntity
  8
Geo
100
AcDbLine
 10
-27.36952669721848
 20
1.137564992193883
 30
0.0
 11
-14.46952669721848
 21
1.137564992193883
 31
0.0
  0
LINE
  5
F10842
330
261
100
AcDbEntity
  8
Geo
100
AcDbLine
 10
-14.46952669721848
 20
1.137564992193883
 30
0.0
 11
-14.46952669721848
 21
1.287564992193882
 31
0.0
  0
LINE
  5
F10844
330
261
100
AcDbEntity
  8
Geo
100
AcDbLine
 10
-14.46952669721848
 20
1.287564992193882
 30
0.0
 11
2.530473302781522
 21
1.287564992193882
 31
0.0
  0
LINE
  5
F10846
330
261
100
AcDbEntity
  8
Geo
100
AcDbLine
 10
2.530473302781522
 20
1.287564992193882
 30
0.0
 11
4.53047330278153
 21
0.6375649921938839
 31
0.0
  0
LINE
  5
F10848
330
261
100
AcDbEntity
  8
Geo
100
AcDbLine
 10
4.53047330278153
 20
0.6375649921938839
 30
0.0
 11
52.03047330278153
 21
0.6375649921938839
 31
0.0
  0
LINE
  5
F1084A
330
261
100
AcDbEntity
  8
Geo
100
AcDbLine
 10
52.03047330278153
 20
0.6375649921938839
 30
0.0
 11
52.53047330278153
 21
1.137564992193883
 31
0.0
  0
LINE
  5
F1084C
330
261
100
AcDbEntity
  8
Geo
100
AcDbLine
 10
-27.46952669721848
 20
6.037564992193877
 30
0.0
 11
-27.46952669721848
 21
1.23756499219388
 31
0.0
  0
LINE
  5
F1084E
330
261
100
AcDbEntity
  8
Geo
100
AcDbLine
 10
-27.36952669721848
 20
6.13756499219388
 30
0.0
 11
-27.36952669721848
 21
1.137564992193883
 31
0.0
  0
LINE
  5
F10850
330
261
100
AcDbEntity
  8
Geo
100
AcDbLine
 10
-27.36952669721848
 20
6.13756499219388
 30
0.0
 11
-27.36952669721848
 21
1.137564992193883
 31
0.0
  0
LINE
  5
F10852
330
261
100
AcDbEntity
  8
Geo
100
AcDbLine
 10
-14.46952669721848
 20
6.13756499219388
 30
0.0
 11
-14.46952669721848
 21
1.137564992193883
 31
0.0
  0
LINE
  5
F10854
330
261
100
AcDbEntity
  8
Geo
100
AcDbLine
 10
-14.46952669721848
 20
5.987564992193881
 30
0.0
 11
-14.46952669721848
 21
1.287564992193882
 31
0.0
  0
LINE
  5
F10856
330
261
100
AcDbEntity
  8
Geo
100
AcDbLine
 10
2.530473302781522
 20
5.987564992193881
 30
0.0
 11
2.530473302781522
 21
1.287564992193882
 31
0.0
  0
LINE
  5
F10858
330
261
100
AcDbEntity
  8
Geo
100
AcDbLine
 10
4.53047330278153
 20
6.63756499219388
 30
0.0
 11
4.53047330278153
 21
0.6375649921938839
 31
0.0
  0
LINE
  5
F1085A
330
261
100
AcDbEntity
  8
Geo
100
AcDbLine
 10
4.53047330278153
 20
6.63756499219388
 30
0.0
 11
4.53047330278153
 21
0.6375649921938839
 31
0.0
  0
LINE
  5
F1085C
330
261
100
AcDbEntity
  8
Geo
100
AcDbLine
 10
52.03047330278153
 20
6.63756499219388
 30
0.0
 11
52.03047330278153
 21
0.6375649921938839
 31
0.0
  0
LINE
  5
F1085E
330
261
100
AcDbEntity
  8
Geo
100
AcDbLine
 10
52.53047330278153
 20
6.13756499219388
 30
0.0
 11
52.53047330278153
 21
1.137564992193883
 31
0.0
  0
LWPOLYLINE
  5
F108E8
330
261
100
AcDbEntity
  8
Rahmen
100
AcDbPolyline
 90
        4
 70
     1
 43
0.0
 10
-134.650259067358
 20
99.8316062176166
 10
143.354922279793
 20
99.8316062176166
 10
143.354922279793
 20
-100.103626943005
 10
-134.650259067358
 20
-100.103626943005
  0
LWPOLYLINE
  5
F108EC
330
261
100
AcDbEntity
  8
Rahmen
100
AcDbPolyline
 90
        4
 70
     1
 43
0.0
 10
103.367875647668
 20
-97.11139896373062
 10
143.354922279793
 20
-97.11139896373062
 10
143.354922279793
 20
-100.103626943005
 10
103.367875647668
 20
-100.103626943005
  0
TEXT
  5
F108EE
330
261
100
AcDbEntity
  8
Text
100
AcDbText
 10
104.455958549223
 20
-98.11139896373061
 30
0.0
 40
0.75
  1
Ers. durch:
100
AcDbText
  0
LWPOLYLINE
  5
F108F2
330
261
100
AcDbEntity
  8
Rahmen
100
AcDbPolyline
 90
        4
 70
     1
 43
0.0
 10
63.380829015544
 20
-97.11139896373062
 10
103.367875647668
 20
-97.11139896373062
 10
103.367875647668
 20
-100.103626943005
 10
63.380829015544
 20
-100.103626943005
  0
TEXT
  5
F108F4
330
261
100
AcDbEntity
  8
Text
100
AcDbText
 10
64.46891191709839
 20
-98.11139896373061
 30
0.0
 40
0.75
  1
Ers. für:
100
AcDbText
  0
TEXT
  5
F108F6
330
261
100
AcDbEntity
  8
Text
100
AcDbText
 10
91.39896373056991
 20
-99.4715025906736
 30
0.0
 40
0.75
  1

100
AcDbText
  0
LWPOLYLINE
  5
F108F8
330
261
100
AcDbEntity
  8
Rahmen
100
AcDbPolyline
 90
        4
 70
     1
 43
0.0
 10
130.025906735751
 20
-94.119170984456
 10
143.354922279793
 20
-94.119170984456
 10
143.354922279793
 20
-97.11139896373062
 10
130.025906735751
 20
-97.11139896373062
  0
TEXT
  5
F108FA
330
261
100
AcDbEntity
  8
Text
100
AcDbText
 10
131.113989637306
 20
-95.119170984456
 30
0.0
 40
0.75
  1
Blätter
100
AcDbText
  0
TEXT
  5
F108FC
330
261
100
AcDbEntity
  8
Text
100
AcDbText
 10
141.178756476684
 20
-96.479274611399
 30
0.0
 40
0.75
  1

100
AcDbText
  0
LWPOLYLINE
  5
F108FE
330
261
100
AcDbEntity
  8
Rahmen
100
AcDbPolyline
 90
        4
 70
     1
 43
0.0
 10
130.025906735751
 20
-91.12694300518127
 10
143.354922279793
 20
-91.12694300518127
 10
143.354922279793
 20
-94.119170984456
 10
130.025906735751
 20
-94.119170984456
  0
TEXT
  5
F10900
330
261
100
AcDbEntity
  8
Text
100
AcDbText
 10
131.113989637306
 20
-92.12694300518128
 30
0.0
 40
0.75
  1
Blatt
100
AcDbText
  0
TEXT
  5
F10902
330
261
100
AcDbEntity
  8
Text
100
AcDbText
 10
141.178756476684
 20
-93.48704663212428
 30
0.0
 40
0.75
  1

100
AcDbText
  0
LWPOLYLINE
  5
F10904
330
261
100
AcDbEntity
  8
Rahmen
100
AcDbPolyline
 90
        4
 70
     1
 43
0.0
 10
63.380829015544
 20
-91.12694300518127
 10
130.025906735751
 20
-91.12694300518127
 10
130.025906735751
 20
-97.11139896373062
 10
63.380829015544
 20
-97.11139896373062
  0
TEXT
  5
F10906
330
261
100
AcDbEntity
  8
Text
100
AcDbText
 10
64.46891191709839
 20
-92.12694300518128
 30
0.0
 40
0.75
  1
Datum:
100
AcDbText
  0
TEXT
  5
F10908
330
261
100
AcDbEntity
  8
Text
100
AcDbText
 10
92.21502590673571
 20
-95.119170984456
 30
0.0
 40
0.75
  1
4.07.2014
100
AcDbText
  0
LWPOLYLINE
  5
F1090A
330
261
100
AcDbEntity
  8
Rahmen
100
AcDbPolyline
 90
        4
 70
     1
 43
0.0
 10
63.380829015544
 20
-85.14248704663208
 10
143.354922279793
 20
-85.14248704663208
 10
143.354922279793
 20
-91.12694300518127
 10
63.380829015544
 20
-91.12694300518127
  0
TEXT
  5
F1090C
330
261
100
AcDbEntity
  8
Text
100
AcDbText
 10
-208.09585492228
 20
103.0
 30
0.0
 40
1.5
  1

100
AcDbText
  0
TEXT
  5
F1090E
330
261
100
AcDbEntity
  8
Text
100
AcDbText
 10
94.119170984456
 20
-89.01986183074269
 30
0.0
 40
2.5
  1
5500-050
100
AcDbText
  0
LWPOLYLINE
  5
F10910
330
261
100
AcDbEntity
  8
Rahmen
100
AcDbPolyline
 90
        4
 70
     1
 43
0.0
 10
103.367875647668
 20
-79.1580310880829
 10
143.354922279793
 20
-79.1580310880829
 10
143.354922279793
 20
-85.14248704663208
 10
103.367875647668
 20
-85.14248704663208
  0
TEXT
  5
F10912
330
261
100
AcDbEntity
  8
Text
100
AcDbText
 10
104.455958549223
 20
-80.1580310880829
 30
0.0
 40
0.75
  1
Zu bearb. Material:
100
AcDbText
  0
TEXT
  5
F10914
330
261
100
AcDbEntity
  8
Text
100
AcDbText
 10
123.225388601036
 20
-84.5103626943005
 30
0.0
 40
0.75
  1

100
AcDbText
  0
LWPOLYLINE
  5
F10916
330
261
100
AcDbEntity
  8
Rahmen
100
AcDbPolyline
 90
        4
 70
     1
 43
0.0
 10
63.380829015544
 20
-79.1580310880829
 10
103.367875647668
 20
-79.1580310880829
 10
103.367875647668
 20
-85.14248704663208
 10
63.380829015544
 20
-85.14248704663208
  0
TEXT
  5
F10918
330
261
100
AcDbEntity
  8
Text
100
AcDbText
 10
64.46891191709839
 20
-80.1580310880829
 30
0.0
 40
0.75
  1
Werkstoff:
100
AcDbText
  0
LWPOLYLINE
  5
F1091C
330
261
100
AcDbEntity
  8
Rahmen
100
AcDbPolyline
 90
        4
 70
     1
 43
0.0
 10
103.367875647668
 20
-76.16580310880832
 10
143.354922279793
 20
-76.16580310880832
 10
143.354922279793
 20
-79.1580310880829
 10
103.367875647668
 20
-79.1580310880829
  0
TEXT
  5
F1091E
330
261
100
AcDbEntity
  8
Text
100
AcDbText
 10
-208.09585492228
 20
103.0
 30
0.0
 40
1.5
  1

100
AcDbText
  0
LWPOLYLINE
  5
F10922
330
261
100
AcDbEntity
  8
Rahmen
100
AcDbPolyline
 90
        4
 70
     1
 43
0.0
 10
63.380829015544
 20
-76.16580310880832
 10
103.367875647668
 20
-76.16580310880832
 10
103.367875647668
 20
-79.1580310880829
 10
63.380829015544
 20
-79.1580310880829
  0
TEXT
  5
F10924
330
261
100
AcDbEntity
  8
Text
100
AcDbText
 10
64.46891191709839
 20
-77.1658031088083
 30
0.0
 40
0.75
  1
Maßstab:
100
AcDbText
  0
TEXT
  5
F10926
330
261
100
AcDbEntity
  8
Text
100
AcDbText
 10
89.49481865284978
 20
-77.1658031088083
 30
0.0
 40
0.75
  1
1 : 1
100
AcDbText
  0
LINE
  5
F10AD7
330
261
100
AcDbEntity
  8
0
100
AcDbLine
 10
16.53047330278153
 20
6.63756499219388
 30
0.0
 11
16.53047330278153
 21
0.6375649921938839
 31
0.0
  0
DIMENSION
  5
F10AD8
330
261
100
AcDbEntity
  8
Bemassung
100
AcDbDimension
  2
*D14
 10
16.53047330278153
 20
16.25873037032661
 30
0.0
 11
34.53047330278153
 21
18.16101549993097
 31
0.0
 70
    32
 71
     5
 42
36.0
  3
BEM-ISBE
100
AcDbAlignedDimension
 13
52.53047330278153
 23
6.13756499219388
 33
0.0
 14
16.53047330278153
 24
6.63756499219388
 34
0.0
100
AcDbRotatedDimension
1001
ACAD
1000
DSTYLE
1002
{
1070
   147
1040
0.625
1070
   286
1070
     0
1070
   284
1070
     0
1070
   283
1070
     1
1070
   146
1040
0.5
1070
   272
1070
     3
1070
    47
1040
0.0
1070
    48
1040
0.000000001
1070
    72
1070
     0
1070
    71
1070
     0
1070
    78
1070
     8
1070
   274
1070
     2
1002
}
  0
VIEWPORT
  5
294
102
{ACAD_XDICTIONARY
360
F10BF5
102
}
330
25D
100
AcDbEntity
 67
     1
  8
0
 60
     1
100
AcDbViewport
 10
0.0
 20
0.0
 30
0.0
 40
10.0
 41
10.0
 68
    -1
 69
     1
 12
0.0
 22
0.0
 13
0.0
 23
0.0
 14
1.0
 24
1.0
 15
0.0
 25
0.0
 16
0.0
 26
0.0
 36
1.0
 17
0.0
 27
0.0
 37
0.0
 42
0.0
 43
0.0
 44
0.0
 45
10.0
 50
0.0
 51
0.0000000000007958
 72
   100
 90
    32800
  1

281
     0
 71
     0
 74
     0
110
0.0
120
0.0
130
0.0
111
1.0
121
0.0
131
0.0
112
0.0
122
1.0
132
0.0
 79
     0
146
0.0
1001
VD_INVISIBLE_NOT_FOR_READ
1000
VD_INVISIBLE_NOT_FOR_READ
1001
GENIUS_GENOBJ-N-SDF_13
1002
{
1000
OWNER
1000
GEN
1002
}
1001
GENIUS_GENODEF_13
1002
{
1000
HIER
1070
     0
1002
}
1002
{
1000
MANEDIT
1070
     0
1002
}
1002
{
1000
NOSEL
1070
     0
1002
}
1002
{
1000
BEHIND
1070
     0
1002
}
1002
{
1000
OTHER
1070
     0
1002
}
1002
{
1000
REACTOR
1002
}
1001
GENIUS_GENSCREG_15
1000
PF
1040
1.0
1000
DF
1040
1.0
1000
MIN
1011
-5.0
1021
-5.0
1031
0.0
1000
MAX
1011
5.0
1021
5.0
1031
0.0
1000
FLAGS
1070
     4
  0
VIEWPORT
  5
295
102
{ACAD_XDICTIONARY
360
F10BF7
102
}
330
25D
100
AcDbEntity
 67
     1
  8
0
 60
     1
100
AcDbViewport
 10
0.0
 20
0.0
 30
0.0
 40
10.0
 41
10.0
 68
     0
 69
     2
 12
0.0
 22
0.0
 13
0.0
 23
0.0
 14
1.0
 24
1.0
 15
0.0
 25
0.0
 16
0.0
 26
0.0
 36
1.0
 17
0.0
 27
0.0
 37
0.0
 42
0.0
 43
0.0
 44
0.0
 45
10.0
 50
0.0
 51
0.0000000000007958
 72
   100
 90
   163872
  1

281
     0
 71
     0
 74
     0
110
0.0
120
0.0
130
0.0
111
1.0
121
0.0
131
0.0
112
0.0
122
1.0
132
0.0
 79
     0
146
0.0
1001
VD_INVISIBLE_NOT_FOR_READ
1000
VD_INVISIBLE_NOT_FOR_READ
1001
GENIUS_GENODEF_13
1002
{
1000
HIER
1070
     0
1002
}
1002
{
1000
MANEDIT
1070
     0
1002
}
1002
{
1000
NOSEL
1070
     0
1002
}
1002
{
1000
BEHIND
1070
     0
1002
}
1002
{
1000
OTHER
1070
     0
1002
}
1002
{
1000
REACTOR
1002
}
1001
GENIUS_GENOBJ-N-SDF_13
1002
{
1000
OWNER
1000
GEN
1002
}
1001
GENIUS_GENSCREG_15
1000
PF
1040
1.0
1000
DF
1040
1.0
1000
MIN
1011
-5.0
1021
-5.0
1031
0.0
1000
MAX
1011
5.0
1021
5.0
1031
0.0
1000
FLAGS
1070
     4
  0
ENDSEC
  0
SECTION
  2
OBJECTS
  0
DICTIONARY
  5
13
330
0
100
AcDbDictionary
281
     1
  3
ACAD_2007HEADERVARS_RT
350
F10BF0
  3
ACAD_COLOR
350
FA7
  3
ACAD_GROUP
350
14
  3
ACAD_LAYOUT
350
FCF
  3
ACAD_MATERIAL
350
F7A
  3
ACAD_MLEADERSTYLE
350
FCD
  3
ACAD_MLINESTYLE
350
16
  3
ACAD_PLOTSETTINGS
350
17
  3
ACAD_PLOTSTYLENAME
350
18
  3
ACAD_SCALELIST
350
FAB
  3
ACAD_TABLESTYLE
350
FA8
  3
ACAD_VISUALSTYLE
350
F93
  3
ACDB_RECOMPOSE_DATA
350
F10BEE
  3
AcDbVariableDictionary
350
F10B2A
  3
AcmDictionary
350
F1097D
  3
AMG
350
F10931
  3
AMGSNAPSETTINGS
350
F10A24
  3
DWGPROPS
350
F10BEF
  0
DICTIONARY
  5
F10B20
330
252
100
AcDbDictionary
280
     1
281
     1
  3
ADSK_XREC_LAYER_RECONCILED
360
F10B21
  0
DICTIONARY
  5
F10B22
330
23F
100
AcDbDictionary
280
     1
281
     1
  3
ADSK_XREC_LAYER_RECONCILED
360
F10B23
  0
DICTIONARY
  5
F10B24
330
240
100
AcDbDictionary
280
     1
281
     1
  3
ADSK_XREC_LAYER_RECONCILED
360
F10B25
  0
DICTIONARY
  5
F10B26
330
241
100
AcDbDictionary
280
     1
281
     1
  3
ADSK_XREC_LAYER_RECONCILED
360
F10B27
  0
DICTIONARY
  5
F10B28
330
57E
100
AcDbDictionary
280
     1
281
     1
  3
ADSK_XREC_LAYER_RECONCILED
360
F10B29
  0
DICTIONARY
  5
F10BF9
330
296
100
AcDbDictionary
280
     1
281
     1
  3
ACAD_XREC_ROUNDTRIP
360
F10BFA
  0
DICTIONARY
  5
F10BFB
330
297
100
AcDbDictionary
280
     1
281
     1
  3
ACAD_XREC_ROUNDTRIP
360
F10BFC
  0
DICTIONARY
  5
F10C36
330
F109EF
100
AcDbDictionary
280
     1
281
     1
  3
ACAD_MTEXT_RT
360
F10C37
  0
DICTIONARY
  5
F10BF5
330
294
100
AcDbDictionary
280
     1
281
     1
  3
ACAD_XREC_ROUNDTRIP
360
F10BF6
  0
DICTIONARY
  5
F10BF7
330
295
100
AcDbDictionary
280
     1
281
     1
  3
ACAD_XREC_ROUNDTRIP
360
F10BF8
  0
DICTIONARY
  5
F10BF0
102
{ACAD_REACTORS
330
13
102
}
330
13
100
AcDbDictionary
281
     1
  3
DIMARCSYM
350
F10BF1
  3
DIMLTEX1
350
F10BF3
  3
DIMLTEX2
350
F10BF4
  3
DIMLTYPE
350
F10BF2
  0
DICTIONARY
  5
FA7
102
{ACAD_REACTORS
330
13
102
}
330
13
100
AcDbDictionary
281
     1
  0
DICTIONARY
  5
14
330
13
100
AcDbDictionary
281
     1
  0
DICTIONARY
  5
FCF
102
{ACAD_REACTORS
330
13
102
}
330
13
100
AcDbDictionary
281
     1
  3
Layout1
350
FD1
  3
Model
350
FD0
  0
DICTIONARY
  5
F7A
102
{ACAD_REACTORS
330
13
102
}
330
13
100
AcDbDictionary
281
     1
  3
ByBlock
350
F83
  3
ByLayer
350
F7B
  3
Global
350
F8B
  0
DICTIONARY
  5
FCD
102
{ACAD_REACTORS
330
13
102
}
330
13
100
AcDbDictionary
281
     1
  3
Standard
350
FCE
  0
DICTIONARY
  5
16
330
13
100
AcDbDictionary
281
     1
  3
Standard
350
FAA
  0
DICTIONARY
  5
17
102
{ACAD_REACTORS
330
13
102
}
330
13
100
AcDbDictionary
281
     1
  0
ACDBDICTIONARYWDFLT
  5
18
102
{ACAD_REACTORS
330
13
102
}
330
13
100
AcDbDictionary
281
     1
  3
Normal
350
19
100
AcDbDictionaryWithDefault
340
19
  0
DICTIONARY
  5
FAB
102
{ACAD_REACTORS
330
13
102
}
330
13
100
AcDbDictionary
281
     1
  3
A0
350
FAC
  3
A1
350
FAD
  3
A2
350
FAE
  3
A3
350
FAF
  3
A4
350
FB0
  3
A5
350
FB1
  3
A6
350
FB2
  3
A7
350
FB3
  3
A8
350
FB4
  3
A9
350
FB5
  3
B0
350
FB6
  3
B1
350
FB7
  3
B2
350
FB8
  3
B3
350
FB9
  3
B4
350
FBA
  3
B5
350
FBB
  3
B6
350
FBC
  3
B7
350
FBD
  3
B8
350
FBE
  3
B9
350
FBF
  3
C0
350
FC0
  3
C1
350
FC1
  3
C2
350
FC2
  3
C3
350
FC3
  3
C4
350
FC4
  3
C5
350
FC5
  3
C6
350
FC6
  3
C7
350
FC7
  3
C8
350
FC8
  3
C9
350
FC9
  3
D0
350
FCA
  3
D1
350
FCB
  3
D2
350
FCC
  0
DICTIONARY
  5
FA8
102
{ACAD_REACTORS
330
13
102
}
330
13
100
AcDbDictionary
281
     1
  3
Standard
350
FA9
  0
DICTIONARY
  5
F93
102
{ACAD_REACTORS
330
13
102
}
330
13
100
AcDbDictionary
281
     1
  3
2dWireframe
350
F99
  3
3D Hidden
350
F9B
  3
3dWireframe
350
F9A
  3
Basic
350
F98
  3
Brighten
350
F9F
  3
ColorChange
350
FA3
  3
Conceptual
350
F9C
  3
Dim
350
F9E
  3
EdgeColorOff
350
FA6
  3
Facepattern
350
FA2
  3
Flat
350
F94
  3
FlatWithEdges
350
F95
  3
Gouraud
350
F96
  3
GouraudWithEdges
350
F97
  3
Hidden
350
F10929
  3
JitterOff
350
FA4
  3
Linepattern
350
FA1
  3
OverhangOff
350
FA5
  3
Realistic
350
F9D
  3
Shaded
350
F1092E
  3
Shaded with edges
350
F1092D
  3
Shades of Gray
350
F1092A
  3
Sketchy
350
F1092B
  3
Thicken
350
FA0
  3
Wireframe
350
F10928
  3
X-Ray
350
F1092C
  0
XRECORD
  5
F10BEE
102
{ACAD_REACTORS
330
13
102
}
330
13
100
AcDbXrecord
280
     1
 90
        1
330
FA9
  0
DICTIONARY
  5
F10B2A
102
{ACAD_REACTORS
330
13
102
}
330
13
100
AcDbDictionary
281
     1
  3
CANNOSCALE
350
F10B2D
  3
CMLEADERSTYLE
350
F10B2C
  3
CTABLESTYLE
350
F10B2B
  3
DIMASSOC
350
F10B30
  3
INDEXCTL
350
F10B2F
  3
SORTENTS
350
F10B2E
  3
XCLIPFRAME
350
F10BEC
  0
DICTIONARY
  5
F1097D
102
{ACAD_REACTORS
330
13
102
}
330
13
100
AcDbDictionary
281
     1
  3
AcmStdDictionary
350
F10988
  0
DICTIONARY
  5
F10931
102
{ACAD_REACTORS
330
13
102
}
330
13
100
AcDbDictionary
281
     1
  0
DICTIONARY
  5
F10A24
102
{ACAD_REACTORS
330
13
102
}
330
13
100
AcDbDictionary
281
     1
  0
XRECORD
  5
F10BEF
102
{ACAD_REACTORS
330
13
102
}
330
13
100
AcDbXrecord
280
     1
  1
DWGPROPS COOKIE
  2

  3

  4

  6

  7

  8
Steigner
  9

300
=
301
=
302
=
303
=
304
=
305
=
306
=
307
=
308
=
309
=
 40
0.0026136805555556
 41
2457002.672226366
 42
2457002.677114063
  1

 90
        0
  0
XRECORD
  5
F10B21
102
{ACAD_REACTORS
330
F10B20
102
}
330
F10B20
100
AcDbXrecord
280
     1
290
     1
  0
XRECORD
  5
F10B23
102
{ACAD_REACTORS
330
F10B22
102
}
330
F10B22
100
AcDbXrecord
280
     1
290
     1
  0
XRECORD
  5
F10B25
102
{ACAD_REACTORS
330
F10B24
102
}
330
F10B24
100
AcDbXrecord
280
     1
290
     1
  0
XRECORD
  5
F10B27
102
{ACAD_REACTORS
330
F10B26
102
}
330
F10B26
100
AcDbXrecord
280
     1
290
     1
  0
XRECORD
  5
F10B29
102
{ACAD_REACTORS
330
F10B28
102
}
330
F10B28
100
AcDbXrecord
280
     1
290
     1
  0
XRECORD
  5
F10BFA
102
{ACAD_REACTORS
330
F10BF9
102
}
330
F10BF9
100
AcDbXrecord
280
     1
102
SHADEPLOT
 70
     0
  0
XRECORD
  5
F10BFC
102
{ACAD_REACTORS
330
F10BFB
102
}
330
F10BFB
100
AcDbXrecord
280
     1
102
SHADEPLOT
 70
     0
  0
XRECORD
  5
F10C37
102
{ACAD_REACTORS
330
F10C36
102
}
330
F10C36
100
AcDbXrecord
280
     1
 40
5283.0
  1
\A1;30°
  0
XRECORD
  5
F10BF6
102
{ACAD_REACTORS
330
F10BF5
102
}
330
F10BF5
100
AcDbXrecord
280
     1
102
SHADEPLOT
 70
     0
  0
XRECORD
  5
F10BF8
102
{ACAD_REACTORS
330
F10BF7
102
}
330
F10BF7
100
AcDbXrecord
280
     1
102
SHADEPLOT
 70
     0
  0
XRECORD
  5
F10BF1
102
{ACAD_REACTORS
330
F10BF0
102
}
330
F10BF0
100
AcDbXrecord
280
     1
 70
     1
  0
XRECORD
  5
F10BF3
102
{ACAD_REACTORS
330
F10BF0
102
}
330
F10BF0
100
AcDbXrecord
280
     1
340
256
  0
XRECORD
  5
F10BF4
102
{ACAD_REACTORS
330
F10BF0
102
}
330
F10BF0
100
AcDbXrecord
280
     1
340
256
  0
XRECORD
  5
F10BF2
102
{ACAD_REACTORS
330
F10BF0
102
}
330
F10BF0
100
AcDbXrecord
280
     1
340
256
  0
LAYOUT
  5
FD1
102
{ACAD_XDICTIONARY
360
F10C26
102
}
102
{ACAD_REACTORS
330
FCF
102
}
330
FCF
100
AcDbPlotSettings
  1

  2
Microsoft XPS Document Writer
  4

  6

 40
0.0
 41
0.0
 42
0.0
 43
0.0
 44
0.0
 45
0.0
 46
0.0
 47
0.0
 48
0.0
 49
0.0
140
0.0
141
0.0
142
1.0
143
1.0
 70
   688
 72
     0
 73
     0
 74
     5
  7

 75
    16
147
1.0
148
0.0
149
0.0
100
AcDbLayout
  1
Layout1
 70
     1
 71
     1
 10
0.0
 20
0.0
 11
12.0
 21
9.0
 12
0.0
 22
0.0
 32
0.0
 14
1.000000000000000E+20
 24
1.000000000000000E+20
 34
1.000000000000000E+20
 15
-1.000000000000000E+20
 25
-1.000000000000000E+20
 35
-1.000000000000000E+20
146
0.0
 13
0.0
 23
0.0
 33
0.0
 16
1.0
 26
0.0
 36
0.0
 17
0.0
 27
1.0
 37
0.0
 76
     0
330
25D
  0
LAYOUT
  5
FD0
102
{ACAD_XDICTIONARY
360
F10C24
102
}
102
{ACAD_REACTORS
330
FCF
102
}
330
FCF
100
AcDbPlotSettings
  1

  2
Microsoft XPS Document Writer
  4

  6

 40
0.0
 41
0.0
 42
0.0
 43
0.0
 44
0.0
 45
0.0
 46
0.0
 47
0.0
 48
0.0
 49
0.0
140
0.0
141
0.0
142
1.0
143
1.0
 70
  1712
 72
     0
 73
     0
 74
     0
  7

 75
     0
147
1.0
148
0.0
149
0.0
100
AcDbLayout
  1
Model
 70
     1
 71
     0
 10
0.0
 20
0.0
 11
12.0
 21
9.0
 12
0.0
 22
0.0
 32
0.0
 14
0.0
 24
0.0
 34
0.0
 15
0.0
 25
0.0
 35
0.0
146
0.0
 13
0.0
 23
0.0
 33
0.0
 16
1.0
 26
0.0
 36
0.0
 17
0.0
 27
1.0
 37
0.0
 76
     0
330
261
331
26B
  0
MATERIAL
  5
F83
102
{ACAD_XDICTIONARY
360
F84
102
}
102
{ACAD_REACTORS
330
F7A
102
}
330
F7A
100
AcDbMaterial
  1
ByBlock
 72
     0
 43
0.0208333333333333
 43
0.0
 43
0.0
 43
0.0
 43
0.0
 43
0.0208333333333333
 43
0.0
 43
0.0
 43
0.0
 43
0.0
 43
1.0
 43
0.0
 43
0.0
 43
0.0
 43
0.0
 43
1.0
 77
     0
 47
0.0208333333333333
 47
0.0
 47
0.0
 47
0.0
 47
0.0
 47
0.0208333333333333
 47
0.0
 47
0.0
 47
0.0
 47
0.0
 47
1.0
 47
0.0
 47
0.0
 47
0.0
 47
0.0
 47
1.0
171
     0
 49
0.0208333333333333
 49
0.0
 49
0.0
 49
0.0
 49
0.0
 49
0.0208333333333333
 49
0.0
 49
0.0
 49
0.0
 49
0.0
 49
1.0
 49
0.0
 49
0.0
 49
0.0
 49
0.0
 49
1.0
175
     0
142
0.0208333333333333
142
0.0
142
0.0
142
0.0
142
0.0
142
0.0208333333333333
142
0.0
142
0.0
142
0.0
142
0.0
142
1.0
142
0.0
142
0.0
142
0.0
142
0.0
142
1.0
179
     0
144
0.0208333333333333
144
0.0
144
0.0
144
0.0
144
0.0
144
0.0208333333333333
144
0.0
144
0.0
144
0.0
144
0.0
144
1.0
144
0.0
144
0.0
144
0.0
144
0.0
144
1.0
147
0.0208333333333333
147
0.0
147
0.0
147
0.0
147
0.0
147
0.0208333333333333
147
0.0
147
0.0
147
0.0
147
0.0
147
1.0
147
0.0
147
0.0
147
0.0
147
0.0
147
1.0
  0
MATERIAL
  5
F7B
102
{ACAD_XDICTIONARY
360
F7C
102
}
102
{ACAD_REACTORS
330
F7A
102
}
330
F7A
100
AcDbMaterial
  1
ByLayer
 72
     0
 43
0.0208333333333333
 43
0.0
 43
0.0
 43
0.0
 43
0.0
 43
0.0208333333333333
 43
0.0
 43
0.0
 43
0.0
 43
0.0
 43
1.0
 43
0.0
 43
0.0
 43
0.0
 43
0.0
 43
1.0
 77
     0
 47
0.0208333333333333
 47
0.0
 47
0.0
 47
0.0
 47
0.0
 47
0.0208333333333333
 47
0.0
 47
0.0
 47
0.0
 47
0.0
 47
1.0
 47
0.0
 47
0.0
 47
0.0
 47
0.0
 47
1.0
171
     0
 49
0.0208333333333333
 49
0.0
 49
0.0
 49
0.0
 49
0.0
 49
0.0208333333333333
 49
0.0
 49
0.0
 49
0.0
 49
0.0
 49
1.0
 49
0.0
 49
0.0
 49
0.0
 49
0.0
 49
1.0
175
     0
142
0.0208333333333333
142
0.0
142
0.0
142
0.0
142
0.0
142
0.0208333333333333
142
0.0
142
0.0
142
0.0
142
0.0
142
1.0
142
0.0
142
0.0
142
0.0
142
0.0
142
1.0
179
     0
144
0.0208333333333333
144
0.0
144
0.0
144
0.0
144
0.0
144
0.0208333333333333
144
0.0
144
0.0
144
0.0
144
0.0
144
1.0
144
0.0
144
0.0
144
0.0
144
0.0
144
1.0
147
0.0208333333333333
147
0.0
147
0.0
147
0.0
147
0.0
147
0.0208333333333333
147
0.0
147
0.0
147
0.0
147
0.0
147
1.0
147
0.0
147
0.0
147
0.0
147
0.0
147
1.0
  0
MATERIAL
  5
F8B
102
{ACAD_XDICTIONARY
360
F8C
102
}
102
{ACAD_REACTORS
330
F7A
102
}
330
F7A
100
AcDbMaterial
  1
Global
 72
     0
 43
0.0208333333333333
 43
0.0
 43
0.0
 43
0.0
 43
0.0
 43
0.0208333333333333
 43
0.0
 43
0.0
 43
0.0
 43
0.0
 43
1.0
 43
0.0
 43
0.0
 43
0.0
 43
0.0
 43
1.0
 77
     0
 47
0.0208333333333333
 47
0.0
 47
0.0
 47
0.0
 47
0.0
 47
0.0208333333333333
 47
0.0
 47
0.0
 47
0.0
 47
0.0
 47
1.0
 47
0.0
 47
0.0
 47
0.0
 47
0.0
 47
1.0
171
     0
 49
0.0208333333333333
 49
0.0
 49
0.0
 49
0.0
 49
0.0
 49
0.0208333333333333
 49
0.0
 49
0.0
 49
0.0
 49
0.0
 49
1.0
 49
0.0
 49
0.0
 49
0.0
 49
0.0
 49
1.0
175
     0
142
0.0208333333333333
142
0.0
142
0.0
142
0.0
142
0.0
142
0.0208333333333333
142
0.0
142
0.0
142
0.0
142
0.0
142
1.0
142
0.0
142
0.0
142
0.0
142
0.0
142
1.0
179
     0
144
0.0208333333333333
144
0.0
144
0.0
144
0.0
144
0.0
144
0.0208333333333333
144
0.0
144
0.0
144
0.0
144
0.0
144
1.0
144
0.0
144
0.0
144
0.0
144
0.0
144
1.0
147
0.0208333333333333
147
0.0
147
0.0
147
0.0
147
0.0
147
0.0208333333333333
147
0.0
147
0.0
147
0.0
147
0.0
147
1.0
147
0.0
147
0.0
147
0.0
147
0.0
147
1.0
  0
MLEADERSTYLE
  5
FCE
102
{ACAD_REACTORS
330
FCD
102
}
330
FCD
100
AcDbMLeaderStyle
170
     2
171
     1
172
     0
 90
        2
 40
0.0
 41
0.0
173
     1
 91
-1056964608
340
256
 92
       -2
290
     1
 42
0.09
291
     1
 43
0.36
  3
Standard
 44
0.18
300

342
253
174
     1
178
     6
175
     1
176
     0
 93
-1056964608
 45
0.18
292
     0
297
     0
 46
0.18
 94
-1056964608
 47
1.0
 49
1.0
140
1.0
293
     1
141
0.0
294
     1
177
     0
142
1.0
295
     0
296
     0
143
0.125
1001
ACAD_MLEADERVER
1070
     2
  0
MLINESTYLE
  5
FAA
102
{ACAD_REACTORS
330
16
102
}
330
16
100
AcDbMlineStyle
  2
STANDARD
 70
     0
  3

 62
   256
 51
90.0
 52
90.0
 71
     2
 49
0.5
 62
   256
  6
BYLAYER
 49
-0.5
 62
   256
  6
BYLAYER
  0
ACDBPLACEHOLDER
  5
19
102
{ACAD_REACTORS
330
18
102
}
330
18
  0
SCALE
  5
FAC
102
{ACAD_REACTORS
330
FAB
102
}
330
FAB
100
AcDbScale
 70
     0
300
1:1
140
1.0
141
1.0
290
     1
  0
SCALE
  5
FAD
102
{ACAD_REACTORS
330
FAB
102
}
330
FAB
100
AcDbScale
 70
     0
300
1:2
140
1.0
141
2.0
290
     0
  0
SCALE
  5
FAE
102
{ACAD_REACTORS
330
FAB
102
}
330
FAB
100
AcDbScale
 70
     0
300
1:4
140
1.0
141
4.0
290
     0
  0
SCALE
  5
FAF
102
{ACAD_REACTORS
330
FAB
102
}
330
FAB
100
AcDbScale
 70
     0
300
1:5
140
1.0
141
5.0
290
     0
  0
SCALE
  5
FB0
102
{ACAD_REACTORS
330
FAB
102
}
330
FAB
100
AcDbScale
 70
     0
300
1:8
140
1.0
141
8.0
290
     0
  0
SCALE
  5
FB1
102
{ACAD_REACTORS
330
FAB
102
}
330
FAB
100
AcDbScale
 70
     0
300
1:10
140
1.0
141
10.0
290
     0
  0
SCALE
  5
FB2
102
{ACAD_REACTORS
330
FAB
102
}
330
FAB
100
AcDbScale
 70
     0
300
1:16
140
1.0
141
16.0
290
     0
  0
SCALE
  5
FB3
102
{ACAD_REACTORS
330
FAB
102
}
330
FAB
100
AcDbScale
 70
     0
300
1:20
140
1.0
141
20.0
290
     0
  0
SCALE
  5
FB4
102
{ACAD_REACTORS
330
FAB
102
}
330
FAB
100
AcDbScale
 70
     0
300
1:30
140
1.0
141
30.0
290
     0
  0
SCALE
  5
FB5
102
{ACAD_REACTORS
330
FAB
102
}
330
FAB
100
AcDbScale
 70
     0
300
1:40
140
1.0
141
40.0
290
     0
  0
SCALE
  5
FB6
102
{ACAD_REACTORS
330
FAB
102
}
330
FAB
100
AcDbScale
 70
     0
300
1:50
140
1.0
141
50.0
290
     0
  0
SCALE
  5
FB7
102
{ACAD_REACTORS
330
FAB
102
}
330
FAB
100
AcDbScale
 70
     0
300
1:100
140
1.0
141
100.0
290
     0
  0
SCALE
  5
FB8
102
{ACAD_REACTORS
330
FAB
102
}
330
FAB
100
AcDbScale
 70
     0
300
2:1
140
2.0
141
1.0
290
     0
  0
SCALE
  5
FB9
102
{ACAD_REACTORS
330
FAB
102
}
330
FAB
100
AcDbScale
 70
     0
300
4:1
140
4.0
141
1.0
290
     0
  0
SCALE
  5
FBA
102
{ACAD_REACTORS
330
FAB
102
}
330
FAB
100
AcDbScale
 70
     0
300
8:1
140
8.0
141
1.0
290
     0
  0
SCALE
  5
FBB
102
{ACAD_REACTORS
330
FAB
102
}
330
FAB
100
AcDbScale
 70
     0
300
10:1
140
10.0
141
1.0
290
     0
  0
SCALE
  5
FBC
102
{ACAD_REACTORS
330
FAB
102
}
330
FAB
100
AcDbScale
 70
     0
300
100:1
140
100.0
141
1.0
290
     0
  0
SCALE
  5
FBD
102
{ACAD_REACTORS
330
FAB
102
}
330
FAB
100
AcDbScale
 70
     0
300
1/128" = 1'-0"
140
0.0078125
141
12.0
290
     0
  0
SCALE
  5
FBE
102
{ACAD_REACTORS
330
FAB
102
}
330
FAB
100
AcDbScale
 70
     0
300
1/64" = 1'-0"
140
0.015625
141
12.0
290
     0
  0
SCALE
  5
FBF
102
{ACAD_REACTORS
330
FAB
102
}
330
FAB
100
AcDbScale
 70
     0
300
1/32" = 1'-0"
140
0.03125
141
12.0
290
     0
  0
SCALE
  5
FC0
102
{ACAD_REACTORS
330
FAB
102
}
330
FAB
100
AcDbScale
 70
     0
300
1/16" = 1'-0"
140
0.0625
141
12.0
290
     0
  0
SCALE
  5
FC1
102
{ACAD_REACTORS
330
FAB
102
}
330
FAB
100
AcDbScale
 70
     0
300
3/32" = 1'-0"
140
0.09375
141
12.0
290
     0
  0
SCALE
  5
FC2
102
{ACAD_REACTORS
330
FAB
102
}
330
FAB
100
AcDbScale
 70
     0
300
1/8" = 1'-0"
140
0.125
141
12.0
290
     0
  0
SCALE
  5
FC3
102
{ACAD_REACTORS
330
FAB
102
}
330
FAB
100
AcDbScale
 70
     0
300
3/16" = 1'-0"
140
0.1875
141
12.0
290
     0
  0
SCALE
  5
FC4
102
{ACAD_REACTORS
330
FAB
102
}
330
FAB
100
AcDbScale
 70
     0
300
1/4" = 1'-0"
140
0.25
141
12.0
290
     0
  0
SCALE
  5
FC5
102
{ACAD_REACTORS
330
FAB
102
}
330
FAB
100
AcDbScale
 70
     0
300
3/8" = 1'-0"
140
0.375
141
12.0
290
     0
  0
SCALE
  5
FC6
102
{ACAD_REACTORS
330
FAB
102
}
330
FAB
100
AcDbScale
 70
     0
300
1/2" = 1'-0"
140
0.5
141
12.0
290
     0
  0
SCALE
  5
FC7
102
{ACAD_REACTORS
330
FAB
102
}
330
FAB
100
AcDbScale
 70
     0
300
3/4" = 1'-0"
140
0.75
141
12.0
290
     0
  0
SCALE
  5
FC8
102
{ACAD_REACTORS
330
FAB
102
}
330
FAB
100
AcDbScale
 70
     0
300
1" = 1'-0"
140
1.0
141
12.0
290
     0
  0
SCALE
  5
FC9
102
{ACAD_REACTORS
330
FAB
102
}
330
FAB
100
AcDbScale
 70
     0
300
1-1/2" = 1'-0"
140
1.5
141
12.0
290
     0
  0
SCALE
  5
FCA
102
{ACAD_REACTORS
330
FAB
102
}
330
FAB
100
AcDbScale
 70
     0
300
3" = 1'-0"
140
3.0
141
12.0
290
     0
  0
SCALE
  5
FCB
102
{ACAD_REACTORS
330
FAB
102
}
330
FAB
100
AcDbScale
 70
     0
300
6" = 1'-0"
140
6.0
141
12.0
290
     0
  0
SCALE
  5
FCC
102
{ACAD_REACTORS
330
FAB
102
}
330
FAB
100
AcDbScale
 70
     0
300
1'-0" = 1'-0"
140
12.0
141
12.0
290
     0
  0
TABLESTYLE
  5
FA9
102
{ACAD_XDICTIONARY
360
FF8
102
}
102
{ACAD_REACTORS
330
FA8
102
}
330
FA8
100
AcDbTableStyle
  3
Standard
 70
     0
 71
     0
 40
0.06
 41
0.06
280
     0
281
     0
  7
Standard
140
0.18
170
     2
 62
     0
 63
     7
283
     0
274
    -2
284
     1
 64
     0
275
    -2
285
     1
 65
     0
276
    -2
286
     1
 66
     0
277
    -2
287
     1
 67
     0
278
    -2
288
     1
 68
     0
279
    -2
289
     1
 69
     0
  7
Standard
140
0.25
170
     5
 62
     0
 63
     7
283
     0
274
    -2
284
     1
 64
     0
275
    -2
285
     1
 65
     0
276
    -2
286
     1
 66
     0
277
    -2
287
     1
 67
     0
278
    -2
288
     1
 68
     0
279
    -2
289
     1
 69
     0
  7
Standard
140
0.18
170
     5
 62
     0
 63
     7
283
     0
274
    -2
284
     1
 64
     0
275
    -2
285
     1
 65
     0
276
    -2
286
     1
 66
     0
277
    -2
287
     1
 67
     0
278
    -2
288
     1
 68
     0
279
    -2
289
     1
 69
     0
  0
VISUALSTYLE
  5
F99
102
{ACAD_XDICTIONARY
360
F10C07
102
}
102
{ACAD_REACTORS
330
F93
102
}
330
F93
100
AcDbVisualStyle
  2

 70
     4
 71
     0
 72
     2
 73
     0
 90
        0
 40
-0.6
 41
-30.0
 62
     5
 63
     7
 74
     1
 91
        4
 64
     7
 65
   257
 75
     1
175
     1
 42
1.0
 92
        0
 66
   257
 43
1.0
 76
     1
 77
     6
 78
     2
 67
     7
 79
     5
170
     0
171
     0
290
     0
174
     0
 93
        1
 44
0.0
173
     0
291
     0
 45
0.0
1001
ACAD
1000
AcDbSavedByObjectVersion
1070
     0
  0
VISUALSTYLE
  5
F9B
102
{ACAD_XDICTIONARY
360
F10C0B
102
}
102
{ACAD_REACTORS
330
F93
102
}
330
F93
100
AcDbVisualStyle
  2

 70
     6
 71
     1
 72
     2
 73
     2
 90
        0
 40
-0.6
 41
-30.0
 62
     5
 63
     7
 74
     2
 91
        2
 64
     7
 65
   257
 75
     2
175
     1
 42
179.0
 92
        0
 66
   257
 43
1.0
 76
     1
 77
     6
 78
     2
 67
     7
 79
     3
170
     0
171
     0
290
     0
174
     0
 93
        1
 44
0.0
173
     0
291
     0
 45
0.0
1001
ACAD
1000
AcDbSavedByObjectVersion
1070
     0
  0
VISUALSTYLE
  5
F9A
102
{ACAD_XDICTIONARY
360
F10C09
102
}
102
{ACAD_REACTORS
330
F93
102
}
330
F93
100
AcDbVisualStyle
  2

 70
     5
 71
     0
 72
     2
 73
     0
 90
        0
 40
-0.6
 41
-30.0
 62
     5
 63
     7
 74
     1
 91
        4
 64
     7
 65
   257
 75
     1
175
     1
 42
1.0
 92
        0
 66
   257
 43
1.0
 76
     1
 77
     6
 78
     2
 67
     7
 79
     5
170
     0
171
     0
290
     0
174
     0
 93
        1
 44
0.0
173
     0
291
     0
 45
0.0
1001
ACAD
1000
AcDbSavedByObjectVersion
1070
     0
  0
VISUALSTYLE
  5
F98
102
{ACAD_XDICTIONARY
360
F10C05
102
}
102
{ACAD_REACTORS
330
F93
102
}
330
F93
100
AcDbVisualStyle
  2

 70
     7
 71
     1
 72
     0
 73
     1
 90
        0
 40
-0.6
 41
-30.0
 62
     5
 63
     7
 74
     0
 91
        4
 64
     7
 65
   257
 75
     1
175
     1
 42
1.0
 92
        8
 66
     7
 43
1.0
 76
     1
 77
     6
 78
     2
 67
     7
 79
     5
170
     0
171
     0
290
     0
174
     0
 93
        1
 44
0.0
173
     0
291
     1
 45
0.0
1001
ACAD
1000
AcDbSavedByObjectVersion
1070
     0
  0
VISUALSTYLE
  5
F9F
102
{ACAD_XDICTIONARY
360
F10C13
102
}
102
{ACAD_REACTORS
330
F93
102
}
330
F93
100
AcDbVisualStyle
  2

 70
    12
 71
     2
 72
     2
 73
     0
 90
        0
 40
-0.6
 41
-30.0
 62
     5
 63
     7
 74
     1
 91
        4
 64
     7
 65
   257
 75
     1
175
     1
 42
1.0
 92
        8
 66
     7
 43
1.0
 76
     1
 77
     6
 78
     2
 67
     7
 79
     5
170
     0
171
     0
290
     0
174
     0
 93
        1
 44
50.0
173
     0
291
     1
 45
0.0
1001
ACAD
1000
AcDbSavedByObjectVersion
1070
     0
  0
VISUALSTYLE
  5
FA3
102
{ACAD_XDICTIONARY
360
F10C1B
102
}
102
{ACAD_REACTORS
330
F93
102
}
330
F93
100
AcDbVisualStyle
  2

 70
    16
 71
     2
 72
     2
 73
     3
 90
        0
 40
-0.6
 41
-30.0
 62
     5
 63
     8
 74
     1
 91
        4
 64
     7
 65
   257
 75
     1
175
     1
 42
1.0
 92
        8
 66
     8
 43
1.0
 76
     1
 77
     6
 78
     2
 67
     7
 79
     5
170
     0
171
     0
290
     0
174
     0
 93
        1
 44
0.0
173
     0
291
     1
 45
0.0
1001
ACAD
1000
AcDbSavedByObjectVersion
1070
     0
  0
VISUALSTYLE
  5
F9C
102
{ACAD_XDICTIONARY
360
F10C0D
102
}
102
{ACAD_REACTORS
330
F93
102
}
330
F93
100
AcDbVisualStyle
  2

 70
     9
 71
     3
 72
     2
 73
     0
 90
        0
 40
-0.6
 41
-30.0
 62
     5
 63
     7
 74
     2
 91
        2
 64
     7
 65
   257
 75
     1
175
     1
 42
179.0
 92
        8
 66
     7
 43
1.0
 76
     1
 77
     6
 78
     2
 67
     7
 79
     3
170
     0
171
     0
290
     0
174
     0
 93
        1
 44
0.0
173
     0
291
     0
 45
0.0
1001
ACAD
1000
AcDbSavedByObjectVersion
1070
     0
  0
VISUALSTYLE
  5
F9E
102
{ACAD_XDICTIONARY
360
F10C11
102
}
102
{ACAD_REACTORS
330
F93
102
}
330
F93
100
AcDbVisualStyle
  2

 70
    11
 71
     2
 72
     2
 73
     0
 90
        0
 40
-0.6
 41
-30.0
 62
     5
 63
     7
 74
     1
 91
        4
 64
     7
 65
   257
 75
     1
175
     1
 42
1.0
 92
        8
 66
     7
 43
1.0
 76
     1
 77
     6
 78
     2
 67
     7
 79
     5
170
     0
171
     0
290
     0
174
     0
 93
        1
 44
-50.0
173
     0
291
     1
 45
0.0
1001
ACAD
1000
AcDbSavedByObjectVersion
1070
     0
  0
VISUALSTYLE
  5
FA6
102
{ACAD_XDICTIONARY
360
F10C21
102
}
102
{ACAD_REACTORS
330
F93
102
}
330
F93
100
AcDbVisualStyle
  2

 70
    22
 71
     2
 72
     2
 73
     0
 90
        0
 40
-0.6
 41
-30.0
 62
     5
 63
     7
 74
     1
 91
        4
 64
     7
 65
   257
 75
     1
175
     1
 42
1.0
 92
        8
 66
     7
 43
1.0
 76
     1
 77
     6
 78
     2
 67
     7
 79
     5
170
     0
171
     0
290
     0
174
     0
 93
        1
 44
0.0
173
     0
291
     1
 45
0.0
1001
ACAD
1000
AcDbSavedByObjectVersion
1070
     0
  0
VISUALSTYLE
  5
FA2
102
{ACAD_XDICTIONARY
360
F10C19
102
}
102
{ACAD_REACTORS
330
F93
102
}
330
F93
100
AcDbVisualStyle
  2

 70
    15
 71
     2
 72
     2
 73
     0
 90
        0
 40
-0.6
 41
-30.0
 62
     5
 63
     7
 74
     1
 91
        4
 64
     7
 65
   257
 75
     1
175
     1
 42
1.0
 92
        8
 66
     7
 43
1.0
 76
     1
 77
     6
 78
     2
 67
     7
 79
     5
170
     0
171
     0
290
     0
174
     0
 93
        1
 44
0.0
173
     0
291
     1
 45
0.0
1001
ACAD
1000
AcDbSavedByObjectVersion
1070
     0
  0
VISUALSTYLE
  5
F94
102
{ACAD_XDICTIONARY
360
F10BFD
102
}
102
{ACAD_REACTORS
330
F93
102
}
330
F93
100
AcDbVisualStyle
  2

 70
     0
 71
     2
 72
     1
 73
     1
 90
        2
 40
-0.6
 41
30.0
 62
     5
 63
     7
 74
     0
 91
        4
 64
     7
 65
   257
 75
     1
175
     1
 42
1.0
 92
        8
 66
     7
 43
1.0
 76
     1
 77
     6
 78
     2
 67
     7
 79
     5
170
     0
171
     0
290
     0
174
     0
 93
       13
 44
0.0
173
     0
291
     1
 45
0.0
1001
ACAD
1000
AcDbSavedByObjectVersion
1070
     0
  0
VISUALSTYLE
  5
F95
102
{ACAD_XDICTIONARY
360
F10BFF
102
}
102
{ACAD_REACTORS
330
F93
102
}
330
F93
100
AcDbVisualStyle
  2

 70
     1
 71
     2
 72
     1
 73
     1
 90
        2
 40
-0.6
 41
30.0
 62
     5
 63
     7
 74
     1
 91
        4
 64
     7
 65
   257
 75
     1
175
     1
 42
1.0
 92
        0
 66
   257
 43
1.0
 76
     1
 77
     6
 78
     2
 67
     7
 79
     5
170
     0
171
     0
290
     0
174
     0
 93
       13
 44
0.0
173
     0
291
     1
 45
0.0
1001
ACAD
1000
AcDbSavedByObjectVersion
1070
     0
  0
VISUALSTYLE
  5
F96
102
{ACAD_XDICTIONARY
360
F10C01
102
}
102
{ACAD_REACTORS
330
F93
102
}
330
F93
100
AcDbVisualStyle
  2

 70
     2
 71
     2
 72
     2
 73
     1
 90
        2
 40
-0.6
 41
30.0
 62
     5
 63
     7
 74
     0
 91
        4
 64
     7
 65
   257
 75
     1
175
     1
 42
1.0
 92
        0
 66
     7
 43
1.0
 76
     1
 77
     6
 78
     2
 67
     7
 79
     5
170
     0
171
     0
290
     0
174
     0
 93
       13
 44
0.0
173
     0
291
     1
 45
0.0
1001
ACAD
1000
AcDbSavedByObjectVersion
1070
     0
  0
VISUALSTYLE
  5
F97
102
{ACAD_XDICTIONARY
360
F10C03
102
}
102
{ACAD_REACTORS
330
F93
102
}
330
F93
100
AcDbVisualStyle
  2

 70
     3
 71
     2
 72
     2
 73
     1
 90
        2
 40
-0.6
 41
30.0
 62
     5
 63
     7
 74
     1
 91
        4
 64
     7
 65
   257
 75
     1
175
     1
 42
1.0
 92
        0
 66
   257
 43
1.0
 76
     1
 77
     6
 78
     2
 67
     7
 79
     5
170
     0
171
     0
290
     0
174
     0
 93
       13
 44
0.0
173
     0
291
     1
 45
0.0
1001
ACAD
1000
AcDbSavedByObjectVersion
1070
     0
  0
VISUALSTYLE
  5
F10929
102
{ACAD_XDICTIONARY
360
F10C2A
102
}
102
{ACAD_REACTORS
330
F93
102
}
330
F93
100
AcDbVisualStyle
  2

 70
     6
 71
     1
 72
     2
 73
     2
 90
        0
 40
-0.6
 41
-30.0
 62
     5
 63
     7
 74
     2
 91
        2
 64
     7
 65
   257
 75
     2
175
     1
 42
40.0
 92
        0
 66
   257
 43
1.0
 76
     1
 77
     6
 78
     2
 67
     7
 79
     3
170
     0
171
     0
290
     0
174
     0
 93
        1
 44
0.0
173
     0
291
     0
 45
0.0
1001
ACAD
1000
AcDbSavedByObjectVersion
1070
     0
  0
VISUALSTYLE
  5
FA4
102
{ACAD_XDICTIONARY
360
F10C1D
102
}
102
{ACAD_REACTORS
330
F93
102
}
330
F93
100
AcDbVisualStyle
  2

 70
    20
 71
     2
 72
     2
 73
     0
 90
        0
 40
-0.6
 41
-30.0
 62
     5
 63
     7
 74
     1
 91
        4
 64
     7
 65
   257
 75
     1
175
     1
 42
1.0
 92
       10
 66
     7
 43
1.0
 76
     1
 77
     6
 78
     2
 67
     7
 79
     5
170
     0
171
     0
290
     0
174
     0
 93
        1
 44
0.0
173
     0
291
     1
 45
0.0
1001
ACAD
1000
AcDbSavedByObjectVersion
1070
     0
  0
VISUALSTYLE
  5
FA1
102
{ACAD_XDICTIONARY
360
F10C17
102
}
102
{ACAD_REACTORS
330
F93
102
}
330
F93
100
AcDbVisualStyle
  2

 70
    14
 71
     2
 72
     2
 73
     0
 90
        0
 40
-0.6
 41
-30.0
 62
     5
 63
     7
 74
     1
 91
        4
 64
     7
 65
   257
 75
     7
175
     7
 42
1.0
 92
        8
 66
     7
 43
1.0
 76
     1
 77
     6
 78
     2
 67
     7
 79
     5
170
     0
171
     0
290
     0
174
     0
 93
        1
 44
0.0
173
     0
291
     1
 45
0.0
1001
ACAD
1000
AcDbSavedByObjectVersion
1070
     0
  0
VISUALSTYLE
  5
FA5
102
{ACAD_XDICTIONARY
360
F10C1F
102
}
102
{ACAD_REACTORS
330
F93
102
}
330
F93
100
AcDbVisualStyle
  2

 70
    21
 71
     2
 72
     2
 73
     0
 90
        0
 40
-0.6
 41
-30.0
 62
     5
 63
     7
 74
     1
 91
        4
 64
     7
 65
   257
 75
     1
175
     1
 42
1.0
 92
        9
 66
     7
 43
1.0
 76
     1
 77
     6
 78
     2
 67
     7
 79
     5
170
     0
171
     0
290
     0
174
     0
 93
        1
 44
0.0
173
     0
291
     1
 45
0.0
1001
ACAD
1000
AcDbSavedByObjectVersion
1070
     0
  0
VISUALSTYLE
  5
F9D
102
{ACAD_XDICTIONARY
360
F10C0F
102
}
102
{ACAD_REACTORS
330
F93
102
}
330
F93
100
AcDbVisualStyle
  2

 70
     8
 71
     2
 72
     2
 73
     0
 90
        0
 40
-0.6
 41
-30.0
 62
     5
 63
     7
 74
     1
 91
        0
 64
     7
 65
   257
 75
     1
175
     1
 42
1.0
 92
        8
 66
     8
 43
1.0
 76
     1
 77
     6
 78
     2
 67
     7
 79
     5
170
     0
171
     0
290
     0
174
     0
 93
       13
 44
0.0
173
     0
291
     0
 45
0.0
1001
ACAD
1000
AcDbSavedByObjectVersion
1070
     0
  0
VISUALSTYLE
  5
F1092E
102
{ACAD_XDICTIONARY
360
F10C34
102
}
102
{ACAD_REACTORS
330
F93
102
}
330
F93
100
AcDbVisualStyle
  2

 70
    27
 71
     2
 72
     2
 73
     1
 90
        2
 40
-0.6
 41
30.0
 62
     5
 63
     7
 74
     0
 91
        4
 64
     7
 65
   257
 75
     1
175
     1
 42
1.0
 92
        8
 66
   257
 43
1.0
 76
     1
 77
     6
 78
     2
 67
     8
 79
     3
170
     0
171
     0
290
     0
174
     0
 93
        5
 44
0.0
173
     0
291
     0
 45
0.0
1001
ACAD
1000
AcDbSavedByObjectVersion
1070
     0
  0
VISUALSTYLE
  5
F1092D
102
{ACAD_XDICTIONARY
360
F10C32
102
}
102
{ACAD_REACTORS
330
F93
102
}
330
F93
100
AcDbVisualStyle
  2

 70
    26
 71
     2
 72
     2
 73
     1
 90
        2
 40
-0.6
 41
30.0
 62
     5
 63
     7
 74
     1
 91
       10
 64
     7
 65
   257
 75
     2
175
     1
 42
1.0
 92
        8
 66
   257
 43
1.0
 76
     1
 77
     6
 78
     2
 67
     7
 79
     3
170
     0
171
     0
290
     0
174
     0
 93
        5
 44
0.0
173
     0
291
     0
 45
0.0
1001
ACAD
1000
AcDbSavedByObjectVersion
1070
     0
  0
VISUALSTYLE
  5
F1092A
102
{ACAD_XDICTIONARY
360
F10C2C
102
}
102
{ACAD_REACTORS
330
F93
102
}
330
F93
100
AcDbVisualStyle
  2

 70
    23
 71
     2
 72
     2
 73
     3
 90
        0
 40
-0.6
 41
-30.0
 62
     5
 63
     7
 74
     2
 91
        2
 64
     7
 65
     7
 75
     1
175
     1
 42
40.0
 92
        8
 66
     7
 43
1.0
 76
     1
 77
     6
 78
     2
 67
     7
 79
     3
170
     0
171
     0
290
     0
174
     0
 93
        1
 44
0.0
173
     0
291
     0
 45
0.0
1001
ACAD
1000
AcDbSavedByObjectVersion
1070
     0
  0
VISUALSTYLE
  5
F1092B
102
{ACAD_XDICTIONARY
360
F10C2E
102
}
102
{ACAD_REACTORS
330
F93
102
}
330
F93
100
AcDbVisualStyle
  2

 70
    24
 71
     1
 72
     2
 73
     2
 90
        0
 40
-0.6
 41
-30.0
 62
     5
 63
     7
 74
     2
 91
        2
 64
     7
 65
     7
 75
     1
175
     1
 42
40.0
 92
       11
 66
     7
 43
1.0
 76
     1
 77
     6
 78
     2
 67
     7
 79
     6
170
     0
171
     0
290
     0
174
     0
 93
        1
 44
0.0
173
     0
291
     0
 45
0.0
1001
ACAD
1000
AcDbSavedByObjectVersion
1070
     0
  0
VISUALSTYLE
  5
FA0
102
{ACAD_XDICTIONARY
360
F10C15
102
}
102
{ACAD_REACTORS
330
F93
102
}
330
F93
100
AcDbVisualStyle
  2

 70
    13
 71
     2
 72
     2
 73
     0
 90
        0
 40
-0.6
 41
-30.0
 62
     5
 63
     7
 74
     1
 91
        4
 64
     7
 65
   257
 75
     1
175
     1
 42
1.0
 92
       12
 66
     7
 43
1.0
 76
     1
 77
     6
 78
     2
 67
     7
 79
     5
170
     0
171
     0
290
     0
174
     0
 93
        1
 44
0.0
173
     0
291
     1
 45
0.0
1001
ACAD
1000
AcDbSavedByObjectVersion
1070
     0
  0
VISUALSTYLE
  5
F10928
102
{ACAD_XDICTIONARY
360
F10C28
102
}
102
{ACAD_REACTORS
330
F93
102
}
330
F93
100
AcDbVisualStyle
  2

 70
     5
 71
     0
 72
     2
 73
     0
 90
        0
 40
-0.6
 41
-30.0
 62
     5
 63
     7
 74
     1
 91
        4
 64
     7
 65
   257
 75
     1
175
     1
 42
1.0
 92
        0
 66
   257
 43
1.0
 76
     1
 77
     6
 78
     2
 67
     7
 79
     3
170
     0
171
     0
290
     0
174
     0
 93
        1
 44
0.0
173
     0
291
     0
 45
0.0
1001
ACAD
1000
AcDbSavedByObjectVersion
1070
     0
  0
VISUALSTYLE
  5
F1092C
102
{ACAD_XDICTIONARY
360
F10C30
102
}
102
{ACAD_REACTORS
330
F93
102
}
330
F93
100
AcDbVisualStyle
  2

 70
    25
 71
     2
 72
     2
 73
     1
 90
        1
 40
0.5
 41
-30.0
 62
     5
 63
     7
 74
     1
 91
        0
 64
     7
 65
   257
 75
     1
175
     1
 42
1.0
 92
        8
 66
     7
 43
1.0
 76
     1
 77
     6
 78
     2
 67
     7
 79
     3
170
     0
171
     0
290
     0
174
     0
 93
       13
 44
0.0
173
     0
291
     0
 45
0.0
1001
ACAD
1000
AcDbSavedByObjectVersion
1070
     0
  0
DICTIONARYVAR
  5
F10B2D
102
{ACAD_REACTORS
330
F10B2A
102
}
330
F10B2A
100
DictionaryVariables
280
     0
  1
1:1
  0
DICTIONARYVAR
  5
F10B2C
102
{ACAD_REACTORS
330
F10B2A
102
}
330
F10B2A
100
DictionaryVariables
280
     0
  1
STANDARD
  0
DICTIONARYVAR
  5
F10B2B
102
{ACAD_REACTORS
330
F10B2A
102
}
330
F10B2A
100
DictionaryVariables
280
     0
  1
STANDARD
  0
DICTIONARYVAR
  5
F10B30
102
{ACAD_REACTORS
330
F10B2A
102
}
330
F10B2A
100
DictionaryVariables
280
     0
  1
1
  0
DICTIONARYVAR
  5
F10B2F
102
{ACAD_REACTORS
330
F10B2A
102
}
330
F10B2A
100
DictionaryVariables
280
     0
  1
0
  0
DICTIONARYVAR
  5
F10B2E
102
{ACAD_REACTORS
330
F10B2A
102
}
330
F10B2A
100
DictionaryVariables
280
     0
  1
127
  0
DICTIONARYVAR
  5
F10BEC
102
{ACAD_REACTORS
330
F10B2A
102
}
330
F10B2A
100
DictionaryVariables
280
     0
  1
2
  0
DICTIONARY
  5
F10988
102
{ACAD_REACTORS
330
F1097D
102
}
330
F1097D
100
AcDbDictionary
281
     1
  0
DICTIONARY
  5
F10C26
330
FD1
100
AcDbDictionary
280
     1
281
     1
  3
ACAD_XREC_ROUNDTRIP
360
F10C27
  0
DICTIONARY
  5
F10C24
330
FD0
100
AcDbDictionary
280
     1
281
     1
  3
ACAD_XREC_ROUNDTRIP
360
F10C25
  0
DICTIONARY
  5
F84
330
F83
100
AcDbDictionary
280
     1
281
     1
  3
ACAD_XREC_ROUNDTRIP
360
FFF
  3
BUMPTILE
360
F86
  3
DIFFUSETILE
360
F85
  3
OPACITYTILE
360
F89
  3
REFLECTIONTILE
360
F88
  3
REFRACTIONTILE
360
F8A
  3
SPECULARTILE
360
F87
  0
DICTIONARY
  5
F7C
330
F7B
100
AcDbDictionary
280
     1
281
     1
  3
ACAD_XREC_ROUNDTRIP
360
FFE
  3
BUMPTILE
360
F7E
  3
DIFFUSETILE
360
F7D
  3
OPACITYTILE
360
F81
  3
REFLECTIONTILE
360
F80
  3
REFRACTIONTILE
360
F82
  3
SPECULARTILE
360
F7F
  0
DICTIONARY
  5
F8C
330
F8B
100
AcDbDictionary
280
     1
281
     1
  3
ACAD_XREC_ROUNDTRIP
360
1000
  3
BUMPTILE
360
F8E
  3
DIFFUSETILE
360
F8D
  3
OPACITYTILE
360
F91
  3
REFLECTIONTILE
360
F90
  3
REFRACTIONTILE
360
F92
  3
SPECULARTILE
360
F8F
  0
DICTIONARY
  5
FF8
330
FA9
100
AcDbDictionary
280
     1
281
     1
  3
ACAD_ROUNDTRIP_2008_TABLESTYLE_CELLSTYLEMAP
360
F10BED
  3
ACAD_XREC_ROUNDTRIP
360
F10C23
  0
DICTIONARY
  5
F10C07
330
F99
100
AcDbDictionary
280
     1
281
     1
  3
ACAD_XREC_ROUNDTRIP
360
F10C08
  0
DICTIONARY
  5
F10C0B
330
F9B
100
AcDbDictionary
280
     1
281
     1
  3
ACAD_XREC_ROUNDTRIP
360
F10C0C
  0
DICTIONARY
  5
F10C09
330
F9A
100
AcDbDictionary
280
     1
281
     1
  3
ACAD_XREC_ROUNDTRIP
360
F10C0A
  0
DICTIONARY
  5
F10C05
330
F98
100
AcDbDictionary
280
     1
281
     1
  3
ACAD_XREC_ROUNDTRIP
360
F10C06
  0
DICTIONARY
  5
F10C13
330
F9F
100
AcDbDictionary
280
     1
281
     1
  3
ACAD_XREC_ROUNDTRIP
360
F10C14
  0
DICTIONARY
  5
F10C1B
330
FA3
100
AcDbDictionary
280
     1
281
     1
  3
ACAD_XREC_ROUNDTRIP
360
F10C1C
  0
DICTIONARY
  5
F10C0D
330
F9C
100
AcDbDictionary
280
     1
281
     1
  3
ACAD_XREC_ROUNDTRIP
360
F10C0E
  0
DICTIONARY
  5
F10C11
330
F9E
100
AcDbDictionary
280
     1
281
     1
  3
ACAD_XREC_ROUNDTRIP
360
F10C12
  0
DICTIONARY
  5
F10C21
330
FA6
100
AcDbDictionary
280
     1
281
     1
  3
ACAD_XREC_ROUNDTRIP
360
F10C22
  0
DICTIONARY
  5
F10C19
330
FA2
100
AcDbDictionary
280
     1
281
     1
  3
ACAD_XREC_ROUNDTRIP
360
F10C1A
  0
DICTIONARY
  5
F10BFD
330
F94
100
AcDbDictionary
280
     1
281
     1
  3
ACAD_XREC_ROUNDTRIP
360
F10BFE
  0
DICTIONARY
  5
F10BFF
330
F95
100
AcDbDictionary
280
     1
281
     1
  3
ACAD_XREC_ROUNDTRIP
360
F10C00
  0
DICTIONARY
  5
F10C01
330
F96
100
AcDbDictionary
280
     1
281
     1
  3
ACAD_XREC_ROUNDTRIP
360
F10C02
  0
DICTIONARY
  5
F10C03
330
F97
100
AcDbDictionary
280
     1
281
     1
  3
ACAD_XREC_ROUNDTRIP
360
F10C04
  0
DICTIONARY
  5
F10C2A
330
F10929
100
AcDbDictionary
280
     1
281
     1
  3
ACAD_XREC_ROUNDTRIP
360
F10C2B
  0
DICTIONARY
  5
F10C1D
330
FA4
100
AcDbDictionary
280
     1
281
     1
  3
ACAD_XREC_ROUNDTRIP
360
F10C1E
  0
DICTIONARY
  5
F10C17
330
FA1
100
AcDbDictionary
280
     1
281
     1
  3
ACAD_XREC_ROUNDTRIP
360
F10C18
  0
DICTIONARY
  5
F10C1F
330
FA5
100
AcDbDictionary
280
     1
281
     1
  3
ACAD_XREC_ROUNDTRIP
360
F10C20
  0
DICTIONARY
  5
F10C0F
330
F9D
100
AcDbDictionary
280
     1
281
     1
  3
ACAD_XREC_ROUNDTRIP
360
F10C10
  0
DICTIONARY
  5
F10C34
330
F1092E
100
AcDbDictionary
280
     1
281
     1
  3
ACAD_XREC_ROUNDTRIP
360
F10C35
  0
DICTIONARY
  5
F10C32
330
F1092D
100
AcDbDictionary
280
     1
281
     1
  3
ACAD_XREC_ROUNDTRIP
360
F10C33
  0
DICTIONARY
  5
F10C2C
330
F1092A
100
AcDbDictionary
280
     1
281
     1
  3
ACAD_XREC_ROUNDTRIP
360
F10C2D
  0
DICTIONARY
  5
F10C2E
330
F1092B
100
AcDbDictionary
280
     1
281
     1
  3
ACAD_XREC_ROUNDTRIP
360
F10C2F
  0
DICTIONARY
  5
F10C15
330
FA0
100
AcDbDictionary
280
     1
281
     1
  3
ACAD_XREC_ROUNDTRIP
360
F10C16
  0
DICTIONARY
  5
F10C28
330
F10928
100
AcDbDictionary
280
     1
281
     1
  3
ACAD_XREC_ROUNDTRIP
360
F10C29
  0
DICTIONARY
  5
F10C30
330
F1092C
100
AcDbDictionary
280
     1
281
     1
  3
ACAD_XREC_ROUNDTRIP
360
F10C31
  0
XRECORD
  5
F10C27
102
{ACAD_REACTORS
330
F10C26
102
}
330
F10C26
100
AcDbXrecord
280
     1
102
SHADEPLOT
 70
     0
102
SHADEPLOTRESLEVEL
 70
     2
102
SHADEPLOTCUSTOMDPI
 70
   300
  0
XRECORD
  5
F10C25
102
{ACAD_REACTORS
330
F10C24
102
}
330
F10C24
100
AcDbXrecord
280
     1
102
SHADEPLOT
 70
     0
102
SHADEPLOTRESLEVEL
 70
     2
102
SHADEPLOTCUSTOMDPI
 70
   300
  0
XRECORD
  5
FFF
102
{ACAD_REACTORS
330
F84
102
}
330
F84
100
AcDbXrecord
280
     1
102
MATERIAL
148
0.0
149
0.0
149
0.0
 93
        0
 94
      127
282
     0
 72
     0
 77
     0
171
     0
175
     0
179
     0
273
     0
  0
XRECORD
  5
F86
102
{ACAD_REACTORS
330
F84
102
}
330
F84
100
AcDbXrecord
280
     1
270
     1
271
     1
  0
XRECORD
  5
F85
102
{ACAD_REACTORS
330
F84
102
}
330
F84
100
AcDbXrecord
280
     1
270
     1
271
     1
  0
XRECORD
  5
F89
102
{ACAD_REACTORS
330
F84
102
}
330
F84
100
AcDbXrecord
280
     1
270
     1
271
     1
  0
XRECORD
  5
F88
102
{ACAD_REACTORS
330
F84
102
}
330
F84
100
AcDbXrecord
280
     1
270
     1
271
     1
  0
XRECORD
  5
F8A
102
{ACAD_REACTORS
330
F84
102
}
330
F84
100
AcDbXrecord
280
     1
270
     1
271
     1
  0
XRECORD
  5
F87
102
{ACAD_REACTORS
330
F84
102
}
330
F84
100
AcDbXrecord
280
     1
270
     1
271
     1
  0
XRECORD
  5
FFE
102
{ACAD_REACTORS
330
F7C
102
}
330
F7C
100
AcDbXrecord
280
     1
102
MATERIAL
148
0.0
149
0.0
149
0.0
 93
        0
 94
      127
282
     0
 72
     0
 77
     0
171
     0
175
     0
179
     0
273
     0
  0
XRECORD
  5
F7E
102
{ACAD_REACTORS
330
F7C
102
}
330
F7C
100
AcDbXrecord
280
     1
270
     1
271
     1
  0
XRECORD
  5
F7D
102
{ACAD_REACTORS
330
F7C
102
}
330
F7C
100
AcDbXrecord
280
     1
270
     1
271
     1
  0
XRECORD
  5
F81
102
{ACAD_REACTORS
330
F7C
102
}
330
F7C
100
AcDbXrecord
280
     1
270
     1
271
     1
  0
XRECORD
  5
F80
102
{ACAD_REACTORS
330
F7C
102
}
330
F7C
100
AcDbXrecord
280
     1
270
     1
271
     1
  0
XRECORD
  5
F82
102
{ACAD_REACTORS
330
F7C
102
}
330
F7C
100
AcDbXrecord
280
     1
270
     1
271
     1
  0
XRECORD
  5
F7F
102
{ACAD_REACTORS
330
F7C
102
}
330
F7C
100
AcDbXrecord
280
     1
270
     1
271
     1
  0
XRECORD
  5
1000
102
{ACAD_REACTORS
330
F8C
102
}
330
F8C
100
AcDbXrecord
280
     1
102
MATERIAL
148
0.0
149
0.0
149
0.0
 93
        0
 94
      127
282
     0
 72
     0
 77
     0
171
     0
175
     0
179
     0
273
     0
  0
XRECORD
  5
F8E
102
{ACAD_REACTORS
330
F8C
102
}
330
F8C
100
AcDbXrecord
280
     1
270
     1
271
     1
  0
XRECORD
  5
F8D
102
{ACAD_REACTORS
330
F8C
102
}
330
F8C
100
AcDbXrecord
280
     1
270
     1
271
     1
  0
XRECORD
  5
F91
102
{ACAD_REACTORS
330
F8C
102
}
330
F8C
100
AcDbXrecord
280
     1
270
     1
271
     1
  0
XRECORD
  5
F90
102
{ACAD_REACTORS
330
F8C
102
}
330
F8C
100
AcDbXrecord
280
     1
270
     1
271
     1
  0
XRECORD
  5
F92
102
{ACAD_REACTORS
330
F8C
102
}
330
F8C
100
AcDbXrecord
280
     1
270
     1
271
     1
  0
XRECORD
  5
F8F
102
{ACAD_REACTORS
330
F8C
102
}
330
F8C
100
AcDbXrecord
280
     1
270
     1
271
     1
  0
CELLSTYLEMAP
  5
F10BED
102
{ACAD_REACTORS
330
FF8
102
}
330
FF8
100
AcDbCellStyleMap
 90
        3
300
CELLSTYLE
  1
TABLEFORMAT_BEGIN
 90
        5
170
     1
 91
        0
 92
    32768
 62
   257
 93
        1
300
CONTENTFORMAT
  1
CONTENTFORMAT_BEGIN
 90
        0
 91
        0
 92
      512
 93
        0
300

 40
0.0
140
1.0
 94
        5
 62
     0
340
253
144
0.25
309
CONTENTFORMAT_END
171
     1
301
MARGIN
  1
CELLMARGIN_BEGIN
 40
0.06
 40
0.06
 40
0.06
 40
0.06
 40
0.18
 40
0.18
309
CELLMARGIN_END
 94
        6
 95
        1
302
GRIDFORMAT
  1
GRIDFORMAT_BEGIN
 90
        0
 91
        1
 62
     0
 92
       -2
340
0
 93
        0
 40
0.045
309
GRIDFORMAT_END
 95
        2
302
GRIDFORMAT
  1
GRIDFORMAT_BEGIN
 90
        0
 91
        1
 62
     0
 92
       -2
340
0
 93
        0
 40
0.045
309
GRIDFORMAT_END
 95
        4
302
GRIDFORMAT
  1
GRIDFORMAT_BEGIN
 90
        0
 91
        1
 62
     0
 92
       -2
340
0
 93
        0
 40
0.045
309
GRIDFORMAT_END
 95
        8
302
GRIDFORMAT
  1
GRIDFORMAT_BEGIN
 90
        0
 91
        1
 62
     0
 92
       -2
340
0
 93
        0
 40
0.045
309
GRIDFORMAT_END
 95
       16
302
GRIDFORMAT
  1
GRIDFORMAT_BEGIN
 90
        0
 91
        1
 62
     0
 92
       -2
340
0
 93
        0
 40
0.045
309
GRIDFORMAT_END
 95
       32
302
GRIDFORMAT
  1
GRIDFORMAT_BEGIN
 90
        0
 91
        1
 62
     0
 92
       -2
340
0
 93
        0
 40
0.045
309
GRIDFORMAT_END
309
TABLEFORMAT_END
  1
CELLSTYLE_BEGIN
 90
        1
 91
        1
300
_TITLE
309
CELLSTYLE_END
300
CELLSTYLE
  1
TABLEFORMAT_BEGIN
 90
        5
170
     1
 91
        0
 92
        0
 62
   257
 93
        1
300
CONTENTFORMAT
  1
CONTENTFORMAT_BEGIN
 90
        0
 91
        0
 92
      512
 93
        0
300

 40
0.0
140
1.0
 94
        5
 62
     0
340
253
144
0.18
309
CONTENTFORMAT_END
171
     1
301
MARGIN
  1
CELLMARGIN_BEGIN
 40
0.06
 40
0.06
 40
0.06
 40
0.06
 40
0.18
 40
0.18
309
CELLMARGIN_END
 94
        6
 95
        1
302
GRIDFORMAT
  1
GRIDFORMAT_BEGIN
 90
        0
 91
        1
 62
     0
 92
       -2
340
0
 93
        0
 40
0.045
309
GRIDFORMAT_END
 95
        2
302
GRIDFORMAT
  1
GRIDFORMAT_BEGIN
 90
        0
 91
        1
 62
     0
 92
       -2
340
0
 93
        0
 40
0.045
309
GRIDFORMAT_END
 95
        4
302
GRIDFORMAT
  1
GRIDFORMAT_BEGIN
 90
        0
 91
        1
 62
     0
 92
       -2
340
0
 93
        0
 40
0.045
309
GRIDFORMAT_END
 95
        8
302
GRIDFORMAT
  1
GRIDFORMAT_BEGIN
 90
        0
 91
        1
 62
     0
 92
       -2
340
0
 93
        0
 40
0.045
309
GRIDFORMAT_END
 95
       16
302
GRIDFORMAT
  1
GRIDFORMAT_BEGIN
 90
        0
 91
        1
 62
     0
 92
       -2
340
0
 93
        0
 40
0.045
309
GRIDFORMAT_END
 95
       32
302
GRIDFORMAT
  1
GRIDFORMAT_BEGIN
 90
        0
 91
        1
 62
     0
 92
       -2
340
0
 93
        0
 40
0.045
309
GRIDFORMAT_END
309
TABLEFORMAT_END
  1
CELLSTYLE_BEGIN
 90
        2
 91
        1
300
_HEADER
309
CELLSTYLE_END
300
CELLSTYLE
  1
TABLEFORMAT_BEGIN
 90
        5
170
     1
 91
        0
 92
        0
 62
   257
 93
        1
300
CONTENTFORMAT
  1
CONTENTFORMAT_BEGIN
 90
        0
 91
        0
 92
      512
 93
        0
300

 40
0.0
140
1.0
 94
        2
 62
     0
340
253
144
0.18
309
CONTENTFORMAT_END
171
     1
301
MARGIN
  1
CELLMARGIN_BEGIN
 40
0.06
 40
0.06
 40
0.06
 40
0.06
 40
0.18
 40
0.18
309
CELLMARGIN_END
 94
        6
 95
        1
302
GRIDFORMAT
  1
GRIDFORMAT_BEGIN
 90
        0
 91
        1
 62
     0
 92
       -2
340
0
 93
        0
 40
0.045
309
GRIDFORMAT_END
 95
        2
302
GRIDFORMAT
  1
GRIDFORMAT_BEGIN
 90
        0
 91
        1
 62
     0
 92
       -2
340
0
 93
        0
 40
0.045
309
GRIDFORMAT_END
 95
        4
302
GRIDFORMAT
  1
GRIDFORMAT_BEGIN
 90
        0
 91
        1
 62
     0
 92
       -2
340
0
 93
        0
 40
0.045
309
GRIDFORMAT_END
 95
        8
302
GRIDFORMAT
  1
GRIDFORMAT_BEGIN
 90
        0
 91
        1
 62
     0
 92
       -2
340
0
 93
        0
 40
0.045
309
GRIDFORMAT_END
 95
       16
302
GRIDFORMAT
  1
GRIDFORMAT_BEGIN
 90
        0
 91
        1
 62
     0
 92
       -2
340
0
 93
        0
 40
0.045
309
GRIDFORMAT_END
 95
       32
302
GRIDFORMAT
  1
GRIDFORMAT_BEGIN
 90
        0
 91
        1
 62
     0
 92
       -2
340
0
 93
        0
 40
0.045
309
GRIDFORMAT_END
309
TABLEFORMAT_END
  1
CELLSTYLE_BEGIN
 90
        3
 91
        2
300
_DATA
309
CELLSTYLE_END
  0
XRECORD
  5
F10C23
102
{ACAD_REACTORS
330
FF8
102
}
330
FF8
100
AcDbXrecord
280
     1
102
ACAD_ROUNDTRIP_PRE2007_TABLESTYLE
 90
      512
 91
        0
  1

 92
      512
 93
        0
  2

 94
      512
 95
        0
  3

  0
XRECORD
  5
F10C08
102
{ACAD_REACTORS
330
F10C07
102
}
330
F10C07
100
AcDbXrecord
280
     1
102
RTVSPropertyOp0
 70
     1
102
RTVSPropertyOp1
 70
     1
102
RTVSPropertyOp2
 70
     1
102
RTVSPropertyOp3
 70
     1
102
RTVSPropertyOp4
 70
     1
102
RTVSPropertyOp5
 70
     1
102
RTVSPropertyOp6
 70
     1
102
RTVSPropertyOp7
 70
     1
102
RTVSPropertyOp8
 70
     1
102
RTVSPropertyOp9
 70
     1
102
RTVSPropertyOp10
 70
     1
102
RTVSPropertyOp11
 70
     1
102
RTVSPropertyOp12
 70
     1
102
RTVSPropertyOp13
 70
     1
102
RTVSPropertyOp14
 70
     1
102
RTVSPropertyOp15
 70
     1
102
RTVSPropertyOp16
 70
     1
102
RTVSPropertyOp17
 70
     1
102
RTVSPropertyOp18
 70
     1
102
RTVSPropertyOp19
 70
     1
102
RTVSPropertyOp20
 70
     1
102
RTVSPropertyOp21
 70
     1
102
RTVSPropertyOp22
 70
     1
102
RTVSPropertyOp23
 70
     1
102
RTVSPropertyOp24
 70
     1
102
RTVSPropertyOp25
 70
     1
102
RTVSPropertyOp26
 70
     1
102
RTVSPropertyOp27
 70
     1
102
RTVSPropertyOp28
 70
     1
102
RTVSPropertyOp29
 70
     1
102
RTVSPropertyOp30
 70
     1
102
RTVSPropertyOp31
 70
     1
102
RTVSPropertyOp32
 70
     1
  0
XRECORD
  5
F10C0C
102
{ACAD_REACTORS
330
F10C0B
102
}
330
F10C0B
100
AcDbXrecord
280
     1
102
RTVSPropertyOp0
 70
     1
102
RTVSPropertyOp1
 70
     1
102
RTVSPropertyOp2
 70
     1
102
RTVSPropertyOp3
 70
     1
102
RTVSPropertyOp4
 70
     1
102
RTVSPropertyOp5
 70
     1
102
RTVSPropertyOp6
 70
     1
102
RTVSPropertyOp7
 70
     1
102
RTVSPropertyOp8
 70
     1
102
RTVSPropertyOp9
 70
     1
102
RTVSPropertyOp10
 70
     1
102
RTVSPropertyOp11
 70
     1
102
RTVSPropertyOp12
 70
     1
102
RTVSPropertyOp13
 70
     1
102
RTVSPropertyOp14
 70
     1
102
RTVSPropertyOp15
 70
     1
102
RTVSPropertyOp16
 70
     1
102
RTVSPropertyOp17
 70
     1
102
RTVSPropertyOp18
 70
     1
102
RTVSPropertyOp19
 70
     1
102
RTVSPropertyOp20
 70
     1
102
RTVSPropertyOp21
 70
     1
102
RTVSPropertyOp22
 70
     1
102
RTVSPropertyOp23
 70
     1
102
RTVSPropertyOp24
 70
     1
102
RTVSPropertyOp25
 70
     1
102
RTVSPropertyOp26
 70
     1
102
RTVSPropertyOp27
 70
     1
102
RTVSPropertyOp28
 70
     1
102
RTVSPropertyOp29
 70
     1
102
RTVSPropertyOp30
 70
     1
102
RTVSPropertyOp31
 70
     1
102
RTVSPropertyOp32
 70
     1
  0
XRECORD
  5
F10C0A
102
{ACAD_REACTORS
330
F10C09
102
}
330
F10C09
100
AcDbXrecord
280
     1
102
RTVSPropertyOp0
 70
     1
102
RTVSPropertyOp1
 70
     1
102
RTVSPropertyOp2
 70
     1
102
RTVSPropertyOp3
 70
     1
102
RTVSPropertyOp4
 70
     1
102
RTVSPropertyOp5
 70
     1
102
RTVSPropertyOp6
 70
     1
102
RTVSPropertyOp7
 70
     1
102
RTVSPropertyOp8
 70
     1
102
RTVSPropertyOp9
 70
     1
102
RTVSPropertyOp10
 70
     1
102
RTVSPropertyOp11
 70
     1
102
RTVSPropertyOp12
 70
     1
102
RTVSPropertyOp13
 70
     1
102
RTVSPropertyOp14
 70
     1
102
RTVSPropertyOp15
 70
     1
102
RTVSPropertyOp16
 70
     1
102
RTVSPropertyOp17
 70
     1
102
RTVSPropertyOp18
 70
     1
102
RTVSPropertyOp19
 70
     1
102
RTVSPropertyOp20
 70
     1
102
RTVSPropertyOp21
 70
     1
102
RTVSPropertyOp22
 70
     1
102
RTVSPropertyOp23
 70
     1
102
RTVSPropertyOp24
 70
     1
102
RTVSPropertyOp25
 70
     1
102
RTVSPropertyOp26
 70
     1
102
RTVSPropertyOp27
 70
     1
102
RTVSPropertyOp28
 70
     1
102
RTVSPropertyOp29
 70
     1
102
RTVSPropertyOp30
 70
     1
102
RTVSPropertyOp31
 70
     1
102
RTVSPropertyOp32
 70
     1
  0
XRECORD
  5
F10C06
102
{ACAD_REACTORS
330
F10C05
102
}
330
F10C05
100
AcDbXrecord
280
     1
102
RTVSPropertyOp0
 70
     1
102
RTVSPropertyOp1
 70
     1
102
RTVSPropertyOp2
 70
     1
102
RTVSPropertyOp3
 70
     1
102
RTVSPropertyOp4
 70
     1
102
RTVSPropertyOp5
 70
     1
102
RTVSPropertyOp6
 70
     1
102
RTVSPropertyOp7
 70
     1
102
RTVSPropertyOp8
 70
     1
102
RTVSPropertyOp9
 70
     1
102
RTVSPropertyOp10
 70
     1
102
RTVSPropertyOp11
 70
     1
102
RTVSPropertyOp12
 70
     1
102
RTVSPropertyOp13
 70
     1
102
RTVSPropertyOp14
 70
     1
102
RTVSPropertyOp15
 70
     1
102
RTVSPropertyOp16
 70
     1
102
RTVSPropertyOp17
 70
     1
102
RTVSPropertyOp18
 70
     1
102
RTVSPropertyOp19
 70
     1
102
RTVSPropertyOp20
 70
     1
102
RTVSPropertyOp21
 70
     1
102
RTVSPropertyOp22
 70
     1
102
RTVSPropertyOp23
 70
     1
102
RTVSPropertyOp24
 70
     1
102
RTVSPropertyOp25
 70
     1
102
RTVSPropertyOp26
 70
     1
102
RTVSPropertyOp27
 70
     1
102
RTVSPropertyOp28
 70
     1
102
RTVSPropertyOp29
 70
     1
102
RTVSPropertyOp30
 70
     1
102
RTVSPropertyOp31
 70
     1
102
RTVSPropertyOp32
 70
     1
  0
XRECORD
  5
F10C14
102
{ACAD_REACTORS
330
F10C13
102
}
330
F10C13
100
AcDbXrecord
280
     1
102
RTVSPropertyOp0
 70
     1
102
RTVSPropertyOp1
 70
     1
102
RTVSPropertyOp2
 70
     1
102
RTVSPropertyOp3
 70
     1
102
RTVSPropertyOp4
 70
     1
102
RTVSPropertyOp5
 70
     1
102
RTVSPropertyOp6
 70
     1
102
RTVSPropertyOp7
 70
     1
102
RTVSPropertyOp8
 70
     1
102
RTVSPropertyOp9
 70
     1
102
RTVSPropertyOp10
 70
     1
102
RTVSPropertyOp11
 70
     1
102
RTVSPropertyOp12
 70
     1
102
RTVSPropertyOp13
 70
     1
102
RTVSPropertyOp14
 70
     1
102
RTVSPropertyOp15
 70
     1
102
RTVSPropertyOp16
 70
     1
102
RTVSPropertyOp17
 70
     1
102
RTVSPropertyOp18
 70
     1
102
RTVSPropertyOp19
 70
     1
102
RTVSPropertyOp20
 70
     1
102
RTVSPropertyOp21
 70
     1
102
RTVSPropertyOp22
 70
     1
102
RTVSPropertyOp23
 70
     1
102
RTVSPropertyOp24
 70
     1
102
RTVSPropertyOp25
 70
     1
102
RTVSPropertyOp26
 70
     1
102
RTVSPropertyOp27
 70
     1
102
RTVSPropertyOp28
 70
     1
102
RTVSPropertyOp29
 70
     1
102
RTVSPropertyOp30
 70
     1
102
RTVSPropertyOp31
 70
     1
102
RTVSPropertyOp32
 70
     1
  0
XRECORD
  5
F10C1C
102
{ACAD_REACTORS
330
F10C1B
102
}
330
F10C1B
100
AcDbXrecord
280
     1
102
RTVSPropertyOp0
 70
     1
102
RTVSPropertyOp1
 70
     1
102
RTVSPropertyOp2
 70
     1
102
RTVSPropertyOp3
 70
     1
102
RTVSPropertyOp4
 70
     1
102
RTVSPropertyOp5
 70
     1
102
RTVSPropertyOp6
 70
     1
102
RTVSPropertyOp7
 70
     1
102
RTVSPropertyOp8
 70
     1
102
RTVSPropertyOp9
 70
     1
102
RTVSPropertyOp10
 70
     1
102
RTVSPropertyOp11
 70
     1
102
RTVSPropertyOp12
 70
     1
102
RTVSPropertyOp13
 70
     1
102
RTVSPropertyOp14
 70
     1
102
RTVSPropertyOp15
 70
     1
102
RTVSPropertyOp16
 70
     1
102
RTVSPropertyOp17
 70
     1
102
RTVSPropertyOp18
 70
     1
102
RTVSPropertyOp19
 70
     1
102
RTVSPropertyOp20
 70
     1
102
RTVSPropertyOp21
 70
     1
102
RTVSPropertyOp22
 70
     1
102
RTVSPropertyOp23
 70
     1
102
RTVSPropertyOp24
 70
     1
102
RTVSPropertyOp25
 70
     1
102
RTVSPropertyOp26
 70
     1
102
RTVSPropertyOp27
 70
     1
102
RTVSPropertyOp28
 70
     1
102
RTVSPropertyOp29
 70
     1
102
RTVSPropertyOp30
 70
     1
102
RTVSPropertyOp31
 70
     1
102
RTVSPropertyOp32
 70
     1
  0
XRECORD
  5
F10C0E
102
{ACAD_REACTORS
330
F10C0D
102
}
330
F10C0D
100
AcDbXrecord
280
     1
102
RTVSPropertyOp0
 70
     1
102
RTVSPropertyOp1
 70
     1
102
RTVSPropertyOp2
 70
     1
102
RTVSPropertyOp3
 70
     1
102
RTVSPropertyOp4
 70
     1
102
RTVSPropertyOp5
 70
     1
102
RTVSPropertyOp6
 70
     1
102
RTVSPropertyOp7
 70
     1
102
RTVSPropertyOp8
 70
     1
102
RTVSPropertyOp9
 70
     1
102
RTVSPropertyOp10
 70
     1
102
RTVSPropertyOp11
 70
     1
102
RTVSPropertyOp12
 70
     1
102
RTVSPropertyOp13
 70
     1
102
RTVSPropertyOp14
 70
     1
102
RTVSPropertyOp15
 70
     1
102
RTVSPropertyOp16
 70
     1
102
RTVSPropertyOp17
 70
     1
102
RTVSPropertyOp18
 70
     1
102
RTVSPropertyOp19
 70
     1
102
RTVSPropertyOp20
 70
     1
102
RTVSPropertyOp21
 70
     1
102
RTVSPropertyOp22
 70
     1
102
RTVSPropertyOp23
 70
     1
102
RTVSPropertyOp24
 70
     1
102
RTVSPropertyOp25
 70
     1
102
RTVSPropertyOp26
 70
     1
102
RTVSPropertyOp27
 70
     1
102
RTVSPropertyOp28
 70
     1
102
RTVSPropertyOp29
 70
     1
102
RTVSPropertyOp30
 70
     1
102
RTVSPropertyOp31
 70
     1
102
RTVSPropertyOp32
 70
     1
  0
XRECORD
  5
F10C12
102
{ACAD_REACTORS
330
F10C11
102
}
330
F10C11
100
AcDbXrecord
280
     1
102
RTVSPropertyOp0
 70
     1
102
RTVSPropertyOp1
 70
     1
102
RTVSPropertyOp2
 70
     1
102
RTVSPropertyOp3
 70
     1
102
RTVSPropertyOp4
 70
     1
102
RTVSPropertyOp5
 70
     1
102
RTVSPropertyOp6
 70
     1
102
RTVSPropertyOp7
 70
     1
102
RTVSPropertyOp8
 70
     1
102
RTVSPropertyOp9
 70
     1
102
RTVSPropertyOp10
 70
     1
102
RTVSPropertyOp11
 70
     1
102
RTVSPropertyOp12
 70
     1
102
RTVSPropertyOp13
 70
     1
102
RTVSPropertyOp14
 70
     1
102
RTVSPropertyOp15
 70
     1
102
RTVSPropertyOp16
 70
     1
102
RTVSPropertyOp17
 70
     1
102
RTVSPropertyOp18
 70
     1
102
RTVSPropertyOp19
 70
     1
102
RTVSPropertyOp20
 70
     1
102
RTVSPropertyOp21
 70
     1
102
RTVSPropertyOp22
 70
     1
102
RTVSPropertyOp23
 70
     1
102
RTVSPropertyOp24
 70
     1
102
RTVSPropertyOp25
 70
     1
102
RTVSPropertyOp26
 70
     1
102
RTVSPropertyOp27
 70
     1
102
RTVSPropertyOp28
 70
     1
102
RTVSPropertyOp29
 70
     1
102
RTVSPropertyOp30
 70
     1
102
RTVSPropertyOp31
 70
     1
102
RTVSPropertyOp32
 70
     1
  0
XRECORD
  5
F10C22
102
{ACAD_REACTORS
330
F10C21
102
}
330
F10C21
100
AcDbXrecord
280
     1
102
RTVSPropertyOp0
 70
     0
102
RTVSPropertyOp1
 70
     0
102
RTVSPropertyOp2
 70
     0
102
RTVSPropertyOp3
 70
     0
102
RTVSPropertyOp4
 70
     0
102
RTVSPropertyOp5
 70
     0
102
RTVSPropertyOp6
 70
     0
102
RTVSPropertyOp7
 70
     0
102
RTVSPropertyOp8
 70
     0
102
RTVSPropertyOp9
 70
     0
102
RTVSPropertyOp10
 70
     0
102
RTVSPropertyOp11
 70
     0
102
RTVSPropertyOp12
 70
     0
102
RTVSPropertyOp13
 70
     0
102
RTVSPropertyOp14
 70
     2
102
RTVSPropertyOp15
 70
     0
102
RTVSPropertyOp16
 70
     0
102
RTVSPropertyOp17
 70
     0
102
RTVSPropertyOp18
 70
     0
102
RTVSPropertyOp19
 70
     0
102
RTVSPropertyOp20
 70
     0
102
RTVSPropertyOp21
 70
     0
102
RTVSPropertyOp22
 70
     0
102
RTVSPropertyOp23
 70
     0
102
RTVSPropertyOp24
 70
     0
102
RTVSPropertyOp25
 70
     0
102
RTVSPropertyOp26
 70
     0
102
RTVSPropertyOp27
 70
     0
102
RTVSPropertyOp28
 70
     1
102
RTVSPropertyOp29
 70
     1
102
RTVSPropertyOp30
 70
     1
102
RTVSPropertyOp31
 70
     1
102
RTVSPropertyOp32
 70
     1
  0
XRECORD
  5
F10C1A
102
{ACAD_REACTORS
330
F10C19
102
}
330
F10C19
100
AcDbXrecord
280
     1
102
RTVSPropertyOp0
 70
     1
102
RTVSPropertyOp1
 70
     1
102
RTVSPropertyOp2
 70
     1
102
RTVSPropertyOp3
 70
     1
102
RTVSPropertyOp4
 70
     1
102
RTVSPropertyOp5
 70
     1
102
RTVSPropertyOp6
 70
     1
102
RTVSPropertyOp7
 70
     1
102
RTVSPropertyOp8
 70
     1
102
RTVSPropertyOp9
 70
     1
102
RTVSPropertyOp10
 70
     1
102
RTVSPropertyOp11
 70
     1
102
RTVSPropertyOp12
 70
     1
102
RTVSPropertyOp13
 70
     1
102
RTVSPropertyOp14
 70
     1
102
RTVSPropertyOp15
 70
     1
102
RTVSPropertyOp16
 70
     1
102
RTVSPropertyOp17
 70
     1
102
RTVSPropertyOp18
 70
     1
102
RTVSPropertyOp19
 70
     1
102
RTVSPropertyOp20
 70
     1
102
RTVSPropertyOp21
 70
     1
102
RTVSPropertyOp22
 70
     1
102
RTVSPropertyOp23
 70
     1
102
RTVSPropertyOp24
 70
     1
102
RTVSPropertyOp25
 70
     1
102
RTVSPropertyOp26
 70
     1
102
RTVSPropertyOp27
 70
     1
102
RTVSPropertyOp28
 70
     1
102
RTVSPropertyOp29
 70
     1
102
RTVSPropertyOp30
 70
     1
102
RTVSPropertyOp31
 70
     1
102
RTVSPropertyOp32
 70
     1
  0
XRECORD
  5
F10BFE
102
{ACAD_REACTORS
330
F10BFD
102
}
330
F10BFD
100
AcDbXrecord
280
     1
102
RTVSPropertyOp0
 70
     1
102
RTVSPropertyOp1
 70
     1
102
RTVSPropertyOp2
 70
     1
102
RTVSPropertyOp3
 70
     1
102
RTVSPropertyOp4
 70
     1
102
RTVSPropertyOp5
 70
     1
102
RTVSPropertyOp6
 70
     1
102
RTVSPropertyOp7
 70
     1
102
RTVSPropertyOp8
 70
     1
102
RTVSPropertyOp9
 70
     1
102
RTVSPropertyOp10
 70
     1
102
RTVSPropertyOp11
 70
     1
102
RTVSPropertyOp12
 70
     1
102
RTVSPropertyOp13
 70
     1
102
RTVSPropertyOp14
 70
     1
102
RTVSPropertyOp15
 70
     1
102
RTVSPropertyOp16
 70
     1
102
RTVSPropertyOp17
 70
     1
102
RTVSPropertyOp18
 70
     1
102
RTVSPropertyOp19
 70
     1
102
RTVSPropertyOp20
 70
     1
102
RTVSPropertyOp21
 70
     1
102
RTVSPropertyOp22
 70
     1
102
RTVSPropertyOp23
 70
     1
102
RTVSPropertyOp24
 70
     1
102
RTVSPropertyOp25
 70
     1
102
RTVSPropertyOp26
 70
     1
102
RTVSPropertyOp27
 70
     1
102
RTVSPropertyOp28
 70
     1
102
RTVSPropertyOp29
 70
     1
102
RTVSPropertyOp30
 70
     1
102
RTVSPropertyOp31
 70
     1
102
RTVSPropertyOp32
 70
     1
  0
XRECORD
  5
F10C00
102
{ACAD_REACTORS
330
F10BFF
102
}
330
F10BFF
100
AcDbXrecord
280
     1
102
RTVSPropertyOp0
 70
     1
102
RTVSPropertyOp1
 70
     1
102
RTVSPropertyOp2
 70
     1
102
RTVSPropertyOp3
 70
     1
102
RTVSPropertyOp4
 70
     1
102
RTVSPropertyOp5
 70
     1
102
RTVSPropertyOp6
 70
     1
102
RTVSPropertyOp7
 70
     1
102
RTVSPropertyOp8
 70
     1
102
RTVSPropertyOp9
 70
     1
102
RTVSPropertyOp10
 70
     1
102
RTVSPropertyOp11
 70
     1
102
RTVSPropertyOp12
 70
     1
102
RTVSPropertyOp13
 70
     1
102
RTVSPropertyOp14
 70
     1
102
RTVSPropertyOp15
 70
     1
102
RTVSPropertyOp16
 70
     1
102
RTVSPropertyOp17
 70
     1
102
RTVSPropertyOp18
 70
     1
102
RTVSPropertyOp19
 70
     1
102
RTVSPropertyOp20
 70
     1
102
RTVSPropertyOp21
 70
     1
102
RTVSPropertyOp22
 70
     1
102
RTVSPropertyOp23
 70
     1
102
RTVSPropertyOp24
 70
     1
102
RTVSPropertyOp25
 70
     1
102
RTVSPropertyOp26
 70
     1
102
RTVSPropertyOp27
 70
     1
102
RTVSPropertyOp28
 70
     1
102
RTVSPropertyOp29
 70
     1
102
RTVSPropertyOp30
 70
     1
102
RTVSPropertyOp31
 70
     1
102
RTVSPropertyOp32
 70
     1
  0
XRECORD
  5
F10C02
102
{ACAD_REACTORS
330
F10C01
102
}
330
F10C01
100
AcDbXrecord
280
     1
102
RTVSPropertyOp0
 70
     1
102
RTVSPropertyOp1
 70
     1
102
RTVSPropertyOp2
 70
     1
102
RTVSPropertyOp3
 70
     1
102
RTVSPropertyOp4
 70
     1
102
RTVSPropertyOp5
 70
     1
102
RTVSPropertyOp6
 70
     1
102
RTVSPropertyOp7
 70
     1
102
RTVSPropertyOp8
 70
     1
102
RTVSPropertyOp9
 70
     1
102
RTVSPropertyOp10
 70
     1
102
RTVSPropertyOp11
 70
     1
102
RTVSPropertyOp12
 70
     1
102
RTVSPropertyOp13
 70
     1
102
RTVSPropertyOp14
 70
     1
102
RTVSPropertyOp15
 70
     1
102
RTVSPropertyOp16
 70
     1
102
RTVSPropertyOp17
 70
     1
102
RTVSPropertyOp18
 70
     1
102
RTVSPropertyOp19
 70
     1
102
RTVSPropertyOp20
 70
     1
102
RTVSPropertyOp21
 70
     1
102
RTVSPropertyOp22
 70
     1
102
RTVSPropertyOp23
 70
     1
102
RTVSPropertyOp24
 70
     1
102
RTVSPropertyOp25
 70
     1
102
RTVSPropertyOp26
 70
     1
102
RTVSPropertyOp27
 70
     1
102
RTVSPropertyOp28
 70
     1
102
RTVSPropertyOp29
 70
     1
102
RTVSPropertyOp30
 70
     1
102
RTVSPropertyOp31
 70
     1
102
RTVSPropertyOp32
 70
     1
  0
XRECORD
  5
F10C04
102
{ACAD_REACTORS
330
F10C03
102
}
330
F10C03
100
AcDbXrecord
280
     1
102
RTVSPropertyOp0
 70
     1
102
RTVSPropertyOp1
 70
     1
102
RTVSPropertyOp2
 70
     1
102
RTVSPropertyOp3
 70
     1
102
RTVSPropertyOp4
 70
     1
102
RTVSPropertyOp5
 70
     1
102
RTVSPropertyOp6
 70
     1
102
RTVSPropertyOp7
 70
     1
102
RTVSPropertyOp8
 70
     1
102
RTVSPropertyOp9
 70
     1
102
RTVSPropertyOp10
 70
     1
102
RTVSPropertyOp11
 70
     1
102
RTVSPropertyOp12
 70
     1
102
RTVSPropertyOp13
 70
     1
102
RTVSPropertyOp14
 70
     1
102
RTVSPropertyOp15
 70
     1
102
RTVSPropertyOp16
 70
     1
102
RTVSPropertyOp17
 70
     1
102
RTVSPropertyOp18
 70
     1
102
RTVSPropertyOp19
 70
     1
102
RTVSPropertyOp20
 70
     1
102
RTVSPropertyOp21
 70
     1
102
RTVSPropertyOp22
 70
     1
102
RTVSPropertyOp23
 70
     1
102
RTVSPropertyOp24
 70
     1
102
RTVSPropertyOp25
 70
     1
102
RTVSPropertyOp26
 70
     1
102
RTVSPropertyOp27
 70
     1
102
RTVSPropertyOp28
 70
     1
102
RTVSPropertyOp29
 70
     1
102
RTVSPropertyOp30
 70
     1
102
RTVSPropertyOp31
 70
     1
102
RTVSPropertyOp32
 70
     1
  0
XRECORD
  5
F10C2B
102
{ACAD_REACTORS
330
F10C2A
102
}
330
F10C2A
100
AcDbXrecord
280
     1
102
RTVSPropertyOp0
 70
     1
102
RTVSPropertyOp1
 70
     1
102
RTVSPropertyOp2
 70
     1
102
RTVSPropertyOp3
 70
     1
102
RTVSPropertyOp4
 70
     1
102
RTVSPropertyOp5
 70
     1
102
RTVSPropertyOp6
 70
     1
102
RTVSPropertyOp7
 70
     1
102
RTVSPropertyOp8
 70
     1
102
RTVSPropertyOp9
 70
     1
102
RTVSPropertyOp10
 70
     1
102
RTVSPropertyOp11
 70
     1
102
RTVSPropertyOp12
 70
     1
102
RTVSPropertyOp13
 70
     1
102
RTVSPropertyOp14
 70
     1
102
RTVSPropertyOp15
 70
     1
102
RTVSPropertyOp16
 70
     1
102
RTVSPropertyOp17
 70
     1
102
RTVSPropertyOp18
 70
     1
102
RTVSPropertyOp19
 70
     1
102
RTVSPropertyOp20
 70
     1
102
RTVSPropertyOp21
 70
     1
102
RTVSPropertyOp22
 70
     1
102
RTVSPropertyOp23
 70
     1
102
RTVSPropertyOp24
 70
     1
102
RTVSPropertyOp25
 70
     1
102
RTVSPropertyOp26
 70
     1
102
RTVSPropertyOp27
 70
     1
102
RTVSPropertyOp28
 70
     1
102
RTVSPropertyOp29
 70
     1
102
RTVSPropertyOp30
 70
     1
102
RTVSPropertyOp31
 70
     1
102
RTVSPropertyOp32
 70
     1
  0
XRECORD
  5
F10C1E
102
{ACAD_REACTORS
330
F10C1D
102
}
330
F10C1D
100
AcDbXrecord
280
     1
102
RTVSPropertyOp0
 70
     0
102
RTVSPropertyOp1
 70
     0
102
RTVSPropertyOp2
 70
     0
102
RTVSPropertyOp3
 70
     0
102
RTVSPropertyOp4
 70
     0
102
RTVSPropertyOp5
 70
     0
102
RTVSPropertyOp6
 70
     0
102
RTVSPropertyOp7
 70
     0
102
RTVSPropertyOp8
 70
     0
102
RTVSPropertyOp9
 70
     0
102
RTVSPropertyOp10
 70
     0
102
RTVSPropertyOp11
 70
     0
102
RTVSPropertyOp12
 70
     0
102
RTVSPropertyOp13
 70
     0
102
RTVSPropertyOp14
 70
     2
102
RTVSPropertyOp15
 70
     0
102
RTVSPropertyOp16
 70
     0
102
RTVSPropertyOp17
 70
     0
102
RTVSPropertyOp18
 70
     0
102
RTVSPropertyOp19
 70
     0
102
RTVSPropertyOp20
 70
     0
102
RTVSPropertyOp21
 70
     0
102
RTVSPropertyOp22
 70
     0
102
RTVSPropertyOp23
 70
     0
102
RTVSPropertyOp24
 70
     0
102
RTVSPropertyOp25
 70
     0
102
RTVSPropertyOp26
 70
     0
102
RTVSPropertyOp27
 70
     0
102
RTVSPropertyOp28
 70
     1
102
RTVSPropertyOp29
 70
     1
102
RTVSPropertyOp30
 70
     1
102
RTVSPropertyOp31
 70
     1
102
RTVSPropertyOp32
 70
     1
  0
XRECORD
  5
F10C18
102
{ACAD_REACTORS
330
F10C17
102
}
330
F10C17
100
AcDbXrecord
280
     1
102
RTVSPropertyOp0
 70
     1
102
RTVSPropertyOp1
 70
     1
102
RTVSPropertyOp2
 70
     1
102
RTVSPropertyOp3
 70
     1
102
RTVSPropertyOp4
 70
     1
102
RTVSPropertyOp5
 70
     1
102
RTVSPropertyOp6
 70
     1
102
RTVSPropertyOp7
 70
     1
102
RTVSPropertyOp8
 70
     1
102
RTVSPropertyOp9
 70
     1
102
RTVSPropertyOp10
 70
     1
102
RTVSPropertyOp11
 70
     1
102
RTVSPropertyOp12
 70
     1
102
RTVSPropertyOp13
 70
     1
102
RTVSPropertyOp14
 70
     1
102
RTVSPropertyOp15
 70
     1
102
RTVSPropertyOp16
 70
     1
102
RTVSPropertyOp17
 70
     1
102
RTVSPropertyOp18
 70
     1
102
RTVSPropertyOp19
 70
     1
102
RTVSPropertyOp20
 70
     1
102
RTVSPropertyOp21
 70
     1
102
RTVSPropertyOp22
 70
     1
102
RTVSPropertyOp23
 70
     1
102
RTVSPropertyOp24
 70
     1
102
RTVSPropertyOp25
 70
     1
102
RTVSPropertyOp26
 70
     1
102
RTVSPropertyOp27
 70
     1
102
RTVSPropertyOp28
 70
     1
102
RTVSPropertyOp29
 70
     1
102
RTVSPropertyOp30
 70
     1
102
RTVSPropertyOp31
 70
     1
102
RTVSPropertyOp32
 70
     1
  0
XRECORD
  5
F10C20
102
{ACAD_REACTORS
330
F10C1F
102
}
330
F10C1F
100
AcDbXrecord
280
     1
102
RTVSPropertyOp0
 70
     0
102
RTVSPropertyOp1
 70
     0
102
RTVSPropertyOp2
 70
     0
102
RTVSPropertyOp3
 70
     0
102
RTVSPropertyOp4
 70
     0
102
RTVSPropertyOp5
 70
     0
102
RTVSPropertyOp6
 70
     0
102
RTVSPropertyOp7
 70
     0
102
RTVSPropertyOp8
 70
     0
102
RTVSPropertyOp9
 70
     0
102
RTVSPropertyOp10
 70
     0
102
RTVSPropertyOp11
 70
     0
102
RTVSPropertyOp12
 70
     0
102
RTVSPropertyOp13
 70
     0
102
RTVSPropertyOp14
 70
     2
102
RTVSPropertyOp15
 70
     0
102
RTVSPropertyOp16
 70
     0
102
RTVSPropertyOp17
 70
     0
102
RTVSPropertyOp18
 70
     0
102
RTVSPropertyOp19
 70
     0
102
RTVSPropertyOp20
 70
     0
102
RTVSPropertyOp21
 70
     0
102
RTVSPropertyOp22
 70
     0
102
RTVSPropertyOp23
 70
     0
102
RTVSPropertyOp24
 70
     0
102
RTVSPropertyOp25
 70
     0
102
RTVSPropertyOp26
 70
     0
102
RTVSPropertyOp27
 70
     0
102
RTVSPropertyOp28
 70
     1
102
RTVSPropertyOp29
 70
     1
102
RTVSPropertyOp30
 70
     1
102
RTVSPropertyOp31
 70
     1
102
RTVSPropertyOp32
 70
     1
  0
XRECORD
  5
F10C10
102
{ACAD_REACTORS
330
F10C0F
102
}
330
F10C0F
100
AcDbXrecord
280
     1
102
RTVSPropertyOp0
 70
     1
102
RTVSPropertyOp1
 70
     1
102
RTVSPropertyOp2
 70
     1
102
RTVSPropertyOp3
 70
     1
102
RTVSPropertyOp4
 70
     1
102
RTVSPropertyOp5
 70
     1
102
RTVSPropertyOp6
 70
     1
102
RTVSPropertyOp7
 70
     1
102
RTVSPropertyOp8
 70
     1
102
RTVSPropertyOp9
 70
     1
102
RTVSPropertyOp10
 70
     1
102
RTVSPropertyOp11
 70
     1
102
RTVSPropertyOp12
 70
     1
102
RTVSPropertyOp13
 70
     1
102
RTVSPropertyOp14
 70
     1
102
RTVSPropertyOp15
 70
     1
102
RTVSPropertyOp16
 70
     1
102
RTVSPropertyOp17
 70
     1
102
RTVSPropertyOp18
 70
     1
102
RTVSPropertyOp19
 70
     1
102
RTVSPropertyOp20
 70
     1
102
RTVSPropertyOp21
 70
     1
102
RTVSPropertyOp22
 70
     1
102
RTVSPropertyOp23
 70
     1
102
RTVSPropertyOp24
 70
     1
102
RTVSPropertyOp25
 70
     1
102
RTVSPropertyOp26
 70
     1
102
RTVSPropertyOp27
 70
     1
102
RTVSPropertyOp28
 70
     1
102
RTVSPropertyOp29
 70
     1
102
RTVSPropertyOp30
 70
     1
102
RTVSPropertyOp31
 70
     1
102
RTVSPropertyOp32
 70
     1
  0
XRECORD
  5
F10C35
102
{ACAD_REACTORS
330
F10C34
102
}
330
F10C34
100
AcDbXrecord
280
     1
102
RTVSPropertyOp0
 70
     1
102
RTVSPropertyOp1
 70
     1
102
RTVSPropertyOp2
 70
     1
102
RTVSPropertyOp3
 70
     1
102
RTVSPropertyOp4
 70
     1
102
RTVSPropertyOp5
 70
     1
102
RTVSPropertyOp6
 70
     1
102
RTVSPropertyOp7
 70
     1
102
RTVSPropertyOp8
 70
     1
102
RTVSPropertyOp9
 70
     1
102
RTVSPropertyOp10
 70
     1
102
RTVSPropertyOp11
 70
     1
102
RTVSPropertyOp12
 70
     1
102
RTVSPropertyOp13
 70
     1
102
RTVSPropertyOp14
 70
     1
102
RTVSPropertyOp15
 70
     1
102
RTVSPropertyOp16
 70
     1
102
RTVSPropertyOp17
 70
     1
102
RTVSPropertyOp18
 70
     1
102
RTVSPropertyOp19
 70
     1
102
RTVSPropertyOp20
 70
     1
102
RTVSPropertyOp21
 70
     1
102
RTVSPropertyOp22
 70
     1
102
RTVSPropertyOp23
 70
     1
102
RTVSPropertyOp24
 70
     1
102
RTVSPropertyOp25
 70
     1
102
RTVSPropertyOp26
 70
     1
102
RTVSPropertyOp27
 70
     1
102
RTVSPropertyOp28
 70
     1
102
RTVSPropertyOp29
 70
     1
102
RTVSPropertyOp30
 70
     1
102
RTVSPropertyOp31
 70
     1
102
RTVSPropertyOp32
 70
     1
  0
XRECORD
  5
F10C33
102
{ACAD_REACTORS
330
F10C32
102
}
330
F10C32
100
AcDbXrecord
280
     1
102
RTVSPropertyOp0
 70
     1
102
RTVSPropertyOp1
 70
     1
102
RTVSPropertyOp2
 70
     1
102
RTVSPropertyOp3
 70
     1
102
RTVSPropertyOp4
 70
     1
102
RTVSPropertyOp5
 70
     1
102
RTVSPropertyOp6
 70
     1
102
RTVSPropertyOp7
 70
     1
102
RTVSPropertyOp8
 70
     1
102
RTVSPropertyOp9
 70
     1
102
RTVSPropertyOp10
 70
     1
102
RTVSPropertyOp11
 70
     1
102
RTVSPropertyOp12
 70
     1
102
RTVSPropertyOp13
 70
     1
102
RTVSPropertyOp14
 70
     1
102
RTVSPropertyOp15
 70
     1
102
RTVSPropertyOp16
 70
     1
102
RTVSPropertyOp17
 70
     1
102
RTVSPropertyOp18
 70
     1
102
RTVSPropertyOp19
 70
     1
102
RTVSPropertyOp20
 70
     1
102
RTVSPropertyOp21
 70
     1
102
RTVSPropertyOp22
 70
     1
102
RTVSPropertyOp23
 70
     1
102
RTVSPropertyOp24
 70
     1
102
RTVSPropertyOp25
 70
     1
102
RTVSPropertyOp26
 70
     1
102
RTVSPropertyOp27
 70
     1
102
RTVSPropertyOp28
 70
     1
102
RTVSPropertyOp29
 70
     1
102
RTVSPropertyOp30
 70
     1
102
RTVSPropertyOp31
 70
     1
102
RTVSPropertyOp32
 70
     1
  0
XRECORD
  5
F10C2D
102
{ACAD_REACTORS
330
F10C2C
102
}
330
F10C2C
100
AcDbXrecord
280
     1
102
RTVSPropertyOp0
 70
     1
102
RTVSPropertyOp1
 70
     1
102
RTVSPropertyOp2
 70
     1
102
RTVSPropertyOp3
 70
     1
102
RTVSPropertyOp4
 70
     1
102
RTVSPropertyOp5
 70
     1
102
RTVSPropertyOp6
 70
     1
102
RTVSPropertyOp7
 70
     1
102
RTVSPropertyOp8
 70
     1
102
RTVSPropertyOp9
 70
     1
102
RTVSPropertyOp10
 70
     1
102
RTVSPropertyOp11
 70
     1
102
RTVSPropertyOp12
 70
     1
102
RTVSPropertyOp13
 70
     1
102
RTVSPropertyOp14
 70
     1
102
RTVSPropertyOp15
 70
     1
102
RTVSPropertyOp16
 70
     1
102
RTVSPropertyOp17
 70
     1
102
RTVSPropertyOp18
 70
     1
102
RTVSPropertyOp19
 70
     1
102
RTVSPropertyOp20
 70
     1
102
RTVSPropertyOp21
 70
     1
102
RTVSPropertyOp22
 70
     1
102
RTVSPropertyOp23
 70
     1
102
RTVSPropertyOp24
 70
     1
102
RTVSPropertyOp25
 70
     1
102
RTVSPropertyOp26
 70
     1
102
RTVSPropertyOp27
 70
     1
102
RTVSPropertyOp28
 70
     1
102
RTVSPropertyOp29
 70
     1
102
RTVSPropertyOp30
 70
     1
102
RTVSPropertyOp31
 70
     1
102
RTVSPropertyOp32
 70
     1
  0
XRECORD
  5
F10C2F
102
{ACAD_REACTORS
330
F10C2E
102
}
330
F10C2E
100
AcDbXrecord
280
     1
102
RTVSPropertyOp0
 70
     1
102
RTVSPropertyOp1
 70
     1
102
RTVSPropertyOp2
 70
     1
102
RTVSPropertyOp3
 70
     1
102
RTVSPropertyOp4
 70
     1
102
RTVSPropertyOp5
 70
     1
102
RTVSPropertyOp6
 70
     1
102
RTVSPropertyOp7
 70
     1
102
RTVSPropertyOp8
 70
     1
102
RTVSPropertyOp9
 70
     1
102
RTVSPropertyOp10
 70
     1
102
RTVSPropertyOp11
 70
     1
102
RTVSPropertyOp12
 70
     1
102
RTVSPropertyOp13
 70
     1
102
RTVSPropertyOp14
 70
     1
102
RTVSPropertyOp15
 70
     1
102
RTVSPropertyOp16
 70
     1
102
RTVSPropertyOp17
 70
     1
102
RTVSPropertyOp18
 70
     1
102
RTVSPropertyOp19
 70
     1
102
RTVSPropertyOp20
 70
     1
102
RTVSPropertyOp21
 70
     1
102
RTVSPropertyOp22
 70
     1
102
RTVSPropertyOp23
 70
     1
102
RTVSPropertyOp24
 70
     1
102
RTVSPropertyOp25
 70
     1
102
RTVSPropertyOp26
 70
     1
102
RTVSPropertyOp27
 70
     1
102
RTVSPropertyOp28
 70
     1
102
RTVSPropertyOp29
 70
     1
102
RTVSPropertyOp30
 70
     1
102
RTVSPropertyOp31
 70
     1
102
RTVSPropertyOp32
 70
     1
  0
XRECORD
  5
F10C16
102
{ACAD_REACTORS
330
F10C15
102
}
330
F10C15
100
AcDbXrecord
280
     1
102
RTVSPropertyOp0
 70
     1
102
RTVSPropertyOp1
 70
     1
102
RTVSPropertyOp2
 70
     1
102
RTVSPropertyOp3
 70
     1
102
RTVSPropertyOp4
 70
     1
102
RTVSPropertyOp5
 70
     1
102
RTVSPropertyOp6
 70
     1
102
RTVSPropertyOp7
 70
     1
102
RTVSPropertyOp8
 70
     1
102
RTVSPropertyOp9
 70
     1
102
RTVSPropertyOp10
 70
     1
102
RTVSPropertyOp11
 70
     1
102
RTVSPropertyOp12
 70
     1
102
RTVSPropertyOp13
 70
     1
102
RTVSPropertyOp14
 70
     1
102
RTVSPropertyOp15
 70
     1
102
RTVSPropertyOp16
 70
     1
102
RTVSPropertyOp17
 70
     1
102
RTVSPropertyOp18
 70
     1
102
RTVSPropertyOp19
 70
     1
102
RTVSPropertyOp20
 70
     1
102
RTVSPropertyOp21
 70
     1
102
RTVSPropertyOp22
 70
     1
102
RTVSPropertyOp23
 70
     1
102
RTVSPropertyOp24
 70
     1
102
RTVSPropertyOp25
 70
     1
102
RTVSPropertyOp26
 70
     1
102
RTVSPropertyOp27
 70
     1
102
RTVSPropertyOp28
 70
     1
102
RTVSPropertyOp29
 70
     1
102
RTVSPropertyOp30
 70
     1
102
RTVSPropertyOp31
 70
     1
102
RTVSPropertyOp32
 70
     1
  0
XRECORD
  5
F10C29
102
{ACAD_REACTORS
330
F10C28
102
}
330
F10C28
100
AcDbXrecord
280
     1
102
RTVSPropertyOp0
 70
     1
102
RTVSPropertyOp1
 70
     1
102
RTVSPropertyOp2
 70
     1
102
RTVSPropertyOp3
 70
     1
102
RTVSPropertyOp4
 70
     1
102
RTVSPropertyOp5
 70
     1
102
RTVSPropertyOp6
 70
     1
102
RTVSPropertyOp7
 70
     1
102
RTVSPropertyOp8
 70
     1
102
RTVSPropertyOp9
 70
     1
102
RTVSPropertyOp10
 70
     1
102
RTVSPropertyOp11
 70
     1
102
RTVSPropertyOp12
 70
     1
102
RTVSPropertyOp13
 70
     1
102
RTVSPropertyOp14
 70
     1
102
RTVSPropertyOp15
 70
     1
102
RTVSPropertyOp16
 70
     1
102
RTVSPropertyOp17
 70
     1
102
RTVSPropertyOp18
 70
     1
102
RTVSPropertyOp19
 70
     1
102
RTVSPropertyOp20
 70
     1
102
RTVSPropertyOp21
 70
     1
102
RTVSPropertyOp22
 70
     1
102
RTVSPropertyOp23
 70
     1
102
RTVSPropertyOp24
 70
     1
102
RTVSPropertyOp25
 70
     1
102
RTVSPropertyOp26
 70
     1
102
RTVSPropertyOp27
 70
     1
102
RTVSPropertyOp28
 70
     1
102
RTVSPropertyOp29
 70
     1
102
RTVSPropertyOp30
 70
     1
102
RTVSPropertyOp31
 70
     1
102
RTVSPropertyOp32
 70
     1
  0
XRECORD
  5
F10C31
102
{ACAD_REACTORS
330
F10C30
102
}
330
F10C30
100
AcDbXrecord
280
     1
102
RTVSPropertyOp0
 70
     1
102
RTVSPropertyOp1
 70
     1
102
RTVSPropertyOp2
 70
     1
102
RTVSPropertyOp3
 70
     1
102
RTVSPropertyOp4
 70
     1
102
RTVSPropertyOp5
 70
     1
102
RTVSPropertyOp6
 70
     1
102
RTVSPropertyOp7
 70
     1
102
RTVSPropertyOp8
 70
     1
102
RTVSPropertyOp9
 70
     1
102
RTVSPropertyOp10
 70
     1
102
RTVSPropertyOp11
 70
     1
102
RTVSPropertyOp12
 70
     1
102
RTVSPropertyOp13
 70
     1
102
RTVSPropertyOp14
 70
     1
102
RTVSPropertyOp15
 70
     1
102
RTVSPropertyOp16
 70
     1
102
RTVSPropertyOp17
 70
     1
102
RTVSPropertyOp18
 70
     1
102
RTVSPropertyOp19
 70
     1
102
RTVSPropertyOp20
 70
     1
102
RTVSPropertyOp21
 70
     1
102
RTVSPropertyOp22
 70
     1
102
RTVSPropertyOp23
 70
     1
102
RTVSPropertyOp24
 70
     1
102
RTVSPropertyOp25
 70
     1
102
RTVSPropertyOp26
 70
     1
102
RTVSPropertyOp27
 70
     1
102
RTVSPropertyOp28
 70
     1
102
RTVSPropertyOp29
 70
     1
102
RTVSPropertyOp30
 70
     1
102
RTVSPropertyOp31
 70
     1
102
RTVSPropertyOp32
 70
     1
  0
ENDSEC
  0
EOF
