  0
SECTION
  2
HEADER
  9
$ACADVER
  1
AC1015
  9
$ACADMAINTVER
 70
    20
  9
$DWGCODEPAGE
  3
ANSI_1252
  9
$INSBASE
 10
0.0
 20
0.0
 30
0.0
  9
$EXTMIN
 10
-134.524070021882
 20
-100.175054704595
 30
0.0
  9
$EXTMAX
 10
143.484682713348
 20
99.945295404814
 30
0.0
  9
$LIMMIN
 10
0.0
 20
0.0
  9
$LIMMAX
 10
12.0
 20
9.0
  9
$ORTHOMODE
 70
     0
  9
$REGENMODE
 70
     1
  9
$FILLMODE
 70
     1
  9
$QTEXTMODE
 70
     0
  9
$MIRRTEXT
 70
     1
  9
$LTSCALE
 40
1.0
  9
$ATTMODE
 70
     1
  9
$TEXTSIZE
 40
0.2
  9
$TRACEWID
 40
0.05
  9
$TEXTSTYLE
  7
Standard
  9
$CLAYER
  8
0
  9
$CELTYPE
  6
ByLayer
  9
$CECOLOR
 62
   256
  9
$CELTSCALE
 40
1.0
  9
$DISPSILH
 70
     0
  9
$DIMSCALE
 40
1.0
  9
$DIMASZ
 40
2.5
  9
$DIMEXO
 40
0.625
  9
$DIMDLI
 40
0.38
  9
$DIMRND
 40
0.0
  9
$DIMDLE
 40
0.0
  9
$DIMEXE
 40
1.25
  9
$DIMTP
 40
0.0
  9
$DIMTM
 40
0.000000001
  9
$DIMTXT
 40
2.5
  9
$DIMCEN
 40
0.09
  9
$DIMTSZ
 40
0.0
  9
$DIMTOL
 70
     1
  9
$DIMLIM
 70
     0
  9
$DIMTIH
 70
     0
  9
$DIMTOH
 70
     0
  9
$DIMSE1
 70
     0
  9
$DIMSE2
 70
     0
  9
$DIMTAD
 70
     1
  9
$DIMZIN
 70
     0
  9
$DIMBLK
  1
VDDIM_DEFAULT
  9
$DIMASO
 70
     1
  9
$DIMSHO
 70
     1
  9
$DIMPOST
  1

  9
$DIMAPOST
  1

  9
$DIMALT
 70
     0
  9
$DIMALTD
 70
     2
  9
$DIMALTF
 40
25.4
  9
$DIMLFAC
 40
1.0
  9
$DIMTOFL
 70
     0
  9
$DIMTVP
 40
0.0
  9
$DIMTIX
 70
     0
  9
$DIMSOXD
 70
     0
  9
$DIMSAH
 70
     0
  9
$DIMBLK1
  1

  9
$DIMBLK2
  1

  9
$DIMSTYLE
  2
BEM-ISBE
  9
$DIMCLRD
 70
     0
  9
$DIMCLRE
 70
     0
  9
$DIMCLRT
 70
     0
  9
$DIMTFAC
 40
0.5
  9
$DIMGAP
 40
0.625
  9
$DIMJUST
 70
     0
  9
$DIMSD1
 70
     0
  9
$DIMSD2
 70
     0
  9
$DIMTOLJ
 70
     1
  9
$DIMTZIN
 70
     0
  9
$DIMALTZ
 70
     0
  9
$DIMALTTZ
 70
     0
  9
$DIMUPT
 70
     0
  9
$DIMDEC
 70
     3
  9
$DIMTDEC
 70
     3
  9
$DIMALTU
 70
     2
  9
$DIMALTTD
 70
     2
  9
$DIMTXSTY
  7
Standard
  9
$DIMAUNIT
 70
     0
  9
$DIMADEC
 70
     3
  9
$DIMALTRND
 40
0.0
  9
$DIMAZIN
 70
     0
  9
$DIMDSEP
 70
    46
  9
$DIMATFIT
 70
     3
  9
$DIMFRAC
 70
     0
  9
$DIMLDRBLK
  1

  9
$DIMLUNIT
 70
     2
  9
$DIMLWD
 70
    -2
  9
$DIMLWE
 70
    -2
  9
$DIMTMOVE
 70
     0
  9
$LUNITS
 70
     2
  9
$LUPREC
 70
     4
  9
$SKETCHINC
 40
0.1
  9
$FILLETRAD
 40
0.5
  9
$AUNITS
 70
     0
  9
$AUPREC
 70
     0
  9
$MENU
  1
.
  9
$ELEVATION
 40
0.0
  9
$PELEVATION
 40
0.0
  9
$THICKNESS
 40
0.0
  9
$LIMCHECK
 70
     0
  9
$CHAMFERA
 40
0.5
  9
$CHAMFERB
 40
0.5
  9
$CHAMFERC
 40
1.0
  9
$CHAMFERD
 40
0.0
  9
$SKPOLY
 70
     0
  9
$TDCREATE
 40
2456884.311929641
  9
$TDUCREATE
 40
2456884.228596308
  9
$TDUPDATE
 40
2456884.407577824
  9
$TDUUPDATE
 40
2456884.324244491
  9
$TDINDWG
 40
0.0352547801
  9
$TDUSRTIMER
 40
0.0352546759
  9
$USRTIMER
 70
     1
  9
$ANGBASE
 50
0.0
  9
$ANGDIR
 70
     0
  9
$PDMODE
 70
     0
  9
$PDSIZE
 40
0.0
  9
$PLINEWID
 40
0.0
  9
$SPLFRAME
 70
     0
  9
$SPLINETYPE
 70
     6
  9
$SPLINESEGS
 70
     8
  9
$HANDSEED
  5
F10AD3
  9
$SURFTAB1
 70
     6
  9
$SURFTAB2
 70
     6
  9
$SURFTYPE
 70
     6
  9
$SURFU
 70
     6
  9
$SURFV
 70
     6
  9
$UCSBASE
  2

  9
$UCSNAME
  2

  9
$UCSORG
 10
-4.203367618627871
 20
15.09940280896473
 30
0.0
  9
$UCSXDIR
 10
1.0
 20
0.0
 30
0.0
  9
$UCSYDIR
 10
0.0
 20
1.0
 30
0.0
  9
$UCSORTHOREF
  2

  9
$UCSORTHOVIEW
 70
     0
  9
$UCSORGTOP
 10
0.0
 20
0.0
 30
0.0
  9
$UCSORGBOTTOM
 10
0.0
 20
0.0
 30
0.0
  9
$UCSORGLEFT
 10
0.0
 20
0.0
 30
0.0
  9
$UCSORGRIGHT
 10
0.0
 20
0.0
 30
0.0
  9
$UCSORGFRONT
 10
0.0
 20
0.0
 30
0.0
  9
$UCSORGBACK
 10
0.0
 20
0.0
 30
0.0
  9
$PUCSBASE
  2

  9
$PUCSNAME
  2

  9
$PUCSORG
 10
0.0
 20
0.0
 30
0.0
  9
$PUCSXDIR
 10
1.0
 20
0.0
 30
0.0
  9
$PUCSYDIR
 10
0.0
 20
1.0
 30
0.0
  9
$PUCSORTHOREF
  2

  9
$PUCSORTHOVIEW
 70
     0
  9
$PUCSORGTOP
 10
0.0
 20
0.0
 30
0.0
  9
$PUCSORGBOTTOM
 10
0.0
 20
0.0
 30
0.0
  9
$PUCSORGLEFT
 10
0.0
 20
0.0
 30
0.0
  9
$PUCSORGRIGHT
 10
0.0
 20
0.0
 30
0.0
  9
$PUCSORGFRONT
 10
0.0
 20
0.0
 30
0.0
  9
$PUCSORGBACK
 10
0.0
 20
0.0
 30
0.0
  9
$USERI1
 70
     0
  9
$USERI2
 70
     0
  9
$USERI3
 70
     0
  9
$USERI4
 70
     0
  9
$USERI5
 70
     0
  9
$USERR1
 40
0.0
  9
$USERR2
 40
0.0
  9
$USERR3
 40
0.0
  9
$USERR4
 40
0.0
  9
$USERR5
 40
0.0
  9
$WORLDVIEW
 70
     1
  9
$SHADEDGE
 70
     3
  9
$SHADEDIF
 70
    70
  9
$TILEMODE
 70
     1
  9
$MAXACTVP
 70
    64
  9
$PINSBASE
 10
0.0
 20
0.0
 30
0.0
  9
$PLIMCHECK
 70
     0
  9
$PEXTMIN
 10
1.000000000000000E+20
 20
1.000000000000000E+20
 30
1.000000000000000E+20
  9
$PEXTMAX
 10
-1.000000000000000E+20
 20
-1.000000000000000E+20
 30
-1.000000000000000E+20
  9
$PLIMMIN
 10
0.0
 20
0.0
  9
$PLIMMAX
 10
12.0
 20
9.0
  9
$UNITMODE
 70
     0
  9
$VISRETAIN
 70
     1
  9
$PLINEGEN
 70
     0
  9
$PSLTSCALE
 70
     1
  9
$TREEDEPTH
 70
  3020
  9
$CMLSTYLE
  2
Standard
  9
$CMLJUST
 70
     0
  9
$CMLSCALE
 40
1.0
  9
$PROXYGRAPHICS
 70
     1
  9
$MEASUREMENT
 70
     0
  9
$CELWEIGHT
370
    -1
  9
$ENDCAPS
280
     0
  9
$JOINSTYLE
280
     0
  9
$LWDISPLAY
290
     0
  9
$INSUNITS
 70
     4
  9
$HYPERLINKBASE
  1

  9
$STYLESHEET
  1

  9
$XEDIT
290
     1
  9
$CEPSNTYPE
380
     0
  9
$PSTYLEMODE
290
     0
  9
$FINGERPRINTGUID
  2
{FAEB1C30-E019-11D5-929B-00C0DF256EC4}
  9
$VERSIONGUID
  2
{2D1CD35B-997E-4598-B894-69492F9C38E8}
  9
$EXTNAMES
290
     1
  9
$PSVPSCALE
 40
0.0
  9
$OLESTARTUP
290
     0
  0
ENDSEC
  0
SECTION
  2
CLASSES
  0
CLASS
  1
ACDBDICTIONARYWDFLT
  2
AcDbDictionaryWithDefault
  3
ObjectDBX Classes
 90
        0
280
     0
281
     0
  0
CLASS
  1
MATERIAL
  2
AcDbMaterial
  3
ObjectDBX Classes
 90
     1153
280
     0
281
     0
  0
CLASS
  1
MLEADERSTYLE
  2
AcDbMLeaderStyle
  3
ACDB_MLEADERSTYLE_CLASS
 90
     4095
280
     0
281
     0
  0
CLASS
  1
SCALE
  2
AcDbScale
  3
ObjectDBX Classes
 90
     1153
280
     0
281
     0
  0
CLASS
  1
TABLESTYLE
  2
AcDbTableStyle
  3
ObjectDBX Classes
 90
     4095
280
     0
281
     0
  0
CLASS
  1
VISUALSTYLE
  2
AcDbVisualStyle
  3
ObjectDBX Classes
 90
     4095
280
     0
281
     0
  0
CLASS
  1
DICTIONARYVAR
  2
AcDbDictionaryVar
  3
ObjectDBX Classes
 90
        0
280
     0
281
     0
  0
CLASS
  1
CELLSTYLEMAP
  2
AcDbCellStyleMap
  3
ObjectDBX Classes
 90
     1152
280
     0
281
     0
  0
CLASS
  1
ACME_DOCUMENT
  2
AcMeDbDoc
  3
AcMeServices
 90
     1024
280
     0
281
     0
  0
CLASS
  1
ACMESCOPE
  2
AcMeScope
  3
AcMeServices
 90
     1024
280
     0
281
     0
  0
CLASS
  1
ACMECOMMANDHISTORY
  2
AcMeCommandHistory
  3
AcMeServices
 90
     1024
280
     0
281
     0
  0
CLASS
  1
ACIMSYSVARMAN
  2
AcImSysVarManager
  3
AcMeServices
 90
     1024
280
     0
281
     0
  0
CLASS
  1
ACIMINTSYSVAR
  2
AcImIntSysVar
  3
AcMeServices
 90
     1024
280
     0
281
     0
  0
CLASS
  1
ACMESTATEMGR
  2
AcMeStateMgr
  3
AcMeServices
 90
     1024
280
     0
281
     0
  0
CLASS
  1
ACDBENTITYCACHE
  2
AcMeEntityCache
  3
AcMeServices
 90
     1024
280
     0
281
     0
  0
CLASS
  1
ACGREFMASTER
  2
AcGrefMaster
  3
AcAttribServices
 90
     1024
280
     0
281
     0
  0
CLASS
  1
AM_DRAWING_MGR
  2
AcDmDwgMgr
  3
AcMechDwgViewMgmt
 90
     1024
280
     0
281
     0
  0
CLASS
  1
AM_DWG_DOCUMENT
  2
AcDmDwgDocument
  3
AcMechDwgViewMgmt
 90
     1024
280
     0
281
     0
  0
CLASS
  1
AM_DWG_SHEET
  2
AcDmSheet
  3
AcMechDwgViewMgmt
 90
     1024
280
     0
281
     0
  0
CLASS
  1
AM_VIEWDIMPARMAP
  2
AcDmViewDimParMap
  3
AcMechDwgViewMgmt
 90
     1024
280
     0
281
     0
  0
CLASS
  1
AMDTINTERNALREACTOR
  2
AmdtInternalReactor
  3
AcMeServices
 90
     1024
280
     0
281
     0
  0
CLASS
  1
ACIMREALSYSVAR
  2
AcImRealSysVar
  3
AcMeServices
 90
     1024
280
     0
281
     0
  0
CLASS
  1
AM_DWGMGR_NAME
  2
AcDmDwgMgrName
  3
AcMechDwgViewMgmt
 90
     1024
280
     0
281
     0
  0
CLASS
  1
ACME_DATABASE
  2
AcMeDbDatabase
  3
AcMeServices
 90
     1024
280
     0
281
     0
  0
CLASS
  1
ACRFINSADJUSTERMGR
  2
AcRfInsAdjusterMgr
  3
AcMeServices
 90
     1024
280
     0
281
     0
  0
CLASS
  1
ACGREFACADMASTER
  2
AcGrefacadMaster
  3
AcGrefServices
 90
     1024
280
     0
281
     0
  0
CLASS
  1
AMDTMENUSTATEMGR
  2
AmdtMenuStateMgr
  3
McadcomServices
 90
     1024
280
     0
281
     0
  0
CLASS
  1
AMDTMCOMMENUSTATE
  2
AmdtMcomMenuState
  3
McadcomServices
 90
     1024
280
     0
281
     0
  0
CLASS
  1
AMIMASTER
  2
AmiMaster
  3
AmiServices
 90
     1024
280
     0
281
     0
  0
CLASS
  1
AMGSETTINGSOBJ
  2
AmgSettingsObj
  3
"AcadM|Product Description: AutoCAD Mechanical|Company: Autodesk, Inc."
 90
     1024
280
     0
281
     0
  0
CLASS
  1
MAPIAMMOUDLE
  2
MApiAmModule
  3
MApiAmServices
 90
     1024
280
     0
281
     0
  0
CLASS
  1
ACIMSTRSYSVAR
  2
AcImStrSysVar
  3
AcMeServices
 90
     1024
280
     0
281
     0
  0
CLASS
  1
AMDTDMMENUSTATE
  2
AmdtDmMenuState
  3
AcMechDwgViewMgmt
 90
     1024
280
     0
281
     0
  0
CLASS
  1
AMDTAMMENUSTATE
  2
AmdtAmMenuState
  3
DesignerAssemblies
 90
     1024
280
     0
281
     0
  0
CLASS
  1
ACAMPROJECT
  2
AcAmProject
  3
DesignerAssemblies
 90
     1024
280
     0
281
     0
  0
CLASS
  1
ACAMGRCOMPDEF
  2
AcAmGrCompDef
  3
DesignerAssemblies
 90
     1024
280
     0
281
     0
  0
CLASS
  1
ACAMCOMPDEF
  2
AcAmCompDef
  3
DesignerAssemblies
 90
     1024
280
     0
281
     0
  0
CLASS
  1
ACAMCOMPDEFMGR
  2
AcAmCompDefMgr
  3
DesignerAssemblies
 90
     1024
280
     0
281
     0
  0
CLASS
  1
AMCONTEXTMGR
  2
AcAmContextMgr
  3
DesignerAssemblies
 90
     1024
280
     0
281
     0
  0
CLASS
  1
ACAMCONTEXTMODELER
  2
AcAmContextModeler
  3
DesignerAssemblies
 90
     1024
280
     0
281
     0
  0
CLASS
  1
ACMDATADICTIONARY
  2
AcmDataDictionary
  3
"AcmSymBB|Product Description: AutoCAD Mechanical|Company: Autodesk, Inc."
 90
     1024
280
     0
281
     0
  0
CLASS
  1
ACAMGRCOMPDEFSET
  2
AcAmGrCompDefSet
  3
DesignerAssemblies
 90
     1024
280
     0
281
     0
  0
CLASS
  1
AMDTBROWSERDBTAB
  2
AmdtBrowserDbTab
  3
McadcomServices
 90
     1024
280
     0
281
     0
  0
CLASS
  1
CBROWSERAPPOBJECT
  2
CBrowserAppObject
  3
McadcomServices
 90
     1024
280
     0
281
     0
  0
CLASS
  1
DM_PLACEHOLDER
  2
AcDmSelsetPlaceholder
  3
AcMechDwgViewMgmt
 90
     1024
280
     0
281
     0
  0
CLASS
  1
ACMSTANDARDANSI
  2
AcmStandardANSI
  3
"Amdt_StdImp|Product Description: AutoCAD Mechanical|Company: Autodesk, Inc."
 90
     1024
280
     0
281
     0
  0
CLASS
  1
ACMSURFSTANDARDANSI
  2
AcmSurfTextStdANSI
  3
"Amdt_StdImp|Product Description: AutoCAD Mechanical|Company: Autodesk, Inc."
 90
     1024
280
     0
281
     0
  0
CLASS
  1
ACMFCFSTANDARDANSI
  2
AcmFCFStdANSI
  3
"Amdt_StdImp|Product Description: AutoCAD Mechanical|Company: Autodesk, Inc."
 90
     1024
280
     0
281
     0
  0
CLASS
  1
ACMWELDSTANDARDANSI
  2
AcmWeldingStdANSI
  3
"Amdt_StdImp|Product Description: AutoCAD Mechanical|Company: Autodesk, Inc."
 90
     1024
280
     0
281
     0
  0
CLASS
  1
ACMIDSTANDARDANSI
  2
AcmIdStdANSI
  3
"Amdt_StdImp|Product Description: AutoCAD Mechanical|Company: Autodesk, Inc."
 90
     1024
280
     0
281
     0
  0
CLASS
  1
ACMDATUMSTANDARDANSI
  2
AcmDatumStdANSI
  3
"Amdt_StdImp|Product Description: AutoCAD Mechanical|Company: Autodesk, Inc."
 90
     1024
280
     0
281
     0
  0
CLASS
  1
ACMBOMSTANDARDANSI
  2
AcmBOMStdANSI
  3
"Amdt_StdImp|Product Description: AutoCAD Mechanical|Company: Autodesk, Inc."
 90
     1024
280
     0
281
     0
  0
CLASS
  1
ACMDETAILSTANDARDANSI
  2
AmdtDetailSymStdANSI
  3
"Amdt_StdImp|Product Description: AutoCAD Mechanical|Company: Autodesk, Inc."
 90
     1024
280
     0
281
     0
  0
CLASS
  1
ACMSECTIONSTANDARDANSI
  2
AmdtSectionSymStdANSI
  3
"Amdt_StdImp|Product Description: AutoCAD Mechanical|Company: Autodesk, Inc."
 90
     1024
280
     0
281
     0
  0
CLASS
  1
ACMCENTERLINESTANDARDANSI
  2
AmdtCenterLineStdANSI
  3
"Amdt_StdImp|Product Description: AutoCAD Mechanical|Company: Autodesk, Inc."
 90
     1024
280
     0
281
     0
  0
CLASS
  1
ACMTHREADLINESTANDARDANSI
  2
AmdtThreadLineStdANSI
  3
"Amdt_StdImp|Product Description: AutoCAD Mechanical|Company: Autodesk, Inc."
 90
     1024
280
     0
281
     0
  0
CLASS
  1
ACMNOTESTANDARDANSI
  2
AmdtNoteStdANSI
  3
"Amdt_StdImp|Product Description: AutoCAD Mechanical|Company: Autodesk, Inc."
 90
     1024
280
     0
281
     0
  0
CLASS
  1
ACMTAPERSTANDARDANSI
  2
AcmTaperStdANSI
  3
"Amdt_StdImp|Product Description: AutoCAD Mechanical|Company: Autodesk, Inc."
 90
     1024
280
     0
281
     0
  0
CLASS
  1
ACMANOOTATIONVIEWSTANDARDANSI
  2
AmdtAnViewStdANSI
  3
"Amdt_StdImp|Product Description: AutoCAD Mechanical|Company: Autodesk, Inc."
 90
     1024
280
     0
281
     0
  0
CLASS
  1
ACAMGLAYSTD
  2
AcAmgLayStd
  3
"AmgLay|Product Description: AutoCAD Mechanical|Company: Autodesk, Inc."
 90
     1024
280
     0
281
     0
  0
CLASS
  1
ACAMGDIMSTD
  2
AcAmgDimStd
  3
"AmgDim|Product Description: AutoCAD Mechanical|Company: Autodesk, Inc."
 90
     1024
280
     0
281
     0
  0
CLASS
  1
AMGOBJPROPCFG
  2
AmgObjPropCfg
  3
"AmgLay|Product Description: AutoCAD Mechanical|Company: Autodesk, Inc."
 90
     1025
280
     0
281
     0
  0
CLASS
  1
ACAMGHOLECHARTSTDANSI
  2
AcAmgHoleChartStdANSI
  3
AmgDim|Product Description: AutoCAD Mechanical|Company: Autodesk, Inc.
 90
     1024
280
     0
281
     0
  0
CLASS
  1
ACAMGTITLESTD
  2
AcAmgTitleStd
  3
"AmgTitle|Product Description: AutoCAD Mechanical|Company: Autodesk, Inc."
 90
     4095
280
     0
281
     0
  0
CLASS
  1
AMDTNOTETEMPLATEDB
  2
AmdtNoteTemplateDB
  3
AcmSymBB|Product Description: AutoCAD Mechanical|Company: Autodesk, Inc.
 90
     1024
280
     0
281
     0
  0
CLASS
  1
EXACXREFPANELOBJECT
  2
ExAcXREFPanelObject
  3
EXAC_ESW
 90
     1025
280
     0
281
     0
  0
CLASS
  1
NPOCOLLECTION
  2
AcDbImpNonPersistentObjectsCollection
  3
ObjectDBX Classes
 90
     1153
280
     0
281
     0
  0
CLASS
  1
ACAMGFILTERDAT
  2
AcAmgFilterDat
  3
"AcadM|Product Description: AutoCAD Mechanical|Company: Autodesk, Inc."
 90
    33792
280
     0
281
     0
  0
CLASS
  1
ACDBPLACEHOLDER
  2
AcDbPlaceHolder
  3
ObjectDBX Classes
 90
        0
280
     0
281
     0
  0
CLASS
  1
LAYOUT
  2
AcDbLayout
  3
ObjectDBX Classes
 90
        0
280
     0
281
     0
  0
ENDSEC
  0
SECTION
  2
TABLES
  0
TABLE
  2
VPORT
  5
24A
330
0
100
AcDbSymbolTable
 70
     1
  0
VPORT
  5
26B
330
24A
100
AcDbSymbolTableRecord
100
AcDbViewportTableRecord
  2
*Active
 70
     0
 10
0.0
 20
0.0
 11
1.0
 21
1.0
 12
4.95578115397086
 22
-29.78708834958735
 13
0.0
 23
0.0
 14
10.0
 24
10.0
 15
10.0
 25
10.0
 16
0.0
 26
0.0
 36
1.0
 17
0.0
 27
0.0
 37
0.0
 40
237.4205286201562
 41
1.466735966735966
 42
1.0
 43
0.0
 44
0.0
 50
0.0
 51
0.0000000000007958
 71
     0
 72
   100
 73
     1
 74
     3
 75
     0
 76
     0
 77
     0
 78
     1
281
     0
 65
     0
110
0.0
120
0.0
130
0.0
111
1.0
121
0.0
131
0.0
112
0.0
122
1.0
132
0.0
 79
     0
146
0.0
  0
ENDTAB
  0
TABLE
  2
LTYPE
  5
247
330
0
100
AcDbSymbolTable
 70
    36
  0
LTYPE
  5
256
330
247
100
AcDbSymbolTableRecord
100
AcDbLinetypeTableRecord
  2
ByBlock
 70
     0
  3

 72
    65
 73
     0
 40
0.0
  0
LTYPE
  5
257
330
247
100
AcDbSymbolTableRecord
100
AcDbLinetypeTableRecord
  2
ByLayer
 70
     0
  3

 72
    65
 73
     0
 40
0.0
  0
LTYPE
  5
258
330
247
100
AcDbSymbolTableRecord
100
AcDbLinetypeTableRecord
  2
Continuous
 70
     0
  3
Solid line
 72
    65
 73
     0
 40
0.0
  0
LTYPE
  5
273
330
247
100
AcDbSymbolTableRecord
100
AcDbLinetypeTableRecord
  2
CENTER
 70
     0
  3
Center ____ _ ____ _ ____ _ ____ _ ____ _ ____
 72
    65
 73
     4
 40
2.0
 49
1.25
 74
     0
 49
-0.25
 74
     0
 49
0.25
 74
     0
 49
-0.25
 74
     0
  0
LTYPE
  5
274
330
247
100
AcDbSymbolTableRecord
100
AcDbLinetypeTableRecord
  2
DASHDOT
 70
     0
  3
Dashdot __ . __ . __ . __ . __ . __ . __ . __
 72
    65
 73
     4
 40
1.0
 49
0.5
 74
     0
 49
-0.25
 74
     0
 49
0.0
 74
     0
 49
-0.25
 74
     0
  0
LTYPE
  5
275
330
247
100
AcDbSymbolTableRecord
100
AcDbLinetypeTableRecord
  2
DASHED
 70
     0
  3
Dashed __ __ __ __ __ __ __ __ __ __ __ __ __ _
 72
    65
 73
     2
 40
0.75
 49
0.5
 74
     0
 49
-0.25
 74
     0
  0
LTYPE
  5
276
330
247
100
AcDbSymbolTableRecord
100
AcDbLinetypeTableRecord
  2
HIDDEN
 70
     0
  3
Hidden __ __ __ __ __ __ __ __ __ __ __ __ __ __
 72
    65
 73
     2
 40
0.375
 49
0.25
 74
     0
 49
-0.125
 74
     0
  0
LTYPE
  5
277
330
247
100
AcDbSymbolTableRecord
100
AcDbLinetypeTableRecord
  2
HIDDEN2
 70
     0
  3
Hidden2 _ _ _ _ _ _ _ _ _ _ _ _ _ _ _ _ _
 72
    65
 73
     2
 40
0.1875
 49
0.125
 74
     0
 49
-0.0625
 74
     0
  0
LTYPE
  5
278
330
247
100
AcDbSymbolTableRecord
100
AcDbLinetypeTableRecord
  2
BORDER
 70
     0
  3
Border __ __ . __ __ . __ __ . __ __ . __ __ .
 72
    65
 73
     6
 40
1.75
 49
0.5
 74
     0
 49
-0.25
 74
     0
 49
0.5
 74
     0
 49
-0.25
 74
     0
 49
0.0
 74
     0
 49
-0.25
 74
     0
  0
LTYPE
  5
279
330
247
100
AcDbSymbolTableRecord
100
AcDbLinetypeTableRecord
  2
BORDER2
 70
     0
  3
Border2 __.__.__.__.__.__.__.__.__.__.__.
 72
    65
 73
     6
 40
0.875
 49
0.25
 74
     0
 49
-0.125
 74
     0
 49
0.25
 74
     0
 49
-0.125
 74
     0
 49
0.0
 74
     0
 49
-0.125
 74
     0
  0
LTYPE
  5
27A
330
247
100
AcDbSymbolTableRecord
100
AcDbLinetypeTableRecord
  2
BORDERX2
 70
     0
  3
Borderx2  ____  ____  .  ____  ____  .  ___
 72
    65
 73
     6
 40
3.5
 49
1.0
 74
     0
 49
-0.5
 74
     0
 49
1.0
 74
     0
 49
-0.5
 74
     0
 49
0.0
 74
     0
 49
-0.5
 74
     0
  0
LTYPE
  5
27B
330
247
100
AcDbSymbolTableRecord
100
AcDbLinetypeTableRecord
  2
CENTER2
 70
     0
  3
Center2  ___ _ ___ _ ___ _ ___ _ ___ _ ___
 72
    65
 73
     4
 40
1.125
 49
0.75
 74
     0
 49
-0.125
 74
     0
 49
0.125
 74
     0
 49
-0.125
 74
     0
  0
LTYPE
  5
27C
330
247
100
AcDbSymbolTableRecord
100
AcDbLinetypeTableRecord
  2
CENTERX2
 70
     0
  3
Centerx2  ________  __  ________  __  _____
 72
    65
 73
     4
 40
4.0
 49
2.5
 74
     0
 49
-0.5
 74
     0
 49
0.5
 74
     0
 49
-0.5
 74
     0
  0
LTYPE
  5
27D
330
247
100
AcDbSymbolTableRecord
100
AcDbLinetypeTableRecord
  2
DASHDOT2
 70
     0
  3
Dashdot2  _._._._._._._._._._._._._._._.
 72
    65
 73
     4
 40
0.5
 49
0.25
 74
     0
 49
-0.125
 74
     0
 49
0.0
 74
     0
 49
-0.125
 74
     0
  0
LTYPE
  5
27E
330
247
100
AcDbSymbolTableRecord
100
AcDbLinetypeTableRecord
  2
DASHDOTX2
 70
     0
  3
Dashdotx2 ____  .  ____  .  ____  .  ___
 72
    65
 73
     4
 40
2.0
 49
1.0
 74
     0
 49
-0.5
 74
     0
 49
0.0
 74
     0
 49
-0.5
 74
     0
  0
LTYPE
  5
27F
330
247
100
AcDbSymbolTableRecord
100
AcDbLinetypeTableRecord
  2
DASHED2
 70
     0
  3
Dashed2 _ _ _ _ _ _ _ _ _ _ _ _ _ _ _ _ _
 72
    65
 73
     2
 40
0.375
 49
0.25
 74
     0
 49
-0.125
 74
     0
  0
LTYPE
  5
280
330
247
100
AcDbSymbolTableRecord
100
AcDbLinetypeTableRecord
  2
DASHEDX2
 70
     0
  3
Dashedx2 ____  ____  ____  ____  ____  ___
 72
    65
 73
     2
 40
1.5
 49
1.0
 74
     0
 49
-0.5
 74
     0
  0
LTYPE
  5
281
330
247
100
AcDbSymbolTableRecord
100
AcDbLinetypeTableRecord
  2
DIVIDE
 70
     0
  3
Divide ____ . . ____ . . ____ . . ____ . . ____
 72
    65
 73
     6
 40
1.25
 49
0.5
 74
     0
 49
-0.25
 74
     0
 49
0.0
 74
     0
 49
-0.25
 74
     0
 49
0.0
 74
     0
 49
-0.25
 74
     0
  0
LTYPE
  5
282
330
247
100
AcDbSymbolTableRecord
100
AcDbLinetypeTableRecord
  2
DIVIDE2
 70
     0
  3
Divide2 __..__..__..__..__..__..__..__.._
 72
    65
 73
     6
 40
0.625
 49
0.25
 74
     0
 49
-0.125
 74
     0
 49
0.0
 74
     0
 49
-0.125
 74
     0
 49
0.0
 74
     0
 49
-0.125
 74
     0
  0
LTYPE
  5
283
330
247
100
AcDbSymbolTableRecord
100
AcDbLinetypeTableRecord
  2
DIVIDEX2
 70
     0
  3
Dividex2 ________  .  .  ________  .  .  _
 72
    65
 73
     6
 40
2.5
 49
1.0
 74
     0
 49
-0.5
 74
     0
 49
0.0
 74
     0
 49
-0.5
 74
     0
 49
0.0
 74
     0
 49
-0.5
 74
     0
  0
LTYPE
  5
284
330
247
100
AcDbSymbolTableRecord
100
AcDbLinetypeTableRecord
  2
DOT
 70
     0
  3
Dot . . . . . . . . . . . . . . . . . . . . . . . .
 72
    65
 73
     2
 40
0.25
 49
0.0
 74
     0
 49
-0.25
 74
     0
  0
LTYPE
  5
285
330
247
100
AcDbSymbolTableRecord
100
AcDbLinetypeTableRecord
  2
DOT2
 70
     0
  3
Dot2 ........................................
 72
    65
 73
     2
 40
0.125
 49
0.0
 74
     0
 49
-0.125
 74
     0
  0
LTYPE
  5
286
330
247
100
AcDbSymbolTableRecord
100
AcDbLinetypeTableRecord
  2
DOTX2
 70
     0
  3
Dotx2 .  .  .  .  .  .  .  .  .  .  .  .  .  .
 72
    65
 73
     2
 40
0.5
 49
0.0
 74
     0
 49
-0.5
 74
     0
  0
LTYPE
  5
287
330
247
100
AcDbSymbolTableRecord
100
AcDbLinetypeTableRecord
  2
HIDDENX2
 70
     0
  3
Hiddenx2 ____ ____ ____ ____ ____ ____ ____
 72
    65
 73
     2
 40
0.75
 49
0.5
 74
     0
 49
-0.25
 74
     0
  0
LTYPE
  5
288
330
247
100
AcDbSymbolTableRecord
100
AcDbLinetypeTableRecord
  2
PHANTOM
 70
     0
  3
Phantom ______  __  __  ______  __  __  ______
 72
    65
 73
     6
 40
2.5
 49
1.25
 74
     0
 49
-0.25
 74
     0
 49
0.25
 74
     0
 49
-0.25
 74
     0
 49
0.25
 74
     0
 49
-0.25
 74
     0
  0
LTYPE
  5
289
330
247
100
AcDbSymbolTableRecord
100
AcDbLinetypeTableRecord
  2
PHANTOM2
 70
     0
  3
Phantom2 ___ _ _ ___ _ _ ___ _ _ ___ _ _
 72
    65
 73
     6
 40
1.25
 49
0.625
 74
     0
 49
-0.125
 74
     0
 49
0.125
 74
     0
 49
-0.125
 74
     0
 49
0.125
 74
     0
 49
-0.125
 74
     0
  0
LTYPE
  5
28A
330
247
100
AcDbSymbolTableRecord
100
AcDbLinetypeTableRecord
  2
PHANTOMX2
 70
     0
  3
Phantomx2 ____________    ____    ____   _
 72
    65
 73
     6
 40
5.0
 49
2.5
 74
     0
 49
-0.5
 74
     0
 49
0.5
 74
     0
 49
-0.5
 74
     0
 49
0.5
 74
     0
 49
-0.5
 74
     0
  0
LTYPE
  5
F10855
330
247
100
AcDbSymbolTableRecord
100
AcDbLinetypeTableRecord
  2
AM_ISO02W050
 70
     0
  3
__ __ __ __ __ __ __ __ __ __ __ __ __ __ __
 72
    65
 73
     2
 40
7.5
 49
6.0
 74
     0
 49
-1.5
 74
     0
  0
LTYPE
  5
F10856
330
247
100
AcDbSymbolTableRecord
100
AcDbLinetypeTableRecord
  2
AM_ISO08W050
 70
     0
  3
____ . ____ . ____ . ____ . ____ . ____ . ____
 72
    65
 73
     4
 40
18.0
 49
12.0
 74
     0
 49
-1.5
 74
     0
 49
3.0
 74
     0
 49
-1.5
 74
     0
  0
LTYPE
  5
F10857
330
247
100
AcDbSymbolTableRecord
100
AcDbLinetypeTableRecord
  2
AM_ISO09W050
 70
     0
  3
_____ . . _____ . . _____ . . ____ .. ____
 72
    65
 73
     6
 40
22.5
 49
12.0
 74
     0
 49
-1.5
 74
     0
 49
3.0
 74
     0
 49
-1.5
 74
     0
 49
3.0
 74
     0
 49
-1.5
 74
     0
  0
LTYPE
  5
F10858
330
247
100
AcDbSymbolTableRecord
100
AcDbLinetypeTableRecord
  2
Amconstr
 70
     0
  3
_______________________
 72
    65
 73
     2
 40
9999.0
 49
9999.0
 74
     0
 49
0.0
 74
     0
  0
LTYPE
  5
F10859
330
247
100
AcDbSymbolTableRecord
100
AcDbLinetypeTableRecord
  2
AM_ISO08W050x2
 70
     0
  3
__ . __ . __ . __ . __ . __
 72
    65
 73
     4
 40
9.0
 49
6.0
 74
     0
 49
-0.75
 74
     0
 49
1.5
 74
     0
 49
-0.75
 74
     0
  0
LTYPE
  5
F1085A
330
247
100
AcDbSymbolTableRecord
100
AcDbLinetypeTableRecord
  2
AM_ISO02W050x2
 70
     0
  3
 _ _ _ _ _ _ _ _ _ _ _ _
 72
    65
 73
     2
 40
3.75
 49
3.0
 74
     0
 49
-0.75
 74
     0
  0
LTYPE
  5
F1085D
330
247
100
AcDbSymbolTableRecord
100
AcDbLinetypeTableRecord
  2
Amzigzag
 70
     0
  3
/\/-/\/-/\/-/\/-/\/-/\/
 72
    65
 73
     2
 40
11.0001
 49
0.0001
 74
     4
 75
   136
340
F1085C
 46
0.04
 50
0.0
 44
0.0
 45
0.0
 49
-11.0
 74
     0
  0
LTYPE
  5
F1085E
330
247
100
AcDbSymbolTableRecord
100
AcDbLinetypeTableRecord
  2
Amzigzag2
 70
     0
  3
/\/-/\/-/\/-/\/-/\/-/\/
 72
    65
 73
     2
 40
0.4401
 49
0.0001
 74
     4
 75
   136
340
F1085C
 46
0.0016
 50
0.0
 44
0.0
 45
0.0
 49
-0.4400000000000002
 74
     0
  0
LTYPE
  5
F1086C
330
247
100
AcDbSymbolTableRecord
100
AcDbLinetypeTableRecord
  2
ACANSTGB
 70
     0
  3
__ . . __ . .
 72
    65
 73
     6
 40
0.35433070866
 49
0.15748031496
 74
     0
 49
-0.03937007874
 74
     0
 49
0.03937007874
 74
     0
 49
-0.03937007874
 74
     0
 49
0.03937007874
 74
     0
 49
-0.03937007874
 74
     0
  0
LTYPE
  5
F1086D
330
247
100
AcDbSymbolTableRecord
100
AcDbLinetypeTableRecord
  2
ACANSTGL
 70
     0
  3
_ _ _ _ _
 72
    65
 73
     2
 40
0.11811023622
 49
0.07874015748
 74
     0
 49
-0.03937007874
 74
     0
  0
ENDTAB
  0
TABLE
  2
LAYER
  5
244
330
0
100
AcDbSymbolTable
 70
     6
  0
LAYER
  5
252
102
{ACAD_XDICTIONARY
360
F109BC
102
}
330
244
100
AcDbSymbolTableRecord
100
AcDbLayerTableRecord
  2
0
 70
     0
 62
     7
  6
Continuous
370
     0
390
19
  0
LAYER
  5
23F
102
{ACAD_XDICTIONARY
360
F109BE
102
}
330
244
100
AcDbSymbolTableRecord
100
AcDbLayerTableRecord
  2
Bemassung
 70
     0
 62
     7
  6
Continuous
370
     0
390
19
  0
LAYER
  5
240
102
{ACAD_XDICTIONARY
360
F109C0
102
}
330
244
100
AcDbSymbolTableRecord
100
AcDbLayerTableRecord
  2
Rahmen
 70
     0
 62
     7
  6
Continuous
370
     0
390
19
  0
LAYER
  5
241
102
{ACAD_XDICTIONARY
360
F109C2
102
}
330
244
100
AcDbSymbolTableRecord
100
AcDbLayerTableRecord
  2
Geo
 70
     0
 62
     7
  6
Continuous
370
     0
390
19
  0
LAYER
  5
33A
330
244
100
AcDbSymbolTableRecord
100
AcDbLayerTableRecord
  2
Defpoints
 70
     0
 62
     7
  6
Continuous
290
     0
370
    -3
390
19
  0
LAYER
  5
57E
102
{ACAD_XDICTIONARY
360
F109C4
102
}
330
244
100
AcDbSymbolTableRecord
100
AcDbLayerTableRecord
  2
Text
 70
     0
 62
     7
  6
Continuous
370
     0
390
19
1001
AcAecLayerStandard
1000

1000

  0
ENDTAB
  0
TABLE
  2
STYLE
  5
245
330
0
100
AcDbSymbolTable
 70
     5
  0
STYLE
  5
253
330
245
100
AcDbSymbolTableRecord
100
AcDbTextStyleTableRecord
  2
Standard
 70
     0
 40
0.0
 41
1.0
 50
0.0
 71
     0
 42
0.2
  3
Arial
  4

1001
ACAD
1000
Arial
1071
        0
  0
STYLE
  5
132
330
245
100
AcDbSymbolTableRecord
100
AcDbTextStyleTableRecord
  2
Beschriftung
 70
     0
 40
0.0
 41
1.0
 50
0.0
 71
     0
 42
0.2
  3
Arial
  4

1001
ACAD
1000
Arial
1071
        0
1001
AcadAnnotative
1000
AnnotativeData
1070
     1
1070
     1
  0
STYLE
  5
F1085C
330
245
100
AcDbSymbolTableRecord
100
AcDbTextStyleTableRecord
  2

 70
     1
 40
0.0
 41
1.0
 50
0.0
 71
     0
 42
0.2
  3
genltshp.shx
  4

  0
STYLE
  5
F1086A
330
245
100
AcDbSymbolTableRecord
100
AcDbTextStyleTableRecord
  2
ACANSTS
 70
     0
 40
1.0
 41
1.0
 50
0.0
 71
     0
 42
0.2
  3
romans.shx
  4

  0
STYLE
  5
F1086B
330
245
100
AcDbSymbolTableRecord
100
AcDbTextStyleTableRecord
  2
ACANSGDT
 70
     0
 40
0.0
 41
1.0
 50
0.0
 71
     0
 42
0.2
  3
amgdt.shx
  4

  0
ENDTAB
  0
TABLE
  2
VIEW
  5
248
330
0
100
AcDbSymbolTable
 70
     0
  0
ENDTAB
  0
TABLE
  2
UCS
  5
249
330
0
100
AcDbSymbolTable
 70
     0
  0
ENDTAB
  0
TABLE
  2
APPID
  5
24B
330
0
100
AcDbSymbolTable
 70
    30
  0
APPID
  5
254
330
24B
100
AcDbSymbolTableRecord
100
AcDbRegAppTableRecord
  2
ACAD
 70
     0
  0
APPID
  5
26C
330
24B
100
AcDbSymbolTableRecord
100
AcDbRegAppTableRecord
  2
VD_INVISIBLE_NOT_FOR_READ
 70
     0
  0
APPID
  5
26D
330
24B
100
AcDbSymbolTableRecord
100
AcDbRegAppTableRecord
  2
VD_TEMPHATCH
 70
     0
  0
APPID
  5
26E
330
24B
100
AcDbSymbolTableRecord
100
AcDbRegAppTableRecord
  2
VDEXTRAPARAM
 70
     0
  0
APPID
  5
26F
330
24B
100
AcDbSymbolTableRecord
100
AcDbRegAppTableRecord
  2
PE_URL
 70
     0
  0
APPID
  5
270
330
24B
100
AcDbSymbolTableRecord
100
AcDbRegAppTableRecord
  2
VD_UNKNOWN
 70
     0
  0
APPID
  5
28F
330
24B
100
AcDbSymbolTableRecord
100
AcDbRegAppTableRecord
  2
AcadAnnotative
 70
     0
  0
APPID
  5
290
330
24B
100
AcDbSymbolTableRecord
100
AcDbRegAppTableRecord
  2
ACAD_DSTYLE_DIMJAG
 70
     0
  0
APPID
  5
291
330
24B
100
AcDbSymbolTableRecord
100
AcDbRegAppTableRecord
  2
ACAD_DSTYLE_DIMTALN
 70
     0
  0
APPID
  5
293
330
24B
100
AcDbSymbolTableRecord
100
AcDbRegAppTableRecord
  2
ACAD_PSEXT
 70
     0
  0
APPID
  5
42A
330
24B
100
AcDbSymbolTableRecord
100
AcDbRegAppTableRecord
  2
ACAD_MLEADERVER
 70
     0
  0
APPID
  5
532
330
24B
100
AcDbSymbolTableRecord
100
AcDbRegAppTableRecord
  2
ACAD_EXEMPT_FROM_CAD_STANDARDS
 70
     0
  0
APPID
  5
57F
330
24B
100
AcDbSymbolTableRecord
100
AcDbRegAppTableRecord
  2
AcAecLayerStandard
 70
     0
  0
APPID
  5
F107ED
330
24B
100
AcDbSymbolTableRecord
100
AcDbRegAppTableRecord
  2
MCAD_NO_VIS
 70
     0
  0
APPID
  5
F107EE
330
24B
100
AcDbSymbolTableRecord
100
AcDbRegAppTableRecord
  2
ACAD_TEMP_GRAPHIC
 70
     0
  0
APPID
  5
F10817
330
24B
100
AcDbSymbolTableRecord
100
AcDbRegAppTableRecord
  2
AD_DRAW
 70
     0
  0
APPID
  5
F1081A
330
24B
100
AcDbSymbolTableRecord
100
AcDbRegAppTableRecord
  2
ACATTRIBSERVICES
 70
     0
  0
APPID
  5
F10837
330
24B
100
AcDbSymbolTableRecord
100
AcDbRegAppTableRecord
  2
DESIGNERASSEMBLIES
 70
     0
  0
APPID
  5
F1083C
330
24B
100
AcDbSymbolTableRecord
100
AcDbRegAppTableRecord
  2
ACADM_DIM_EDIT
 70
     0
  0
APPID
  5
F1083D
330
24B
100
AcDbSymbolTableRecord
100
AcDbRegAppTableRecord
  2
AMDT_DM_ADJ
 70
     0
  0
APPID
  5
F10853
330
24B
100
AcDbSymbolTableRecord
100
AcDbRegAppTableRecord
  2
ACAD_DSTYLE_DIMBREAK
 70
     0
  0
APPID
  5
F10877
330
24B
100
AcDbSymbolTableRecord
100
AcDbRegAppTableRecord
  2
GENIUS_GENSCREG_15
 70
     0
  0
APPID
  5
F10878
330
24B
100
AcDbSymbolTableRecord
100
AcDbRegAppTableRecord
  2
GENIUS_GENODEF_13
 70
     0
  0
APPID
  5
F10879
330
24B
100
AcDbSymbolTableRecord
100
AcDbRegAppTableRecord
  2
GENIUS_GENOBJ-N-SDF_13
 70
     0
  0
APPID
  5
F108B7
330
24B
100
AcDbSymbolTableRecord
100
AcDbRegAppTableRecord
  2
GENIUS_GENDTOL_13
 70
     0
  0
APPID
  5
F108B8
330
24B
100
AcDbSymbolTableRecord
100
AcDbRegAppTableRecord
  2
ACAD_DSTYLE_DIMINSPECT
 70
     0
  0
APPID
  5
F10A12
330
24B
100
AcDbSymbolTableRecord
100
AcDbRegAppTableRecord
  2
ACAD_DSTYLE_DIMARC_LENGTH_SYMBOL
 70
     0
  0
APPID
  5
F10A13
330
24B
100
AcDbSymbolTableRecord
100
AcDbRegAppTableRecord
  2
ACAD_DSTYLE_DIM_LINETYPE
 70
     0
  0
APPID
  5
F10A14
330
24B
100
AcDbSymbolTableRecord
100
AcDbRegAppTableRecord
  2
ACAD_DSTYLE_DIM_EXT1_LINETYPE
 70
     0
  0
APPID
  5
F10A15
330
24B
100
AcDbSymbolTableRecord
100
AcDbRegAppTableRecord
  2
ACAD_DSTYLE_DIM_EXT2_LINETYPE
 70
     0
  0
ENDTAB
  0
TABLE
  2
DIMSTYLE
  5
24C
330
0
100
AcDbSymbolTable
 70
     9
100
AcDbDimStyleTable
 71
     2
340
27
340
269
  0
DIMSTYLE
105
269
330
24C
100
AcDbSymbolTableRecord
100
AcDbDimStyleTableRecord
  2
Standard
 70
     0
172
     1
174
     1
288
     1
340
253
342
23C
  0
DIMSTYLE
105
137
330
24C
100
AcDbSymbolTableRecord
100
AcDbDimStyleTableRecord
  2
Beschriftung
 70
     0
 41
2.5
 42
0.625
 44
1.25
 73
     0
 74
     0
 77
     1
140
2.5
147
0.625
172
     1
174
     1
271
     2
288
     1
340
253
342
23C
1001
AcadAnnotative
1000
AnnotativeData
1070
     1
1070
     1
1001
ACAD_DSTYLE_DIMJAG
1070
   388
1040
1.5
1001
ACAD_DSTYLE_DIMTALN
1070
   392
1070
     0
  0
DIMSTYLE
105
27
102
{ACAD_REACTORS
330
F1000D
330
F10017
330
F1001C
330
F10008
330
F10003
330
F10012
102
}
330
24C
100
AcDbSymbolTableRecord
100
AcDbDimStyleTableRecord
  2
BEM-ISBE
 70
     0
 41
2.5
 42
0.625
 44
1.25
 48
0.000000001
 71
     1
 73
     0
 74
     0
 77
     1
140
2.5
146
0.5
147
0.625
171
     3
172
     1
179
     3
271
     3
272
     3
274
     3
340
253
342
23C
1001
ACAD_DSTYLE_DIMJAG
1070
   388
1040
1.5
1001
ACAD_DSTYLE_DIMTALN
1070
   392
1070
     1
  0
DIMSTYLE
105
F10852
102
{ACAD_REACTORS
330
F10A6F
102
}
330
24C
100
AcDbSymbolTableRecord
100
AcDbDimStyleTableRecord
  2
AM_ANSI
 70
     0
  4
mm
 41
0.12
 42
0.05
 43
0.5
 44
0.1
 47
0.1
 48
0.1
 78
     7
 79
     2
140
0.12
141
0.0
146
0.71
147
0.06
176
   256
177
   256
178
     2
274
     4
284
     7
340
253
371
    -1
372
    -1
1001
ACAD_DSTYLE_DIMJAG
1070
   388
1040
1.5
1001
ACAD_DSTYLE_DIMBREAK
1070
   391
1040
0.125
1001
ACAD_DSTYLE_DIMARC_LENGTH_SYMBOL
1070
   379
1070
     1
1001
ACAD_DSTYLE_DIM_LINETYPE
1070
   380
1005
256
1001
ACAD_DSTYLE_DIM_EXT1_LINETYPE
1070
   381
1005
256
1001
ACAD_DSTYLE_DIM_EXT2_LINETYPE
1070
   382
1005
256
  0
DIMSTYLE
105
F1085F
330
24C
100
AcDbSymbolTableRecord
100
AcDbDimStyleTableRecord
  2
AM_ANSI$3
 70
     0
  4
mm
 41
0.12
 42
0.05
 43
0.5
 44
0.1
 47
0.1
 48
0.1
 78
     7
 79
     2
140
0.12
141
0.0
146
0.71
147
0.06
176
   256
177
   256
178
     2
274
     4
284
     7
288
     1
289
     0
340
253
371
    -1
372
    -1
1001
ACAD_DSTYLE_DIMBREAK
1070
   391
1040
0.125
1001
ACAD_DSTYLE_DIMJAG
1070
   388
1040
1.5
1001
ACAD_DSTYLE_DIMARC_LENGTH_SYMBOL
1070
   379
1070
     1
1001
ACAD_DSTYLE_DIM_LINETYPE
1070
   380
1005
256
1001
ACAD_DSTYLE_DIM_EXT1_LINETYPE
1070
   381
1005
256
1001
ACAD_DSTYLE_DIM_EXT2_LINETYPE
1070
   382
1005
256
  0
DIMSTYLE
105
F10860
330
24C
100
AcDbSymbolTableRecord
100
AcDbDimStyleTableRecord
  2
AM_ANSI$4
 70
     0
  4
mm
 41
0.12
 42
0.05
 43
0.5
 44
0.1
 47
0.1
 48
0.1
 78
     7
 79
     2
140
0.12
141
0.0
146
0.71
147
0.06
176
   256
177
   256
178
     2
274
     4
284
     7
288
     1
289
     0
340
253
371
    -1
372
    -1
1001
ACAD_DSTYLE_DIMBREAK
1070
   391
1040
0.125
1001
ACAD_DSTYLE_DIMJAG
1070
   388
1040
1.5
1001
ACAD_DSTYLE_DIMARC_LENGTH_SYMBOL
1070
   379
1070
     1
1001
ACAD_DSTYLE_DIM_LINETYPE
1070
   380
1005
256
1001
ACAD_DSTYLE_DIM_EXT1_LINETYPE
1070
   381
1005
256
1001
ACAD_DSTYLE_DIM_EXT2_LINETYPE
1070
   382
1005
256
  0
DIMSTYLE
105
F10861
330
24C
100
AcDbSymbolTableRecord
100
AcDbDimStyleTableRecord
  2
AM_ANSI$7
 70
     0
  4
mm
 41
0.12
 42
0.05
 43
0.5
 44
0.1
 47
0.1
 48
0.1
 78
     7
 79
     2
140
0.12
141
0.0
146
0.71
147
0.06
176
   256
177
   256
178
     2
274
     4
284
     7
340
253
371
    -1
372
    -1
1001
ACAD_DSTYLE_DIMBREAK
1070
   391
1040
0.125
1001
ACAD_DSTYLE_DIMJAG
1070
   388
1040
1.5
1001
ACAD_DSTYLE_DIMARC_LENGTH_SYMBOL
1070
   379
1070
     1
1001
ACAD_DSTYLE_DIM_LINETYPE
1070
   380
1005
256
1001
ACAD_DSTYLE_DIM_EXT1_LINETYPE
1070
   381
1005
256
1001
ACAD_DSTYLE_DIM_EXT2_LINETYPE
1070
   382
1005
256
  0
DIMSTYLE
105
F10862
330
24C
100
AcDbSymbolTableRecord
100
AcDbDimStyleTableRecord
  2
AM_ANSI$SF
 70
     0
  4
mm
 41
0.12
 42
0.05
 43
0.5
 44
0.1
 47
0.1
 48
0.1
 75
     1
 76
     1
 78
     7
 79
     2
140
0.12
141
0.0
146
0.71
147
0.06
176
   256
177
   256
178
     2
274
     4
284
     7
340
253
371
    -1
372
    -1
1001
ACAD_DSTYLE_DIMBREAK
1070
   391
1040
0.125
1001
ACAD_DSTYLE_DIMJAG
1070
   388
1040
1.5
1001
ACAD_DSTYLE_DIMARC_LENGTH_SYMBOL
1070
   379
1070
     1
1001
ACAD_DSTYLE_DIM_LINETYPE
1070
   380
1005
256
1001
ACAD_DSTYLE_DIM_EXT1_LINETYPE
1070
   381
1005
256
1001
ACAD_DSTYLE_DIM_EXT2_LINETYPE
1070
   382
1005
256
  0
DIMSTYLE
105
F10867
330
24C
100
AcDbSymbolTableRecord
100
AcDbDimStyleTableRecord
  2
AM_ANSI$SH
 70
     0
  4
mm
 41
0.12
 42
0.05
 43
0.5
 44
0.1
 47
0.1
 48
0.1
 75
     1
 76
     1
 78
     7
 79
     2
140
0.12
141
0.0
146
0.71
147
0.06
173
     1
176
   256
177
   256
178
     2
274
     4
284
     7
340
253
343
F10863
371
    -1
372
    -1
1001
ACAD_DSTYLE_DIMBREAK
1070
   391
1040
0.125
1001
ACAD_DSTYLE_DIMJAG
1070
   388
1040
1.5
1001
ACAD_DSTYLE_DIMARC_LENGTH_SYMBOL
1070
   379
1070
     1
1001
ACAD_DSTYLE_DIM_LINETYPE
1070
   380
1005
256
1001
ACAD_DSTYLE_DIM_EXT1_LINETYPE
1070
   381
1005
256
1001
ACAD_DSTYLE_DIM_EXT2_LINETYPE
1070
   382
1005
256
  0
ENDTAB
  0
TABLE
  2
BLOCK_RECORD
  5
243
330
0
100
AcDbSymbolTable
 70
    11
  0
BLOCK_RECORD
  5
261
330
243
100
AcDbSymbolTableRecord
100
AcDbBlockTableRecord
  2
*Model_Space
340
FD0
  0
BLOCK_RECORD
  5
25D
330
243
100
AcDbSymbolTableRecord
100
AcDbBlockTableRecord
  2
*Paper_Space
340
FD1
  0
BLOCK_RECORD
  5
265
330
243
100
AcDbSymbolTableRecord
100
AcDbBlockTableRecord
  2
*Paper_Space0
340
0
  0
BLOCK_RECORD
  5
23C
330
243
100
AcDbSymbolTableRecord
100
AcDbBlockTableRecord
  2
VDDIM_DEFAULT
340
0
102
{BLKREFS
331
F1098C
331
F1098D
331
F10995
331
F1099B
331
F1099C
331
F109A4
331
F109A5
331
F109AD
331
F109AE
331
F109B6
331
F109B7
102
}
  0
BLOCK_RECORD
  5
23E
330
243
100
AcDbSymbolTableRecord
100
AcDbBlockTableRecord
  2
VDDIM_NONE
340
0
  0
BLOCK_RECORD
  5
F1000C
330
243
100
AcDbSymbolTableRecord
100
AcDbBlockTableRecord
  2
*D3
340
0
  0
BLOCK_RECORD
  5
F10016
330
243
100
AcDbSymbolTableRecord
100
AcDbBlockTableRecord
  2
*D4
340
0
  0
BLOCK_RECORD
  5
F1001B
330
243
100
AcDbSymbolTableRecord
100
AcDbBlockTableRecord
  2
*D5
340
0
  0
BLOCK_RECORD
  5
F10007
330
243
100
AcDbSymbolTableRecord
100
AcDbBlockTableRecord
  2
*D6
340
0
  0
BLOCK_RECORD
  5
F10002
330
243
100
AcDbSymbolTableRecord
100
AcDbBlockTableRecord
  2
*D7
340
0
  0
BLOCK_RECORD
  5
F10011
330
243
100
AcDbSymbolTableRecord
100
AcDbBlockTableRecord
  2
*D8
340
0
  0
BLOCK_RECORD
  5
F10863
330
243
100
AcDbSymbolTableRecord
100
AcDbBlockTableRecord
  2
GENAXEH
340
0
  0
ENDTAB
  0
ENDSEC
  0
SECTION
  2
BLOCKS
  0
BLOCK
  5
262
330
261
100
AcDbEntity
  8
0
100
AcDbBlockBegin
  2
*Model_Space
 70
     0
 10
0.0
 20
0.0
 30
0.0
  3
*Model_Space
  1

  0
ENDBLK
  5
263
330
261
100
AcDbEntity
  8
0
100
AcDbBlockEnd
  0
BLOCK
  5
25E
330
25D
100
AcDbEntity
 67
     1
  8
0
100
AcDbBlockBegin
  2
*Paper_Space
 70
     0
 10
0.0
 20
0.0
 30
0.0
  3
*Paper_Space
  1

  0
ENDBLK
  5
25F
330
25D
100
AcDbEntity
 67
     1
  8
0
100
AcDbBlockEnd
  0
BLOCK
  5
266
330
265
100
AcDbEntity
  8
0
100
AcDbBlockBegin
  2
*Paper_Space0
 70
     0
 10
0.0
 20
0.0
 30
0.0
  3
*Paper_Space0
  1

  0
VIEWPORT
  5
296
102
{ACAD_XDICTIONARY
360
F10A96
102
}
330
265
100
AcDbEntity
  8
0
 60
     1
100
AcDbViewport
 10
0.0
 20
0.0
 30
0.0
 40
10.0
 41
10.0
 69
     0
 12
0.0
 22
0.0
 13
0.0
 23
0.0
 14
1.0
 24
1.0
 15
0.0
 25
0.0
 16
0.0
 26
0.0
 36
1.0
 17
0.0
 27
0.0
 37
0.0
 42
0.0
 43
0.0
 44
0.0
 45
10.0
 50
0.0
 51
0.0000000000007958
 72
   100
 90
   163872
  1

281
     0
 71
     0
 74
     0
110
0.0
120
0.0
130
0.0
111
1.0
121
0.0
131
0.0
112
0.0
122
1.0
132
0.0
 79
     0
146
0.0
1001
VD_INVISIBLE_NOT_FOR_READ
1000
VD_INVISIBLE_NOT_FOR_READ
  0
VIEWPORT
  5
297
102
{ACAD_XDICTIONARY
360
F10A98
102
}
330
265
100
AcDbEntity
  8
0
 60
     1
100
AcDbViewport
 10
0.0
 20
0.0
 30
0.0
 40
10.0
 41
10.0
 69
     0
 12
0.0
 22
0.0
 13
0.0
 23
0.0
 14
1.0
 24
1.0
 15
0.0
 25
0.0
 16
0.0
 26
0.0
 36
1.0
 17
0.0
 27
0.0
 37
0.0
 42
0.0
 43
0.0
 44
0.0
 45
10.0
 50
0.0
 51
0.0000000000007958
 72
   100
 90
   163872
  1

281
     0
 71
     0
 74
     0
110
0.0
120
0.0
130
0.0
111
1.0
121
0.0
131
0.0
112
0.0
122
1.0
132
0.0
 79
     0
146
0.0
1001
VD_INVISIBLE_NOT_FOR_READ
1000
VD_INVISIBLE_NOT_FOR_READ
  0
ENDBLK
  5
267
330
265
100
AcDbEntity
  8
0
100
AcDbBlockEnd
  0
BLOCK
  5
28B
330
23C
100
AcDbEntity
  8
0
100
AcDbBlockBegin
  2
VDDIM_DEFAULT
 70
     0
 10
0.0
 20
0.0
 30
0.0
  3
VDDIM_DEFAULT
  1

  0
LWPOLYLINE
  5
23D
330
23C
100
AcDbEntity
  8
0
  6
Continuous
 62
     0
100
AcDbPolyline
 90
        4
 70
     0
 43
0.0
 10
0.0
 20
0.0
 10
-1.0
 20
-0.1665
 10
-1.0
 20
0.1665
 10
0.0
 20
0.0
1001
VDEXTRAPARAM
1071
        1
1071
        0
1071
        0
1040
1.0
1000

1000

1040
0.0
1040
0.0
  0
HATCH
  5
292
330
23C
100
AcDbEntity
  8
0
  6
Continuous
 62
     0
100
AcDbHatch
 10
0.0
 20
0.0
 30
0.0
210
0.0
220
0.0
230
1.0
  2
SOLID
 70
     1
 71
     0
 91
        1
 92
        2
 72
     0
 73
     1
 93
        3
 10
0.0
 20
0.0
 10
-1.0
 20
-0.1665
 10
-1.0
 20
0.1665
 97
        0
 75
     0
 76
     1
 98
        1
 10
0.0
 20
0.0
1001
VDEXTRAPARAM
1071
        1
1071
        0
1071
        0
1040
1.0
1000

1000

1040
0.0
1040
0.0
1001
VD_TEMPHATCH
1000
VD_TEMPHATCH
  0
ENDBLK
  5
28C
330
23C
100
AcDbEntity
  8
0
100
AcDbBlockEnd
  0
BLOCK
  5
28D
330
23E
100
AcDbEntity
  8
0
100
AcDbBlockBegin
  2
VDDIM_NONE
 70
     0
 10
0.0
 20
0.0
 30
0.0
  3
VDDIM_NONE
  1

  0
ENDBLK
  5
28E
330
23E
100
AcDbEntity
  8
0
100
AcDbBlockEnd
  0
BLOCK
  5
F10020
330
F1000C
100
AcDbEntity
  8
0
100
AcDbBlockBegin
  2
*D3
 70
     1
 10
0.0
 20
0.0
 30
0.0
  3
*D3
  1

  0
LINE
  5
F10998
330
F1000C
100
AcDbEntity
  8
Bemassung
 62
     0
370
    -2
100
AcDbLine
 10
-4.203367618627871
 20
24.72440280896473
 30
0.0
 11
-4.203367618627871
 21
39.34940280896473
 31
0.0
  0
LINE
  5
F10999
330
F1000C
100
AcDbEntity
  8
Bemassung
 62
     0
370
    -2
100
AcDbLine
 10
43.79663238137213
 20
23.72440280896473
 30
0.0
 11
43.79663238137213
 21
39.34940280896473
 31
0.0
  0
LINE
  5
F1099A
330
F1000C
100
AcDbEntity
  8
Bemassung
 62
     0
370
    -2
100
AcDbLine
 10
-1.70336761862787
 20
38.09940280896473
 30
0.0
 11
41.29663238137214
 21
38.09940280896473
 31
0.0
  0
INSERT
  5
F1099B
330
F1000C
100
AcDbEntity
  8
Bemassung
 62
     0
370
    -2
100
AcDbBlockReference
  2
VDDIM_DEFAULT
 10
-4.203367618627871
 20
38.09940280896473
 30
0.0
 41
2.5
 42
2.5
 43
2.5
 50
180.0
  0
INSERT
  5
F1099C
330
F1000C
100
AcDbEntity
  8
Bemassung
 62
     0
370
    -2
100
AcDbBlockReference
  2
VDDIM_DEFAULT
 10
43.79663238137213
 20
38.09940280896473
 30
0.0
 41
2.5
 42
2.5
 43
2.5
  0
MTEXT
  5
F1099D
330
F1000C
100
AcDbEntity
  8
Bemassung
 62
     0
100
AcDbMText
 10
19.79663238137214
 20
38.72440280896473
 30
0.0
 40
2.5
 41
0.0
 71
     8
 72
     1
  1
\A1;48
 73
     1
 44
1.0
1001
ACAD
1000
MTEXTBEGIN
1070
    73
1070
     1
1070
    44
1040
1.0
1070
    74
1070
     0
1000
MTEXTEND
  0
POINT
  5
F1099E
330
F1000C
100
AcDbEntity
  8
Defpoints
 62
     0
100
AcDbPoint
 10
-4.203367618627871
 20
24.09940280896473
 30
0.0
  0
POINT
  5
F1099F
330
F1000C
100
AcDbEntity
  8
Defpoints
 62
     0
100
AcDbPoint
 10
43.79663238137213
 20
23.09940280896473
 30
0.0
  0
POINT
  5
F109A0
330
F1000C
100
AcDbEntity
  8
Defpoints
 62
     0
100
AcDbPoint
 10
43.79663238137213
 20
38.09940280896473
 30
0.0
  0
ENDBLK
  5
F10029
330
F1000C
100
AcDbEntity
  8
0
100
AcDbBlockEnd
  0
BLOCK
  5
F1002A
330
F10016
100
AcDbEntity
  8
0
100
AcDbBlockBegin
  2
*D4
 70
     1
 10
0.0
 20
0.0
 30
0.0
  3
*D4
  1

  0
LINE
  5
F109AA
330
F10016
100
AcDbEntity
  8
Bemassung
 62
     0
370
    -2
100
AcDbLine
 10
-22.20336761862787
 20
5.474402808964732
 30
0.0
 11
-22.20336761862787
 21
-9.150597191035263
 31
0.0
  0
LINE
  5
F109AB
330
F10016
100
AcDbEntity
  8
Bemassung
 62
     0
370
    -2
100
AcDbLine
 10
-48.20336761862787
 20
-9.275597191035267
 30
0.0
 11
-48.20336761862787
 21
-6.650597191035264
 31
0.0
  0
LINE
  5
F109AC
330
F10016
100
AcDbEntity
  8
Bemassung
 62
     0
370
    -2
100
AcDbLine
 10
-24.70336761862788
 20
-7.900597191035264
 30
0.0
 11
-45.70336761862786
 21
-7.900597191035264
 31
0.0
  0
INSERT
  5
F109AD
330
F10016
100
AcDbEntity
  8
Bemassung
 62
     0
370
    -2
100
AcDbBlockReference
  2
VDDIM_DEFAULT
 10
-22.20336761862787
 20
-7.900597191035264
 30
0.0
 41
2.5
 42
2.5
 43
2.5
  0
INSERT
  5
F109AE
330
F10016
100
AcDbEntity
  8
Bemassung
 62
     0
370
    -2
100
AcDbBlockReference
  2
VDDIM_DEFAULT
 10
-48.20336761862787
 20
-7.900597191035264
 30
0.0
 41
2.5
 42
2.5
 43
2.5
 50
180.0
  0
MTEXT
  5
F109AF
330
F10016
100
AcDbEntity
  8
Bemassung
 62
     0
100
AcDbMText
 10
-35.20336761862786
 20
-7.275597191035264
 30
0.0
 40
2.5
 41
0.0
 71
     8
 72
     1
  1
\A1;26
 73
     1
 44
1.0
1001
ACAD
1000
MTEXTBEGIN
1070
    73
1070
     1
1070
    44
1040
1.0
1070
    74
1070
     0
1000
MTEXTEND
  0
POINT
  5
F109B0
330
F10016
100
AcDbEntity
  8
Defpoints
 62
     0
100
AcDbPoint
 10
-22.20336761862787
 20
6.099402808964732
 30
0.0
  0
POINT
  5
F109B1
330
F10016
100
AcDbEntity
  8
Defpoints
 62
     0
100
AcDbPoint
 10
-48.20336761862787
 20
-9.900597191035267
 30
0.0
  0
POINT
  5
F109B2
330
F10016
100
AcDbEntity
  8
Defpoints
 62
     0
100
AcDbPoint
 10
-48.20336761862787
 20
-7.900597191035264
 30
0.0
  0
ENDBLK
  5
F10033
330
F10016
100
AcDbEntity
  8
0
100
AcDbBlockEnd
  0
BLOCK
  5
F10034
330
F1001B
100
AcDbEntity
  8
0
100
AcDbBlockBegin
  2
*D5
 70
     1
 10
0.0
 20
0.0
 30
0.0
  3
*D5
  1

  0
LINE
  5
F109B3
330
F1001B
100
AcDbEntity
  8
Bemassung
 62
     0
370
    -2
100
AcDbLine
 10
43.79663238137213
 20
23.72440280896473
 30
0.0
 11
43.79663238137213
 21
54.34940280896473
 31
0.0
  0
LINE
  5
F109B4
330
F1001B
100
AcDbEntity
  8
Bemassung
 62
     0
370
    -2
100
AcDbLine
 10
-48.20336761862787
 20
-9.275597191035267
 30
0.0
 11
-48.20336761862787
 21
54.34940280896473
 31
0.0
  0
LINE
  5
F109B5
330
F1001B
100
AcDbEntity
  8
Bemassung
 62
     0
370
    -2
100
AcDbLine
 10
41.29663238137214
 20
53.09940280896473
 30
0.0
 11
-45.70336761862786
 21
53.09940280896473
 31
0.0
  0
INSERT
  5
F109B6
330
F1001B
100
AcDbEntity
  8
Bemassung
 62
     0
370
    -2
100
AcDbBlockReference
  2
VDDIM_DEFAULT
 10
43.79663238137213
 20
53.09940280896473
 30
0.0
 41
2.5
 42
2.5
 43
2.5
  0
INSERT
  5
F109B7
330
F1001B
100
AcDbEntity
  8
Bemassung
 62
     0
370
    -2
100
AcDbBlockReference
  2
VDDIM_DEFAULT
 10
-48.20336761862787
 20
53.09940280896473
 30
0.0
 41
2.5
 42
2.5
 43
2.5
 50
180.0
  0
MTEXT
  5
F109B8
330
F1001B
100
AcDbEntity
  8
Bemassung
 62
     0
100
AcDbMText
 10
-2.203367618627853
 20
53.72440280896473
 30
0.0
 40
2.5
 41
0.0
 71
     8
 72
     1
  1
\A1;92
 73
     1
 44
1.0
1001
ACAD
1000
MTEXTBEGIN
1070
    73
1070
     1
1070
    44
1040
1.0
1070
    74
1070
     0
1000
MTEXTEND
  0
POINT
  5
F109B9
330
F1001B
100
AcDbEntity
  8
Defpoints
 62
     0
100
AcDbPoint
 10
43.79663238137213
 20
23.09940280896473
 30
0.0
  0
POINT
  5
F109BA
330
F1001B
100
AcDbEntity
  8
Defpoints
 62
     0
100
AcDbPoint
 10
-48.20336761862787
 20
-9.900597191035267
 30
0.0
  0
POINT
  5
F109BB
330
F1001B
100
AcDbEntity
  8
Defpoints
 62
     0
100
AcDbPoint
 10
-48.20336761862787
 20
53.09940280896473
 30
0.0
  0
ENDBLK
  5
F1003D
330
F1001B
100
AcDbEntity
  8
0
100
AcDbBlockEnd
  0
BLOCK
  5
F1003E
330
F10007
100
AcDbEntity
  8
0
100
AcDbBlockBegin
  2
*D6
 70
     1
 10
0.0
 20
0.0
 30
0.0
  3
*D6
  1

  0
LINE
  5
F10992
330
F10007
100
AcDbEntity
  8
Bemassung
 62
     0
370
    -2
100
AcDbLine
 10
-55.75859886412906
 20
39.01231385086147
 30
0.0
 11
-45.74931952475277
 21
24.55458729382276
 31
0.0
  0
MTEXT
  5
F10993
330
F10007
100
AcDbEntity
  8
Bemassung
 62
     0
100
AcDbMText
 10
-53.74015907407715
 20
37.19482103130886
 30
0.0
 40
2.5
 41
0.0
 71
     8
 72
     1
  1
\A1;R9
 11
0.5692132092282533
 21
-0.8221899552050444
 31
0.0
 73
     1
 44
1.0
1001
ACAD
1000
MTEXTBEGIN
1070
    73
1070
     1
1070
    44
1040
1.0
1070
    74
1070
     0
1000
MTEXTEND
  0
LINE
  5
F10994
330
F10007
100
AcDbEntity
  8
Bemassung
 62
     0
370
    -2
100
AcDbLine
 10
-39.20336761862787
 20
15.09940280896473
 30
0.0
 11
-44.32628650168214
 21
22.49911240581015
 31
0.0
  0
INSERT
  5
F10995
330
F10007
100
AcDbEntity
  8
Bemassung
 62
     0
370
    -2
100
AcDbBlockReference
  2
VDDIM_DEFAULT
 10
-44.32628650168214
 20
22.49911240581015
 30
0.0
 41
2.5
 42
2.5
 43
2.5
 50
304.695378646994
  0
POINT
  5
F10996
330
F10007
100
AcDbEntity
  8
Defpoints
 62
     0
100
AcDbPoint
 10
-44.32628650168214
 20
22.49911240581015
 30
0.0
  0
POINT
  5
F10997
330
F10007
100
AcDbEntity
  8
Defpoints
 62
     0
100
AcDbPoint
 10
-39.20336761862787
 20
15.09940280896473
 30
0.0
  0
ENDBLK
  5
F10044
330
F10007
100
AcDbEntity
  8
0
100
AcDbBlockEnd
  0
BLOCK
  5
F10045
330
F10002
100
AcDbEntity
  8
0
100
AcDbBlockBegin
  2
*D7
 70
     1
 10
0.0
 20
0.0
 30
0.0
  3
*D7
  1

  0
LINE
  5
F10989
330
F10002
100
AcDbEntity
  8
Bemassung
 62
     0
370
    -2
100
AcDbLine
 10
-39.82836761862787
 20
6.099402808964732
 30
0.0
 11
-59.45336761862767
 21
6.09940280896474
 31
0.0
  0
LINE
  5
F1098A
330
F10002
100
AcDbEntity
  8
Bemassung
 62
     0
370
    -2
100
AcDbLine
 10
-39.82836761862787
 20
24.09940280896473
 30
0.0
 11
-59.45336761862765
 21
24.09940280896474
 31
0.0
  0
LINE
  5
F1098B
330
F10002
100
AcDbEntity
  8
Bemassung
 62
     0
370
    -2
100
AcDbLine
 10
-58.20336761862767
 20
8.599402808964738
 30
0.0
 11
-58.20336761862765
 21
21.59940280896474
 31
0.0
  0
INSERT
  5
F1098C
330
F10002
100
AcDbEntity
  8
Bemassung
 62
     0
370
    -2
100
AcDbBlockReference
  2
VDDIM_DEFAULT
 10
-58.20336761862767
 20
6.09940280896474
 30
0.0
 41
2.5
 42
2.5
 43
2.5
 50
270.0
  0
INSERT
  5
F1098D
330
F10002
100
AcDbEntity
  8
Bemassung
 62
     0
370
    -2
100
AcDbBlockReference
  2
VDDIM_DEFAULT
 10
-58.20336761862765
 20
24.09940280896474
 30
0.0
 41
2.5
 42
2.5
 43
2.5
 50
90.0
  0
MTEXT
  5
F1098E
330
F10002
100
AcDbEntity
  8
Bemassung
 62
     0
100
AcDbMText
 10
-58.82836761862767
 20
15.09940280896473
 30
0.0
 40
2.5
 41
0.0
 71
     8
 72
     1
  1
\A1;18
 11
0.0000000000000001
 21
1.0
 31
0.0
 73
     1
 44
1.0
1001
ACAD
1000
MTEXTBEGIN
1070
    73
1070
     1
1070
    44
1040
1.0
1070
    74
1070
     0
1000
MTEXTEND
  0
POINT
  5
F1098F
330
F10002
100
AcDbEntity
  8
Defpoints
 62
     0
100
AcDbPoint
 10
-39.20336761862787
 20
6.099402808964732
 30
0.0
  0
POINT
  5
F10990
330
F10002
100
AcDbEntity
  8
Defpoints
 62
     0
100
AcDbPoint
 10
-39.20336761862787
 20
24.09940280896473
 30
0.0
  0
POINT
  5
F10991
330
F10002
100
AcDbEntity
  8
Defpoints
 62
     0
100
AcDbPoint
 10
-58.20336761862765
 20
24.09940280896474
 30
0.0
  0
ENDBLK
  5
F1004E
330
F10002
100
AcDbEntity
  8
0
100
AcDbBlockEnd
  0
BLOCK
  5
F1004F
330
F10011
100
AcDbEntity
  8
0
100
AcDbBlockBegin
  2
*D8
 70
     1
 10
0.0
 20
0.0
 30
0.0
  3
*D8
  1

  0
LINE
  5
F109A1
330
F10011
100
AcDbEntity
  8
Bemassung
 62
     0
370
    -2
100
AcDbLine
 10
43.42163238137215
 20
6.099402808964732
 30
0.0
 11
55.04663238137212
 21
6.099402808964732
 31
0.0
  0
LINE
  5
F109A2
330
F10011
100
AcDbEntity
  8
Bemassung
 62
     0
370
    -2
100
AcDbLine
 10
43.42163238137215
 20
24.09940280896473
 30
0.0
 11
55.04663238137213
 21
24.09940280896473
 31
0.0
  0
LINE
  5
F109A3
330
F10011
100
AcDbEntity
  8
Bemassung
 62
     0
370
    -2
100
AcDbLine
 10
53.79663238137212
 20
8.599402808964731
 30
0.0
 11
53.79663238137213
 21
21.59940280896473
 31
0.0
  0
INSERT
  5
F109A4
330
F10011
100
AcDbEntity
  8
Bemassung
 62
     0
370
    -2
100
AcDbBlockReference
  2
VDDIM_DEFAULT
 10
53.79663238137212
 20
6.099402808964732
 30
0.0
 41
2.5
 42
2.5
 43
2.5
 50
270.0
  0
INSERT
  5
F109A5
330
F10011
100
AcDbEntity
  8
Bemassung
 62
     0
370
    -2
100
AcDbBlockReference
  2
VDDIM_DEFAULT
 10
53.79663238137213
 20
24.09940280896473
 30
0.0
 41
2.5
 42
2.5
 43
2.5
 50
90.0
  0
MTEXT
  5
F109A6
330
F10011
100
AcDbEntity
  8
Bemassung
 62
     0
100
AcDbMText
 10
53.17163238137212
 20
15.09940280896474
 30
0.0
 40
2.5
 41
0.0
 71
     8
 72
     1
  1
\A1;%%C18 
 11
0.0000000000000001
 21
1.0
 31
0.0
 73
     1
 44
1.0
1001
ACAD
1000
MTEXTBEGIN
1070
    73
1070
     1
1070
    44
1040
1.0
1070
    74
1070
     0
1000
MTEXTEND
  0
POINT
  5
F109A7
330
F10011
100
AcDbEntity
  8
Defpoints
 62
     0
100
AcDbPoint
 10
42.79663238137215
 20
6.099402808964732
 30
0.0
  0
POINT
  5
F109A8
330
F10011
100
AcDbEntity
  8
Defpoints
 62
     0
100
AcDbPoint
 10
42.79663238137215
 20
24.09940280896473
 30
0.0
  0
POINT
  5
F109A9
330
F10011
100
AcDbEntity
  8
Defpoints
 62
     0
100
AcDbPoint
 10
53.79663238137213
 20
24.09940280896473
 30
0.0
  0
ENDBLK
  5
F10058
330
F10011
100
AcDbEntity
  8
0
100
AcDbBlockEnd
  0
BLOCK
  5
F10865
330
F10863
100
AcDbEntity
  8
0
100
AcDbBlockBegin
  2
GENAXEH
 70
     0
 10
0.0
 20
0.0
 30
0.0
  3
GENAXEH
  1

  0
LINE
  5
F10864
330
F10863
100
AcDbEntity
  8
0
100
AcDbLine
 10
-1.0
 20
0.0
 30
0.0
 11
1.0
 21
0.0
 31
0.0
  0
ENDBLK
  5
F10866
330
F10863
100
AcDbEntity
  8
0
100
AcDbBlockEnd
  0
ENDSEC
  0
SECTION
  2
ENTITIES
  0
DIMENSION
  5
F1000D
330
261
100
AcDbEntity
  8
Bemassung
100
AcDbDimension
  2
*D3
 10
43.79663238137213
 20
38.09940280896473
 30
0.0
 11
19.79663238137214
 21
40.00083527826896
 31
0.0
 70
    32
  1
<>
 71
     8
 42
48.00000000000002
  3
BEM-ISBE
100
AcDbAlignedDimension
 13
-4.203367618627871
 23
24.09940280896473
 33
0.0
 14
43.79663238137213
 24
23.09940280896473
 34
0.0
100
AcDbRotatedDimension
1001
ACAD
1000
DSTYLE
1002
{
1070
    47
1040
2.0
1070
    48
1040
0.0
1070
    71
1070
     0
1070
    78
1070
     8
1070
   284
1070
     8
1002
}
1001
ACAD_DSTYLE_DIMINSPECT
1070
   396
1000
100%
1070
   395
1000

1070
   394
1070
    33
1070
   393
1070
     0
  0
DIMENSION
  5
F10017
330
261
100
AcDbEntity
  8
Bemassung
100
AcDbDimension
  2
*D4
 10
-48.20336761862787
 20
-7.900597191035264
 30
0.0
 11
-35.20336761862786
 21
-5.999164721731035
 31
0.0
 70
    32
  1
<>
 71
     8
 42
26.0
  3
BEM-ISBE
100
AcDbAlignedDimension
 13
-22.20336761862787
 23
6.099402808964732
 33
0.0
 14
-48.20336761862787
 24
-9.900597191035267
 34
0.0
100
AcDbRotatedDimension
1001
ACAD
1000
DSTYLE
1002
{
1070
    47
1040
2.0
1070
    48
1040
0.0
1070
    71
1070
     0
1070
    78
1070
     8
1070
   284
1070
     8
1002
}
1001
ACAD_DSTYLE_DIMINSPECT
1070
   396
1000
100%
1070
   395
1000

1070
   394
1070
    33
1070
   393
1070
     0
  0
DIMENSION
  5
F1001C
330
261
100
AcDbEntity
  8
Bemassung
100
AcDbDimension
  2
*D5
 10
-48.20336761862787
 20
53.09940280896473
 30
0.0
 11
-2.203367618627853
 21
55.00083527826896
 31
0.0
 70
    32
  1
<>
 71
     8
 42
92.0
  3
BEM-ISBE
100
AcDbAlignedDimension
 13
43.79663238137213
 23
23.09940280896473
 33
0.0
 14
-48.20336761862787
 24
-9.900597191035267
 34
0.0
100
AcDbRotatedDimension
1001
ACAD
1000
DSTYLE
1002
{
1070
    47
1040
2.0
1070
    48
1040
0.0
1070
    71
1070
     0
1070
    78
1070
     8
1002
}
1001
ACAD_DSTYLE_DIMINSPECT
1070
   396
1000
100%
1070
   395
1000

1070
   394
1070
    33
1070
   393
1070
     0
  0
DIMENSION
  5
F10008
330
261
100
AcDbEntity
  8
Bemassung
100
AcDbDimension
  2
*D6
 10
-39.20336761862787
 20
15.09940280896473
 30
0.0
 11
-54.25402779608029
 21
36.83906277554121
 31
0.0
 70
   164
  1
<>
 71
     8
 42
9.000000000000012
  3
BEM-ISBE
100
AcDbRadialDimension
 15
-44.32628650168214
 25
22.49911240581015
 35
0.0
 40
0.0
1001
ACAD
1000
DSTYLE
1002
{
1070
   284
1070
     8
1070
    78
1070
     8
1070
   144
1040
1.0
1070
   147
1040
0.625
1070
    72
1070
     0
1070
    71
1070
     0
1002
}
  0
DIMENSION
  5
F10003
330
261
100
AcDbEntity
  8
Bemassung
100
AcDbDimension
  2
*D7
 10
-58.20336761862765
 20
24.09940280896474
 30
0.0
 11
-60.10480008793191
 21
15.09940280896473
 31
0.0
 70
    32
  1
<>
 71
     8
 42
18.0
  3
BEM-ISBE
100
AcDbAlignedDimension
 13
-39.20336761862787
 23
6.099402808964732
 33
0.0
 14
-39.20336761862787
 24
24.09940280896473
 34
0.0
 50
90.0
100
AcDbRotatedDimension
1001
ACAD
1000
DSTYLE
1002
{
1070
    48
1040
-0.07
1070
    71
1070
     0
1070
    78
1070
     8
1070
   284
1070
     8
1002
}
1001
ACAD_DSTYLE_DIMINSPECT
1070
   396
1000
100%
1070
   395
1000

1070
   394
1070
    33
1070
   393
1070
     0
  0
DIMENSION
  5
F10012
330
261
100
AcDbEntity
  8
Bemassung
100
AcDbDimension
  2
*D8
 10
53.79663238137213
 20
24.09940280896473
 30
0.0
 11
51.82528176745671
 21
15.09940280896474
 31
0.0
 70
    32
  1
%%C<> 
 71
     8
 42
18.0
  3
BEM-ISBE
100
AcDbAlignedDimension
 13
42.79663238137215
 23
6.099402808964732
 33
0.0
 14
42.79663238137215
 24
24.09940280896473
 34
0.0
 50
90.0
100
AcDbRotatedDimension
1001
ACAD
1000
DSTYLE
1002
{
1070
    71
1070
     0
1070
    78
1070
     8
1002
}
1001
ACAD_DSTYLE_DIMINSPECT
1070
   396
1000
100%
1070
   395
1000

1070
   394
1070
    33
1070
   393
1070
     0
  0
ARC
  5
F10059
330
261
100
AcDbEntity
  8
Geo
100
AcDbCircle
 10
-39.20336761862787
 20
15.09940280896473
 30
0.0
 40
9.0
100
AcDbArc
 50
90.0
 51
180.0
  0
LINE
  5
F1005B
330
261
100
AcDbEntity
  8
Geo
100
AcDbLine
 10
-39.20336761862787
 20
24.09940280896473
 30
0.0
 11
-4.203367618627871
 21
24.09940280896473
 31
0.0
  0
LINE
  5
F1005D
330
261
100
AcDbEntity
  8
Geo
100
AcDbLine
 10
-4.203367618627871
 20
24.09940280896473
 30
0.0
 11
42.79663238137215
 21
24.09940280896473
 31
0.0
  0
LINE
  5
F1005F
330
261
100
AcDbEntity
  8
Geo
100
AcDbLine
 10
42.79663238137215
 20
24.09940280896473
 30
0.0
 11
43.79663238137213
 21
23.09940280896473
 31
0.0
  0
LINE
  5
F10061
330
261
100
AcDbEntity
  8
Geo
100
AcDbLine
 10
-20.60336761862787
 20
24.09940280896473
 30
0.0
 11
-20.50336761862787
 21
24.09743307156483
 31
0.0
  0
LINE
  5
F10063
330
261
100
AcDbEntity
  8
Geo
100
AcDbLine
 10
-20.50336761862787
 20
24.09743307156483
 30
0.0
 11
-20.40336761862787
 21
24.08951123749963
 31
0.0
  0
LINE
  5
F10065
330
261
100
AcDbEntity
  8
Geo
100
AcDbLine
 10
-20.40336761862787
 20
24.08951123749963
 30
0.0
 11
-20.30336761862787
 21
24.07515713224493
 31
0.0
  0
LINE
  5
F10067
330
261
100
AcDbEntity
  8
Geo
100
AcDbLine
 10
-20.30336761862787
 20
24.07515713224493
 30
0.0
 11
-20.20336761862787
 21
24.05397758229244
 31
0.0
  0
LINE
  5
F10069
330
261
100
AcDbEntity
  8
Geo
100
AcDbLine
 10
-20.20336761862787
 20
24.05397758229244
 30
0.0
 11
-20.10336761862787
 21
24.02557710406703
 31
0.0
  0
LINE
  5
F1006B
330
261
100
AcDbEntity
  8
Geo
100
AcDbLine
 10
-20.10336761862787
 20
24.02557710406703
 30
0.0
 11
-20.00336761862787
 21
23.98955900021004
 31
0.0
  0
LINE
  5
F1006D
330
261
100
AcDbEntity
  8
Geo
100
AcDbLine
 10
-20.00336761862787
 20
23.98955900021004
 30
0.0
 11
-19.90336761862787
 21
23.94552654628403
 31
0.0
  0
LINE
  5
F1006F
330
261
100
AcDbEntity
  8
Geo
100
AcDbLine
 10
-19.90336761862787
 20
23.94552654628403
 30
0.0
 11
-19.80336761862787
 21
23.89308427012124
 31
0.0
  0
LINE
  5
F10071
330
261
100
AcDbEntity
  8
Geo
100
AcDbLine
 10
-19.80336761862787
 20
23.89308427012124
 30
0.0
 11
-19.70336761862787
 21
23.83183932571323
 31
0.0
  0
LINE
  5
F10073
330
261
100
AcDbEntity
  8
Geo
100
AcDbLine
 10
-19.70336761862787
 20
23.83183932571323
 30
0.0
 11
-19.60336761862787
 21
23.76140296317213
 31
0.0
  0
LINE
  5
F10075
330
261
100
AcDbEntity
  8
Geo
100
AcDbLine
 10
-19.60336761862787
 20
23.76140296317213
 30
0.0
 11
-19.50336761862787
 21
23.68139209587704
 31
0.0
  0
LINE
  5
F10077
330
261
100
AcDbEntity
  8
Geo
100
AcDbLine
 10
-19.50336761862787
 20
23.68139209587704
 30
0.0
 11
-19.40336761862787
 21
23.59143096546033
 31
0.0
  0
LINE
  5
F10079
330
261
100
AcDbEntity
  8
Geo
100
AcDbLine
 10
-19.40336761862787
 20
23.59143096546033
 30
0.0
 11
-19.30336761862777
 21
23.49115290477644
 31
0.0
  0
LINE
  5
F1007B
330
261
100
AcDbEntity
  8
Geo
100
AcDbLine
 10
-19.30336761862777
 20
23.49115290477644
 30
0.0
 11
-19.20336761862776
 21
23.38020219843423
 31
0.0
  0
LINE
  5
F1007D
330
261
100
AcDbEntity
  8
Geo
100
AcDbLine
 10
-19.20336761862776
 20
23.38020219843423
 30
0.0
 11
-19.10336761862776
 21
23.25823603986254
 31
0.0
  0
LINE
  5
F1007F
330
261
100
AcDbEntity
  8
Geo
100
AcDbLine
 10
-19.10336761862776
 20
23.25823603986254
 30
0.0
 11
-19.00336761862776
 21
23.12492658320663
 31
0.0
  0
LINE
  5
F10081
330
261
100
AcDbEntity
  8
Geo
100
AcDbLine
 10
-19.00336761862776
 20
23.12492658320663
 30
0.0
 11
-18.90336761862776
 21
22.97996308763933
 31
0.0
  0
LINE
  5
F10083
330
261
100
AcDbEntity
  8
Geo
100
AcDbLine
 10
-18.90336761862776
 20
22.97996308763933
 30
0.0
 11
-18.80336761862777
 21
22.82305415088654
 31
0.0
  0
LINE
  5
F10085
330
261
100
AcDbEntity
  8
Geo
100
AcDbLine
 10
-18.80336761862777
 20
22.82305415088654
 30
0.0
 11
-18.70336761862776
 21
22.65393002794473
 31
0.0
  0
LINE
  5
F10087
330
261
100
AcDbEntity
  8
Geo
100
AcDbLine
 10
-18.70336761862776
 20
22.65393002794473
 30
0.0
 11
-18.60336761862776
 21
22.47234503007503
 31
0.0
  0
LINE
  5
F10089
330
261
100
AcDbEntity
  8
Geo
100
AcDbLine
 10
-18.60336761862776
 20
22.47234503007503
 30
0.0
 11
-18.50336761862776
 21
22.27807999822674
 31
0.0
  0
LINE
  5
F1008B
330
261
100
AcDbEntity
  8
Geo
100
AcDbLine
 10
-18.50336761862776
 20
22.27807999822674
 30
0.0
 11
-18.40336761862776
 21
22.07094484404714
 31
0.0
  0
LINE
  5
F1008D
330
261
100
AcDbEntity
  8
Geo
100
AcDbLine
 10
-18.40336761862776
 20
22.07094484404714
 30
0.0
 11
-18.30336761862777
 21
21.85078115059613
 31
0.0
  0
LINE
  5
F1008F
330
261
100
AcDbEntity
  8
Geo
100
AcDbLine
 10
-18.30336761862777
 20
21.85078115059613
 30
0.0
 11
-18.20336761862776
 21
21.61746482379374
 31
0.0
  0
LINE
  5
F10091
330
261
100
AcDbEntity
  8
Geo
100
AcDbLine
 10
-18.20336761862776
 20
21.61746482379374
 30
0.0
 11
-18.10336761862776
 21
21.37090878449374
 31
0.0
  0
LINE
  5
F10093
330
261
100
AcDbEntity
  8
Geo
100
AcDbLine
 10
-18.10336761862776
 20
21.37090878449374
 30
0.0
 11
-18.00336761862776
 21
21.11106568990513
 31
0.0
  0
LINE
  5
F10095
330
261
100
AcDbEntity
  8
Geo
100
AcDbLine
 10
-18.00336761862776
 20
21.11106568990513
 30
0.0
 11
-17.90336761862776
 21
20.83793067186724
 31
0.0
  0
LINE
  5
F10097
330
261
100
AcDbEntity
  8
Geo
100
AcDbLine
 10
-17.90336761862776
 20
20.83793067186724
 30
0.0
 11
-17.80336761862777
 21
20.55154407824824
 31
0.0
  0
LINE
  5
F10099
330
261
100
AcDbEntity
  8
Geo
100
AcDbLine
 10
-17.80336761862777
 20
20.55154407824824
 30
0.0
 11
-17.70336761862776
 21
20.25199420246694
 31
0.0
  0
LINE
  5
F1009B
330
261
100
AcDbEntity
  8
Geo
100
AcDbLine
 10
-17.70336761862776
 20
20.25199420246694
 30
0.0
 11
-17.60336761862776
 21
19.93941998485853
 31
0.0
  0
LINE
  5
F1009D
330
261
100
AcDbEntity
  8
Geo
100
AcDbLine
 10
-17.60336761862776
 20
19.93941998485853
 30
0.0
 11
-17.50336761862776
 21
19.61401366831113
 31
0.0
  0
LINE
  5
F1009F
330
261
100
AcDbEntity
  8
Geo
100
AcDbLine
 10
-17.50336761862776
 20
19.61401366831113
 30
0.0
 11
-17.40336761862776
 21
19.27602338931213
 31
0.0
  0
LINE
  5
F100A1
330
261
100
AcDbEntity
  8
Geo
100
AcDbLine
 10
-17.40336761862776
 20
19.27602338931213
 30
0.0
 11
-17.30336761862776
 21
18.92575568426203
 31
0.0
  0
LINE
  5
F100A3
330
261
100
AcDbEntity
  8
Geo
100
AcDbLine
 10
-17.30336761862776
 20
18.92575568426203
 30
0.0
 11
-17.20336761862776
 21
18.56357788965554
 31
0.0
  0
LINE
  5
F100A5
330
261
100
AcDbEntity
  8
Geo
100
AcDbLine
 10
-17.20336761862776
 20
18.56357788965554
 30
0.0
 11
-17.10336761862776
 21
18.18992041350953
 31
0.0
  0
LINE
  5
F100A7
330
261
100
AcDbEntity
  8
Geo
100
AcDbLine
 10
-17.10336761862776
 20
18.18992041350953
 30
0.0
 11
-17.00336761862776
 21
17.80527885423803
 31
0.0
  0
LINE
  5
F100A9
330
261
100
AcDbEntity
  8
Geo
100
AcDbLine
 10
-17.00336761862776
 20
17.80527885423803
 30
0.0
 11
-16.90336761862776
 21
17.41021594206403
 31
0.0
  0
LINE
  5
F100AB
330
261
100
AcDbEntity
  8
Geo
100
AcDbLine
 10
-16.90336761862776
 20
17.41021594206403
 30
0.0
 11
-16.80336761862777
 21
17.00536327702203
 31
0.0
  0
LINE
  5
F100AD
330
261
100
AcDbEntity
  8
Geo
100
AcDbLine
 10
-16.80336761862777
 20
17.00536327702203
 30
0.0
 11
-16.70336761862776
 21
16.59142283666223
 31
0.0
  0
LINE
  5
F100AF
330
261
100
AcDbEntity
  8
Geo
100
AcDbLine
 10
-16.70336761862776
 20
16.59142283666223
 30
0.0
 11
-16.60336761862776
 21
16.16916822573783
 31
0.0
  0
LINE
  5
F100B1
330
261
100
AcDbEntity
  8
Geo
100
AcDbLine
 10
-16.60336761862776
 20
16.16916822573783
 30
0.0
 11
-16.50336761862776
 21
15.73944563945613
 31
0.0
  0
LINE
  5
F100B3
330
261
100
AcDbEntity
  8
Geo
100
AcDbLine
 10
-16.50336761862776
 20
15.73944563945613
 30
0.0
 11
-16.40336761862776
 21
15.30317451132093
 31
0.0
  0
LINE
  5
F100B5
330
261
100
AcDbEntity
  8
Geo
100
AcDbLine
 10
-16.40336761862776
 20
15.30317451132093
 30
0.0
 11
-16.30336761862777
 21
14.86134781621103
 31
0.0
  0
LINE
  5
F100B7
330
261
100
AcDbEntity
  8
Geo
100
AcDbLine
 10
-16.30336761862777
 20
14.86134781621103
 30
0.0
 11
-16.20336761862776
 21
14.41503199914263
 31
0.0
  0
LINE
  5
F100B9
330
261
100
AcDbEntity
  8
Geo
100
AcDbLine
 10
-16.20336761862776
 20
14.41503199914263
 30
0.0
 11
-16.10336761862776
 21
13.96536650017923
 31
0.0
  0
LINE
  5
F100BB
330
261
100
AcDbEntity
  8
Geo
100
AcDbLine
 10
-16.10336761862776
 20
13.96536650017923
 30
0.0
 11
-16.00336761862776
 21
13.51356284619523
 31
0.0
  0
LINE
  5
F100BD
330
261
100
AcDbEntity
  8
Geo
100
AcDbLine
 10
-16.00336761862776
 20
13.51356284619523
 30
0.0
 11
-15.90336761862776
 21
13.06090328069913
 31
0.0
  0
LINE
  5
F100BF
330
261
100
AcDbEntity
  8
Geo
100
AcDbLine
 10
-15.90336761862776
 20
13.06090328069913
 30
0.0
 11
-15.80336761862777
 21
12.60873890368723
 31
0.0
  0
LINE
  5
F100C1
330
261
100
AcDbEntity
  8
Geo
100
AcDbLine
 10
-15.80336761862777
 20
12.60873890368723
 30
0.0
 11
-15.70336761862776
 21
12.15848729456803
 31
0.0
  0
LINE
  5
F100C3
330
261
100
AcDbEntity
  8
Geo
100
AcDbLine
 10
-15.70336761862776
 20
12.15848729456803
 30
0.0
 11
-15.60336761862776
 21
11.71162959256983
 31
0.0
  0
LINE
  5
F100C5
330
261
100
AcDbEntity
  8
Geo
100
AcDbLine
 10
-15.60336761862776
 20
11.71162959256983
 30
0.0
 11
-15.50336761862776
 21
11.26970701076083
 31
0.0
  0
LINE
  5
F100C7
330
261
100
AcDbEntity
  8
Geo
100
AcDbLine
 10
-15.50336761862776
 20
11.26970701076083
 30
0.0
 11
-15.40336761862776
 21
10.83431676187253
 31
0.0
  0
LINE
  5
F100C9
330
261
100
AcDbEntity
  8
Geo
100
AcDbLine
 10
-15.40336761862776
 20
10.83431676187253
 30
0.0
 11
-15.30336761862777
 21
10.40710737655203
 31
0.0
  0
LINE
  5
F100CB
330
261
100
AcDbEntity
  8
Geo
100
AcDbLine
 10
-15.30336761862777
 20
10.40710737655203
 30
0.0
 11
-15.20336761862787
 21
9.989773397491234
 31
0.0
  0
LINE
  5
F100CD
330
261
100
AcDbEntity
  8
Geo
100
AcDbLine
 10
-48.20336761862787
 20
15.09940280896473
 30
0.0
 11
-48.10336761862785
 21
16.03935890351053
 31
0.0
  0
LINE
  5
F100CF
330
261
100
AcDbEntity
  8
Geo
100
AcDbLine
 10
-48.10336761862785
 20
16.03935890351053
 30
0.0
 11
-48.00336761862786
 21
16.41634251558203
 31
0.0
  0
LINE
  5
F100D1
330
261
100
AcDbEntity
  8
Geo
100
AcDbLine
 10
-48.00336761862786
 20
16.41634251558203
 30
0.0
 11
-47.90336761862785
 21
16.69716193750373
 31
0.0
  0
LINE
  5
F100D3
330
261
100
AcDbEntity
  8
Geo
100
AcDbLine
 10
-47.90336761862785
 20
16.69716193750373
 30
0.0
 11
-47.80336761862786
 21
16.92681431200854
 31
0.0
  0
LINE
  5
F100D5
330
261
100
AcDbEntity
  8
Geo
100
AcDbLine
 10
-47.80336761862786
 20
16.92681431200854
 30
0.0
 11
-47.70336761862786
 21
17.12289881183413
 31
0.0
  0
LINE
  5
F100D7
330
261
100
AcDbEntity
  8
Geo
100
AcDbLine
 10
-47.70336761862786
 20
17.12289881183413
 30
0.0
 11
-47.60336761862785
 21
17.29452489438954
 31
0.0
  0
LINE
  5
F100D9
330
261
100
AcDbEntity
  8
Geo
100
AcDbLine
 10
-47.60336761862785
 20
17.29452489438954
 30
0.0
 11
-47.50336761862786
 21
17.44715299493403
 31
0.0
  0
LINE
  5
F100DB
330
261
100
AcDbEntity
  8
Geo
100
AcDbLine
 10
-47.50336761862786
 20
17.44715299493403
 30
0.0
 11
-47.40336761862785
 21
17.58437277273473
 31
0.0
  0
LINE
  5
F100DD
330
261
100
AcDbEntity
  8
Geo
100
AcDbLine
 10
-47.40336761862785
 20
17.58437277273473
 30
0.0
 11
-47.30336761862786
 21
17.70869987095232
 31
0.0
  0
LINE
  5
F100DF
330
261
100
AcDbEntity
  8
Geo
100
AcDbLine
 10
-47.30336761862786
 20
17.70869987095232
 30
0.0
 11
-47.20336761862786
 21
17.82198227302753
 31
0.0
  0
LINE
  5
F100E1
330
261
100
AcDbEntity
  8
Geo
100
AcDbLine
 10
-47.20336761862786
 20
17.82198227302753
 30
0.0
 11
-47.10336761862786
 21
17.92562756806782
 31
0.0
  0
LINE
  5
F100E3
330
261
100
AcDbEntity
  8
Geo
100
AcDbLine
 10
-47.10336761862786
 20
17.92562756806782
 30
0.0
 11
-47.00336761862786
 21
18.02073918916833
 31
0.0
  0
LINE
  5
F100E5
330
261
100
AcDbEntity
  8
Geo
100
AcDbLine
 10
-47.00336761862786
 20
18.02073918916833
 30
0.0
 11
-46.90336761862785
 21
18.10820264091693
 31
0.0
  0
LINE
  5
F100E7
330
261
100
AcDbEntity
  8
Geo
100
AcDbLine
 10
-46.90336761862785
 20
18.10820264091693
 30
0.0
 11
-46.80336761862785
 21
18.18874251343273
 31
0.0
  0
LINE
  5
F100E9
330
261
100
AcDbEntity
  8
Geo
100
AcDbLine
 10
-46.80336761862785
 20
18.18874251343273
 30
0.0
 11
-46.70336761862786
 21
18.26296156263833
 31
0.0
  0
LINE
  5
F100EB
330
261
100
AcDbEntity
  8
Geo
100
AcDbLine
 10
-46.70336761862786
 20
18.26296156263833
 30
0.0
 11
-46.60336761862786
 21
18.33136831914343
 31
0.0
  0
LINE
  5
F100ED
330
261
100
AcDbEntity
  8
Geo
100
AcDbLine
 10
-46.60336761862786
 20
18.33136831914343
 30
0.0
 11
-46.50336761862786
 21
18.39439710083753
 31
0.0
  0
LINE
  5
F100EF
330
261
100
AcDbEntity
  8
Geo
100
AcDbLine
 10
-46.50336761862786
 20
18.39439710083753
 30
0.0
 11
-46.40336761862785
 21
18.45242284415903
 31
0.0
  0
LINE
  5
F100F1
330
261
100
AcDbEntity
  8
Geo
100
AcDbLine
 10
-46.40336761862785
 20
18.45242284415903
 30
0.0
 11
-46.30336761862785
 21
18.50577230963293
 31
0.0
  0
LINE
  5
F100F3
330
261
100
AcDbEntity
  8
Geo
100
AcDbLine
 10
-46.30336761862785
 20
18.50577230963293
 30
0.0
 11
-46.20336761862787
 21
18.55473269285024
 31
0.0
  0
LINE
  5
F100F5
330
261
100
AcDbEntity
  8
Geo
100
AcDbLine
 10
-46.20336761862787
 20
18.55473269285024
 30
0.0
 11
-46.10336761862785
 21
18.59955834182443
 31
0.0
  0
LINE
  5
F100F7
330
261
100
AcDbEntity
  8
Geo
100
AcDbLine
 10
-46.10336761862785
 20
18.59955834182443
 30
0.0
 11
-46.00336761862786
 21
18.64047606788343
 31
0.0
  0
LINE
  5
F100F9
330
261
100
AcDbEntity
  8
Geo
100
AcDbLine
 10
-46.00336761862786
 20
18.64047606788343
 30
0.0
 11
-45.90336761862785
 21
18.67768939543313
 31
0.0
  0
LINE
  5
F100FB
330
261
100
AcDbEntity
  8
Geo
100
AcDbLine
 10
-45.90336761862785
 20
18.67768939543313
 30
0.0
 11
-45.80336761862786
 21
18.71138199977503
 31
0.0
  0
LINE
  5
F100FD
330
261
100
AcDbEntity
  8
Geo
100
AcDbLine
 10
-45.80336761862786
 20
18.71138199977503
 30
0.0
 11
-45.70336761862786
 21
18.74172051566982
 31
0.0
  0
LINE
  5
F100FF
330
261
100
AcDbEntity
  8
Geo
100
AcDbLine
 10
-45.70336761862786
 20
18.74172051566982
 30
0.0
 11
-45.60336761862785
 21
18.76885685254843
 31
0.0
  0
LINE
  5
F10101
330
261
100
AcDbEntity
  8
Geo
100
AcDbLine
 10
-45.60336761862785
 20
18.76885685254843
 30
0.0
 11
-45.50336761862786
 21
18.79293011880304
 31
0.0
  0
LINE
  5
F10103
330
261
100
AcDbEntity
  8
Geo
100
AcDbLine
 10
-45.50336761862786
 20
18.79293011880304
 30
0.0
 11
-45.40336761862785
 21
18.81406823330354
 31
0.0
  0
LINE
  5
F10105
330
261
100
AcDbEntity
  8
Geo
100
AcDbLine
 10
-45.40336761862785
 20
18.81406823330354
 30
0.0
 11
-45.30336761862786
 21
18.83238928441853
 31
0.0
  0
LINE
  5
F10107
330
261
100
AcDbEntity
  8
Geo
100
AcDbLine
 10
-45.30336761862786
 20
18.83238928441853
 30
0.0
 11
-45.20336761862786
 21
18.84800268351553
 31
0.0
  0
LINE
  5
F10109
330
261
100
AcDbEntity
  8
Geo
100
AcDbLine
 10
-45.20336761862786
 20
18.84800268351553
 30
0.0
 11
-45.10336761862785
 21
18.86101014989374
 31
0.0
  0
LINE
  5
F1010B
330
261
100
AcDbEntity
  8
Geo
100
AcDbLine
 10
-45.10336761862785
 20
18.86101014989374
 30
0.0
 11
-45.00336761862786
 21
18.87150655647563
 31
0.0
  0
LINE
  5
F1010D
330
261
100
AcDbEntity
  8
Geo
100
AcDbLine
 10
-45.00336761862786
 20
18.87150655647563
 30
0.0
 11
-44.90336761862785
 21
18.87958065971833
 31
0.0
  0
LINE
  5
F1010F
330
261
100
AcDbEntity
  8
Geo
100
AcDbLine
 10
-44.90336761862785
 20
18.87958065971833
 30
0.0
 11
-44.80336761862786
 21
18.88531573265903
 31
0.0
  0
LINE
  5
F10111
330
261
100
AcDbEntity
  8
Geo
100
AcDbLine
 10
-44.80336761862786
 20
18.88531573265903
 30
0.0
 11
-44.70336761862786
 21
18.88879011645043
 31
0.0
  0
LINE
  5
F10113
330
261
100
AcDbEntity
  8
Geo
100
AcDbLine
 10
-44.70336761862786
 20
18.88879011645043
 30
0.0
 11
-44.60336761862786
 21
18.89007770293443
 31
0.0
  0
LINE
  5
F10115
330
261
100
AcDbEntity
  8
Geo
100
AcDbLine
 10
-44.60336761862786
 20
18.89007770293443
 30
0.0
 11
-44.50336761862786
 21
18.88924835857674
 31
0.0
  0
LINE
  5
F10117
330
261
100
AcDbEntity
  8
Geo
100
AcDbLine
 10
-44.50336761862786
 20
18.88924835857674
 30
0.0
 11
-44.40336761862785
 21
18.88636829829703
 31
0.0
  0
LINE
  5
F10119
330
261
100
AcDbEntity
  8
Geo
100
AcDbLine
 10
-44.40336761862785
 20
18.88636829829703
 30
0.0
 11
-44.30336761862785
 21
18.88150041629913
 31
0.0
  0
LINE
  5
F1011B
330
261
100
AcDbEntity
  8
Geo
100
AcDbLine
 10
-44.30336761862785
 20
18.88150041629913
 30
0.0
 11
-44.20336761862786
 21
18.87470457983523
 31
0.0
  0
LINE
  5
F1011D
330
261
100
AcDbEntity
  8
Geo
100
AcDbLine
 10
-44.20336761862786
 20
18.87470457983523
 30
0.0
 11
-44.10336761862786
 21
18.86603789089643
 31
0.0
  0
LINE
  5
F1011F
330
261
100
AcDbEntity
  8
Geo
100
AcDbLine
 10
-44.10336761862786
 20
18.86603789089643
 30
0.0
 11
-44.00336761862786
 21
18.85555492003883
 31
0.0
  0
LINE
  5
F10121
330
261
100
AcDbEntity
  8
Geo
100
AcDbLine
 10
-44.00336761862786
 20
18.85555492003883
 30
0.0
 11
-43.90336761862785
 21
18.84330791591803
 31
0.0
  0
LINE
  5
F10123
330
261
100
AcDbEntity
  8
Geo
100
AcDbLine
 10
-43.90336761862785
 20
18.84330791591803
 30
0.0
 11
-43.80336761862785
 21
18.82934699357163
 31
0.0
  0
LINE
  5
F10125
330
261
100
AcDbEntity
  8
Geo
100
AcDbLine
 10
-43.80336761862785
 20
18.82934699357163
 30
0.0
 11
-43.70336761862787
 21
18.81372030405053
 31
0.0
  0
LINE
  5
F10127
330
261
100
AcDbEntity
  8
Geo
100
AcDbLine
 10
-43.70336761862787
 20
18.81372030405053
 30
0.0
 11
-43.60336761862785
 21
18.79647418762933
 31
0.0
  0
LINE
  5
F10129
330
261
100
AcDbEntity
  8
Geo
100
AcDbLine
 10
-43.60336761862785
 20
18.79647418762933
 30
0.0
 11
-43.50336761862786
 21
18.77765331251733
 31
0.0
  0
LINE
  5
F1012B
330
261
100
AcDbEntity
  8
Geo
100
AcDbLine
 10
-43.50336761862786
 20
18.77765331251733
 30
0.0
 11
-43.40336761862785
 21
18.75730080073093
 31
0.0
  0
LINE
  5
F1012D
330
261
100
AcDbEntity
  8
Geo
100
AcDbLine
 10
-43.40336761862785
 20
18.75730080073093
 30
0.0
 11
-43.30336761862786
 21
18.73545834256733
 31
0.0
  0
LINE
  5
F1012F
330
261
100
AcDbEntity
  8
Geo
100
AcDbLine
 10
-43.30336761862786
 20
18.73545834256733
 30
0.0
 11
-43.20336761862786
 21
18.71216630093303
 31
0.0
  0
LINE
  5
F10131
330
261
100
AcDbEntity
  8
Geo
100
AcDbLine
 10
-43.20336761862786
 20
18.71216630093303
 30
0.0
 11
-43.10336761862786
 21
18.68746380661833
 31
0.0
  0
LINE
  5
F10133
330
261
100
AcDbEntity
  8
Geo
100
AcDbLine
 10
-43.10336761862786
 20
18.68746380661833
 30
0.0
 11
-43.00336761862786
 21
18.66138884547712
 31
0.0
  0
LINE
  5
F10135
330
261
100
AcDbEntity
  8
Geo
100
AcDbLine
 10
-43.00336761862786
 20
18.66138884547712
 30
0.0
 11
-42.90336761862787
 21
18.63397833834833
 31
0.0
  0
LINE
  5
F10137
330
261
100
AcDbEntity
  8
Geo
100
AcDbLine
 10
-42.90336761862787
 20
18.63397833834833
 30
0.0
 11
-42.80336761862787
 21
18.60526821446004
 31
0.0
  0
LINE
  5
F10139
330
261
100
AcDbEntity
  8
Geo
100
AcDbLine
 10
-42.80336761862787
 20
18.60526821446004
 30
0.0
 11
-42.70336761862785
 21
18.57529347896683
 31
0.0
  0
LINE
  5
F1013B
330
261
100
AcDbEntity
  8
Geo
100
AcDbLine
 10
-42.70336761862785
 20
18.57529347896683
 30
0.0
 11
-42.60336761862787
 21
18.54408827519683
 31
0.0
  0
LINE
  5
F1013D
330
261
100
AcDbEntity
  8
Geo
100
AcDbLine
 10
-42.60336761862787
 20
18.54408827519683
 30
0.0
 11
-42.50336761862786
 21
18.51168594211923
 31
0.0
  0
LINE
  5
F1013F
330
261
100
AcDbEntity
  8
Geo
100
AcDbLine
 10
-42.50336761862786
 20
18.51168594211923
 30
0.0
 11
-42.40336761862787
 21
18.47811906748673
 31
0.0
  0
LINE
  5
F10141
330
261
100
AcDbEntity
  8
Geo
100
AcDbLine
 10
-42.40336761862787
 20
18.47811906748673
 30
0.0
 11
-42.30336761862786
 21
18.44341953705754
 31
0.0
  0
LINE
  5
F10143
330
261
100
AcDbEntity
  8
Geo
100
AcDbLine
 10
-42.30336761862786
 20
18.44341953705754
 30
0.0
 11
-42.20336761862785
 21
18.40761858025673
 31
0.0
  0
LINE
  5
F10145
330
261
100
AcDbEntity
  8
Geo
100
AcDbLine
 10
-42.20336761862785
 20
18.40761858025673
 30
0.0
 11
-42.10336761862786
 21
18.37074681260183
 31
0.0
  0
LINE
  5
F10147
330
261
100
AcDbEntity
  8
Geo
100
AcDbLine
 10
-42.10336761862786
 20
18.37074681260183
 30
0.0
 11
-42.00336761862785
 21
18.33283427518013
 31
0.0
  0
LINE
  5
F10149
330
261
100
AcDbEntity
  8
Geo
100
AcDbLine
 10
-42.00336761862785
 20
18.33283427518013
 30
0.0
 11
-41.90336761862787
 21
18.29391047143974
 31
0.0
  0
LINE
  5
F1014B
330
261
100
AcDbEntity
  8
Geo
100
AcDbLine
 10
-41.90336761862787
 20
18.29391047143974
 30
0.0
 11
-41.80336761862786
 21
18.25400440152654
 31
0.0
  0
LINE
  5
F1014D
330
261
100
AcDbEntity
  8
Geo
100
AcDbLine
 10
-41.80336761862786
 20
18.25400440152654
 30
0.0
 11
-41.70336761862786
 21
18.21314459438013
 31
0.0
  0
LINE
  5
F1014F
330
261
100
AcDbEntity
  8
Geo
100
AcDbLine
 10
-41.70336761862786
 20
18.21314459438013
 30
0.0
 11
-41.60336761862787
 21
18.17135913777763
 31
0.0
  0
LINE
  5
F10151
330
261
100
AcDbEntity
  8
Geo
100
AcDbLine
 10
-41.60336761862787
 20
18.17135913777763
 30
0.0
 11
-41.50336761862785
 21
18.12867570649993
 31
0.0
  0
LINE
  5
F10153
330
261
100
AcDbEntity
  8
Geo
100
AcDbLine
 10
-41.50336761862785
 20
18.12867570649993
 30
0.0
 11
-41.40336761862786
 21
18.08512158877523
 31
0.0
  0
LINE
  5
F10155
330
261
100
AcDbEntity
  8
Geo
100
AcDbLine
 10
-41.40336761862786
 20
18.08512158877523
 30
0.0
 11
-41.30336761862786
 21
18.04072371114403
 31
0.0
  0
LINE
  5
F10157
330
261
100
AcDbEntity
  8
Geo
100
AcDbLine
 10
-41.30336761862786
 20
18.04072371114403
 30
0.0
 11
-41.20336761862787
 21
17.99550866187363
 31
0.0
  0
LINE
  5
F10159
330
261
100
AcDbEntity
  8
Geo
100
AcDbLine
 10
-41.20336761862787
 20
17.99550866187363
 30
0.0
 11
-41.10336761862787
 21
17.94950271304193
 31
0.0
  0
LINE
  5
F1015B
330
261
100
AcDbEntity
  8
Geo
100
AcDbLine
 10
-41.10336761862787
 20
17.94950271304193
 30
0.0
 11
-41.00336761862785
 21
17.90273184139693
 31
0.0
  0
LINE
  5
F1015D
330
261
100
AcDbEntity
  8
Geo
100
AcDbLine
 10
-41.00336761862785
 20
17.90273184139693
 30
0.0
 11
-40.90336761862785
 21
17.85522174809313
 31
0.0
  0
LINE
  5
F1015F
330
261
100
AcDbEntity
  8
Geo
100
AcDbLine
 10
-40.90336761862785
 20
17.85522174809313
 30
0.0
 11
-40.80336761862787
 21
17.80699787739353
 31
0.0
  0
LINE
  5
F10161
330
261
100
AcDbEntity
  8
Geo
100
AcDbLine
 10
-40.80336761862787
 20
17.80699787739353
 30
0.0
 11
-40.70336761862786
 21
17.75808543442253
 31
0.0
  0
LINE
  5
F10163
330
261
100
AcDbEntity
  8
Geo
100
AcDbLine
 10
-40.70336761862786
 20
17.75808543442253
 30
0.0
 11
-40.60336761862787
 21
17.70850940204543
 31
0.0
  0
LINE
  5
F10165
330
261
100
AcDbEntity
  8
Geo
100
AcDbLine
 10
-40.60336761862787
 20
17.70850940204543
 30
0.0
 11
-40.50336761862785
 21
17.65829455694673
 31
0.0
  0
LINE
  5
F10167
330
261
100
AcDbEntity
  8
Geo
100
AcDbLine
 10
-40.50336761862785
 20
17.65829455694673
 30
0.0
 11
-40.40336761862787
 21
17.60746548497253
 31
0.0
  0
LINE
  5
F10169
330
261
100
AcDbEntity
  8
Geo
100
AcDbLine
 10
-40.40336761862787
 20
17.60746548497253
 30
0.0
 11
-40.30336761862787
 21
17.55604659579773
 31
0.0
  0
LINE
  5
F1016B
330
261
100
AcDbEntity
  8
Geo
100
AcDbLine
 10
-40.30336761862787
 20
17.55604659579773
 30
0.0
 11
-40.20336761862785
 21
17.50406213697674
 31
0.0
  0
LINE
  5
F1016D
330
261
100
AcDbEntity
  8
Geo
100
AcDbLine
 10
-40.20336761862785
 20
17.50406213697674
 30
0.0
 11
-40.10336761862787
 21
17.45153620742743
 31
0.0
  0
LINE
  5
F1016F
330
261
100
AcDbEntity
  8
Geo
100
AcDbLine
 10
-40.10336761862787
 20
17.45153620742743
 30
0.0
 11
-40.00336761862786
 21
17.39849277040163
 31
0.0
  0
LINE
  5
F10171
330
261
100
AcDbEntity
  8
Geo
100
AcDbLine
 10
-40.00336761862786
 20
17.39849277040163
 30
0.0
 11
-39.90336761862787
 21
17.34495566598613
 31
0.0
  0
LINE
  5
F10173
330
261
100
AcDbEntity
  8
Geo
100
AcDbLine
 10
-39.90336761862787
 20
17.34495566598613
 30
0.0
 11
-39.80336761862787
 21
17.29094862317863
 31
0.0
  0
LINE
  5
F10175
330
261
100
AcDbEntity
  8
Geo
100
AcDbLine
 10
-39.80336761862787
 20
17.29094862317863
 30
0.0
 11
-39.70336761862787
 21
17.23649527158083
 31
0.0
  0
LINE
  5
F10177
330
261
100
AcDbEntity
  8
Geo
100
AcDbLine
 10
-39.70336761862787
 20
17.23649527158083
 30
0.0
 11
-39.60336761862787
 21
17.18161915274683
 31
0.0
  0
LINE
  5
F10179
330
261
100
AcDbEntity
  8
Geo
100
AcDbLine
 10
-39.60336761862787
 20
17.18161915274683
 30
0.0
 11
-39.50336761862786
 21
17.12634373122433
 31
0.0
  0
LINE
  5
F1017B
330
261
100
AcDbEntity
  8
Geo
100
AcDbLine
 10
-39.50336761862786
 20
17.12634373122433
 30
0.0
 11
-39.40336761862787
 21
17.07069240532503
 31
0.0
  0
LINE
  5
F1017D
330
261
100
AcDbEntity
  8
Geo
100
AcDbLine
 10
-39.40336761862787
 20
17.07069240532503
 30
0.0
 11
-39.30336761862788
 21
17.01468851765713
 31
0.0
  0
LINE
  5
F1017F
330
261
100
AcDbEntity
  8
Geo
100
AcDbLine
 10
-39.30336761862788
 20
17.01468851765713
 30
0.0
 11
-39.20336761862787
 21
16.95835536545433
 31
0.0
  0
LINE
  5
F10181
330
261
100
AcDbEntity
  8
Geo
100
AcDbLine
 10
-39.20336761862787
 20
16.95835536545433
 30
0.0
 11
-39.10336761862787
 21
16.90182747494773
 31
0.0
  0
LINE
  5
F10183
330
261
100
AcDbEntity
  8
Geo
100
AcDbLine
 10
-39.10336761862787
 20
16.90182747494773
 30
0.0
 11
-39.00336761862785
 21
16.84522541084083
 31
0.0
  0
LINE
  5
F10185
330
261
100
AcDbEntity
  8
Geo
100
AcDbLine
 10
-39.00336761862785
 20
16.84522541084083
 30
0.0
 11
-38.90336761862787
 21
16.78855150242883
 31
0.0
  0
LINE
  5
F10187
330
261
100
AcDbEntity
  8
Geo
100
AcDbLine
 10
-38.90336761862787
 20
16.78855150242883
 30
0.0
 11
-38.80336761862788
 21
16.73180808196333
 31
0.0
  0
LINE
  5
F10189
330
261
100
AcDbEntity
  8
Geo
100
AcDbLine
 10
-38.80336761862788
 20
16.73180808196333
 30
0.0
 11
-38.70336761862787
 21
16.67499748455643
 31
0.0
  0
LINE
  5
F1018B
330
261
100
AcDbEntity
  8
Geo
100
AcDbLine
 10
-38.70336761862787
 20
16.67499748455643
 30
0.0
 11
-38.60336761862787
 21
16.61812204808483
 31
0.0
  0
LINE
  5
F1018D
330
261
100
AcDbEntity
  8
Geo
100
AcDbLine
 10
-38.60336761862787
 20
16.61812204808483
 30
0.0
 11
-38.50336761862786
 21
16.56118411309343
 31
0.0
  0
LINE
  5
F1018F
330
261
100
AcDbEntity
  8
Geo
100
AcDbLine
 10
-38.50336761862786
 20
16.56118411309343
 30
0.0
 11
-38.40336761862787
 21
16.50418602269913
 31
0.0
  0
LINE
  5
F10191
330
261
100
AcDbEntity
  8
Geo
100
AcDbLine
 10
-38.40336761862787
 20
16.50418602269913
 30
0.0
 11
-38.30336761862787
 21
16.44713012249433
 31
0.0
  0
LINE
  5
F10193
330
261
100
AcDbEntity
  8
Geo
100
AcDbLine
 10
-38.30336761862787
 20
16.44713012249433
 30
0.0
 11
-38.20336761862787
 21
16.39001876045033
 31
0.0
  0
LINE
  5
F10195
330
261
100
AcDbEntity
  8
Geo
100
AcDbLine
 10
-38.20336761862787
 20
16.39001876045033
 30
0.0
 11
-38.10336761862787
 21
16.33285428682083
 31
0.0
  0
LINE
  5
F10197
330
261
100
AcDbEntity
  8
Geo
100
AcDbLine
 10
-38.10336761862787
 20
16.33285428682083
 30
0.0
 11
-38.00336761862786
 21
16.27563905404542
 31
0.0
  0
LINE
  5
F10199
330
261
100
AcDbEntity
  8
Geo
100
AcDbLine
 10
-38.00336761862786
 20
16.27563905404542
 30
0.0
 11
-37.90336761862787
 21
16.21837541665223
 31
0.0
  0
LINE
  5
F1019B
330
261
100
AcDbEntity
  8
Geo
100
AcDbLine
 10
-37.90336761862787
 20
16.21837541665223
 30
0.0
 11
-37.80336761862788
 21
16.16106573116153
 31
0.0
  0
LINE
  5
F1019D
330
261
100
AcDbEntity
  8
Geo
100
AcDbLine
 10
-37.80336761862788
 20
16.16106573116153
 30
0.0
 11
-37.70336761862786
 21
16.10371235598843
 31
0.0
  0
LINE
  5
F1019F
330
261
100
AcDbEntity
  8
Geo
100
AcDbLine
 10
-37.70336761862786
 20
16.10371235598843
 30
0.0
 11
-37.60336761862787
 21
16.04631765134613
 31
0.0
  0
LINE
  5
F101A1
330
261
100
AcDbEntity
  8
Geo
100
AcDbLine
 10
-37.60336761862787
 20
16.04631765134613
 30
0.0
 11
-37.50336761862786
 21
15.98888397914843
 31
0.0
  0
LINE
  5
F101A3
330
261
100
AcDbEntity
  8
Geo
100
AcDbLine
 10
-37.50336761862786
 20
15.98888397914843
 30
0.0
 11
-37.40336761862787
 21
15.93141370291283
 31
0.0
  0
LINE
  5
F101A5
330
261
100
AcDbEntity
  8
Geo
100
AcDbLine
 10
-37.40336761862787
 20
15.93141370291283
 30
0.0
 11
-37.30336761862787
 21
15.87390918766323
 31
0.0
  0
LINE
  5
F101A7
330
261
100
AcDbEntity
  8
Geo
100
AcDbLine
 10
-37.30336761862787
 20
15.87390918766323
 30
0.0
 11
-37.20336761862787
 21
15.81637279983253
 31
0.0
  0
LINE
  5
F101A9
330
261
100
AcDbEntity
  8
Geo
100
AcDbLine
 10
-37.20336761862787
 20
15.81637279983253
 30
0.0
 11
-37.10336761862787
 21
15.75880690716503
 31
0.0
  0
LINE
  5
F101AB
330
261
100
AcDbEntity
  8
Geo
100
AcDbLine
 10
-37.10336761862787
 20
15.75880690716503
 30
0.0
 11
-37.00336761862786
 21
15.70121387861953
 31
0.0
  0
LINE
  5
F101AD
330
261
100
AcDbEntity
  8
Geo
100
AcDbLine
 10
-37.00336761862786
 20
15.70121387861953
 30
0.0
 11
-36.90336761862787
 21
15.64359608427133
 31
0.0
  0
LINE
  5
F101AF
330
261
100
AcDbEntity
  8
Geo
100
AcDbLine
 10
-36.90336761862787
 20
15.64359608427133
 30
0.0
 11
-36.80336761862788
 21
15.58595589521493
 31
0.0
  0
LINE
  5
F101B1
330
261
100
AcDbEntity
  8
Geo
100
AcDbLine
 10
-36.80336761862788
 20
15.58595589521493
 30
0.0
 11
-36.70336761862787
 21
15.52829568346633
 31
0.0
  0
LINE
  5
F101B3
330
261
100
AcDbEntity
  8
Geo
100
AcDbLine
 10
-36.70336761862787
 20
15.52829568346633
 30
0.0
 11
-36.60336761862787
 21
15.47061782186583
 31
0.0
  0
LINE
  5
F101B5
330
261
100
AcDbEntity
  8
Geo
100
AcDbLine
 10
-36.60336761862787
 20
15.47061782186583
 30
0.0
 11
-36.50336761862785
 21
15.41292468397973
 31
0.0
  0
LINE
  5
F101B7
330
261
100
AcDbEntity
  8
Geo
100
AcDbLine
 10
-36.50336761862785
 20
15.41292468397973
 30
0.0
 11
-36.40336761862787
 21
15.35521864400313
 31
0.0
  0
LINE
  5
F101B9
330
261
100
AcDbEntity
  8
Geo
100
AcDbLine
 10
-36.40336761862787
 20
15.35521864400313
 30
0.0
 11
-36.30336761862788
 21
15.29750207666193
 31
0.0
  0
LINE
  5
F101BB
330
261
100
AcDbEntity
  8
Geo
100
AcDbLine
 10
-36.30336761862788
 20
15.29750207666193
 30
0.0
 11
-36.20336761862787
 21
15.23977735711553
 31
0.0
  0
LINE
  5
F101BD
330
261
100
AcDbEntity
  8
Geo
100
AcDbLine
 10
-36.20336761862787
 20
15.23977735711553
 30
0.0
 11
-36.10336761862787
 21
15.18204686085853
 31
0.0
  0
LINE
  5
F101BF
330
261
100
AcDbEntity
  8
Geo
100
AcDbLine
 10
-36.10336761862787
 20
15.18204686085853
 30
0.0
 11
-36.00336761862787
 21
15.12431296362343
 31
0.0
  0
LINE
  5
F101C1
330
261
100
AcDbEntity
  8
Geo
100
AcDbLine
 10
-36.00336761862787
 20
15.12431296362343
 30
0.0
 11
-35.90336761862787
 21
15.06657804128253
 31
0.0
  0
LINE
  5
F101C3
330
261
100
AcDbEntity
  8
Geo
100
AcDbLine
 10
-35.90336761862787
 20
15.06657804128253
 30
0.0
 11
-35.80336761862787
 21
15.00884446975053
 31
0.0
  0
LINE
  5
F101C5
330
261
100
AcDbEntity
  8
Geo
100
AcDbLine
 10
-35.80336761862787
 20
15.00884446975053
 30
0.0
 11
-35.70336761862787
 21
14.95111462488643
 31
0.0
  0
LINE
  5
F101C7
330
261
100
AcDbEntity
  8
Geo
100
AcDbLine
 10
-35.70336761862787
 20
14.95111462488643
 30
0.0
 11
-35.60336761862787
 21
14.89339088239573
 31
0.0
  0
LINE
  5
F101C9
330
261
100
AcDbEntity
  8
Geo
100
AcDbLine
 10
-35.60336761862787
 20
14.89339088239573
 30
0.0
 11
-35.50336761862786
 21
14.83567561773303
 31
0.0
  0
LINE
  5
F101CB
330
261
100
AcDbEntity
  8
Geo
100
AcDbLine
 10
-35.50336761862786
 20
14.83567561773303
 30
0.0
 11
-35.40336761862787
 21
14.77797120600393
 31
0.0
  0
LINE
  5
F101CD
330
261
100
AcDbEntity
  8
Geo
100
AcDbLine
 10
-35.40336761862787
 20
14.77797120600393
 30
0.0
 11
-35.30336761862788
 21
14.72028002186753
 31
0.0
  0
LINE
  5
F101CF
330
261
100
AcDbEntity
  8
Geo
100
AcDbLine
 10
-35.30336761862788
 20
14.72028002186753
 30
0.0
 11
-35.20336761862786
 21
14.66260443943833
 31
0.0
  0
LINE
  5
F101D1
330
261
100
AcDbEntity
  8
Geo
100
AcDbLine
 10
-35.20336761862786
 20
14.66260443943833
 30
0.0
 11
-35.10336761862787
 21
14.60494683218903
 31
0.0
  0
LINE
  5
F101D3
330
261
100
AcDbEntity
  8
Geo
100
AcDbLine
 10
-35.10336761862787
 20
14.60494683218903
 30
0.0
 11
-35.00336761862786
 21
14.54730957285254
 31
0.0
  0
LINE
  5
F101D5
330
261
100
AcDbEntity
  8
Geo
100
AcDbLine
 10
-35.00336761862786
 20
14.54730957285254
 30
0.0
 11
-34.90336761862788
 21
14.48969503332443
 31
0.0
  0
LINE
  5
F101D7
330
261
100
AcDbEntity
  8
Geo
100
AcDbLine
 10
-34.90336761862788
 20
14.48969503332443
 30
0.0
 11
-34.80336761862787
 21
14.43210558456523
 31
0.0
  0
LINE
  5
F101D9
330
261
100
AcDbEntity
  8
Geo
100
AcDbLine
 10
-34.80336761862787
 20
14.43210558456523
 30
0.0
 11
-34.70336761862788
 21
14.37454359650303
 31
0.0
  0
LINE
  5
F101DB
330
261
100
AcDbEntity
  8
Geo
100
AcDbLine
 10
-34.70336761862788
 20
14.37454359650303
 30
0.0
 11
-34.60336761862787
 21
14.31701143793563
 31
0.0
  0
LINE
  5
F101DD
330
261
100
AcDbEntity
  8
Geo
100
AcDbLine
 10
-34.60336761862787
 20
14.31701143793563
 30
0.0
 11
-34.50336761862786
 21
14.25951147643373
 31
0.0
  0
LINE
  5
F101DF
330
261
100
AcDbEntity
  8
Geo
100
AcDbLine
 10
-34.50336761862786
 20
14.25951147643373
 30
0.0
 11
-34.40336761862788
 21
14.20204607824253
 31
0.0
  0
LINE
  5
F101E1
330
261
100
AcDbEntity
  8
Geo
100
AcDbLine
 10
-34.40336761862788
 20
14.20204607824253
 30
0.0
 11
-34.30336761862788
 21
14.14461760818523
 31
0.0
  0
LINE
  5
F101E3
330
261
100
AcDbEntity
  8
Geo
100
AcDbLine
 10
-34.30336761862788
 20
14.14461760818523
 30
0.0
 11
-34.20336761862787
 21
14.08722842956523
 31
0.0
  0
LINE
  5
F101E5
330
261
100
AcDbEntity
  8
Geo
100
AcDbLine
 10
-34.20336761862787
 20
14.08722842956523
 30
0.0
 11
-34.10336761862787
 21
14.02988090406903
 31
0.0
  0
LINE
  5
F101E7
330
261
100
AcDbEntity
  8
Geo
100
AcDbLine
 10
-34.10336761862787
 20
14.02988090406903
 30
0.0
 11
-34.00336761862785
 21
13.97257739166893
 31
0.0
  0
LINE
  5
F101E9
330
261
100
AcDbEntity
  8
Geo
100
AcDbLine
 10
-34.00336761862785
 20
13.97257739166893
 30
0.0
 11
-33.90336761862787
 21
13.91532025052623
 31
0.0
  0
LINE
  5
F101EB
330
261
100
AcDbEntity
  8
Geo
100
AcDbLine
 10
-33.90336761862787
 20
13.91532025052623
 30
0.0
 11
-33.80336761862788
 21
13.85811183689373
 31
0.0
  0
LINE
  5
F101ED
330
261
100
AcDbEntity
  8
Geo
100
AcDbLine
 10
-33.80336761862788
 20
13.85811183689373
 30
0.0
 11
-33.70336761862787
 21
13.80095450501913
 31
0.0
  0
LINE
  5
F101EF
330
261
100
AcDbEntity
  8
Geo
100
AcDbLine
 10
-33.70336761862787
 20
13.80095450501913
 30
0.0
 11
-33.60336761862787
 21
13.74385060704774
 31
0.0
  0
LINE
  5
F101F1
330
261
100
AcDbEntity
  8
Geo
100
AcDbLine
 10
-33.60336761862787
 20
13.74385060704774
 30
0.0
 11
-33.50336761862787
 21
13.68680249292633
 31
0.0
  0
LINE
  5
F101F3
330
261
100
AcDbEntity
  8
Geo
100
AcDbLine
 10
-33.50336761862787
 20
13.68680249292633
 30
0.0
 11
-33.40336761862788
 21
13.62981251030583
 31
0.0
  0
LINE
  5
F101F5
330
261
100
AcDbEntity
  8
Geo
100
AcDbLine
 10
-33.40336761862788
 20
13.62981251030583
 30
0.0
 11
-33.30336761862787
 21
13.57288300444493
 31
0.0
  0
LINE
  5
F101F7
330
261
100
AcDbEntity
  8
Geo
100
AcDbLine
 10
-33.30336761862787
 20
13.57288300444493
 30
0.0
 11
-33.20336761862787
 21
13.51601631811373
 31
0.0
  0
LINE
  5
F101F9
330
261
100
AcDbEntity
  8
Geo
100
AcDbLine
 10
-33.20336761862787
 20
13.51601631811373
 30
0.0
 11
-33.10336761862787
 21
13.45921479149683
 31
0.0
  0
LINE
  5
F101FB
330
261
100
AcDbEntity
  8
Geo
100
AcDbLine
 10
-33.10336761862787
 20
13.45921479149683
 30
0.0
 11
-33.00336761862786
 21
13.40248076209783
 31
0.0
  0
LINE
  5
F101FD
330
261
100
AcDbEntity
  8
Geo
100
AcDbLine
 10
-33.00336761862786
 20
13.40248076209783
 30
0.0
 11
-32.90336761862788
 21
13.34581656464233
 31
0.0
  0
LINE
  5
F101FF
330
261
100
AcDbEntity
  8
Geo
100
AcDbLine
 10
-32.90336761862788
 20
13.34581656464233
 30
0.0
 11
-32.80336761862788
 21
13.28922453098233
 31
0.0
  0
LINE
  5
F10201
330
261
100
AcDbEntity
  8
Geo
100
AcDbLine
 10
-32.80336761862788
 20
13.28922453098233
 30
0.0
 11
-32.70336761862786
 21
13.23270699000013
 31
0.0
  0
LINE
  5
F10203
330
261
100
AcDbEntity
  8
Geo
100
AcDbLine
 10
-32.70336761862786
 20
13.23270699000013
 30
0.0
 11
-32.60336761862787
 21
13.17626626751243
 31
0.0
  0
LINE
  5
F10205
330
261
100
AcDbEntity
  8
Geo
100
AcDbLine
 10
-32.60336761862787
 20
13.17626626751243
 30
0.0
 11
-32.50336761862786
 21
13.11990468617483
 31
0.0
  0
LINE
  5
F10207
330
261
100
AcDbEntity
  8
Geo
100
AcDbLine
 10
-32.50336761862786
 20
13.11990468617483
 30
0.0
 11
-32.40336761862788
 21
13.06362456538593
 31
0.0
  0
LINE
  5
F10209
330
261
100
AcDbEntity
  8
Geo
100
AcDbLine
 10
-32.40336761862788
 20
13.06362456538593
 30
0.0
 11
-32.30336761862787
 21
13.00742822119223
 31
0.0
  0
LINE
  5
F1020B
330
261
100
AcDbEntity
  8
Geo
100
AcDbLine
 10
-32.30336761862787
 20
13.00742822119223
 30
0.0
 11
-32.20336761862788
 21
12.95131796619243
 31
0.0
  0
LINE
  5
F1020D
330
261
100
AcDbEntity
  8
Geo
100
AcDbLine
 10
-32.20336761862788
 20
12.95131796619243
 30
0.0
 11
-32.10336761862787
 21
12.89529610944273
 31
0.0
  0
LINE
  5
F1020F
330
261
100
AcDbEntity
  8
Geo
100
AcDbLine
 10
-32.10336761862787
 20
12.89529610944273
 30
0.0
 11
-32.00336761862786
 21
12.83936495636143
 31
0.0
  0
LINE
  5
F10211
330
261
100
AcDbEntity
  8
Geo
100
AcDbLine
 10
-32.00336761862786
 20
12.83936495636143
 30
0.0
 11
-31.90336761862787
 21
12.78352680863403
 31
0.0
  0
LINE
  5
F10213
330
261
100
AcDbEntity
  8
Geo
100
AcDbLine
 10
-31.90336761862787
 20
12.78352680863403
 30
0.0
 11
-31.80336761862788
 21
12.72778396411893
 31
0.0
  0
LINE
  5
F10215
330
261
100
AcDbEntity
  8
Geo
100
AcDbLine
 10
-31.80336761862788
 20
12.72778396411893
 30
0.0
 11
-31.70336761862787
 21
12.67213871675253
 31
0.0
  0
LINE
  5
F10217
330
261
100
AcDbEntity
  8
Geo
100
AcDbLine
 10
-31.70336761862787
 20
12.67213871675253
 30
0.0
 11
-31.60336761862787
 21
12.61659335645473
 31
0.0
  0
LINE
  5
F10219
330
261
100
AcDbEntity
  8
Geo
100
AcDbLine
 10
-31.60336761862787
 20
12.61659335645473
 30
0.0
 11
-31.50336761862786
 21
12.56115016903503
 31
0.0
  0
LINE
  5
F1021B
330
261
100
AcDbEntity
  8
Geo
100
AcDbLine
 10
-31.50336761862786
 20
12.56115016903503
 30
0.0
 11
-31.40336761862787
 21
12.50581143609833
 31
0.0
  0
LINE
  5
F1021D
330
261
100
AcDbEntity
  8
Geo
100
AcDbLine
 10
-31.40336761862787
 20
12.50581143609833
 30
0.0
 11
-31.30336761862788
 21
12.45057943495083
 31
0.0
  0
LINE
  5
F1021F
330
261
100
AcDbEntity
  8
Geo
100
AcDbLine
 10
-31.30336761862788
 20
12.45057943495083
 30
0.0
 11
-31.20336761862787
 21
12.39545643850663
 31
0.0
  0
LINE
  5
F10221
330
261
100
AcDbEntity
  8
Geo
100
AcDbLine
 10
-31.20336761862787
 20
12.39545643850663
 30
0.0
 11
-31.10336761862787
 21
12.34044471519393
 31
0.0
  0
LINE
  5
F10223
330
261
100
AcDbEntity
  8
Geo
100
AcDbLine
 10
-31.10336761862787
 20
12.34044471519393
 30
0.0
 11
-31.00336761862787
 21
12.28554652886213
 31
0.0
  0
LINE
  5
F10225
330
261
100
AcDbEntity
  8
Geo
100
AcDbLine
 10
-31.00336761862787
 20
12.28554652886213
 30
0.0
 11
-30.90336761862787
 21
12.23076413868793
 31
0.0
  0
LINE
  5
F10227
330
261
100
AcDbEntity
  8
Geo
100
AcDbLine
 10
-30.90336761862787
 20
12.23076413868793
 30
0.0
 11
-30.80336761862787
 21
12.17609979908293
 31
0.0
  0
LINE
  5
F10229
330
261
100
AcDbEntity
  8
Geo
100
AcDbLine
 10
-30.80336761862787
 20
12.17609979908293
 30
0.0
 11
-30.70336761862787
 21
12.12155575960073
 31
0.0
  0
LINE
  5
F1022B
330
261
100
AcDbEntity
  8
Geo
100
AcDbLine
 10
-30.70336761862787
 20
12.12155575960073
 30
0.0
 11
-30.60336761862787
 21
12.06713426484443
 31
0.0
  0
LINE
  5
F1022D
330
261
100
AcDbEntity
  8
Geo
100
AcDbLine
 10
-30.60336761862787
 20
12.06713426484443
 30
0.0
 11
-30.50336761862786
 21
12.01283755437393
 31
0.0
  0
LINE
  5
F1022F
330
261
100
AcDbEntity
  8
Geo
100
AcDbLine
 10
-30.50336761862786
 20
12.01283755437393
 30
0.0
 11
-30.40336761862787
 21
11.95866786261413
 31
0.0
  0
LINE
  5
F10231
330
261
100
AcDbEntity
  8
Geo
100
AcDbLine
 10
-30.40336761862787
 20
11.95866786261413
 30
0.0
 11
-30.30336761862788
 21
11.90462741876273
 31
0.0
  0
LINE
  5
F10233
330
261
100
AcDbEntity
  8
Geo
100
AcDbLine
 10
-30.30336761862788
 20
11.90462741876273
 30
0.0
 11
-30.20336761862786
 21
11.85071844669883
 31
0.0
  0
LINE
  5
F10235
330
261
100
AcDbEntity
  8
Geo
100
AcDbLine
 10
-30.20336761862786
 20
11.85071844669883
 30
0.0
 11
-30.10336761862787
 21
11.79694316489093
 31
0.0
  0
LINE
  5
F10237
330
261
100
AcDbEntity
  8
Geo
100
AcDbLine
 10
-30.10336761862787
 20
11.79694316489093
 30
0.0
 11
-30.00336761862786
 21
11.74330378630593
 31
0.0
  0
LINE
  5
F10239
330
261
100
AcDbEntity
  8
Geo
100
AcDbLine
 10
-30.00336761862786
 20
11.74330378630593
 30
0.0
 11
-29.90336761862787
 21
11.68980251831833
 31
0.0
  0
LINE
  5
F1023B
330
261
100
AcDbEntity
  8
Geo
100
AcDbLine
 10
-29.90336761862787
 20
11.68980251831833
 30
0.0
 11
-29.80336761862787
 21
11.63644156261863
 31
0.0
  0
LINE
  5
F1023D
330
261
100
AcDbEntity
  8
Geo
100
AcDbLine
 10
-29.80336761862787
 20
11.63644156261863
 30
0.0
 11
-29.70336761862787
 21
11.58322311512343
 31
0.0
  0
LINE
  5
F1023F
330
261
100
AcDbEntity
  8
Geo
100
AcDbLine
 10
-29.70336761862787
 20
11.58322311512343
 30
0.0
 11
-29.60336761862787
 21
11.53014936588493
 31
0.0
  0
LINE
  5
F10241
330
261
100
AcDbEntity
  8
Geo
100
AcDbLine
 10
-29.60336761862787
 20
11.53014936588493
 30
0.0
 11
-29.50336761862786
 21
11.47722249900043
 31
0.0
  0
LINE
  5
F10243
330
261
100
AcDbEntity
  8
Geo
100
AcDbLine
 10
-29.50336761862786
 20
11.47722249900043
 30
0.0
 11
-29.40336761862787
 21
11.42444469252293
 31
0.0
  0
LINE
  5
F10245
330
261
100
AcDbEntity
  8
Geo
100
AcDbLine
 10
-29.40336761862787
 20
11.42444469252293
 30
0.0
 11
-29.30336761862788
 21
11.37181811837093
 31
0.0
  0
LINE
  5
F10247
330
261
100
AcDbEntity
  8
Geo
100
AcDbLine
 10
-29.30336761862788
 20
11.37181811837093
 30
0.0
 11
-29.20336761862787
 21
11.31934494223993
 31
0.0
  0
LINE
  5
F10249
330
261
100
AcDbEntity
  8
Geo
100
AcDbLine
 10
-29.20336761862787
 20
11.31934494223993
 30
0.0
 11
-29.10336761862787
 21
11.26702732351233
 31
0.0
  0
LINE
  5
F1024B
330
261
100
AcDbEntity
  8
Geo
100
AcDbLine
 10
-29.10336761862787
 20
11.26702732351233
 30
0.0
 11
-29.00336761862786
 21
11.21486741516923
 31
0.0
  0
LINE
  5
F1024D
330
261
100
AcDbEntity
  8
Geo
100
AcDbLine
 10
-29.00336761862786
 20
11.21486741516923
 30
0.0
 11
-28.90336761862787
 21
11.16286736370153
 31
0.0
  0
LINE
  5
F1024F
330
261
100
AcDbEntity
  8
Geo
100
AcDbLine
 10
-28.90336761862787
 20
11.16286736370153
 30
0.0
 11
-28.80336761862788
 21
11.11102930902173
 31
0.0
  0
LINE
  5
F10251
330
261
100
AcDbEntity
  8
Geo
100
AcDbLine
 10
-28.80336761862788
 20
11.11102930902173
 30
0.0
 11
-28.70336761862787
 21
11.05935538437573
 31
0.0
  0
LINE
  5
F10253
330
261
100
AcDbEntity
  8
Geo
100
AcDbLine
 10
-28.70336761862787
 20
11.05935538437573
 30
0.0
 11
-28.60336761862787
 21
11.00784771625533
 31
0.0
  0
LINE
  5
F10255
330
261
100
AcDbEntity
  8
Geo
100
AcDbLine
 10
-28.60336761862787
 20
11.00784771625533
 30
0.0
 11
-28.50336761862786
 21
10.95650842431023
 31
0.0
  0
LINE
  5
F10257
330
261
100
AcDbEntity
  8
Geo
100
AcDbLine
 10
-28.50336761862786
 20
10.95650842431023
 30
0.0
 11
-28.40336761862787
 21
10.90533962126133
 31
0.0
  0
LINE
  5
F10259
330
261
100
AcDbEntity
  8
Geo
100
AcDbLine
 10
-28.40336761862787
 20
10.90533962126133
 30
0.0
 11
-28.30336761862787
 21
10.85434341281343
 31
0.0
  0
LINE
  5
F1025B
330
261
100
AcDbEntity
  8
Geo
100
AcDbLine
 10
-28.30336761862787
 20
10.85434341281343
 30
0.0
 11
-28.20336761862787
 21
10.80352189756873
 31
0.0
  0
LINE
  5
F1025D
330
261
100
AcDbEntity
  8
Geo
100
AcDbLine
 10
-28.20336761862787
 20
10.80352189756873
 30
0.0
 11
-28.10336761862787
 21
10.75287716694053
 31
0.0
  0
LINE
  5
F1025F
330
261
100
AcDbEntity
  8
Geo
100
AcDbLine
 10
-28.10336761862787
 20
10.75287716694053
 30
0.0
 11
-28.00336761862786
 21
10.70241130506683
 31
0.0
  0
LINE
  5
F10261
330
261
100
AcDbEntity
  8
Geo
100
AcDbLine
 10
-28.00336761862786
 20
10.70241130506683
 30
0.0
 11
-27.90336761862787
 21
10.65212638872503
 31
0.0
  0
LINE
  5
F10263
330
261
100
AcDbEntity
  8
Geo
100
AcDbLine
 10
-27.90336761862787
 20
10.65212638872503
 30
0.0
 11
-27.80336761862788
 21
10.60202448724623
 31
0.0
  0
LINE
  5
F10265
330
261
100
AcDbEntity
  8
Geo
100
AcDbLine
 10
-27.80336761862788
 20
10.60202448724623
 30
0.0
 11
-27.70336761862786
 21
10.55210766242983
 31
0.0
  0
LINE
  5
F10267
330
261
100
AcDbEntity
  8
Geo
100
AcDbLine
 10
-27.70336761862786
 20
10.55210766242983
 30
0.0
 11
-27.60336761862787
 21
10.50237796845923
 31
0.0
  0
LINE
  5
F10269
330
261
100
AcDbEntity
  8
Geo
100
AcDbLine
 10
-27.60336761862787
 20
10.50237796845923
 30
0.0
 11
-27.50336761862786
 21
10.45283745181693
 31
0.0
  0
LINE
  5
F1026B
330
261
100
AcDbEntity
  8
Geo
100
AcDbLine
 10
-27.50336761862786
 20
10.45283745181693
 30
0.0
 11
-27.40336761862787
 21
10.40348815120013
 31
0.0
  0
LINE
  5
F1026D
330
261
100
AcDbEntity
  8
Geo
100
AcDbLine
 10
-27.40336761862787
 20
10.40348815120013
 30
0.0
 11
-27.30336761862787
 21
10.35433209743753
 31
0.0
  0
LINE
  5
F1026F
330
261
100
AcDbEntity
  8
Geo
100
AcDbLine
 10
-27.30336761862787
 20
10.35433209743753
 30
0.0
 11
-27.20336761862788
 21
10.30537131340483
 31
0.0
  0
LINE
  5
F10271
330
261
100
AcDbEntity
  8
Geo
100
AcDbLine
 10
-27.20336761862788
 20
10.30537131340483
 30
0.0
 11
-27.10336761862787
 21
10.25660781394233
 31
0.0
  0
LINE
  5
F10273
330
261
100
AcDbEntity
  8
Geo
100
AcDbLine
 10
-27.10336761862787
 20
10.25660781394233
 30
0.0
 11
-27.00336761862786
 21
10.20804360577143
 31
0.0
  0
LINE
  5
F10275
330
261
100
AcDbEntity
  8
Geo
100
AcDbLine
 10
-27.00336761862786
 20
10.20804360577143
 30
0.0
 11
-26.90336761862787
 21
10.15968068741253
 31
0.0
  0
LINE
  5
F10277
330
261
100
AcDbEntity
  8
Geo
100
AcDbLine
 10
-26.90336761862787
 20
10.15968068741253
 30
0.0
 11
-26.80336761862788
 21
10.11152104910223
 31
0.0
  0
LINE
  5
F10279
330
261
100
AcDbEntity
  8
Geo
100
AcDbLine
 10
-26.80336761862788
 20
10.11152104910223
 30
0.0
 11
-26.70336761862787
 21
10.06356667271183
 31
0.0
  0
LINE
  5
F1027B
330
261
100
AcDbEntity
  8
Geo
100
AcDbLine
 10
-26.70336761862787
 20
10.06356667271183
 30
0.0
 11
-26.60336761862787
 21
10.01581953166573
 31
0.0
  0
LINE
  5
F1027D
330
261
100
AcDbEntity
  8
Geo
100
AcDbLine
 10
-26.60336761862787
 20
10.01581953166573
 30
0.0
 11
-26.50336761862777
 21
9.968281590860136
 31
0.0
  0
LINE
  5
F1027F
330
261
100
AcDbEntity
  8
Geo
100
AcDbLine
 10
-26.50336761862777
 20
9.968281590860136
 30
0.0
 11
-26.40336761862787
 21
9.920954806582235
 31
0.0
  0
LINE
  5
F10281
330
261
100
AcDbEntity
  8
Geo
100
AcDbLine
 10
-26.40336761862787
 20
9.920954806582235
 30
0.0
 11
-26.30336761862788
 21
9.873841126429532
 31
0.0
  0
LINE
  5
F10283
330
261
100
AcDbEntity
  8
Geo
100
AcDbLine
 10
-26.30336761862788
 20
9.873841126429532
 30
0.0
 11
-26.20336761862777
 21
9.826942489229931
 31
0.0
  0
LINE
  5
F10285
330
261
100
AcDbEntity
  8
Geo
100
AcDbLine
 10
-26.20336761862777
 20
9.826942489229931
 30
0.0
 11
-26.10336761862777
 21
9.780260824962132
 31
0.0
  0
LINE
  5
F10287
330
261
100
AcDbEntity
  8
Geo
100
AcDbLine
 10
-26.10336761862777
 20
9.780260824962132
 30
0.0
 11
-26.00336761862776
 21
9.733798054675434
 31
0.0
  0
LINE
  5
F10289
330
261
100
AcDbEntity
  8
Geo
100
AcDbLine
 10
-26.00336761862776
 20
9.733798054675434
 30
0.0
 11
-25.90336761862787
 21
9.687556090411431
 31
0.0
  0
LINE
  5
F1028B
330
261
100
AcDbEntity
  8
Geo
100
AcDbLine
 10
-25.90336761862787
 20
9.687556090411431
 30
0.0
 11
-25.80336761862776
 21
9.641536835125336
 31
0.0
  0
LINE
  5
F1028D
330
261
100
AcDbEntity
  8
Geo
100
AcDbLine
 10
-25.80336761862776
 20
9.641536835125336
 30
0.0
 11
-25.70336761862777
 21
9.595742182606931
 31
0.0
  0
LINE
  5
F1028F
330
261
100
AcDbEntity
  8
Geo
100
AcDbLine
 10
-25.70336761862777
 20
9.595742182606931
 30
0.0
 11
-25.60336761862777
 21
9.550174017403435
 31
0.0
  0
LINE
  5
F10291
330
261
100
AcDbEntity
  8
Geo
100
AcDbLine
 10
-25.60336761862777
 20
9.550174017403435
 30
0.0
 11
-25.50336761862777
 21
9.504834214741633
 31
0.0
  0
LINE
  5
F10293
330
261
100
AcDbEntity
  8
Geo
100
AcDbLine
 10
-25.50336761862777
 20
9.504834214741633
 30
0.0
 11
-25.40336761862777
 21
9.459724640450431
 31
0.0
  0
LINE
  5
F10295
330
261
100
AcDbEntity
  8
Geo
100
AcDbLine
 10
-25.40336761862777
 20
9.459724640450431
 30
0.0
 11
-25.30336761862777
 21
9.414847150884734
 31
0.0
  0
LINE
  5
F10297
330
261
100
AcDbEntity
  8
Geo
100
AcDbLine
 10
-25.30336761862777
 20
9.414847150884734
 30
0.0
 11
-25.20336761862777
 21
9.370203592848431
 31
0.0
  0
LINE
  5
F10299
330
261
100
AcDbEntity
  8
Geo
100
AcDbLine
 10
-25.20336761862777
 20
9.370203592848431
 30
0.0
 11
-25.10336761862776
 21
9.325795803518632
 31
0.0
  0
LINE
  5
F1029B
330
261
100
AcDbEntity
  8
Geo
100
AcDbLine
 10
-25.10336761862776
 20
9.325795803518632
 30
0.0
 11
-25.00336761862776
 21
9.281625610370133
 31
0.0
  0
LINE
  5
F1029D
330
261
100
AcDbEntity
  8
Geo
100
AcDbLine
 10
-25.00336761862776
 20
9.281625610370133
 30
0.0
 11
-24.90336761862777
 21
9.237694831100132
 31
0.0
  0
LINE
  5
F1029F
330
261
100
AcDbEntity
  8
Geo
100
AcDbLine
 10
-24.90336761862777
 20
9.237694831100132
 30
0.0
 11
-24.80336761862777
 21
9.194005273553432
 31
0.0
  0
LINE
  5
F102A1
330
261
100
AcDbEntity
  8
Geo
100
AcDbLine
 10
-24.80336761862777
 20
9.194005273553432
 30
0.0
 11
-24.70336761862777
 21
9.150558735648036
 31
0.0
  0
LINE
  5
F102A3
330
261
100
AcDbEntity
  8
Geo
100
AcDbLine
 10
-24.70336761862777
 20
9.150558735648036
 30
0.0
 11
-24.60336761862777
 21
9.107357005301235
 31
0.0
  0
LINE
  5
F102A5
330
261
100
AcDbEntity
  8
Geo
100
AcDbLine
 10
-24.60336761862777
 20
9.107357005301235
 30
0.0
 11
-24.50336761862776
 21
9.064401860355832
 31
0.0
  0
LINE
  5
F102A7
330
261
100
AcDbEntity
  8
Geo
100
AcDbLine
 10
-24.50336761862776
 20
9.064401860355832
 30
0.0
 11
-24.40336761862777
 21
9.021695068507233
 31
0.0
  0
LINE
  5
F102A9
330
261
100
AcDbEntity
  8
Geo
100
AcDbLine
 10
-24.40336761862777
 20
9.021695068507233
 30
0.0
 11
-24.30336761862776
 21
8.979238387230532
 31
0.0
  0
LINE
  5
F102AB
330
261
100
AcDbEntity
  8
Geo
100
AcDbLine
 10
-24.30336761862776
 20
8.979238387230532
 30
0.0
 11
-24.20336761862777
 21
8.937033563708334
 31
0.0
  0
LINE
  5
F102AD
330
261
100
AcDbEntity
  8
Geo
100
AcDbLine
 10
-24.20336761862777
 20
8.937033563708334
 30
0.0
 11
-24.10336761862776
 21
8.895082334758633
 31
0.0
  0
LINE
  5
F102AF
330
261
100
AcDbEntity
  8
Geo
100
AcDbLine
 10
-24.10336761862776
 20
8.895082334758633
 30
0.0
 11
-24.00336761862777
 21
8.853386426763533
 31
0.0
  0
LINE
  5
F102B1
330
261
100
AcDbEntity
  8
Geo
100
AcDbLine
 10
-24.00336761862777
 20
8.853386426763533
 30
0.0
 11
-23.90336761862777
 21
8.811947555598234
 31
0.0
  0
LINE
  5
F102B3
330
261
100
AcDbEntity
  8
Geo
100
AcDbLine
 10
-23.90336761862777
 20
8.811947555598234
 30
0.0
 11
-23.80336761862777
 21
8.770767426560134
 31
0.0
  0
LINE
  5
F102B5
330
261
100
AcDbEntity
  8
Geo
100
AcDbLine
 10
-23.80336761862777
 20
8.770767426560134
 30
0.0
 11
-23.70336761862777
 21
8.729847734298934
 31
0.0
  0
LINE
  5
F102B7
330
261
100
AcDbEntity
  8
Geo
100
AcDbLine
 10
-23.70336761862777
 20
8.729847734298934
 30
0.0
 11
-23.60336761862777
 21
8.689190162746832
 31
0.0
  0
LINE
  5
F102B9
330
261
100
AcDbEntity
  8
Geo
100
AcDbLine
 10
-23.60336761862777
 20
8.689190162746832
 30
0.0
 11
-23.50336761862776
 21
8.648796385049234
 31
0.0
  0
LINE
  5
F102BB
330
261
100
AcDbEntity
  8
Geo
100
AcDbLine
 10
-23.50336761862776
 20
8.648796385049234
 30
0.0
 11
-23.40336761862777
 21
8.608668063495732
 31
0.0
  0
LINE
  5
F102BD
330
261
100
AcDbEntity
  8
Geo
100
AcDbLine
 10
-23.40336761862777
 20
8.608668063495732
 30
0.0
 11
-23.30336761862776
 21
8.568806849451934
 31
0.0
  0
LINE
  5
F102BF
330
261
100
AcDbEntity
  8
Geo
100
AcDbLine
 10
-23.30336761862776
 20
8.568806849451934
 30
0.0
 11
-23.20336761862777
 21
8.529214383291432
 31
0.0
  0
LINE
  5
F102C1
330
261
100
AcDbEntity
  8
Geo
100
AcDbLine
 10
-23.20336761862777
 20
8.529214383291432
 30
0.0
 11
-23.10336761862776
 21
8.489892294328335
 31
0.0
  0
LINE
  5
F102C3
330
261
100
AcDbEntity
  8
Geo
100
AcDbLine
 10
-23.10336761862776
 20
8.489892294328335
 30
0.0
 11
-23.00336761862777
 21
8.450842200749834
 31
0.0
  0
LINE
  5
F102C5
330
261
100
AcDbEntity
  8
Geo
100
AcDbLine
 10
-23.00336761862777
 20
8.450842200749834
 30
0.0
 11
-22.90336761862777
 21
8.412065709550232
 31
0.0
  0
LINE
  5
F102C7
330
261
100
AcDbEntity
  8
Geo
100
AcDbLine
 10
-22.90336761862777
 20
8.412065709550232
 30
0.0
 11
-22.80336761862777
 21
8.373564416464532
 31
0.0
  0
LINE
  5
F102C9
330
261
100
AcDbEntity
  8
Geo
100
AcDbLine
 10
-22.80336761862777
 20
8.373564416464532
 30
0.0
 11
-22.70336761862777
 21
8.335339905902632
 31
0.0
  0
LINE
  5
F102CB
330
261
100
AcDbEntity
  8
Geo
100
AcDbLine
 10
-22.70336761862777
 20
8.335339905902632
 30
0.0
 11
-22.60336761862776
 21
8.297393750884133
 31
0.0
  0
LINE
  5
F102CD
330
261
100
AcDbEntity
  8
Geo
100
AcDbLine
 10
-22.60336761862776
 20
8.297393750884133
 30
0.0
 11
-22.50336761862776
 21
8.259727512973935
 31
0.0
  0
LINE
  5
F102CF
330
261
100
AcDbEntity
  8
Geo
100
AcDbLine
 10
-22.50336761862776
 20
8.259727512973935
 30
0.0
 11
-22.40336761862777
 21
8.222342742217735
 31
0.0
  0
LINE
  5
F102D1
330
261
100
AcDbEntity
  8
Geo
100
AcDbLine
 10
-22.40336761862777
 20
8.222342742217735
 30
0.0
 11
-22.30336761862776
 21
8.185240977078032
 31
0.0
  0
LINE
  5
F102D3
330
261
100
AcDbEntity
  8
Geo
100
AcDbLine
 10
-22.30336761862776
 20
8.185240977078032
 30
0.0
 11
-22.20336761862787
 21
8.148423744371331
 31
0.0
  0
LINE
  5
F102D5
330
261
100
AcDbEntity
  8
Geo
100
AcDbLine
 10
-22.20336761862787
 20
8.148423744371331
 30
0.0
 11
-22.10336761862787
 21
8.158837391130834
 31
0.0
  0
LINE
  5
F102D7
330
261
100
AcDbEntity
  8
Geo
100
AcDbLine
 10
-22.10336761862787
 20
8.158837391130834
 30
0.0
 11
-22.00336761862786
 21
8.169633977694031
 31
0.0
  0
LINE
  5
F102D9
330
261
100
AcDbEntity
  8
Geo
100
AcDbLine
 10
-22.00336761862786
 20
8.169633977694031
 30
0.0
 11
-21.90336761862787
 21
8.180815920473733
 31
0.0
  0
LINE
  5
F102DB
330
261
100
AcDbEntity
  8
Geo
100
AcDbLine
 10
-21.90336761862787
 20
8.180815920473733
 30
0.0
 11
-21.80336761862788
 21
8.192385709564835
 31
0.0
  0
LINE
  5
F102DD
330
261
100
AcDbEntity
  8
Geo
100
AcDbLine
 10
-21.80336761862788
 20
8.192385709564835
 30
0.0
 11
-21.70336761862786
 21
8.204345908053234
 31
0.0
  0
LINE
  5
F102DF
330
261
100
AcDbEntity
  8
Geo
100
AcDbLine
 10
-21.70336761862786
 20
8.204345908053234
 30
0.0
 11
-21.60336761862787
 21
8.216699151299632
 31
0.0
  0
LINE
  5
F102E1
330
261
100
AcDbEntity
  8
Geo
100
AcDbLine
 10
-21.60336761862787
 20
8.216699151299632
 30
0.0
 11
-21.50336761862786
 21
8.229448146195734
 31
0.0
  0
LINE
  5
F102E3
330
261
100
AcDbEntity
  8
Geo
100
AcDbLine
 10
-21.50336761862786
 20
8.229448146195734
 30
0.0
 11
-21.40336761862787
 21
8.242595670394534
 31
0.0
  0
LINE
  5
F102E5
330
261
100
AcDbEntity
  8
Geo
100
AcDbLine
 10
-21.40336761862787
 20
8.242595670394534
 30
0.0
 11
-21.30336761862787
 21
8.256144571513932
 31
0.0
  0
LINE
  5
F102E7
330
261
100
AcDbEntity
  8
Geo
100
AcDbLine
 10
-21.30336761862787
 20
8.256144571513932
 30
0.0
 11
-21.20336761862787
 21
8.270097766312032
 31
0.0
  0
LINE
  5
F102E9
330
261
100
AcDbEntity
  8
Geo
100
AcDbLine
 10
-21.20336761862787
 20
8.270097766312032
 30
0.0
 11
-21.10336761862787
 21
8.284458239835435
 31
0.0
  0
LINE
  5
F102EB
330
261
100
AcDbEntity
  8
Geo
100
AcDbLine
 10
-21.10336761862787
 20
8.284458239835435
 30
0.0
 11
-21.00336761862787
 21
8.299229044539133
 31
0.0
  0
LINE
  5
F102ED
330
261
100
AcDbEntity
  8
Geo
100
AcDbLine
 10
-21.00336761862787
 20
8.299229044539133
 30
0.0
 11
-20.90336761862787
 21
8.314413299377934
 31
0.0
  0
LINE
  5
F102EF
330
261
100
AcDbEntity
  8
Geo
100
AcDbLine
 10
-20.90336761862787
 20
8.314413299377934
 30
0.0
 11
-20.80336761862787
 21
8.330014188869132
 31
0.0
  0
LINE
  5
F102F1
330
261
100
AcDbEntity
  8
Geo
100
AcDbLine
 10
-20.80336761862787
 20
8.330014188869132
 30
0.0
 11
-20.70336761862787
 21
8.346034962125433
 31
0.0
  0
LINE
  5
F102F3
330
261
100
AcDbEntity
  8
Geo
100
AcDbLine
 10
-20.70336761862787
 20
8.346034962125433
 30
0.0
 11
-20.60336761862787
 21
8.362478931858634
 31
0.0
  0
LINE
  5
F102F5
330
261
100
AcDbEntity
  8
Geo
100
AcDbLine
 10
-20.60336761862787
 20
8.362478931858634
 30
0.0
 11
-20.50336761862787
 21
8.379349473352935
 31
0.0
  0
LINE
  5
F102F7
330
261
100
AcDbEntity
  8
Geo
100
AcDbLine
 10
-20.50336761862787
 20
8.379349473352935
 30
0.0
 11
-20.40336761862787
 21
8.396650023407534
 31
0.0
  0
LINE
  5
F102F9
330
261
100
AcDbEntity
  8
Geo
100
AcDbLine
 10
-20.40336761862787
 20
8.396650023407534
 30
0.0
 11
-20.30336761862787
 21
8.414384079248835
 31
0.0
  0
LINE
  5
F102FB
330
261
100
AcDbEntity
  8
Geo
100
AcDbLine
 10
-20.30336761862787
 20
8.414384079248835
 30
0.0
 11
-20.20336761862787
 21
8.432555197410632
 31
0.0
  0
LINE
  5
F102FD
330
261
100
AcDbEntity
  8
Geo
100
AcDbLine
 10
-20.20336761862787
 20
8.432555197410632
 30
0.0
 11
-20.10336761862787
 21
8.451166992582432
 31
0.0
  0
LINE
  5
F102FF
330
261
100
AcDbEntity
  8
Geo
100
AcDbLine
 10
-20.10336761862787
 20
8.451166992582432
 30
0.0
 11
-20.00336761862787
 21
8.470223136426032
 31
0.0
  0
LINE
  5
F10301
330
261
100
AcDbEntity
  8
Geo
100
AcDbLine
 10
-20.00336761862787
 20
8.470223136426032
 30
0.0
 11
-19.90336761862787
 21
8.489727356358633
 31
0.0
  0
LINE
  5
F10303
330
261
100
AcDbEntity
  8
Geo
100
AcDbLine
 10
-19.90336761862787
 20
8.489727356358633
 30
0.0
 11
-19.80336761862787
 21
8.50968343430353
 31
0.0
  0
LINE
  5
F10305
330
261
100
AcDbEntity
  8
Geo
100
AcDbLine
 10
-19.80336761862787
 20
8.50968343430353
 30
0.0
 11
-19.70336761862787
 21
8.530095205406334
 31
0.0
  0
LINE
  5
F10307
330
261
100
AcDbEntity
  8
Geo
100
AcDbLine
 10
-19.70336761862787
 20
8.530095205406334
 30
0.0
 11
-19.60336761862787
 21
8.550966556717435
 31
0.0
  0
LINE
  5
F10309
330
261
100
AcDbEntity
  8
Geo
100
AcDbLine
 10
-19.60336761862787
 20
8.550966556717435
 30
0.0
 11
-19.50336761862787
 21
8.572301425840235
 31
0.0
  0
LINE
  5
F1030B
330
261
100
AcDbEntity
  8
Geo
100
AcDbLine
 10
-19.50336761862787
 20
8.572301425840235
 30
0.0
 11
-19.40336761862787
 21
8.594103799543534
 31
0.0
  0
LINE
  5
F1030D
330
261
100
AcDbEntity
  8
Geo
100
AcDbLine
 10
-19.40336761862787
 20
8.594103799543534
 30
0.0
 11
-19.30336761862777
 21
8.616377712339133
 31
0.0
  0
LINE
  5
F1030F
330
261
100
AcDbEntity
  8
Geo
100
AcDbLine
 10
-19.30336761862777
 20
8.616377712339133
 30
0.0
 11
-19.20336761862776
 21
8.639127245022732
 31
0.0
  0
LINE
  5
F10311
330
261
100
AcDbEntity
  8
Geo
100
AcDbLine
 10
-19.20336761862776
 20
8.639127245022732
 30
0.0
 11
-19.10336761862776
 21
8.662356523179134
 31
0.0
  0
LINE
  5
F10313
330
261
100
AcDbEntity
  8
Geo
100
AcDbLine
 10
-19.10336761862776
 20
8.662356523179134
 30
0.0
 11
-19.00336761862776
 21
8.686069715649733
 31
0.0
  0
LINE
  5
F10315
330
261
100
AcDbEntity
  8
Geo
100
AcDbLine
 10
-19.00336761862776
 20
8.686069715649733
 30
0.0
 11
-18.90336761862776
 21
8.710271032963031
 31
0.0
  0
LINE
  5
F10317
330
261
100
AcDbEntity
  8
Geo
100
AcDbLine
 10
-18.90336761862776
 20
8.710271032963031
 30
0.0
 11
-18.80336761862777
 21
8.734964725727035
 31
0.0
  0
LINE
  5
F10319
330
261
100
AcDbEntity
  8
Geo
100
AcDbLine
 10
-18.80336761862777
 20
8.734964725727035
 30
0.0
 11
-18.70336761862776
 21
8.760155082983235
 31
0.0
  0
LINE
  5
F1031B
330
261
100
AcDbEntity
  8
Geo
100
AcDbLine
 10
-18.70336761862776
 20
8.760155082983235
 30
0.0
 11
-18.60336761862776
 21
8.785846430522031
 31
0.0
  0
LINE
  5
F1031D
330
261
100
AcDbEntity
  8
Geo
100
AcDbLine
 10
-18.60336761862776
 20
8.785846430522031
 30
0.0
 11
-18.50336761862776
 21
8.812043129158134
 31
0.0
  0
LINE
  5
F1031F
330
261
100
AcDbEntity
  8
Geo
100
AcDbLine
 10
-18.50336761862776
 20
8.812043129158134
 30
0.0
 11
-18.40336761862776
 21
8.838749572966733
 31
0.0
  0
LINE
  5
F10321
330
261
100
AcDbEntity
  8
Geo
100
AcDbLine
 10
-18.40336761862776
 20
8.838749572966733
 30
0.0
 11
-18.30336761862777
 21
8.865970187479234
 31
0.0
  0
LINE
  5
F10323
330
261
100
AcDbEntity
  8
Geo
100
AcDbLine
 10
-18.30336761862777
 20
8.865970187479234
 30
0.0
 11
-18.20336761862776
 21
8.893709427837931
 31
0.0
  0
LINE
  5
F10325
330
261
100
AcDbEntity
  8
Geo
100
AcDbLine
 10
-18.20336761862776
 20
8.893709427837931
 30
0.0
 11
-18.10336761862776
 21
8.921971776909632
 31
0.0
  0
LINE
  5
F10327
330
261
100
AcDbEntity
  8
Geo
100
AcDbLine
 10
-18.10336761862776
 20
8.921971776909632
 30
0.0
 11
-18.00336761862776
 21
8.950761743357432
 31
0.0
  0
LINE
  5
F10329
330
261
100
AcDbEntity
  8
Geo
100
AcDbLine
 10
-18.00336761862776
 20
8.950761743357432
 30
0.0
 11
-17.90336761862776
 21
8.980083859670633
 31
0.0
  0
LINE
  5
F1032B
330
261
100
AcDbEntity
  8
Geo
100
AcDbLine
 10
-17.90336761862776
 20
8.980083859670633
 30
0.0
 11
-17.80336761862777
 21
9.009942680151333
 31
0.0
  0
LINE
  5
F1032D
330
261
100
AcDbEntity
  8
Geo
100
AcDbLine
 10
-17.80336761862777
 20
9.009942680151333
 30
0.0
 11
-17.70336761862776
 21
9.040342778858331
 31
0.0
  0
LINE
  5
F1032F
330
261
100
AcDbEntity
  8
Geo
100
AcDbLine
 10
-17.70336761862776
 20
9.040342778858331
 30
0.0
 11
-17.60336761862776
 21
9.071288747507734
 31
0.0
  0
LINE
  5
F10331
330
261
100
AcDbEntity
  8
Geo
100
AcDbLine
 10
-17.60336761862776
 20
9.071288747507734
 30
0.0
 11
-17.50336761862776
 21
9.102785193328832
 31
0.0
  0
LINE
  5
F10333
330
261
100
AcDbEntity
  8
Geo
100
AcDbLine
 10
-17.50336761862776
 20
9.102785193328832
 30
0.0
 11
-17.40336761862776
 21
9.134836736876131
 31
0.0
  0
LINE
  5
F10335
330
261
100
AcDbEntity
  8
Geo
100
AcDbLine
 10
-17.40336761862776
 20
9.134836736876131
 30
0.0
 11
-17.30336761862776
 21
9.167448009796032
 31
0.0
  0
LINE
  5
F10337
330
261
100
AcDbEntity
  8
Geo
100
AcDbLine
 10
-17.30336761862776
 20
9.167448009796032
 30
0.0
 11
-17.20336761862776
 21
9.200623652548632
 31
0.0
  0
LINE
  5
F10339
330
261
100
AcDbEntity
  8
Geo
100
AcDbLine
 10
-17.20336761862776
 20
9.200623652548632
 30
0.0
 11
-17.10336761862776
 21
9.234368312083235
 31
0.0
  0
LINE
  5
F1033B
330
261
100
AcDbEntity
  8
Geo
100
AcDbLine
 10
-17.10336761862776
 20
9.234368312083235
 30
0.0
 11
-17.00336761862776
 21
9.268686639468434
 31
0.0
  0
LINE
  5
F1033D
330
261
100
AcDbEntity
  8
Geo
100
AcDbLine
 10
-17.00336761862776
 20
9.268686639468434
 30
0.0
 11
-16.90336761862776
 21
9.303583287475031
 31
0.0
  0
LINE
  5
F1033F
330
261
100
AcDbEntity
  8
Geo
100
AcDbLine
 10
-16.90336761862776
 20
9.303583287475031
 30
0.0
 11
-16.80336761862777
 21
9.339062908112133
 31
0.0
  0
LINE
  5
F10341
330
261
100
AcDbEntity
  8
Geo
100
AcDbLine
 10
-16.80336761862777
 20
9.339062908112133
 30
0.0
 11
-16.70336761862776
 21
9.375130150116234
 31
0.0
  0
LINE
  5
F10343
330
261
100
AcDbEntity
  8
Geo
100
AcDbLine
 10
-16.70336761862776
 20
9.375130150116234
 30
0.0
 11
-16.60336761862776
 21
9.411789656392333
 31
0.0
  0
LINE
  5
F10345
330
261
100
AcDbEntity
  8
Geo
100
AcDbLine
 10
-16.60336761862776
 20
9.411789656392333
 30
0.0
 11
-16.50336761862776
 21
9.449046061407132
 31
0.0
  0
LINE
  5
F10347
330
261
100
AcDbEntity
  8
Geo
100
AcDbLine
 10
-16.50336761862776
 20
9.449046061407132
 30
0.0
 11
-16.40336761862776
 21
9.486903988533734
 31
0.0
  0
LINE
  5
F10349
330
261
100
AcDbEntity
  8
Geo
100
AcDbLine
 10
-16.40336761862776
 20
9.486903988533734
 30
0.0
 11
-16.30336761862777
 21
9.525368047347932
 31
0.0
  0
LINE
  5
F1034B
330
261
100
AcDbEntity
  8
Geo
100
AcDbLine
 10
-16.30336761862777
 20
9.525368047347932
 30
0.0
 11
-16.20336761862776
 21
9.564442830874837
 31
0.0
  0
LINE
  5
F1034D
330
261
100
AcDbEntity
  8
Geo
100
AcDbLine
 10
-16.20336761862776
 20
9.564442830874837
 30
0.0
 11
-16.10336761862776
 21
9.604132912787235
 31
0.0
  0
LINE
  5
F1034F
330
261
100
AcDbEntity
  8
Geo
100
AcDbLine
 10
-16.10336761862776
 20
9.604132912787235
 30
0.0
 11
-16.00336761862776
 21
9.644442844553431
 31
0.0
  0
LINE
  5
F10351
330
261
100
AcDbEntity
  8
Geo
100
AcDbLine
 10
-16.00336761862776
 20
9.644442844553431
 30
0.0
 11
-15.90336761862776
 21
9.685377152535334
 31
0.0
  0
LINE
  5
F10353
330
261
100
AcDbEntity
  8
Geo
100
AcDbLine
 10
-15.90336761862776
 20
9.685377152535334
 30
0.0
 11
-15.80336761862777
 21
9.726940335036934
 31
0.0
  0
LINE
  5
F10355
330
261
100
AcDbEntity
  8
Geo
100
AcDbLine
 10
-15.80336761862777
 20
9.726940335036934
 30
0.0
 11
-15.70336761862776
 21
9.769136859302033
 31
0.0
  0
LINE
  5
F10357
330
261
100
AcDbEntity
  8
Geo
100
AcDbLine
 10
-15.70336761862776
 20
9.769136859302033
 30
0.0
 11
-15.60336761862776
 21
9.811971158461632
 31
0.0
  0
LINE
  5
F10359
330
261
100
AcDbEntity
  8
Geo
100
AcDbLine
 10
-15.60336761862776
 20
9.811971158461632
 30
0.0
 11
-15.50336761862776
 21
9.855447628430232
 31
0.0
  0
LINE
  5
F1035B
330
261
100
AcDbEntity
  8
Geo
100
AcDbLine
 10
-15.50336761862776
 20
9.855447628430232
 30
0.0
 11
-15.40336761862776
 21
9.899570624751735
 31
0.0
  0
LINE
  5
F1035D
330
261
100
AcDbEntity
  8
Geo
100
AcDbLine
 10
-15.40336761862776
 20
9.899570624751735
 30
0.0
 11
-15.30336761862777
 21
9.944344459393734
 31
0.0
  0
LINE
  5
F1035F
330
261
100
AcDbEntity
  8
Geo
100
AcDbLine
 10
-15.30336761862777
 20
9.944344459393734
 30
0.0
 11
-15.20336761862787
 21
9.989773397491234
 31
0.0
  0
LINE
  5
F10361
330
261
100
AcDbEntity
  8
Geo
100
AcDbLine
 10
-48.20336761862787
 20
15.09940280896473
 30
0.0
 11
-48.10336761862785
 21
15.65090296747363
 31
0.0
  0
LINE
  5
F10363
330
261
100
AcDbEntity
  8
Geo
100
AcDbLine
 10
-48.10336761862785
 20
15.65090296747363
 30
0.0
 11
-48.00336761862786
 21
15.86611659601993
 31
0.0
  0
LINE
  5
F10365
330
261
100
AcDbEntity
  8
Geo
100
AcDbLine
 10
-48.00336761862786
 20
15.86611659601993
 30
0.0
 11
-47.90336761862785
 21
16.02226411389143
 31
0.0
  0
LINE
  5
F10367
330
261
100
AcDbEntity
  8
Geo
100
AcDbLine
 10
-47.90336761862785
 20
16.02226411389143
 30
0.0
 11
-47.80336761862786
 21
16.14639867230703
 31
0.0
  0
LINE
  5
F10369
330
261
100
AcDbEntity
  8
Geo
100
AcDbLine
 10
-47.80336761862786
 20
16.14639867230703
 30
0.0
 11
-47.70336761862786
 21
16.24918964136783
 31
0.0
  0
LINE
  5
F1036B
330
261
100
AcDbEntity
  8
Geo
100
AcDbLine
 10
-47.70336761862786
 20
16.24918964136783
 30
0.0
 11
-47.60336761862785
 21
16.33620406063133
 31
0.0
  0
LINE
  5
F1036D
330
261
100
AcDbEntity
  8
Geo
100
AcDbLine
 10
-47.60336761862785
 20
16.33620406063133
 30
0.0
 11
-47.50336761862786
 21
16.41080561383543
 31
0.0
  0
LINE
  5
F1036F
330
261
100
AcDbEntity
  8
Geo
100
AcDbLine
 10
-47.50336761862786
 20
16.41080561383543
 30
0.0
 11
-47.40336761862785
 21
16.47522325091653
 31
0.0
  0
LINE
  5
F10371
330
261
100
AcDbEntity
  8
Geo
100
AcDbLine
 10
-47.40336761862785
 20
16.47522325091653
 30
0.0
 11
-47.30336761862786
 21
16.53103158250783
 31
0.0
  0
LINE
  5
F10373
330
261
100
AcDbEntity
  8
Geo
100
AcDbLine
 10
-47.30336761862786
 20
16.53103158250783
 30
0.0
 11
-47.20336761862786
 21
16.57939667999843
 31
0.0
  0
LINE
  5
F10375
330
261
100
AcDbEntity
  8
Geo
100
AcDbLine
 10
-47.20336761862786
 20
16.57939667999843
 30
0.0
 11
-47.10336761862786
 21
16.62121398329213
 31
0.0
  0
LINE
  5
F10377
330
261
100
AcDbEntity
  8
Geo
100
AcDbLine
 10
-47.10336761862786
 20
16.62121398329213
 30
0.0
 11
-47.00336761862786
 21
16.65719123176343
 31
0.0
  0
LINE
  5
F10379
330
261
100
AcDbEntity
  8
Geo
100
AcDbLine
 10
-47.00336761862786
 20
16.65719123176343
 30
0.0
 11
-46.90336761862785
 21
16.68790111562793
 31
0.0
  0
LINE
  5
F1037B
330
261
100
AcDbEntity
  8
Geo
100
AcDbLine
 10
-46.90336761862785
 20
16.68790111562793
 30
0.0
 11
-46.80336761862785
 21
16.71381619628653
 31
0.0
  0
LINE
  5
F1037D
330
261
100
AcDbEntity
  8
Geo
100
AcDbLine
 10
-46.80336761862785
 20
16.71381619628653
 30
0.0
 11
-46.70336761862786
 21
16.73533291536013
 31
0.0
  0
LINE
  5
F1037F
330
261
100
AcDbEntity
  8
Geo
100
AcDbLine
 10
-46.70336761862786
 20
16.73533291536013
 30
0.0
 11
-46.60336761862786
 21
16.75278860745073
 31
0.0
  0
LINE
  5
F10381
330
261
100
AcDbEntity
  8
Geo
100
AcDbLine
 10
-46.60336761862786
 20
16.75278860745073
 30
0.0
 11
-46.50336761862786
 21
16.76647386892793
 31
0.0
  0
LINE
  5
F10383
330
261
100
AcDbEntity
  8
Geo
100
AcDbLine
 10
-46.50336761862786
 20
16.76647386892793
 30
0.0
 11
-46.40336761862785
 21
16.77664175160643
 31
0.0
  0
LINE
  5
F10385
330
261
100
AcDbEntity
  8
Geo
100
AcDbLine
 10
-46.40336761862785
 20
16.77664175160643
 30
0.0
 11
-46.30336761862785
 21
16.78351472934103
 31
0.0
  0
LINE
  5
F10387
330
261
100
AcDbEntity
  8
Geo
100
AcDbLine
 10
-46.30336761862785
 20
16.78351472934103
 30
0.0
 11
-46.20336761862787
 21
16.78729006719873
 31
0.0
  0
LINE
  5
F10389
330
261
100
AcDbEntity
  8
Geo
100
AcDbLine
 10
-46.20336761862787
 20
16.78729006719873
 30
0.0
 11
-46.10336761862785
 21
16.78814402204854
 31
0.0
  0
LINE
  5
F1038B
330
261
100
AcDbEntity
  8
Geo
100
AcDbLine
 10
-46.10336761862785
 20
16.78814402204854
 30
0.0
 11
-46.00336761862786
 21
16.78623517319413
 31
0.0
  0
LINE
  5
F1038D
330
261
100
AcDbEntity
  8
Geo
100
AcDbLine
 10
-46.00336761862786
 20
16.78623517319413
 30
0.0
 11
-45.90336761862785
 21
16.78170709514833
 31
0.0
  0
LINE
  5
F1038F
330
261
100
AcDbEntity
  8
Geo
100
AcDbLine
 10
-45.90336761862785
 20
16.78170709514833
 30
0.0
 11
-45.80336761862786
 21
16.77469052588054
 31
0.0
  0
LINE
  5
F10391
330
261
100
AcDbEntity
  8
Geo
100
AcDbLine
 10
-45.80336761862786
 20
16.77469052588054
 30
0.0
 11
-45.70336761862786
 21
16.76530514317433
 31
0.0
  0
LINE
  5
F10393
330
261
100
AcDbEntity
  8
Geo
100
AcDbLine
 10
-45.70336761862786
 20
16.76530514317433
 30
0.0
 11
-45.60336761862785
 21
16.75366103303773
 31
0.0
  0
LINE
  5
F10395
330
261
100
AcDbEntity
  8
Geo
100
AcDbLine
 10
-45.60336761862785
 20
16.75366103303773
 30
0.0
 11
-45.50336761862786
 21
16.73985991355823
 31
0.0
  0
LINE
  5
F10397
330
261
100
AcDbEntity
  8
Geo
100
AcDbLine
 10
-45.50336761862786
 20
16.73985991355823
 30
0.0
 11
-45.40336761862785
 21
16.72399616265423
 31
0.0
  0
LINE
  5
F10399
330
261
100
AcDbEntity
  8
Geo
100
AcDbLine
 10
-45.40336761862785
 20
16.72399616265423
 30
0.0
 11
-45.30336761862786
 21
16.70615768716652
 31
0.0
  0
LINE
  5
F1039B
330
261
100
AcDbEntity
  8
Geo
100
AcDbLine
 10
-45.30336761862786
 20
16.70615768716652
 30
0.0
 11
-45.20336761862786
 21
16.68642666252313
 31
0.0
  0
LINE
  5
F1039D
330
261
100
AcDbEntity
  8
Geo
100
AcDbLine
 10
-45.20336761862786
 20
16.68642666252313
 30
0.0
 11
-45.10336761862785
 21
16.66488016601993
 31
0.0
  0
LINE
  5
F1039F
330
261
100
AcDbEntity
  8
Geo
100
AcDbLine
 10
-45.10336761862785
 20
16.66488016601993
 30
0.0
 11
-45.00336761862786
 21
16.64159072203133
 31
0.0
  0
LINE
  5
F103A1
330
261
100
AcDbEntity
  8
Geo
100
AcDbLine
 10
-45.00336761862786
 20
16.64159072203133
 30
0.0
 11
-44.90336761862785
 21
16.61662677383644
 31
0.0
  0
LINE
  5
F103A3
330
261
100
AcDbEntity
  8
Geo
100
AcDbLine
 10
-44.90336761862785
 20
16.61662677383644
 30
0.0
 11
-44.80336761862786
 21
16.59005309391654
 31
0.0
  0
LINE
  5
F103A5
330
261
100
AcDbEntity
  8
Geo
100
AcDbLine
 10
-44.80336761862786
 20
16.59005309391654
 30
0.0
 11
-44.70336761862786
 21
16.56193114236863
 31
0.0
  0
LINE
  5
F103A7
330
261
100
AcDbEntity
  8
Geo
100
AcDbLine
 10
-44.70336761862786
 20
16.56193114236863
 30
0.0
 11
-44.60336761862786
 21
16.53231938133243
 31
0.0
  0
LINE
  5
F103A9
330
261
100
AcDbEntity
  8
Geo
100
AcDbLine
 10
-44.60336761862786
 20
16.53231938133243
 30
0.0
 11
-44.50336761862786
 21
16.50127355193513
 31
0.0
  0
LINE
  5
F103AB
330
261
100
AcDbEntity
  8
Geo
100
AcDbLine
 10
-44.50336761862786
 20
16.50127355193513
 30
0.0
 11
-44.40336761862785
 21
16.46884691914663
 31
0.0
  0
LINE
  5
F103AD
330
261
100
AcDbEntity
  8
Geo
100
AcDbLine
 10
-44.40336761862785
 20
16.46884691914663
 30
0.0
 11
-44.30336761862785
 21
16.43509048903633
 31
0.0
  0
LINE
  5
F103AF
330
261
100
AcDbEntity
  8
Geo
100
AcDbLine
 10
-44.30336761862785
 20
16.43509048903633
 30
0.0
 11
-44.20336761862786
 21
16.40005320219683
 31
0.0
  0
LINE
  5
F103B1
330
261
100
AcDbEntity
  8
Geo
100
AcDbLine
 10
-44.20336761862786
 20
16.40005320219683
 30
0.0
 11
-44.10336761862786
 21
16.36378210649953
 31
0.0
  0
LINE
  5
F103B3
330
261
100
AcDbEntity
  8
Geo
100
AcDbLine
 10
-44.10336761862786
 20
16.36378210649953
 30
0.0
 11
-44.00336761862786
 21
16.32632251186343
 31
0.0
  0
LINE
  5
F103B5
330
261
100
AcDbEntity
  8
Geo
100
AcDbLine
 10
-44.00336761862786
 20
16.32632251186343
 30
0.0
 11
-43.90336761862785
 21
16.28771812931123
 31
0.0
  0
LINE
  5
F103B7
330
261
100
AcDbEntity
  8
Geo
100
AcDbLine
 10
-43.90336761862785
 20
16.28771812931123
 30
0.0
 11
-43.80336761862785
 21
16.24801119625473
 31
0.0
  0
LINE
  5
F103B9
330
261
100
AcDbEntity
  8
Geo
100
AcDbLine
 10
-43.80336761862785
 20
16.24801119625473
 30
0.0
 11
-43.70336761862787
 21
16.20724258967183
 31
0.0
  0
LINE
  5
F103BB
330
261
100
AcDbEntity
  8
Geo
100
AcDbLine
 10
-43.70336761862787
 20
16.20724258967183
 30
0.0
 11
-43.60336761862785
 21
16.16545192860463
 31
0.0
  0
LINE
  5
F103BD
330
261
100
AcDbEntity
  8
Geo
100
AcDbLine
 10
-43.60336761862785
 20
16.16545192860463
 30
0.0
 11
-43.50336761862786
 21
16.12267766721154
 31
0.0
  0
LINE
  5
F103BF
330
261
100
AcDbEntity
  8
Geo
100
AcDbLine
 10
-43.50336761862786
 20
16.12267766721154
 30
0.0
 11
-43.40336761862785
 21
16.07895717944123
 31
0.0
  0
LINE
  5
F103C1
330
261
100
AcDbEntity
  8
Geo
100
AcDbLine
 10
-43.40336761862785
 20
16.07895717944123
 30
0.0
 11
-43.30336761862786
 21
16.03432683625793
 31
0.0
  0
LINE
  5
F103C3
330
261
100
AcDbEntity
  8
Geo
100
AcDbLine
 10
-43.30336761862786
 20
16.03432683625793
 30
0.0
 11
-43.20336761862786
 21
15.98882207622304
 31
0.0
  0
LINE
  5
F103C5
330
261
100
AcDbEntity
  8
Geo
100
AcDbLine
 10
-43.20336761862786
 20
15.98882207622304
 30
0.0
 11
-43.10336761862786
 21
15.94247747014353
 31
0.0
  0
LINE
  5
F103C7
330
261
100
AcDbEntity
  8
Geo
100
AcDbLine
 10
-43.10336761862786
 20
15.94247747014353
 30
0.0
 11
-43.00336761862786
 21
15.89532678040453
 31
0.0
  0
LINE
  5
F103C9
330
261
100
AcDbEntity
  8
Geo
100
AcDbLine
 10
-43.00336761862786
 20
15.89532678040453
 30
0.0
 11
-42.90336761862787
 21
15.84740301553273
 31
0.0
  0
LINE
  5
F103CB
330
261
100
AcDbEntity
  8
Geo
100
AcDbLine
 10
-42.90336761862787
 20
15.84740301553273
 30
0.0
 11
-42.80336761862787
 21
15.79873848046843
 31
0.0
  0
LINE
  5
F103CD
330
261
100
AcDbEntity
  8
Geo
100
AcDbLine
 10
-42.80336761862787
 20
15.79873848046843
 30
0.0
 11
-42.70336761862785
 21
15.74936482297474
 31
0.0
  0
LINE
  5
F103CF
330
261
100
AcDbEntity
  8
Geo
100
AcDbLine
 10
-42.70336761862785
 20
15.74936482297474
 30
0.0
 11
-42.60336761862787
 21
15.69931307655643
 31
0.0
  0
LINE
  5
F103D1
330
261
100
AcDbEntity
  8
Geo
100
AcDbLine
 10
-42.60336761862787
 20
15.69931307655643
 30
0.0
 11
-42.50336761862786
 21
15.64861370022603
 31
0.0
  0
LINE
  5
F103D3
330
261
100
AcDbEntity
  8
Geo
100
AcDbLine
 10
-42.50336761862786
 20
15.64861370022603
 30
0.0
 11
-42.40336761862787
 21
15.59729661541323
 31
0.0
  0
LINE
  5
F103D5
330
261
100
AcDbEntity
  8
Geo
100
AcDbLine
 10
-42.40336761862787
 20
15.59729661541323
 30
0.0
 11
-42.30336761862786
 21
15.54539124028403
 31
0.0
  0
LINE
  5
F103D7
330
261
100
AcDbEntity
  8
Geo
100
AcDbLine
 10
-42.30336761862786
 20
15.54539124028403
 30
0.0
 11
-42.20336761862785
 21
15.49292652170823
 31
0.0
  0
LINE
  5
F103D9
330
261
100
AcDbEntity
  8
Geo
100
AcDbLine
 10
-42.20336761862785
 20
15.49292652170823
 30
0.0
 11
-42.10336761862786
 21
15.43993096508773
 31
0.0
  0
LINE
  5
F103DB
330
261
100
AcDbEntity
  8
Geo
100
AcDbLine
 10
-42.10336761862786
 20
15.43993096508773
 30
0.0
 11
-42.00336761862785
 21
15.38643266223833
 31
0.0
  0
LINE
  5
F103DD
330
261
100
AcDbEntity
  8
Geo
100
AcDbLine
 10
-42.00336761862785
 20
15.38643266223833
 30
0.0
 11
-41.90336761862787
 21
15.33245931749723
 31
0.0
  0
LINE
  5
F103DF
330
261
100
AcDbEntity
  8
Geo
100
AcDbLine
 10
-41.90336761862787
 20
15.33245931749723
 30
0.0
 11
-41.80336761862786
 21
15.27803827221303
 31
0.0
  0
LINE
  5
F103E1
330
261
100
AcDbEntity
  8
Geo
100
AcDbLine
 10
-41.80336761862786
 20
15.27803827221303
 30
0.0
 11
-41.70336761862786
 21
15.22319652775903
 31
0.0
  0
LINE
  5
F103E3
330
261
100
AcDbEntity
  8
Geo
100
AcDbLine
 10
-41.70336761862786
 20
15.22319652775903
 30
0.0
 11
-41.60336761862787
 21
15.16796076719763
 31
0.0
  0
LINE
  5
F103E5
330
261
100
AcDbEntity
  8
Geo
100
AcDbLine
 10
-41.60336761862787
 20
15.16796076719763
 30
0.0
 11
-41.50336761862785
 21
15.11235737571283
 31
0.0
  0
LINE
  5
F103E7
330
261
100
AcDbEntity
  8
Geo
100
AcDbLine
 10
-41.50336761862785
 20
15.11235737571283
 30
0.0
 11
-41.40336761862786
 21
15.05641245991713
 31
0.0
  0
LINE
  5
F103E9
330
261
100
AcDbEntity
  8
Geo
100
AcDbLine
 10
-41.40336761862786
 20
15.05641245991713
 30
0.0
 11
-41.30336761862786
 21
15.00015186612783
 31
0.0
  0
LINE
  5
F103EB
330
261
100
AcDbEntity
  8
Geo
100
AcDbLine
 10
-41.30336761862786
 20
15.00015186612783
 30
0.0
 11
-41.20336761862787
 21
14.94360119770403
 31
0.0
  0
LINE
  5
F103ED
330
261
100
AcDbEntity
  8
Geo
100
AcDbLine
 10
-41.20336761862787
 20
14.94360119770403
 30
0.0
 11
-41.10336761862787
 21
14.88678583152363
 31
0.0
  0
LINE
  5
F103EF
330
261
100
AcDbEntity
  8
Geo
100
AcDbLine
 10
-41.10336761862787
 20
14.88678583152363
 30
0.0
 11
-41.00336761862785
 21
14.82973093367523
 31
0.0
  0
LINE
  5
F103F1
330
261
100
AcDbEntity
  8
Geo
100
AcDbLine
 10
-41.00336761862785
 20
14.82973093367523
 30
0.0
 11
-40.90336761862785
 21
14.77246147443513
 31
0.0
  0
LINE
  5
F103F3
330
261
100
AcDbEntity
  8
Geo
100
AcDbLine
 10
-40.90336761862785
 20
14.77246147443513
 30
0.0
 11
-40.80336761862787
 21
14.71500224259213
 31
0.0
  0
LINE
  5
F103F5
330
261
100
AcDbEntity
  8
Geo
100
AcDbLine
 10
-40.80336761862787
 20
14.71500224259213
 30
0.0
 11
-40.70336761862786
 21
14.65737785917833
 31
0.0
  0
LINE
  5
F103F7
330
261
100
AcDbEntity
  8
Geo
100
AcDbLine
 10
-40.70336761862786
 20
14.65737785917833
 30
0.0
 11
-40.60336761862787
 21
14.59961279066373
 31
0.0
  0
LINE
  5
F103F9
330
261
100
AcDbEntity
  8
Geo
100
AcDbLine
 10
-40.60336761862787
 20
14.59961279066373
 30
0.0
 11
-40.50336761862785
 21
14.54173136166204
 31
0.0
  0
LINE
  5
F103FB
330
261
100
AcDbEntity
  8
Geo
100
AcDbLine
 10
-40.50336761862785
 20
14.54173136166204
 30
0.0
 11
-40.40336761862787
 21
14.48375776719943
 31
0.0
  0
LINE
  5
F103FD
330
261
100
AcDbEntity
  8
Geo
100
AcDbLine
 10
-40.40336761862787
 20
14.48375776719943
 30
0.0
 11
-40.30336761862787
 21
14.42571608458823
 31
0.0
  0
LINE
  5
F103FF
330
261
100
AcDbEntity
  8
Geo
100
AcDbLine
 10
-40.30336761862787
 20
14.42571608458823
 30
0.0
 11
-40.20336761862785
 21
14.36763028494933
 31
0.0
  0
LINE
  5
F10401
330
261
100
AcDbEntity
  8
Geo
100
AcDbLine
 10
-40.20336761862785
 20
14.36763028494933
 30
0.0
 11
-40.10336761862787
 21
14.30952424442423
 31
0.0
  0
LINE
  5
F10403
330
261
100
AcDbEntity
  8
Geo
100
AcDbLine
 10
-40.10336761862787
 20
14.30952424442423
 30
0.0
 11
-40.00336761862786
 21
14.25142175511323
 31
0.0
  0
LINE
  5
F10405
330
261
100
AcDbEntity
  8
Geo
100
AcDbLine
 10
-40.00336761862786
 20
14.25142175511323
 30
0.0
 11
-39.90336761862787
 21
14.19334653577693
 31
0.0
  0
LINE
  5
F10407
330
261
100
AcDbEntity
  8
Geo
100
AcDbLine
 10
-39.90336761862787
 20
14.19334653577693
 30
0.0
 11
-39.80336761862787
 21
14.13532224233653
 31
0.0
  0
LINE
  5
F10409
330
261
100
AcDbEntity
  8
Geo
100
AcDbLine
 10
-39.80336761862787
 20
14.13532224233653
 30
0.0
 11
-39.70336761862787
 21
14.07737247820553
 31
0.0
  0
LINE
  5
F1040B
330
261
100
AcDbEntity
  8
Geo
100
AcDbLine
 10
-39.70336761862787
 20
14.07737247820553
 30
0.0
 11
-39.60336761862787
 21
14.01952080448653
 31
0.0
  0
LINE
  5
F1040D
330
261
100
AcDbEntity
  8
Geo
100
AcDbLine
 10
-39.60336761862787
 20
14.01952080448653
 30
0.0
 11
-39.50336761862786
 21
13.96179075006343
 31
0.0
  0
LINE
  5
F1040F
330
261
100
AcDbEntity
  8
Geo
100
AcDbLine
 10
-39.50336761862786
 20
13.96179075006343
 30
0.0
 11
-39.40336761862787
 21
13.90420582162133
 31
0.0
  0
LINE
  5
F10411
330
261
100
AcDbEntity
  8
Geo
100
AcDbLine
 10
-39.40336761862787
 20
13.90420582162133
 30
0.0
 11
-39.30336761862788
 21
13.84678951362423
 31
0.0
  0
LINE
  5
F10413
330
261
100
AcDbEntity
  8
Geo
100
AcDbLine
 10
-39.30336761862788
 20
13.84678951362423
 30
0.0
 11
-39.20336761862787
 21
13.78956531828013
 31
0.0
  0
LINE
  5
F10415
330
261
100
AcDbEntity
  8
Geo
100
AcDbLine
 10
-39.20336761862787
 20
13.78956531828013
 30
0.0
 11
-39.10336761862787
 21
13.73247235449713
 31
0.0
  0
LINE
  5
F10417
330
261
100
AcDbEntity
  8
Geo
100
AcDbLine
 10
-39.10336761862787
 20
13.73247235449713
 30
0.0
 11
-39.00336761862785
 21
13.67543564280333
 31
0.0
  0
LINE
  5
F10419
330
261
100
AcDbEntity
  8
Geo
100
AcDbLine
 10
-39.00336761862785
 20
13.67543564280333
 30
0.0
 11
-38.90336761862787
 21
13.61845753038043
 31
0.0
  0
LINE
  5
F1041B
330
261
100
AcDbEntity
  8
Geo
100
AcDbLine
 10
-38.90336761862787
 20
13.61845753038043
 30
0.0
 11
-38.80336761862788
 21
13.56154036199863
 31
0.0
  0
LINE
  5
F1041D
330
261
100
AcDbEntity
  8
Geo
100
AcDbLine
 10
-38.80336761862788
 20
13.56154036199863
 30
0.0
 11
-38.70336761862787
 21
13.50468647992033
 31
0.0
  0
LINE
  5
F1041F
330
261
100
AcDbEntity
  8
Geo
100
AcDbLine
 10
-38.70336761862787
 20
13.50468647992033
 30
0.0
 11
-38.60336761862787
 21
13.44789822380323
 31
0.0
  0
LINE
  5
F10421
330
261
100
AcDbEntity
  8
Geo
100
AcDbLine
 10
-38.60336761862787
 20
13.44789822380323
 30
0.0
 11
-38.50336761862786
 21
13.39117793060483
 31
0.0
  0
LINE
  5
F10423
330
261
100
AcDbEntity
  8
Geo
100
AcDbLine
 10
-38.50336761862786
 20
13.39117793060483
 30
0.0
 11
-38.40336761862787
 21
13.33452793448543
 31
0.0
  0
LINE
  5
F10425
330
261
100
AcDbEntity
  8
Geo
100
AcDbLine
 10
-38.40336761862787
 20
13.33452793448543
 30
0.0
 11
-38.30336761862787
 21
13.27795056671253
 31
0.0
  0
LINE
  5
F10427
330
261
100
AcDbEntity
  8
Geo
100
AcDbLine
 10
-38.30336761862787
 20
13.27795056671253
 30
0.0
 11
-38.20336761862787
 21
13.22144815556513
 31
0.0
  0
LINE
  5
F10429
330
261
100
AcDbEntity
  8
Geo
100
AcDbLine
 10
-38.20336761862787
 20
13.22144815556513
 30
0.0
 11
-38.10336761862787
 21
13.16502302623703
 31
0.0
  0
LINE
  5
F1042B
330
261
100
AcDbEntity
  8
Geo
100
AcDbLine
 10
-38.10336761862787
 20
13.16502302623703
 30
0.0
 11
-38.00336761862786
 21
13.10867750074233
 31
0.0
  0
LINE
  5
F1042D
330
261
100
AcDbEntity
  8
Geo
100
AcDbLine
 10
-38.00336761862786
 20
13.10867750074233
 30
0.0
 11
-37.90336761862787
 21
13.05241389781893
 31
0.0
  0
LINE
  5
F1042F
330
261
100
AcDbEntity
  8
Geo
100
AcDbLine
 10
-37.90336761862787
 20
13.05241389781893
 30
0.0
 11
-37.80336761862788
 21
12.99623453283333
 31
0.0
  0
LINE
  5
F10431
330
261
100
AcDbEntity
  8
Geo
100
AcDbLine
 10
-37.80336761862788
 20
12.99623453283333
 30
0.0
 11
-37.70336761862786
 21
12.94014171768583
 31
0.0
  0
LINE
  5
F10433
330
261
100
AcDbEntity
  8
Geo
100
AcDbLine
 10
-37.70336761862786
 20
12.94014171768583
 30
0.0
 11
-37.60336761862787
 21
12.88413776071463
 31
0.0
  0
LINE
  5
F10435
330
261
100
AcDbEntity
  8
Geo
100
AcDbLine
 10
-37.60336761862787
 20
12.88413776071463
 30
0.0
 11
-37.50336761862786
 21
12.82822496660153
 31
0.0
  0
LINE
  5
F10437
330
261
100
AcDbEntity
  8
Geo
100
AcDbLine
 10
-37.50336761862786
 20
12.82822496660153
 30
0.0
 11
-37.40336761862787
 21
12.77240563627673
 31
0.0
  0
LINE
  5
F10439
330
261
100
AcDbEntity
  8
Geo
100
AcDbLine
 10
-37.40336761862787
 20
12.77240563627673
 30
0.0
 11
-37.30336761862787
 21
12.71668206682402
 31
0.0
  0
LINE
  5
F1043B
330
261
100
AcDbEntity
  8
Geo
100
AcDbLine
 10
-37.30336761862787
 20
12.71668206682402
 30
0.0
 11
-37.20336761862787
 21
12.66105655138653
 31
0.0
  0
LINE
  5
F1043D
330
261
100
AcDbEntity
  8
Geo
100
AcDbLine
 10
-37.20336761862787
 20
12.66105655138653
 30
0.0
 11
-37.10336761862787
 21
12.60553137907233
 31
0.0
  0
LINE
  5
F1043F
330
261
100
AcDbEntity
  8
Geo
100
AcDbLine
 10
-37.10336761862787
 20
12.60553137907233
 30
0.0
 11
-37.00336761862786
 21
12.55010883486013
 31
0.0
  0
LINE
  5
F10441
330
261
100
AcDbEntity
  8
Geo
100
AcDbLine
 10
-37.00336761862786
 20
12.55010883486013
 30
0.0
 11
-36.90336761862787
 21
12.49479119950513
 31
0.0
  0
LINE
  5
F10443
330
261
100
AcDbEntity
  8
Geo
100
AcDbLine
 10
-36.90336761862787
 20
12.49479119950513
 30
0.0
 11
-36.80336761862788
 21
12.43958074944553
 31
0.0
  0
LINE
  5
F10445
330
261
100
AcDbEntity
  8
Geo
100
AcDbLine
 10
-36.80336761862788
 20
12.43958074944553
 30
0.0
 11
-36.70336761862787
 21
12.38447975670853
 31
0.0
  0
LINE
  5
F10447
330
261
100
AcDbEntity
  8
Geo
100
AcDbLine
 10
-36.70336761862787
 20
12.38447975670853
 30
0.0
 11
-36.60336761862787
 21
12.32949048881683
 31
0.0
  0
LINE
  5
F10449
330
261
100
AcDbEntity
  8
Geo
100
AcDbLine
 10
-36.60336761862787
 20
12.32949048881683
 30
0.0
 11
-36.50336761862785
 21
12.27461520869553
 31
0.0
  0
LINE
  5
F1044B
330
261
100
AcDbEntity
  8
Geo
100
AcDbLine
 10
-36.50336761862785
 20
12.27461520869553
 30
0.0
 11
-36.40336761862787
 21
12.21985617457894
 31
0.0
  0
LINE
  5
F1044D
330
261
100
AcDbEntity
  8
Geo
100
AcDbLine
 10
-36.40336761862787
 20
12.21985617457894
 30
0.0
 11
-36.30336761862788
 21
12.16521563991743
 31
0.0
  0
LINE
  5
F1044F
330
261
100
AcDbEntity
  8
Geo
100
AcDbLine
 10
-36.30336761862788
 20
12.16521563991743
 30
0.0
 11
-36.20336761862787
 21
12.11069585328493
 31
0.0
  0
LINE
  5
F10451
330
261
100
AcDbEntity
  8
Geo
100
AcDbLine
 10
-36.20336761862787
 20
12.11069585328493
 30
0.0
 11
-36.10336761862787
 21
12.05629905828653
 31
0.0
  0
LINE
  5
F10453
330
261
100
AcDbEntity
  8
Geo
100
AcDbLine
 10
-36.10336761862787
 20
12.05629905828653
 30
0.0
 11
-36.00336761862787
 21
12.00202749346573
 31
0.0
  0
LINE
  5
F10455
330
261
100
AcDbEntity
  8
Geo
100
AcDbLine
 10
-36.00336761862787
 20
12.00202749346573
 30
0.0
 11
-35.90336761862787
 21
11.94788339221243
 31
0.0
  0
LINE
  5
F10457
330
261
100
AcDbEntity
  8
Geo
100
AcDbLine
 10
-35.90336761862787
 20
11.94788339221243
 30
0.0
 11
-35.80336761862787
 21
11.89386898267153
 31
0.0
  0
LINE
  5
F10459
330
261
100
AcDbEntity
  8
Geo
100
AcDbLine
 10
-35.80336761862787
 20
11.89386898267153
 30
0.0
 11
-35.70336761862787
 21
11.83998648765053
 31
0.0
  0
LINE
  5
F1045B
330
261
100
AcDbEntity
  8
Geo
100
AcDbLine
 10
-35.70336761862787
 20
11.83998648765053
 30
0.0
 11
-35.60336761862787
 21
11.78623812452843
 31
0.0
  0
LINE
  5
F1045D
330
261
100
AcDbEntity
  8
Geo
100
AcDbLine
 10
-35.60336761862787
 20
11.78623812452843
 30
0.0
 11
-35.50336761862786
 21
11.73262610516443
 31
0.0
  0
LINE
  5
F1045F
330
261
100
AcDbEntity
  8
Geo
100
AcDbLine
 10
-35.50336761862786
 20
11.73262610516443
 30
0.0
 11
-35.40336761862787
 21
11.67915263580693
 31
0.0
  0
LINE
  5
F10461
330
261
100
AcDbEntity
  8
Geo
100
AcDbLine
 10
-35.40336761862787
 20
11.67915263580693
 30
0.0
 11
-35.30336761862788
 21
11.62581991700273
 31
0.0
  0
LINE
  5
F10463
330
261
100
AcDbEntity
  8
Geo
100
AcDbLine
 10
-35.30336761862788
 20
11.62581991700273
 30
0.0
 11
-35.20336761862786
 21
11.57263014350633
 31
0.0
  0
LINE
  5
F10465
330
261
100
AcDbEntity
  8
Geo
100
AcDbLine
 10
-35.20336761862786
 20
11.57263014350633
 30
0.0
 11
-35.10336761862787
 21
11.51958550418973
 31
0.0
  0
LINE
  5
F10467
330
261
100
AcDbEntity
  8
Geo
100
AcDbLine
 10
-35.10336761862787
 20
11.51958550418973
 30
0.0
 11
-35.00336761862786
 21
11.46668818195253
 31
0.0
  0
LINE
  5
F10469
330
261
100
AcDbEntity
  8
Geo
100
AcDbLine
 10
-35.00336761862786
 20
11.46668818195253
 30
0.0
 11
-34.90336761862788
 21
11.41394035363183
 31
0.0
  0
LINE
  5
F1046B
330
261
100
AcDbEntity
  8
Geo
100
AcDbLine
 10
-34.90336761862788
 20
11.41394035363183
 30
0.0
 11
-34.80336761862787
 21
11.36134418991253
 31
0.0
  0
LINE
  5
F1046D
330
261
100
AcDbEntity
  8
Geo
100
AcDbLine
 10
-34.80336761862787
 20
11.36134418991253
 30
0.0
 11
-34.70336761862788
 21
11.30890185523853
 31
0.0
  0
LINE
  5
F1046F
330
261
100
AcDbEntity
  8
Geo
100
AcDbLine
 10
-34.70336761862788
 20
11.30890185523853
 30
0.0
 11
-34.60336761862787
 21
11.25661550772313
 31
0.0
  0
LINE
  5
F10471
330
261
100
AcDbEntity
  8
Geo
100
AcDbLine
 10
-34.60336761862787
 20
11.25661550772313
 30
0.0
 11
-34.50336761862786
 21
11.20448729906063
 31
0.0
  0
LINE
  5
F10473
330
261
100
AcDbEntity
  8
Geo
100
AcDbLine
 10
-34.50336761862786
 20
11.20448729906063
 30
0.0
 11
-34.40336761862788
 21
11.15251937443723
 31
0.0
  0
LINE
  5
F10475
330
261
100
AcDbEntity
  8
Geo
100
AcDbLine
 10
-34.40336761862788
 20
11.15251937443723
 30
0.0
 11
-34.30336761862788
 21
11.10071387244353
 31
0.0
  0
LINE
  5
F10477
330
261
100
AcDbEntity
  8
Geo
100
AcDbLine
 10
-34.30336761862788
 20
11.10071387244353
 30
0.0
 11
-34.20336761862787
 21
11.04907292498573
 31
0.0
  0
LINE
  5
F10479
330
261
100
AcDbEntity
  8
Geo
100
AcDbLine
 10
-34.20336761862787
 20
11.04907292498573
 30
0.0
 11
-34.10336761862787
 21
10.99759865719843
 31
0.0
  0
LINE
  5
F1047B
330
261
100
AcDbEntity
  8
Geo
100
AcDbLine
 10
-34.10336761862787
 20
10.99759865719843
 30
0.0
 11
-34.00336761862785
 21
10.94629318735703
 31
0.0
  0
LINE
  5
F1047D
330
261
100
AcDbEntity
  8
Geo
100
AcDbLine
 10
-34.00336761862785
 20
10.94629318735703
 30
0.0
 11
-33.90336761862787
 21
10.89515862679053
 31
0.0
  0
LINE
  5
F1047F
330
261
100
AcDbEntity
  8
Geo
100
AcDbLine
 10
-33.90336761862787
 20
10.89515862679053
 30
0.0
 11
-33.80336761862788
 21
10.84419707979453
 31
0.0
  0
LINE
  5
F10481
330
261
100
AcDbEntity
  8
Geo
100
AcDbLine
 10
-33.80336761862788
 20
10.84419707979453
 30
0.0
 11
-33.70336761862787
 21
10.79341064354493
 31
0.0
  0
LINE
  5
F10483
330
261
100
AcDbEntity
  8
Geo
100
AcDbLine
 10
-33.70336761862787
 20
10.79341064354493
 30
0.0
 11
-33.60336761862787
 21
10.74280140801133
 31
0.0
  0
LINE
  5
F10485
330
261
100
AcDbEntity
  8
Geo
100
AcDbLine
 10
-33.60336761862787
 20
10.74280140801133
 30
0.0
 11
-33.50336761862787
 21
10.69237145587123
 31
0.0
  0
LINE
  5
F10487
330
261
100
AcDbEntity
  8
Geo
100
AcDbLine
 10
-33.50336761862787
 20
10.69237145587123
 30
0.0
 11
-33.40336761862788
 21
10.64212286242403
 31
0.0
  0
LINE
  5
F10489
330
261
100
AcDbEntity
  8
Geo
100
AcDbLine
 10
-33.40336761862788
 20
10.64212286242403
 30
0.0
 11
-33.30336761862787
 21
10.59205769550613
 31
0.0
  0
LINE
  5
F1048B
330
261
100
AcDbEntity
  8
Geo
100
AcDbLine
 10
-33.30336761862787
 20
10.59205769550613
 30
0.0
 11
-33.20336761862787
 21
10.54217801540533
 31
0.0
  0
LINE
  5
F1048D
330
261
100
AcDbEntity
  8
Geo
100
AcDbLine
 10
-33.20336761862787
 20
10.54217801540533
 30
0.0
 11
-33.10336761862787
 21
10.49248587477643
 31
0.0
  0
LINE
  5
F1048F
330
261
100
AcDbEntity
  8
Geo
100
AcDbLine
 10
-33.10336761862787
 20
10.49248587477643
 30
0.0
 11
-33.00336761862786
 21
10.44298331855633
 31
0.0
  0
LINE
  5
F10491
330
261
100
AcDbEntity
  8
Geo
100
AcDbLine
 10
-33.00336761862786
 20
10.44298331855633
 30
0.0
 11
-32.90336761862788
 21
10.39367238388033
 31
0.0
  0
LINE
  5
F10493
330
261
100
AcDbEntity
  8
Geo
100
AcDbLine
 10
-32.90336761862788
 20
10.39367238388033
 30
0.0
 11
-32.80336761862788
 21
10.34455509999803
 31
0.0
  0
LINE
  5
F10495
330
261
100
AcDbEntity
  8
Geo
100
AcDbLine
 10
-32.80336761862788
 20
10.34455509999803
 30
0.0
 11
-32.70336761862786
 21
10.29563348818993
 31
0.0
  0
LINE
  5
F10497
330
261
100
AcDbEntity
  8
Geo
100
AcDbLine
 10
-32.70336761862786
 20
10.29563348818993
 30
0.0
 11
-32.60336761862787
 21
10.24690956168423
 31
0.0
  0
LINE
  5
F10499
330
261
100
AcDbEntity
  8
Geo
100
AcDbLine
 10
-32.60336761862787
 20
10.24690956168423
 30
0.0
 11
-32.50336761862786
 21
10.19838532557383
 31
0.0
  0
LINE
  5
F1049B
330
261
100
AcDbEntity
  8
Geo
100
AcDbLine
 10
-32.50336761862786
 20
10.19838532557383
 30
0.0
 11
-32.40336761862788
 21
10.15006277673413
 31
0.0
  0
LINE
  5
F1049D
330
261
100
AcDbEntity
  8
Geo
100
AcDbLine
 10
-32.40336761862788
 20
10.15006277673413
 30
0.0
 11
-32.30336761862787
 21
10.10194390374033
 31
0.0
  0
LINE
  5
F1049F
330
261
100
AcDbEntity
  8
Geo
100
AcDbLine
 10
-32.30336761862787
 20
10.10194390374033
 30
0.0
 11
-32.20336761862788
 21
10.05403068678643
 31
0.0
  0
LINE
  5
F104A1
330
261
100
AcDbEntity
  8
Geo
100
AcDbLine
 10
-32.20336761862788
 20
10.05403068678643
 30
0.0
 11
-32.10336761862787
 21
10.00632509760293
 31
0.0
  0
LINE
  5
F104A3
330
261
100
AcDbEntity
  8
Geo
100
AcDbLine
 10
-32.10336761862787
 20
10.00632509760293
 30
0.0
 11
-32.00336761862786
 21
9.958829099375932
 31
0.0
  0
LINE
  5
F104A5
330
261
100
AcDbEntity
  8
Geo
100
AcDbLine
 10
-32.00336761862786
 20
9.958829099375932
 30
0.0
 11
-31.90336761862787
 21
9.911544646666737
 31
0.0
  0
LINE
  5
F104A7
330
261
100
AcDbEntity
  8
Geo
100
AcDbLine
 10
-31.90336761862787
 20
9.911544646666737
 30
0.0
 11
-31.80336761862788
 21
9.864473685330835
 31
0.0
  0
LINE
  5
F104A9
330
261
100
AcDbEntity
  8
Geo
100
AcDbLine
 10
-31.80336761862788
 20
9.864473685330835
 30
0.0
 11
-31.70336761862787
 21
9.817618152438132
 31
0.0
  0
LINE
  5
F104AB
330
261
100
AcDbEntity
  8
Geo
100
AcDbLine
 10
-31.70336761862787
 20
9.817618152438132
 30
0.0
 11
-31.60336761862787
 21
9.770979976193334
 31
0.0
  0
LINE
  5
F104AD
330
261
100
AcDbEntity
  8
Geo
100
AcDbLine
 10
-31.60336761862787
 20
9.770979976193334
 30
0.0
 11
-31.50336761862786
 21
9.724561075856334
 31
0.0
  0
LINE
  5
F104AF
330
261
100
AcDbEntity
  8
Geo
100
AcDbLine
 10
-31.50336761862786
 20
9.724561075856334
 30
0.0
 11
-31.40336761862787
 21
9.678363361663432
 31
0.0
  0
LINE
  5
F104B1
330
261
100
AcDbEntity
  8
Geo
100
AcDbLine
 10
-31.40336761862787
 20
9.678363361663432
 30
0.0
 11
-31.30336761862788
 21
9.632388734748632
 31
0.0
  0
LINE
  5
F104B3
330
261
100
AcDbEntity
  8
Geo
100
AcDbLine
 10
-31.30336761862788
 20
9.632388734748632
 30
0.0
 11
-31.20336761862787
 21
9.586639087065234
 31
0.0
  0
LINE
  5
F104B5
330
261
100
AcDbEntity
  8
Geo
100
AcDbLine
 10
-31.20336761862787
 20
9.586639087065234
 30
0.0
 11
-31.10336761862787
 21
9.541116301308532
 31
0.0
  0
LINE
  5
F104B7
330
261
100
AcDbEntity
  8
Geo
100
AcDbLine
 10
-31.10336761862787
 20
9.541116301308532
 30
0.0
 11
-31.00336761862787
 21
9.495822250837736
 31
0.0
  0
LINE
  5
F104B9
330
261
100
AcDbEntity
  8
Geo
100
AcDbLine
 10
-31.00336761862787
 20
9.495822250837736
 30
0.0
 11
-30.90336761862787
 21
9.450758799599032
 31
0.0
  0
LINE
  5
F104BB
330
261
100
AcDbEntity
  8
Geo
100
AcDbLine
 10
-30.90336761862787
 20
9.450758799599032
 30
0.0
 11
-30.80336761862787
 21
9.405927802049133
 31
0.0
  0
LINE
  5
F104BD
330
261
100
AcDbEntity
  8
Geo
100
AcDbLine
 10
-30.80336761862787
 20
9.405927802049133
 30
0.0
 11
-30.70336761862787
 21
9.361331103078732
 31
0.0
  0
LINE
  5
F104BF
330
261
100
AcDbEntity
  8
Geo
100
AcDbLine
 10
-30.70336761862787
 20
9.361331103078732
 30
0.0
 11
-30.60336761862787
 21
9.316970537936633
 31
0.0
  0
LINE
  5
F104C1
330
261
100
AcDbEntity
  8
Geo
100
AcDbLine
 10
-30.60336761862787
 20
9.316970537936633
 30
0.0
 11
-30.50336761862786
 21
9.272847932154332
 31
0.0
  0
LINE
  5
F104C3
330
261
100
AcDbEntity
  8
Geo
100
AcDbLine
 10
-30.50336761862786
 20
9.272847932154332
 30
0.0
 11
-30.40336761862787
 21
9.228965101470533
 31
0.0
  0
LINE
  5
F104C5
330
261
100
AcDbEntity
  8
Geo
100
AcDbLine
 10
-30.40336761862787
 20
9.228965101470533
 30
0.0
 11
-30.30336761862788
 21
9.185323851756932
 31
0.0
  0
LINE
  5
F104C7
330
261
100
AcDbEntity
  8
Geo
100
AcDbLine
 10
-30.30336761862788
 20
9.185323851756932
 30
0.0
 11
-30.20336761862786
 21
9.141925978943632
 31
0.0
  0
LINE
  5
F104C9
330
261
100
AcDbEntity
  8
Geo
100
AcDbLine
 10
-30.20336761862786
 20
9.141925978943632
 30
0.0
 11
-30.10336761862787
 21
9.098773268945032
 31
0.0
  0
LINE
  5
F104CB
330
261
100
AcDbEntity
  8
Geo
100
AcDbLine
 10
-30.10336761862787
 20
9.098773268945032
 30
0.0
 11
-30.00336761862786
 21
9.055867497586932
 31
0.0
  0
LINE
  5
F104CD
330
261
100
AcDbEntity
  8
Geo
100
AcDbLine
 10
-30.00336761862786
 20
9.055867497586932
 30
0.0
 11
-29.90336761862787
 21
9.013210430532737
 31
0.0
  0
LINE
  5
F104CF
330
261
100
AcDbEntity
  8
Geo
100
AcDbLine
 10
-29.90336761862787
 20
9.013210430532737
 30
0.0
 11
-29.80336761862787
 21
8.970803823211335
 31
0.0
  0
LINE
  5
F104D1
330
261
100
AcDbEntity
  8
Geo
100
AcDbLine
 10
-29.80336761862787
 20
8.970803823211335
 30
0.0
 11
-29.70336761862787
 21
8.928649420744632
 31
0.0
  0
LINE
  5
F104D3
330
261
100
AcDbEntity
  8
Geo
100
AcDbLine
 10
-29.70336761862787
 20
8.928649420744632
 30
0.0
 11
-29.60336761862787
 21
8.886748957875633
 31
0.0
  0
LINE
  5
F104D5
330
261
100
AcDbEntity
  8
Geo
100
AcDbLine
 10
-29.60336761862787
 20
8.886748957875633
 30
0.0
 11
-29.50336761862786
 21
8.845104158897532
 31
0.0
  0
LINE
  5
F104D7
330
261
100
AcDbEntity
  8
Geo
100
AcDbLine
 10
-29.50336761862786
 20
8.845104158897532
 30
0.0
 11
-29.40336761862787
 21
8.803716737582032
 31
0.0
  0
LINE
  5
F104D9
330
261
100
AcDbEntity
  8
Geo
100
AcDbLine
 10
-29.40336761862787
 20
8.803716737582032
 30
0.0
 11
-29.30336761862788
 21
8.762588397109331
 31
0.0
  0
LINE
  5
F104DB
330
261
100
AcDbEntity
  8
Geo
100
AcDbLine
 10
-29.30336761862788
 20
8.762588397109331
 30
0.0
 11
-29.20336761862787
 21
8.721720829998034
 31
0.0
  0
LINE
  5
F104DD
330
261
100
AcDbEntity
  8
Geo
100
AcDbLine
 10
-29.20336761862787
 20
8.721720829998034
 30
0.0
 11
-29.10336761862787
 21
8.681115718035133
 31
0.0
  0
LINE
  5
F104DF
330
261
100
AcDbEntity
  8
Geo
100
AcDbLine
 10
-29.10336761862787
 20
8.681115718035133
 30
0.0
 11
-29.00336761862786
 21
8.640774732207235
 31
0.0
  0
LINE
  5
F104E1
330
261
100
AcDbEntity
  8
Geo
100
AcDbLine
 10
-29.00336761862786
 20
8.640774732207235
 30
0.0
 11
-28.90336761862787
 21
8.600699532631534
 31
0.0
  0
LINE
  5
F104E3
330
261
100
AcDbEntity
  8
Geo
100
AcDbLine
 10
-28.90336761862787
 20
8.600699532631534
 30
0.0
 11
-28.80336761862788
 21
8.560891768487532
 31
0.0
  0
LINE
  5
F104E5
330
261
100
AcDbEntity
  8
Geo
100
AcDbLine
 10
-28.80336761862788
 20
8.560891768487532
 30
0.0
 11
-28.70336761862787
 21
8.521353077949232
 31
0.0
  0
LINE
  5
F104E7
330
261
100
AcDbEntity
  8
Geo
100
AcDbLine
 10
-28.70336761862787
 20
8.521353077949232
 30
0.0
 11
-28.60336761862787
 21
8.482085088117534
 31
0.0
  0
LINE
  5
F104E9
330
261
100
AcDbEntity
  8
Geo
100
AcDbLine
 10
-28.60336761862787
 20
8.482085088117534
 30
0.0
 11
-28.50336761862786
 21
8.443089414953734
 31
0.0
  0
LINE
  5
F104EB
330
261
100
AcDbEntity
  8
Geo
100
AcDbLine
 10
-28.50336761862786
 20
8.443089414953734
 30
0.0
 11
-28.40336761862787
 21
8.404367663212331
 31
0.0
  0
LINE
  5
F104ED
330
261
100
AcDbEntity
  8
Geo
100
AcDbLine
 10
-28.40336761862787
 20
8.404367663212331
 30
0.0
 11
-28.30336761862787
 21
8.365921426375834
 31
0.0
  0
LINE
  5
F104EF
330
261
100
AcDbEntity
  8
Geo
100
AcDbLine
 10
-28.30336761862787
 20
8.365921426375834
 30
0.0
 11
-28.20336761862787
 21
8.327752286588331
 31
0.0
  0
LINE
  5
F104F1
330
261
100
AcDbEntity
  8
Geo
100
AcDbLine
 10
-28.20336761862787
 20
8.327752286588331
 30
0.0
 11
-28.10336761862787
 21
8.289861814590935
 31
0.0
  0
LINE
  5
F104F3
330
261
100
AcDbEntity
  8
Geo
100
AcDbLine
 10
-28.10336761862787
 20
8.289861814590935
 30
0.0
 11
-28.00336761862786
 21
8.252251569656934
 31
0.0
  0
LINE
  5
F104F5
330
261
100
AcDbEntity
  8
Geo
100
AcDbLine
 10
-28.00336761862786
 20
8.252251569656934
 30
0.0
 11
-27.90336761862787
 21
8.214923099527835
 31
0.0
  0
LINE
  5
F104F7
330
261
100
AcDbEntity
  8
Geo
100
AcDbLine
 10
-27.90336761862787
 20
8.214923099527835
 30
0.0
 11
-27.80336761862788
 21
8.177877940349334
 31
0.0
  0
LINE
  5
F104F9
330
261
100
AcDbEntity
  8
Geo
100
AcDbLine
 10
-27.80336761862788
 20
8.177877940349334
 30
0.0
 11
-27.70336761862786
 21
8.141117616608433
 31
0.0
  0
LINE
  5
F104FB
330
261
100
AcDbEntity
  8
Geo
100
AcDbLine
 10
-27.70336761862786
 20
8.141117616608433
 30
0.0
 11
-27.60336761862787
 21
8.104643641070433
 31
0.0
  0
LINE
  5
F104FD
330
261
100
AcDbEntity
  8
Geo
100
AcDbLine
 10
-27.60336761862787
 20
8.104643641070433
 30
0.0
 11
-27.50336761862786
 21
8.068457514716731
 31
0.0
  0
LINE
  5
F104FF
330
261
100
AcDbEntity
  8
Geo
100
AcDbLine
 10
-27.50336761862786
 20
8.068457514716731
 30
0.0
 11
-27.40336761862787
 21
8.032560726683334
 31
0.0
  0
LINE
  5
F10501
330
261
100
AcDbEntity
  8
Geo
100
AcDbLine
 10
-27.40336761862787
 20
8.032560726683334
 30
0.0
 11
-27.30336761862787
 21
7.996954754199235
 31
0.0
  0
LINE
  5
F10503
330
261
100
AcDbEntity
  8
Geo
100
AcDbLine
 10
-27.30336761862787
 20
7.996954754199235
 30
0.0
 11
-27.20336761862788
 21
7.961641062525734
 31
0.0
  0
LINE
  5
F10505
330
261
100
AcDbEntity
  8
Geo
100
AcDbLine
 10
-27.20336761862788
 20
7.961641062525734
 30
0.0
 11
-27.10336761862787
 21
7.926621104896232
 31
0.0
  0
LINE
  5
F10507
330
261
100
AcDbEntity
  8
Geo
100
AcDbLine
 10
-27.10336761862787
 20
7.926621104896232
 30
0.0
 11
-27.00336761862786
 21
7.891896322456235
 31
0.0
  0
LINE
  5
F10509
330
261
100
AcDbEntity
  8
Geo
100
AcDbLine
 10
-27.00336761862786
 20
7.891896322456235
 30
0.0
 11
-26.90336761862787
 21
7.857468144204333
 31
0.0
  0
LINE
  5
F1050B
330
261
100
AcDbEntity
  8
Geo
100
AcDbLine
 10
-26.90336761862787
 20
7.857468144204333
 30
0.0
 11
-26.80336761862788
 21
7.823337986933034
 31
0.0
  0
LINE
  5
F1050D
330
261
100
AcDbEntity
  8
Geo
100
AcDbLine
 10
-26.80336761862788
 20
7.823337986933034
 30
0.0
 11
-26.70336761862787
 21
7.789507255170835
 31
0.0
  0
LINE
  5
F1050F
330
261
100
AcDbEntity
  8
Geo
100
AcDbLine
 10
-26.70336761862787
 20
7.789507255170835
 30
0.0
 11
-26.60336761862787
 21
7.755977341124032
 31
0.0
  0
LINE
  5
F10511
330
261
100
AcDbEntity
  8
Geo
100
AcDbLine
 10
-26.60336761862787
 20
7.755977341124032
 30
0.0
 11
-26.50336761862777
 21
7.722749624619831
 31
0.0
  0
LINE
  5
F10513
330
261
100
AcDbEntity
  8
Geo
100
AcDbLine
 10
-26.50336761862777
 20
7.722749624619831
 30
0.0
 11
-26.40336761862787
 21
7.689825473049232
 31
0.0
  0
LINE
  5
F10515
330
261
100
AcDbEntity
  8
Geo
100
AcDbLine
 10
-26.40336761862787
 20
7.689825473049232
 30
0.0
 11
-26.30336761862788
 21
7.657206241311032
 31
0.0
  0
LINE
  5
F10517
330
261
100
AcDbEntity
  8
Geo
100
AcDbLine
 10
-26.30336761862788
 20
7.657206241311032
 30
0.0
 11
-26.20336761862777
 21
7.624893271755733
 31
0.0
  0
LINE
  5
F10519
330
261
100
AcDbEntity
  8
Geo
100
AcDbLine
 10
-26.20336761862777
 20
7.624893271755733
 30
0.0
 11
-26.10336761862777
 21
7.592887894130733
 31
0.0
  0
LINE
  5
F1051B
330
261
100
AcDbEntity
  8
Geo
100
AcDbLine
 10
-26.10336761862777
 20
7.592887894130733
 30
0.0
 11
-26.00336761862776
 21
7.561191425525132
 31
0.0
  0
LINE
  5
F1051D
330
261
100
AcDbEntity
  8
Geo
100
AcDbLine
 10
-26.00336761862776
 20
7.561191425525132
 30
0.0
 11
-25.90336761862787
 21
7.529805170315934
 31
0.0
  0
LINE
  5
F1051F
330
261
100
AcDbEntity
  8
Geo
100
AcDbLine
 10
-25.90336761862787
 20
7.529805170315934
 30
0.0
 11
-25.80336761862776
 21
7.498730420114034
 31
0.0
  0
LINE
  5
F10521
330
261
100
AcDbEntity
  8
Geo
100
AcDbLine
 10
-25.80336761862776
 20
7.498730420114034
 30
0.0
 11
-25.70336761862777
 21
7.467968453711534
 31
0.0
  0
LINE
  5
F10523
330
261
100
AcDbEntity
  8
Geo
100
AcDbLine
 10
-25.70336761862777
 20
7.467968453711534
 30
0.0
 11
-25.60336761862777
 21
7.437520537028633
 31
0.0
  0
LINE
  5
F10525
330
261
100
AcDbEntity
  8
Geo
100
AcDbLine
 10
-25.60336761862777
 20
7.437520537028633
 30
0.0
 11
-25.50336761862777
 21
7.407387923061533
 31
0.0
  0
LINE
  5
F10527
330
261
100
AcDbEntity
  8
Geo
100
AcDbLine
 10
-25.50336761862777
 20
7.407387923061533
 30
0.0
 11
-25.40336761862777
 21
7.377571851831435
 31
0.0
  0
LINE
  5
F10529
330
261
100
AcDbEntity
  8
Geo
100
AcDbLine
 10
-25.40336761862777
 20
7.377571851831435
 30
0.0
 11
-25.30336761862777
 21
7.348073550332736
 31
0.0
  0
LINE
  5
F1052B
330
261
100
AcDbEntity
  8
Geo
100
AcDbLine
 10
-25.30336761862777
 20
7.348073550332736
 30
0.0
 11
-25.20336761862777
 21
7.318894232483431
 31
0.0
  0
LINE
  5
F1052D
330
261
100
AcDbEntity
  8
Geo
100
AcDbLine
 10
-25.20336761862777
 20
7.318894232483431
 30
0.0
 11
-25.10336761862776
 21
7.290035099074132
 31
0.0
  0
LINE
  5
F1052F
330
261
100
AcDbEntity
  8
Geo
100
AcDbLine
 10
-25.10336761862776
 20
7.290035099074132
 30
0.0
 11
-25.00336761862776
 21
7.261497337719534
 31
0.0
  0
LINE
  5
F10531
330
261
100
AcDbEntity
  8
Geo
100
AcDbLine
 10
-25.00336761862776
 20
7.261497337719534
 30
0.0
 11
-24.90336761862777
 21
7.233282122809132
 31
0.0
  0
LINE
  5
F10533
330
261
100
AcDbEntity
  8
Geo
100
AcDbLine
 10
-24.90336761862777
 20
7.233282122809132
 30
0.0
 11
-24.80336761862777
 21
7.205390615458735
 31
0.0
  0
LINE
  5
F10535
330
261
100
AcDbEntity
  8
Geo
100
AcDbLine
 10
-24.80336761862777
 20
7.205390615458735
 30
0.0
 11
-24.70336761862777
 21
7.177823963463233
 31
0.0
  0
LINE
  5
F10537
330
261
100
AcDbEntity
  8
Geo
100
AcDbLine
 10
-24.70336761862777
 20
7.177823963463233
 30
0.0
 11
-24.60336761862777
 21
7.150583301248735
 31
0.0
  0
LINE
  5
F10539
330
261
100
AcDbEntity
  8
Geo
100
AcDbLine
 10
-24.60336761862777
 20
7.150583301248735
 30
0.0
 11
-24.50336761862776
 21
7.123669749826435
 31
0.0
  0
LINE
  5
F1053B
330
261
100
AcDbEntity
  8
Geo
100
AcDbLine
 10
-24.50336761862776
 20
7.123669749826435
 30
0.0
 11
-24.40336761862777
 21
7.097084416745931
 31
0.0
  0
LINE
  5
F1053D
330
261
100
AcDbEntity
  8
Geo
100
AcDbLine
 10
-24.40336761862777
 20
7.097084416745931
 30
0.0
 11
-24.30336761862776
 21
7.070828396050234
 31
0.0
  0
LINE
  5
F1053F
330
261
100
AcDbEntity
  8
Geo
100
AcDbLine
 10
-24.30336761862776
 20
7.070828396050234
 30
0.0
 11
-24.20336761862777
 21
7.044902768230231
 31
0.0
  0
LINE
  5
F10541
330
261
100
AcDbEntity
  8
Geo
100
AcDbLine
 10
-24.20336761862777
 20
7.044902768230231
 30
0.0
 11
-24.10336761862776
 21
7.019308600180531
 31
0.0
  0
LINE
  5
F10543
330
261
100
AcDbEntity
  8
Geo
100
AcDbLine
 10
-24.10336761862776
 20
7.019308600180531
 30
0.0
 11
-24.00336761862777
 21
6.994046945155532
 31
0.0
  0
LINE
  5
F10545
330
261
100
AcDbEntity
  8
Geo
100
AcDbLine
 10
-24.00336761862777
 20
6.994046945155532
 30
0.0
 11
-23.90336761862777
 21
6.969118842725832
 31
0.0
  0
LINE
  5
F10547
330
261
100
AcDbEntity
  8
Geo
100
AcDbLine
 10
-23.90336761862777
 20
6.969118842725832
 30
0.0
 11
-23.80336761862777
 21
6.944525318735933
 31
0.0
  0
LINE
  5
F10549
330
261
100
AcDbEntity
  8
Geo
100
AcDbLine
 10
-23.80336761862777
 20
6.944525318735933
 30
0.0
 11
-23.70336761862777
 21
6.920267385261433
 31
0.0
  0
LINE
  5
F1054B
330
261
100
AcDbEntity
  8
Geo
100
AcDbLine
 10
-23.70336761862777
 20
6.920267385261433
 30
0.0
 11
-23.60336761862777
 21
6.896346040567735
 31
0.0
  0
LINE
  5
F1054D
330
261
100
AcDbEntity
  8
Geo
100
AcDbLine
 10
-23.60336761862777
 20
6.896346040567735
 30
0.0
 11
-23.50336761862776
 21
6.872762269068934
 31
0.0
  0
LINE
  5
F1054F
330
261
100
AcDbEntity
  8
Geo
100
AcDbLine
 10
-23.50336761862776
 20
6.872762269068934
 30
0.0
 11
-23.40336761862777
 21
6.849517041287432
 31
0.0
  0
LINE
  5
F10551
330
261
100
AcDbEntity
  8
Geo
100
AcDbLine
 10
-23.40336761862777
 20
6.849517041287432
 30
0.0
 11
-23.30336761862776
 21
6.826611313813532
 31
0.0
  0
LINE
  5
F10553
330
261
100
AcDbEntity
  8
Geo
100
AcDbLine
 10
-23.30336761862776
 20
6.826611313813532
 30
0.0
 11
-23.20336761862777
 21
6.804046029266633
 31
0.0
  0
LINE
  5
F10555
330
261
100
AcDbEntity
  8
Geo
100
AcDbLine
 10
-23.20336761862777
 20
6.804046029266633
 30
0.0
 11
-23.10336761862776
 21
6.781822116255932
 31
0.0
  0
LINE
  5
F10557
330
261
100
AcDbEntity
  8
Geo
100
AcDbLine
 10
-23.10336761862776
 20
6.781822116255932
 30
0.0
 11
-23.00336761862777
 21
6.759940489342732
 31
0.0
  0
LINE
  5
F10559
330
261
100
AcDbEntity
  8
Geo
100
AcDbLine
 10
-23.00336761862777
 20
6.759940489342732
 30
0.0
 11
-22.90336761862777
 21
6.738402049002433
 31
0.0
  0
LINE
  5
F1055B
330
261
100
AcDbEntity
  8
Geo
100
AcDbLine
 10
-22.90336761862777
 20
6.738402049002433
 30
0.0
 11
-22.80336761862777
 21
6.717207681587532
 31
0.0
  0
LINE
  5
F1055D
330
261
100
AcDbEntity
  8
Geo
100
AcDbLine
 10
-22.80336761862777
 20
6.717207681587532
 30
0.0
 11
-22.70336761862777
 21
6.696358259291235
 31
0.0
  0
LINE
  5
F1055F
330
261
100
AcDbEntity
  8
Geo
100
AcDbLine
 10
-22.70336761862777
 20
6.696358259291235
 30
0.0
 11
-22.60336761862776
 21
6.675854640111531
 31
0.0
  0
LINE
  5
F10561
330
261
100
AcDbEntity
  8
Geo
100
AcDbLine
 10
-22.60336761862776
 20
6.675854640111531
 30
0.0
 11
-22.50336761862776
 21
6.655697667815834
 31
0.0
  0
LINE
  5
F10563
330
261
100
AcDbEntity
  8
Geo
100
AcDbLine
 10
-22.50336761862776
 20
6.655697667815834
 30
0.0
 11
-22.40336761862777
 21
6.635888171906334
 31
0.0
  0
LINE
  5
F10565
330
261
100
AcDbEntity
  8
Geo
100
AcDbLine
 10
-22.40336761862777
 20
6.635888171906334
 30
0.0
 11
-22.30336761862776
 21
6.616426967585834
 31
0.0
  0
LINE
  5
F10567
330
261
100
AcDbEntity
  8
Geo
100
AcDbLine
 10
-22.30336761862776
 20
6.616426967585834
 30
0.0
 11
-22.20336761862787
 21
6.597314855724133
 31
0.0
  0
LINE
  5
F10569
330
261
100
AcDbEntity
  8
Geo
100
AcDbLine
 10
-22.20336761862787
 20
6.597314855724133
 30
0.0
 11
-22.10336761862787
 21
6.550115489560031
 31
0.0
  0
LINE
  5
F1056B
330
261
100
AcDbEntity
  8
Geo
100
AcDbLine
 10
-22.10336761862787
 20
6.550115489560031
 30
0.0
 11
-22.00336761862786
 21
6.503702575153532
 31
0.0
  0
LINE
  5
F1056D
330
261
100
AcDbEntity
  8
Geo
100
AcDbLine
 10
-22.00336761862786
 20
6.503702575153532
 30
0.0
 11
-21.90336761862787
 21
6.458335210684833
 31
0.0
  0
LINE
  5
F1056F
330
261
100
AcDbEntity
  8
Geo
100
AcDbLine
 10
-21.90336761862787
 20
6.458335210684833
 30
0.0
 11
-21.80336761862788
 21
6.414282618152633
 31
0.0
  0
LINE
  5
F10571
330
261
100
AcDbEntity
  8
Geo
100
AcDbLine
 10
-21.80336761862788
 20
6.414282618152633
 30
0.0
 11
-21.70336761862786
 21
6.371824094342431
 31
0.0
  0
LINE
  5
F10573
330
261
100
AcDbEntity
  8
Geo
100
AcDbLine
 10
-21.70336761862786
 20
6.371824094342431
 30
0.0
 11
-21.60336761862787
 21
6.331248927539032
 31
0.0
  0
LINE
  5
F10575
330
261
100
AcDbEntity
  8
Geo
100
AcDbLine
 10
-21.60336761862787
 20
6.331248927539032
 30
0.0
 11
-21.50336761862786
 21
6.292856276755232
 31
0.0
  0
LINE
  5
F10577
330
261
100
AcDbEntity
  8
Geo
100
AcDbLine
 10
-21.50336761862786
 20
6.292856276755232
 30
0.0
 11
-21.40336761862787
 21
6.256955010161432
 31
0.0
  0
LINE
  5
F10579
330
261
100
AcDbEntity
  8
Geo
100
AcDbLine
 10
-21.40336761862787
 20
6.256955010161432
 30
0.0
 11
-21.30336761862787
 21
6.223863499323235
 31
0.0
  0
LINE
  5
F1057B
330
261
100
AcDbEntity
  8
Geo
100
AcDbLine
 10
-21.30336761862787
 20
6.223863499323235
 30
0.0
 11
-21.20336761862787
 21
6.193909365794834
 31
0.0
  0
LINE
  5
F1057D
330
261
100
AcDbEntity
  8
Geo
100
AcDbLine
 10
-21.20336761862787
 20
6.193909365794834
 30
0.0
 11
-21.10336761862787
 21
6.167429176557434
 31
0.0
  0
LINE
  5
F1057F
330
261
100
AcDbEntity
  8
Geo
100
AcDbLine
 10
-21.10336761862787
 20
6.167429176557434
 30
0.0
 11
-21.00336761862787
 21
6.144768084756034
 31
0.0
  0
LINE
  5
F10581
330
261
100
AcDbEntity
  8
Geo
100
AcDbLine
 10
-21.00336761862787
 20
6.144768084756034
 30
0.0
 11
-20.90336761862787
 21
6.126279412165335
 31
0.0
  0
LINE
  5
F10583
330
261
100
AcDbEntity
  8
Geo
100
AcDbLine
 10
-20.90336761862787
 20
6.126279412165335
 30
0.0
 11
-20.80336761862787
 21
6.112324169807331
 31
0.0
  0
LINE
  5
F10585
330
261
100
AcDbEntity
  8
Geo
100
AcDbLine
 10
-20.80336761862787
 20
6.112324169807331
 30
0.0
 11
-20.70336761862787
 21
6.103270513158233
 31
0.0
  0
LINE
  5
F10587
330
261
100
AcDbEntity
  8
Geo
100
AcDbLine
 10
-20.70336761862787
 20
6.103270513158233
 30
0.0
 11
-20.60336761862787
 21
6.099493128417034
 31
0.0
  0
LINE
  5
F10589
330
261
100
AcDbEntity
  8
Geo
100
AcDbLine
 10
-20.60336761862787
 20
6.099493128417034
 30
0.0
 11
-20.50336761862787
 21
6.099402808964732
 31
0.0
  0
LINE
  5
F1058B
330
261
100
AcDbEntity
  8
Geo
100
AcDbLine
 10
-47.00336761862786
 20
16.95912322718642
 30
0.0
 11
-46.90336761862785
 21
17.04434020439963
 31
0.0
  0
LINE
  5
F1058D
330
261
100
AcDbEntity
  8
Geo
100
AcDbLine
 10
-46.90336761862785
 20
17.04225498382353
 30
0.0
 11
-46.80336761862785
 21
17.11850702723624
 31
0.0
  0
LINE
  5
F1058F
330
261
100
AcDbEntity
  8
Geo
100
AcDbLine
 10
-46.80336761862785
 20
17.11850702723624
 30
0.0
 11
-46.70336761862786
 21
17.18848228980023
 31
0.0
  0
LINE
  5
F10591
330
261
100
AcDbEntity
  8
Geo
100
AcDbLine
 10
-46.70336761862786
 20
17.18848228980023
 30
0.0
 11
-46.60336761862786
 21
17.25268947676623
 31
0.0
  0
LINE
  5
F10593
330
261
100
AcDbEntity
  8
Geo
100
AcDbLine
 10
-46.60336761862786
 20
17.25268947676623
 30
0.0
 11
-46.50336761862786
 21
17.31156307884474
 31
0.0
  0
LINE
  5
F10595
330
261
100
AcDbEntity
  8
Geo
100
AcDbLine
 10
-46.50336761862786
 20
17.31156307884474
 30
0.0
 11
-46.40336761862785
 21
17.36547820346874
 31
0.0
  0
LINE
  5
F10597
330
261
100
AcDbEntity
  8
Geo
100
AcDbLine
 10
-46.40336761862785
 20
17.36547820346874
 30
0.0
 11
-46.30336761862785
 21
17.41476178032383
 31
0.0
  0
LINE
  5
F10599
330
261
100
AcDbEntity
  8
Geo
100
AcDbLine
 10
-46.30336761862785
 20
17.41476178032383
 30
0.0
 11
-46.20336761862787
 21
17.45970117232104
 31
0.0
  0
LINE
  5
F1059B
330
261
100
AcDbEntity
  8
Geo
100
AcDbLine
 10
-46.20336761862787
 20
17.45970117232104
 30
0.0
 11
-46.10336761862785
 21
17.50055089294613
 31
0.0
  0
LINE
  5
F1059D
330
261
100
AcDbEntity
  8
Geo
100
AcDbLine
 10
-46.10336761862785
 20
17.50055089294613
 30
0.0
 11
-46.00336761862786
 21
17.53753791714483
 31
0.0
  0
LINE
  5
F1059F
330
261
100
AcDbEntity
  8
Geo
100
AcDbLine
 10
-46.00336761862786
 20
17.53753791714483
 30
0.0
 11
-45.90336761862785
 21
17.57086593107993
 31
0.0
  0
LINE
  5
F105A1
330
261
100
AcDbEntity
  8
Geo
100
AcDbLine
 10
-45.90336761862785
 20
17.57086593107993
 30
0.0
 11
-45.80336761862786
 21
17.60071876994173
 31
0.0
  0
LINE
  5
F105A3
330
261
100
AcDbEntity
  8
Geo
100
AcDbLine
 10
-45.80336761862786
 20
17.60071876994173
 30
0.0
 11
-45.70336761862786
 21
17.62726322650543
 31
0.0
  0
LINE
  5
F105A5
330
261
100
AcDbEntity
  8
Geo
100
AcDbLine
 10
-45.70336761862786
 20
17.62726322650543
 30
0.0
 11
-45.60336761862785
 21
17.65065136633553
 31
0.0
  0
LINE
  5
F105A7
330
261
100
AcDbEntity
  8
Geo
100
AcDbLine
 10
-45.60336761862785
 20
17.65065136633553
 30
0.0
 11
-45.50336761862786
 21
17.67102245207053
 31
0.0
  0
LINE
  5
F105A9
330
261
100
AcDbEntity
  8
Geo
100
AcDbLine
 10
-45.50336761862786
 20
17.67102245207053
 30
0.0
 11
-45.40336761862785
 21
17.68850455493282
 31
0.0
  0
LINE
  5
F105AB
330
261
100
AcDbEntity
  8
Geo
100
AcDbLine
 10
-45.40336761862785
 20
17.68850455493282
 30
0.0
 11
-45.30336761862786
 21
17.70321591374373
 31
0.0
  0
LINE
  5
F105AD
330
261
100
AcDbEntity
  8
Geo
100
AcDbLine
 10
-45.30336761862786
 20
17.70321591374373
 30
0.0
 11
-45.20336761862786
 21
17.71526608841723
 31
0.0
  0
LINE
  5
F105AF
330
261
100
AcDbEntity
  8
Geo
100
AcDbLine
 10
-45.20336761862786
 20
17.71526608841723
 30
0.0
 11
-45.10336761862785
 21
17.72475694488683
 31
0.0
  0
LINE
  5
F105B1
330
261
100
AcDbEntity
  8
Geo
100
AcDbLine
 10
-45.10336761862785
 20
17.72475694488683
 30
0.0
 11
-45.00336761862786
 21
17.73178350079082
 31
0.0
  0
LINE
  5
F105B3
330
261
100
AcDbEntity
  8
Geo
100
AcDbLine
 10
-45.00336761862786
 20
17.73178350079082
 30
0.0
 11
-44.90336761862785
 21
17.73643465537823
 31
0.0
  0
LINE
  5
F105B5
330
261
100
AcDbEntity
  8
Geo
100
AcDbLine
 10
-44.90336761862785
 20
17.73643465537823
 30
0.0
 11
-44.80336761862786
 21
17.73879382254773
 31
0.0
  0
LINE
  5
F105B7
330
261
100
AcDbEntity
  8
Geo
100
AcDbLine
 10
-44.80336761862786
 20
17.73879382254773
 30
0.0
 11
-44.70336761862786
 21
17.73893948237763
 31
0.0
  0
LINE
  5
F105B9
330
261
100
AcDbEntity
  8
Geo
100
AcDbLine
 10
-44.70336761862786
 20
17.73893948237763
 30
0.0
 11
-44.60336761862786
 21
17.73694566369413
 31
0.0
  0
LINE
  5
F105BB
330
261
100
AcDbEntity
  8
Geo
100
AcDbLine
 10
-44.60336761862786
 20
17.73694566369413
 30
0.0
 11
-44.50336761862786
 21
17.73288236799943
 31
0.0
  0
LINE
  5
F105BD
330
261
100
AcDbEntity
  8
Geo
100
AcDbLine
 10
-44.50336761862786
 20
17.73288236799943
 30
0.0
 11
-44.40336761862785
 21
17.72681594329753
 31
0.0
  0
LINE
  5
F105BF
330
261
100
AcDbEntity
  8
Geo
100
AcDbLine
 10
-44.40336761862785
 20
17.72681594329753
 30
0.0
 11
-44.30336761862785
 21
17.71880941491753
 31
0.0
  0
LINE
  5
F105C1
330
261
100
AcDbEntity
  8
Geo
100
AcDbLine
 10
-44.30336761862785
 20
17.71880941491753
 30
0.0
 11
-44.20336761862786
 21
17.70892277927383
 31
0.0
  0
LINE
  5
F105C3
330
261
100
AcDbEntity
  8
Geo
100
AcDbLine
 10
-44.20336761862786
 20
17.70892277927383
 30
0.0
 11
-44.10336761862786
 21
17.69721326555043
 31
0.0
  0
LINE
  5
F105C5
330
261
100
AcDbEntity
  8
Geo
100
AcDbLine
 10
-44.10336761862786
 20
17.69721326555043
 30
0.0
 11
-44.00336761862786
 21
17.68373556952212
 31
0.0
  0
LINE
  5
F105C7
330
261
100
AcDbEntity
  8
Geo
100
AcDbLine
 10
-44.00336761862786
 20
17.68373556952212
 30
0.0
 11
-43.90336761862785
 21
17.66854206308373
 31
0.0
  0
LINE
  5
F105C9
330
261
100
AcDbEntity
  8
Geo
100
AcDbLine
 10
-43.90336761862785
 20
17.66854206308373
 30
0.0
 11
-43.80336761862785
 21
17.65168298252773
 31
0.0
  0
LINE
  5
F105CB
330
261
100
AcDbEntity
  8
Geo
100
AcDbLine
 10
-43.80336761862785
 20
17.65168298252773
 30
0.0
 11
-43.70336761862787
 21
17.63320659817033
 31
0.0
  0
LINE
  5
F105CD
330
261
100
AcDbEntity
  8
Geo
100
AcDbLine
 10
-43.70336761862787
 20
17.63320659817033
 30
0.0
 11
-43.60336761862785
 21
17.61315936755723
 31
0.0
  0
LINE
  5
F105CF
330
261
100
AcDbEntity
  8
Geo
100
AcDbLine
 10
-43.60336761862785
 20
17.61315936755723
 30
0.0
 11
-43.50336761862786
 21
17.59158607416952
 31
0.0
  0
LINE
  5
F105D1
330
261
100
AcDbEntity
  8
Geo
100
AcDbLine
 10
-43.50336761862786
 20
17.59158607416952
 30
0.0
 11
-43.40336761862785
 21
17.56852995329123
 31
0.0
  0
LINE
  5
F105D3
330
261
100
AcDbEntity
  8
Geo
100
AcDbLine
 10
-43.40336761862785
 20
17.56852995329123
 30
0.0
 11
-43.30336761862786
 21
17.54403280647913
 31
0.0
  0
LINE
  5
F105D5
330
261
100
AcDbEntity
  8
Geo
100
AcDbLine
 10
-43.30336761862786
 20
17.54403280647913
 30
0.0
 11
-43.20336761862786
 21
17.51813510588563
 31
0.0
  0
LINE
  5
F105D7
330
261
100
AcDbEntity
  8
Geo
100
AcDbLine
 10
-43.20336761862786
 20
17.51813510588563
 30
0.0
 11
-43.10336761862786
 21
17.49087608952943
 31
0.0
  0
LINE
  5
F105D9
330
261
100
AcDbEntity
  8
Geo
100
AcDbLine
 10
-43.10336761862786
 20
17.49087608952943
 30
0.0
 11
-43.00336761862786
 21
17.46229384847063
 31
0.0
  0
LINE
  5
F105DB
330
261
100
AcDbEntity
  8
Geo
100
AcDbLine
 10
-43.00336761862786
 20
17.46229384847063
 30
0.0
 11
-42.90336761862787
 21
17.43242540672823
 31
0.0
  0
LINE
  5
F105DD
330
261
100
AcDbEntity
  8
Geo
100
AcDbLine
 10
-42.90336761862787
 20
17.43242540672823
 30
0.0
 11
-42.80336761862787
 21
17.40130679467943
 31
0.0
  0
LINE
  5
F105DF
330
261
100
AcDbEntity
  8
Geo
100
AcDbLine
 10
-42.80336761862787
 20
17.40130679467943
 30
0.0
 11
-42.70336761862785
 21
17.36897311659333
 31
0.0
  0
LINE
  5
F105E1
330
261
100
AcDbEntity
  8
Geo
100
AcDbLine
 10
-42.70336761862785
 20
17.36897311659333
 30
0.0
 11
-42.60336761862787
 21
17.33545861287343
 31
0.0
  0
LINE
  5
F105E3
330
261
100
AcDbEntity
  8
Geo
100
AcDbLine
 10
-42.60336761862787
 20
17.33545861287343
 30
0.0
 11
-42.50336761862786
 21
17.30079671752154
 31
0.0
  0
LINE
  5
F105E5
330
261
100
AcDbEntity
  8
Geo
100
AcDbLine
 10
-42.50336761862786
 20
17.30079671752154
 30
0.0
 11
-42.40336761862787
 21
17.26502011127613
 31
0.0
  0
LINE
  5
F105E7
330
261
100
AcDbEntity
  8
Geo
100
AcDbLine
 10
-42.40336761862787
 20
17.26502011127613
 30
0.0
 11
-42.30336761862786
 21
17.22816077083052
 31
0.0
  0
LINE
  5
F105E9
330
261
100
AcDbEntity
  8
Geo
100
AcDbLine
 10
-42.30336761862786
 20
17.22816077083052
 30
0.0
 11
-42.20336761862785
 21
17.19025001449063
 31
0.0
  0
LINE
  5
F105EB
330
261
100
AcDbEntity
  8
Geo
100
AcDbLine
 10
-42.20336761862785
 20
17.19025001449063
 30
0.0
 11
-42.10336761862786
 21
17.15131854459673
 31
0.0
  0
LINE
  5
F105ED
330
261
100
AcDbEntity
  8
Geo
100
AcDbLine
 10
-42.10336761862786
 20
17.15131854459673
 30
0.0
 11
-42.00336761862785
 21
17.11139648699723
 31
0.0
  0
LINE
  5
F105EF
330
261
100
AcDbEntity
  8
Geo
100
AcDbLine
 10
-42.00336761862785
 20
17.11139648699723
 30
0.0
 11
-41.90336761862787
 21
17.07051342783613
 31
0.0
  0
LINE
  5
F105F1
330
261
100
AcDbEntity
  8
Geo
100
AcDbLine
 10
-41.90336761862787
 20
17.07051342783613
 30
0.0
 11
-41.80336761862786
 21
17.02869844788703
 31
0.0
  0
LINE
  5
F105F3
330
261
100
AcDbEntity
  8
Geo
100
AcDbLine
 10
-41.80336761862786
 20
17.02869844788703
 30
0.0
 11
-41.70336761862786
 21
16.98598015464493
 31
0.0
  0
LINE
  5
F105F5
330
261
100
AcDbEntity
  8
Geo
100
AcDbLine
 10
-41.70336761862786
 20
16.98598015464493
 30
0.0
 11
-41.60336761862787
 21
16.94238671236793
 31
0.0
  0
LINE
  5
F105F7
330
261
100
AcDbEntity
  8
Geo
100
AcDbLine
 10
-41.60336761862787
 20
16.94238671236793
 30
0.0
 11
-41.50336761862785
 21
16.89794587023923
 31
0.0
  0
LINE
  5
F105F9
330
261
100
AcDbEntity
  8
Geo
100
AcDbLine
 10
-41.50336761862785
 20
16.89794587023923
 30
0.0
 11
-41.40336761862786
 21
16.85268498880813
 31
0.0
  0
LINE
  5
F105FB
330
261
100
AcDbEntity
  8
Geo
100
AcDbLine
 10
-41.40336761862786
 20
16.85268498880813
 30
0.0
 11
-41.30336761862786
 21
16.80663106485223
 31
0.0
  0
LINE
  5
F105FD
330
261
100
AcDbEntity
  8
Geo
100
AcDbLine
 10
-41.30336761862786
 20
16.80663106485223
 30
0.0
 11
-41.20336761862787
 21
16.75981075478863
 31
0.0
  0
LINE
  5
F105FF
330
261
100
AcDbEntity
  8
Geo
100
AcDbLine
 10
-41.20336761862787
 20
16.75981075478863
 30
0.0
 11
-41.10336761862787
 21
16.71225039675483
 31
0.0
  0
LINE
  5
F10601
330
261
100
AcDbEntity
  8
Geo
100
AcDbLine
 10
-41.10336761862787
 20
16.71225039675483
 30
0.0
 11
-41.00336761862785
 21
16.66397603146643
 31
0.0
  0
LINE
  5
F10603
330
261
100
AcDbEntity
  8
Geo
100
AcDbLine
 10
-41.00336761862785
 20
16.66397603146643
 30
0.0
 11
-40.90336761862785
 21
16.61501342194983
 31
0.0
  0
LINE
  5
F10605
330
261
100
AcDbEntity
  8
Geo
100
AcDbLine
 10
-40.90336761862785
 20
16.61501342194983
 30
0.0
 11
-40.80336761862787
 21
16.56538807224203
 31
0.0
  0
LINE
  5
F10607
330
261
100
AcDbEntity
  8
Geo
100
AcDbLine
 10
-40.80336761862787
 20
16.56538807224203
 30
0.0
 11
-40.70336761862786
 21
16.51512524514133
 31
0.0
  0
LINE
  5
F10609
330
261
100
AcDbEntity
  8
Geo
100
AcDbLine
 10
-40.70336761862786
 20
16.51512524514133
 30
0.0
 11
-40.60336761862787
 21
16.46424997908413
 31
0.0
  0
LINE
  5
F1060B
330
261
100
AcDbEntity
  8
Geo
100
AcDbLine
 10
-40.60336761862787
 20
16.46424997908413
 30
0.0
 11
-40.50336761862785
 21
16.41278710422133
 31
0.0
  0
LINE
  5
F1060D
330
261
100
AcDbEntity
  8
Geo
100
AcDbLine
 10
-40.50336761862785
 20
16.41278710422133
 30
0.0
 11
-40.40336761862787
 21
16.36076125775783
 31
0.0
  0
LINE
  5
F1060F
330
261
100
AcDbEntity
  8
Geo
100
AcDbLine
 10
-40.40336761862787
 20
16.36076125775783
 30
0.0
 11
-40.30336761862787
 21
16.30819689861863
 31
0.0
  0
LINE
  5
F10611
330
261
100
AcDbEntity
  8
Geo
100
AcDbLine
 10
-40.30336761862787
 20
16.30819689861863
 30
0.0
 11
-40.20336761862785
 21
16.25511832149643
 31
0.0
  0
LINE
  5
F10613
330
261
100
AcDbEntity
  8
Geo
100
AcDbLine
 10
-40.20336761862785
 20
16.25511832149643
 30
0.0
 11
-40.10336761862787
 21
16.20154967033453
 31
0.0
  0
LINE
  5
F10615
330
261
100
AcDbEntity
  8
Geo
100
AcDbLine
 10
-40.10336761862787
 20
16.20154967033453
 30
0.0
 11
-40.00336761862786
 21
16.14751495129503
 31
0.0
  0
LINE
  5
F10617
330
261
100
AcDbEntity
  8
Geo
100
AcDbLine
 10
-40.00336761862786
 20
16.14751495129503
 30
0.0
 11
-39.90336761862787
 21
16.09303804525783
 31
0.0
  0
LINE
  5
F10619
330
261
100
AcDbEntity
  8
Geo
100
AcDbLine
 10
-39.90336761862787
 20
16.09303804525783
 30
0.0
 11
-39.80336761862787
 21
16.03814271989563
 31
0.0
  0
LINE
  5
F1061B
330
261
100
AcDbEntity
  8
Geo
100
AcDbLine
 10
-39.80336761862787
 20
16.03814271989563
 30
0.0
 11
-39.70336761862787
 21
15.98285264136483
 31
0.0
  0
LINE
  5
F1061D
330
261
100
AcDbEntity
  8
Geo
100
AcDbLine
 10
-39.70336761862787
 20
15.98285264136483
 30
0.0
 11
-39.60336761862787
 21
15.92719138565254
 31
0.0
  0
LINE
  5
F1061F
330
261
100
AcDbEntity
  8
Geo
100
AcDbLine
 10
-39.60336761862787
 20
15.92719138565254
 30
0.0
 11
-39.50336761862786
 21
15.87118244961673
 31
0.0
  0
LINE
  5
F10621
330
261
100
AcDbEntity
  8
Geo
100
AcDbLine
 10
-39.50336761862786
 20
15.87118244961673
 30
0.0
 11
-39.40336761862787
 21
15.81484926175443
 31
0.0
  0
LINE
  5
F10623
330
261
100
AcDbEntity
  8
Geo
100
AcDbLine
 10
-39.40336761862787
 20
15.81484926175443
 30
0.0
 11
-39.30336761862788
 21
15.75821519273423
 31
0.0
  0
LINE
  5
F10625
330
261
100
AcDbEntity
  8
Geo
100
AcDbLine
 10
-39.30336761862788
 20
15.75821519273423
 30
0.0
 11
-39.20336761862787
 21
15.70130356572304
 31
0.0
  0
LINE
  5
F10627
330
261
100
AcDbEntity
  8
Geo
100
AcDbLine
 10
-39.20336761862787
 20
15.70130356572304
 30
0.0
 11
-39.10336761862787
 21
15.64424893075723
 31
0.0
  0
LINE
  5
F10629
330
261
100
AcDbEntity
  8
Geo
100
AcDbLine
 10
-39.10336761862787
 20
15.64424893075723
 30
0.0
 11
-39.00336761862785
 21
15.58717187421723
 31
0.0
  0
LINE
  5
F1062B
330
261
100
AcDbEntity
  8
Geo
100
AcDbLine
 10
-39.00336761862785
 20
15.58717187421723
 30
0.0
 11
-38.90336761862787
 21
15.53007474494503
 31
0.0
  0
LINE
  5
F1062D
330
261
100
AcDbEntity
  8
Geo
100
AcDbLine
 10
-38.90336761862787
 20
15.53007474494503
 30
0.0
 11
-38.80336761862788
 21
15.47295989260863
 31
0.0
  0
LINE
  5
F1062F
330
261
100
AcDbEntity
  8
Geo
100
AcDbLine
 10
-38.80336761862788
 20
15.47295989260863
 30
0.0
 11
-38.70336761862787
 21
15.41582966760553
 31
0.0
  0
LINE
  5
F10631
330
261
100
AcDbEntity
  8
Geo
100
AcDbLine
 10
-38.70336761862787
 20
15.41582966760553
 30
0.0
 11
-38.60336761862787
 21
15.35868642096563
 31
0.0
  0
LINE
  5
F10633
330
261
100
AcDbEntity
  8
Geo
100
AcDbLine
 10
-38.60336761862787
 20
15.35868642096563
 30
0.0
 11
-38.50336761862786
 21
15.30153250425483
 31
0.0
  0
LINE
  5
F10635
330
261
100
AcDbEntity
  8
Geo
100
AcDbLine
 10
-38.50336761862786
 20
15.30153250425483
 30
0.0
 11
-38.40336761862787
 21
15.24437026947813
 31
0.0
  0
LINE
  5
F10637
330
261
100
AcDbEntity
  8
Geo
100
AcDbLine
 10
-38.40336761862787
 20
15.24437026947813
 30
0.0
 11
-38.30336761862787
 21
15.18720206898273
 31
0.0
  0
LINE
  5
F10639
330
261
100
AcDbEntity
  8
Geo
100
AcDbLine
 10
-38.30336761862787
 20
15.18720206898273
 30
0.0
 11
-38.20336761862787
 21
15.13003025536143
 31
0.0
  0
LINE
  5
F1063B
330
261
100
AcDbEntity
  8
Geo
100
AcDbLine
 10
-38.20336761862787
 20
15.13003025536143
 30
0.0
 11
-38.10336761862787
 21
15.07285718135573
 31
0.0
  0
LINE
  5
F1063D
330
261
100
AcDbEntity
  8
Geo
100
AcDbLine
 10
-38.10336761862787
 20
15.07285718135573
 30
0.0
 11
-38.00336761862786
 21
15.01568519975904
 31
0.0
  0
LINE
  5
F1063F
330
261
100
AcDbEntity
  8
Geo
100
AcDbLine
 10
-38.00336761862786
 20
15.01568519975904
 30
0.0
 11
-37.90336761862787
 21
14.95851666331953
 31
0.0
  0
LINE
  5
F10641
330
261
100
AcDbEntity
  8
Geo
100
AcDbLine
 10
-37.90336761862787
 20
14.95851666331953
 30
0.0
 11
-37.80336761862788
 21
14.90135392464393
 31
0.0
  0
LINE
  5
F10643
330
261
100
AcDbEntity
  8
Geo
100
AcDbLine
 10
-37.80336761862788
 20
14.90135392464393
 30
0.0
 11
-37.70336761862786
 21
14.84419933610023
 31
0.0
  0
LINE
  5
F10645
330
261
100
AcDbEntity
  8
Geo
100
AcDbLine
 10
-37.70336761862786
 20
14.84419933610023
 30
0.0
 11
-37.60336761862787
 21
14.78705524972103
 31
0.0
  0
LINE
  5
F10647
330
261
100
AcDbEntity
  8
Geo
100
AcDbLine
 10
-37.60336761862787
 20
14.78705524972103
 30
0.0
 11
-37.50336761862786
 21
14.72992401710683
 31
0.0
  0
LINE
  5
F10649
330
261
100
AcDbEntity
  8
Geo
100
AcDbLine
 10
-37.50336761862786
 20
14.72992401710683
 30
0.0
 11
-37.40336761862787
 21
14.67280798932893
 31
0.0
  0
LINE
  5
F1064B
330
261
100
AcDbEntity
  8
Geo
100
AcDbLine
 10
-37.40336761862787
 20
14.67280798932893
 30
0.0
 11
-37.30336761862787
 21
14.61570951683333
 31
0.0
  0
LINE
  5
F1064D
330
261
100
AcDbEntity
  8
Geo
100
AcDbLine
 10
-37.30336761862787
 20
14.61570951683333
 30
0.0
 11
-37.20336761862787
 21
14.55863094934313
 31
0.0
  0
LINE
  5
F1064F
330
261
100
AcDbEntity
  8
Geo
100
AcDbLine
 10
-37.20336761862787
 20
14.55863094934313
 30
0.0
 11
-37.10336761862787
 21
14.50157463576263
 31
0.0
  0
LINE
  5
F10651
330
261
100
AcDbEntity
  8
Geo
100
AcDbLine
 10
-37.10336761862787
 20
14.50157463576263
 30
0.0
 11
-37.00336761862786
 21
14.44454292408023
 31
0.0
  0
LINE
  5
F10653
330
261
100
AcDbEntity
  8
Geo
100
AcDbLine
 10
-37.00336761862786
 20
14.44454292408023
 30
0.0
 11
-36.90336761862787
 21
14.38753816127183
 31
0.0
  0
LINE
  5
F10655
330
261
100
AcDbEntity
  8
Geo
100
AcDbLine
 10
-36.90336761862787
 20
14.38753816127183
 30
0.0
 11
-36.80336761862788
 21
14.33056269320443
 31
0.0
  0
LINE
  5
F10657
330
261
100
AcDbEntity
  8
Geo
100
AcDbLine
 10
-36.80336761862788
 20
14.33056269320443
 30
0.0
 11
-36.70336761862787
 21
14.27361886453943
 31
0.0
  0
LINE
  5
F10659
330
261
100
AcDbEntity
  8
Geo
100
AcDbLine
 10
-36.70336761862787
 20
14.27361886453943
 30
0.0
 11
-36.60336761862787
 21
14.21670901863633
 31
0.0
  0
LINE
  5
F1065B
330
261
100
AcDbEntity
  8
Geo
100
AcDbLine
 10
-36.60336761862787
 20
14.21670901863633
 30
0.0
 11
-36.50336761862785
 21
14.15983549745603
 31
0.0
  0
LINE
  5
F1065D
330
261
100
AcDbEntity
  8
Geo
100
AcDbLine
 10
-36.50336761862785
 20
14.15983549745603
 30
0.0
 11
-36.40336761862787
 21
14.10300064146453
 31
0.0
  0
LINE
  5
F1065F
330
261
100
AcDbEntity
  8
Geo
100
AcDbLine
 10
-36.40336761862787
 20
14.10300064146453
 30
0.0
 11
-36.30336761862788
 21
14.04620678953683
 31
0.0
  0
LINE
  5
F10661
330
261
100
AcDbEntity
  8
Geo
100
AcDbLine
 10
-36.30336761862788
 20
14.04620678953683
 30
0.0
 11
-36.20336761862787
 21
13.98945627886053
 31
0.0
  0
LINE
  5
F10663
330
261
100
AcDbEntity
  8
Geo
100
AcDbLine
 10
-36.20336761862787
 20
13.98945627886053
 30
0.0
 11
-36.10336761862787
 21
13.93275144483943
 31
0.0
  0
LINE
  5
F10665
330
261
100
AcDbEntity
  8
Geo
100
AcDbLine
 10
-36.10336761862787
 20
13.93275144483943
 30
0.0
 11
-36.00336761862787
 21
13.87609462099793
 31
0.0
  0
LINE
  5
F10667
330
261
100
AcDbEntity
  8
Geo
100
AcDbLine
 10
-36.00336761862787
 20
13.87609462099793
 30
0.0
 11
-35.90336761862787
 21
13.81948813888454
 31
0.0
  0
LINE
  5
F10669
330
261
100
AcDbEntity
  8
Geo
100
AcDbLine
 10
-35.90336761862787
 20
13.81948813888454
 30
0.0
 11
-35.80336761862787
 21
13.76293432797613
 31
0.0
  0
LINE
  5
F1066B
330
261
100
AcDbEntity
  8
Geo
100
AcDbLine
 10
-35.80336761862787
 20
13.76293432797613
 30
0.0
 11
-35.70336761862787
 21
13.70643551558204
 31
0.0
  0
LINE
  5
F1066D
330
261
100
AcDbEntity
  8
Geo
100
AcDbLine
 10
-35.70336761862787
 20
13.70643551558204
 30
0.0
 11
-35.60336761862787
 21
13.64999402674833
 31
0.0
  0
LINE
  5
F1066F
330
261
100
AcDbEntity
  8
Geo
100
AcDbLine
 10
-35.60336761862787
 20
13.64999402674833
 30
0.0
 11
-35.50336761862786
 21
13.59361218416193
 31
0.0
  0
LINE
  5
F10671
330
261
100
AcDbEntity
  8
Geo
100
AcDbLine
 10
-35.50336761862786
 20
13.59361218416193
 30
0.0
 11
-35.40336761862787
 21
13.53729230805543
 31
0.0
  0
LINE
  5
F10673
330
261
100
AcDbEntity
  8
Geo
100
AcDbLine
 10
-35.40336761862787
 20
13.53729230805543
 30
0.0
 11
-35.30336761862788
 21
13.48103671611123
 31
0.0
  0
LINE
  5
F10675
330
261
100
AcDbEntity
  8
Geo
100
AcDbLine
 10
-35.30336761862788
 20
13.48103671611123
 30
0.0
 11
-35.20336761862786
 21
13.42484772336643
 31
0.0
  0
LINE
  5
F10677
330
261
100
AcDbEntity
  8
Geo
100
AcDbLine
 10
-35.20336761862786
 20
13.42484772336643
 30
0.0
 11
-35.10336761862787
 21
13.36872764211713
 31
0.0
  0
LINE
  5
F10679
330
261
100
AcDbEntity
  8
Geo
100
AcDbLine
 10
-35.10336761862787
 20
13.36872764211713
 30
0.0
 11
-35.00336761862786
 21
13.31267878182383
 31
0.0
  0
LINE
  5
F1067B
330
261
100
AcDbEntity
  8
Geo
100
AcDbLine
 10
-35.00336761862786
 20
13.31267878182383
 30
0.0
 11
-34.90336761862788
 21
13.25670344901613
 31
0.0
  0
LINE
  5
F1067D
330
261
100
AcDbEntity
  8
Geo
100
AcDbLine
 10
-34.90336761862788
 20
13.25670344901613
 30
0.0
 11
-34.80336761862787
 21
13.20080394719783
 31
0.0
  0
LINE
  5
F1067F
330
261
100
AcDbEntity
  8
Geo
100
AcDbLine
 10
-34.80336761862787
 20
13.20080394719783
 30
0.0
 11
-34.70336761862788
 21
13.14498257675193
 31
0.0
  0
LINE
  5
F10681
330
261
100
AcDbEntity
  8
Geo
100
AcDbLine
 10
-34.70336761862788
 20
13.14498257675193
 30
0.0
 11
-34.60336761862787
 21
13.08924163484643
 31
0.0
  0
LINE
  5
F10683
330
261
100
AcDbEntity
  8
Geo
100
AcDbLine
 10
-34.60336761862787
 20
13.08924163484643
 30
0.0
 11
-34.50336761862786
 21
13.03358341533924
 31
0.0
  0
LINE
  5
F10685
330
261
100
AcDbEntity
  8
Geo
100
AcDbLine
 10
-34.50336761862786
 20
13.03358341533924
 30
0.0
 11
-34.40336761862788
 21
12.97801020868423
 31
0.0
  0
LINE
  5
F10687
330
261
100
AcDbEntity
  8
Geo
100
AcDbLine
 10
-34.40336761862788
 20
12.97801020868423
 30
0.0
 11
-34.30336761862788
 21
12.92252430183693
 31
0.0
  0
LINE
  5
F10689
330
261
100
AcDbEntity
  8
Geo
100
AcDbLine
 10
-34.30336761862788
 20
12.92252430183693
 30
0.0
 11
-34.20336761862787
 21
12.86712797816013
 31
0.0
  0
LINE
  5
F1068B
330
261
100
AcDbEntity
  8
Geo
100
AcDbLine
 10
-34.20336761862787
 20
12.86712797816013
 30
0.0
 11
-34.10336761862787
 21
12.81182351732993
 31
0.0
  0
LINE
  5
F1068D
330
261
100
AcDbEntity
  8
Geo
100
AcDbLine
 10
-34.10336761862787
 20
12.81182351732993
 30
0.0
 11
-34.00336761862785
 21
12.75661319524243
 31
0.0
  0
LINE
  5
F1068F
330
261
100
AcDbEntity
  8
Geo
100
AcDbLine
 10
-34.00336761862785
 20
12.75661319524243
 30
0.0
 11
-33.90336761862787
 21
12.70149928391953
 31
0.0
  0
LINE
  5
F10691
330
261
100
AcDbEntity
  8
Geo
100
AcDbLine
 10
-33.90336761862787
 20
12.70149928391953
 30
0.0
 11
-33.80336761862788
 21
12.64648405141563
 31
0.0
  0
LINE
  5
F10693
330
261
100
AcDbEntity
  8
Geo
100
AcDbLine
 10
-33.80336761862788
 20
12.64648405141563
 30
0.0
 11
-33.70336761862787
 21
12.59156976172433
 31
0.0
  0
LINE
  5
F10695
330
261
100
AcDbEntity
  8
Geo
100
AcDbLine
 10
-33.70336761862787
 20
12.59156976172433
 30
0.0
 11
-33.60336761862787
 21
12.53675867468523
 31
0.0
  0
LINE
  5
F10697
330
261
100
AcDbEntity
  8
Geo
100
AcDbLine
 10
-33.60336761862787
 20
12.53675867468523
 30
0.0
 11
-33.50336761862787
 21
12.48205304589073
 31
0.0
  0
LINE
  5
F10699
330
261
100
AcDbEntity
  8
Geo
100
AcDbLine
 10
-33.50336761862787
 20
12.48205304589073
 30
0.0
 11
-33.40336761862788
 21
12.42745512659363
 31
0.0
  0
LINE
  5
F1069B
330
261
100
AcDbEntity
  8
Geo
100
AcDbLine
 10
-33.40336761862788
 20
12.42745512659363
 30
0.0
 11
-33.30336761862787
 21
12.37296716361423
 31
0.0
  0
LINE
  5
F1069D
330
261
100
AcDbEntity
  8
Geo
100
AcDbLine
 10
-33.30336761862787
 20
12.37296716361423
 30
0.0
 11
-33.20336761862787
 21
12.31859139924783
 31
0.0
  0
LINE
  5
F1069F
330
261
100
AcDbEntity
  8
Geo
100
AcDbLine
 10
-33.20336761862787
 20
12.31859139924783
 30
0.0
 11
-33.10336761862787
 21
12.26433007117253
 31
0.0
  0
LINE
  5
F106A1
330
261
100
AcDbEntity
  8
Geo
100
AcDbLine
 10
-33.10336761862787
 20
12.26433007117253
 30
0.0
 11
-33.00336761862786
 21
12.21018541235713
 31
0.0
  0
LINE
  5
F106A3
330
261
100
AcDbEntity
  8
Geo
100
AcDbLine
 10
-33.00336761862786
 20
12.21018541235713
 30
0.0
 11
-32.90336761862788
 21
12.15615965096913
 31
0.0
  0
LINE
  5
F106A5
330
261
100
AcDbEntity
  8
Geo
100
AcDbLine
 10
-32.90336761862788
 20
12.15615965096913
 30
0.0
 11
-32.80336761862788
 21
12.10225501028343
 31
0.0
  0
LINE
  5
F106A7
330
261
100
AcDbEntity
  8
Geo
100
AcDbLine
 10
-32.80336761862788
 20
12.10225501028343
 30
0.0
 11
-32.70336761862786
 21
12.04847370859043
 31
0.0
  0
LINE
  5
F106A9
330
261
100
AcDbEntity
  8
Geo
100
AcDbLine
 10
-32.70336761862786
 20
12.04847370859043
 30
0.0
 11
-32.60336761862787
 21
11.99481795910463
 31
0.0
  0
LINE
  5
F106AB
330
261
100
AcDbEntity
  8
Geo
100
AcDbLine
 10
-32.60336761862787
 20
11.99481795910463
 30
0.0
 11
-32.50336761862786
 21
11.94128996987413
 31
0.0
  0
LINE
  5
F106AD
330
261
100
AcDbEntity
  8
Geo
100
AcDbLine
 10
-32.50336761862786
 20
11.94128996987413
 30
0.0
 11
-32.40336761862788
 21
11.88789194368933
 31
0.0
  0
LINE
  5
F106AF
330
261
100
AcDbEntity
  8
Geo
100
AcDbLine
 10
-32.40336761862788
 20
11.88789194368933
 30
0.0
 11
-32.30336761862787
 21
11.83462607799213
 31
0.0
  0
LINE
  5
F106B1
330
261
100
AcDbEntity
  8
Geo
100
AcDbLine
 10
-32.30336761862787
 20
11.83462607799213
 30
0.0
 11
-32.20336761862788
 21
11.78149456478623
 31
0.0
  0
LINE
  5
F106B3
330
261
100
AcDbEntity
  8
Geo
100
AcDbLine
 10
-32.20336761862788
 20
11.78149456478623
 30
0.0
 11
-32.10336761862787
 21
11.72849959054593
 31
0.0
  0
LINE
  5
F106B5
330
261
100
AcDbEntity
  8
Geo
100
AcDbLine
 10
-32.10336761862787
 20
11.72849959054593
 30
0.0
 11
-32.00336761862786
 21
11.67564333612693
 31
0.0
  0
LINE
  5
F106B7
330
261
100
AcDbEntity
  8
Geo
100
AcDbLine
 10
-32.00336761862786
 20
11.67564333612693
 30
0.0
 11
-31.90336761862787
 21
11.62292797667633
 31
0.0
  0
LINE
  5
F106B9
330
261
100
AcDbEntity
  8
Geo
100
AcDbLine
 10
-31.90336761862787
 20
11.62292797667633
 30
0.0
 11
-31.80336761862788
 21
11.57035568154302
 31
0.0
  0
LINE
  5
F106BB
330
261
100
AcDbEntity
  8
Geo
100
AcDbLine
 10
-31.80336761862788
 20
11.57035568154302
 30
0.0
 11
-31.70336761862787
 21
11.51792861418853
 31
0.0
  0
LINE
  5
F106BD
330
261
100
AcDbEntity
  8
Geo
100
AcDbLine
 10
-31.70336761862787
 20
11.51792861418853
 30
0.0
 11
-31.60336761862787
 21
11.46564893209793
 31
0.0
  0
LINE
  5
F106BF
330
261
100
AcDbEntity
  8
Geo
100
AcDbLine
 10
-31.60336761862787
 20
11.46564893209793
 30
0.0
 11
-31.50336761862786
 21
11.41351878669113
 31
0.0
  0
LINE
  5
F106C1
330
261
100
AcDbEntity
  8
Geo
100
AcDbLine
 10
-31.50336761862786
 20
11.41351878669113
 30
0.0
 11
-31.40336761862787
 21
11.36154032323423
 31
0.0
  0
LINE
  5
F106C3
330
261
100
AcDbEntity
  8
Geo
100
AcDbLine
 10
-31.40336761862787
 20
11.36154032323423
 30
0.0
 11
-31.30336761862788
 21
11.30971568075123
 31
0.0
  0
LINE
  5
F106C5
330
261
100
AcDbEntity
  8
Geo
100
AcDbLine
 10
-31.30336761862788
 20
11.30971568075123
 30
0.0
 11
-31.20336761862787
 21
11.25804699193623
 31
0.0
  0
LINE
  5
F106C7
330
261
100
AcDbEntity
  8
Geo
100
AcDbLine
 10
-31.20336761862787
 20
11.25804699193623
 30
0.0
 11
-31.10336761862787
 21
11.20653638306543
 31
0.0
  0
LINE
  5
F106C9
330
261
100
AcDbEntity
  8
Geo
100
AcDbLine
 10
-31.10336761862787
 20
11.20653638306543
 30
0.0
 11
-31.00336761862787
 21
11.15518597390963
 31
0.0
  0
LINE
  5
F106CB
330
261
100
AcDbEntity
  8
Geo
100
AcDbLine
 10
-31.00336761862787
 20
11.15518597390963
 30
0.0
 11
-30.90336761862787
 21
11.10399787764723
 31
0.0
  0
LINE
  5
F106CD
330
261
100
AcDbEntity
  8
Geo
100
AcDbLine
 10
-30.90336761862787
 20
11.10399787764723
 30
0.0
 11
-30.80336761862787
 21
11.05297420077703
 31
0.0
  0
LINE
  5
F106CF
330
261
100
AcDbEntity
  8
Geo
100
AcDbLine
 10
-30.80336761862787
 20
11.05297420077703
 30
0.0
 11
-30.70336761862787
 21
11.00211704303153
 31
0.0
  0
LINE
  5
F106D1
330
261
100
AcDbEntity
  8
Geo
100
AcDbLine
 10
-30.70336761862787
 20
11.00211704303153
 30
0.0
 11
-30.60336761862787
 21
10.95142849729083
 31
0.0
  0
LINE
  5
F106D3
330
261
100
AcDbEntity
  8
Geo
100
AcDbLine
 10
-30.60336761862787
 20
10.95142849729083
 30
0.0
 11
-30.50336761862786
 21
10.90091064949603
 31
0.0
  0
LINE
  5
F106D5
330
261
100
AcDbEntity
  8
Geo
100
AcDbLine
 10
-30.50336761862786
 20
10.90091064949603
 30
0.0
 11
-30.40336761862787
 21
10.85056557856393
 31
0.0
  0
LINE
  5
F106D7
330
261
100
AcDbEntity
  8
Geo
100
AcDbLine
 10
-30.40336761862787
 20
10.85056557856393
 30
0.0
 11
-30.30336761862788
 21
10.80039535630083
 31
0.0
  0
LINE
  5
F106D9
330
261
100
AcDbEntity
  8
Geo
100
AcDbLine
 10
-30.30336761862788
 20
10.80039535630083
 30
0.0
 11
-30.20336761862786
 21
10.75040204731803
 31
0.0
  0
LINE
  5
F106DB
330
261
100
AcDbEntity
  8
Geo
100
AcDbLine
 10
-30.20336761862786
 20
10.75040204731803
 30
0.0
 11
-30.10336761862787
 21
10.70058770894623
 31
0.0
  0
LINE
  5
F106DD
330
261
100
AcDbEntity
  8
Geo
100
AcDbLine
 10
-30.10336761862787
 20
10.70058770894623
 30
0.0
 11
-30.00336761862786
 21
10.65095439115123
 31
0.0
  0
LINE
  5
F106DF
330
261
100
AcDbEntity
  8
Geo
100
AcDbLine
 10
-30.00336761862786
 20
10.65095439115123
 30
0.0
 11
-29.90336761862787
 21
10.60150413644923
 31
0.0
  0
LINE
  5
F106E1
330
261
100
AcDbEntity
  8
Geo
100
AcDbLine
 10
-29.90336761862787
 20
10.60150413644923
 30
0.0
 11
-29.80336761862787
 21
10.55223897982333
 31
0.0
  0
LINE
  5
F106E3
330
261
100
AcDbEntity
  8
Geo
100
AcDbLine
 10
-29.80336761862787
 20
10.55223897982333
 30
0.0
 11
-29.70336761862787
 21
10.50316094863923
 31
0.0
  0
LINE
  5
F106E5
330
261
100
AcDbEntity
  8
Geo
100
AcDbLine
 10
-29.70336761862787
 20
10.50316094863923
 30
0.0
 11
-29.60336761862787
 21
10.45427206256203
 31
0.0
  0
LINE
  5
F106E7
330
261
100
AcDbEntity
  8
Geo
100
AcDbLine
 10
-29.60336761862787
 20
10.45427206256203
 30
0.0
 11
-29.50336761862786
 21
10.40557433347313
 31
0.0
  0
LINE
  5
F106E9
330
261
100
AcDbEntity
  8
Geo
100
AcDbLine
 10
-29.50336761862786
 20
10.40557433347313
 30
0.0
 11
-29.40336761862787
 21
10.35706976538753
 31
0.0
  0
LINE
  5
F106EB
330
261
100
AcDbEntity
  8
Geo
100
AcDbLine
 10
-29.40336761862787
 20
10.35706976538753
 30
0.0
 11
-29.30336761862788
 21
10.30876035437103
 31
0.0
  0
LINE
  5
F106ED
330
261
100
AcDbEntity
  8
Geo
100
AcDbLine
 10
-29.30336761862788
 20
10.30876035437103
 30
0.0
 11
-29.20336761862787
 21
10.26064808845853
 31
0.0
  0
LINE
  5
F106EF
330
261
100
AcDbEntity
  8
Geo
100
AcDbLine
 10
-29.20336761862787
 20
10.26064808845853
 30
0.0
 11
-29.10336761862787
 21
10.21273494757173
 31
0.0
  0
LINE
  5
F106F1
330
261
100
AcDbEntity
  8
Geo
100
AcDbLine
 10
-29.10336761862787
 20
10.21273494757173
 30
0.0
 11
-29.00336761862786
 21
10.16502290343823
 31
0.0
  0
LINE
  5
F106F3
330
261
100
AcDbEntity
  8
Geo
100
AcDbLine
 10
-29.00336761862786
 20
10.16502290343823
 30
0.0
 11
-28.90336761862787
 21
10.11751391950983
 31
0.0
  0
LINE
  5
F106F5
330
261
100
AcDbEntity
  8
Geo
100
AcDbLine
 10
-28.90336761862787
 20
10.11751391950983
 30
0.0
 11
-28.80336761862788
 21
10.07020995088203
 31
0.0
  0
LINE
  5
F106F7
330
261
100
AcDbEntity
  8
Geo
100
AcDbLine
 10
-28.80336761862788
 20
10.07020995088203
 30
0.0
 11
-28.70336761862787
 21
10.02311294421343
 31
0.0
  0
LINE
  5
F106F9
330
261
100
AcDbEntity
  8
Geo
100
AcDbLine
 10
-28.70336761862787
 20
10.02311294421343
 30
0.0
 11
-28.60336761862787
 21
9.976224837646034
 31
0.0
  0
LINE
  5
F106FB
330
261
100
AcDbEntity
  8
Geo
100
AcDbLine
 10
-28.60336761862787
 20
9.976224837646034
 30
0.0
 11
-28.50336761862786
 21
9.929547560724834
 31
0.0
  0
LINE
  5
F106FD
330
261
100
AcDbEntity
  8
Geo
100
AcDbLine
 10
-28.50336761862786
 20
9.929547560724834
 30
0.0
 11
-28.40336761862787
 21
9.883083034318731
 31
0.0
  0
LINE
  5
F106FF
330
261
100
AcDbEntity
  8
Geo
100
AcDbLine
 10
-28.40336761862787
 20
9.883083034318731
 30
0.0
 11
-28.30336761862787
 21
9.836833170541735
 31
0.0
  0
LINE
  5
F10701
330
261
100
AcDbEntity
  8
Geo
100
AcDbLine
 10
-28.30336761862787
 20
9.836833170541735
 30
0.0
 11
-28.20336761862787
 21
9.790799872673835
 31
0.0
  0
LINE
  5
F10703
330
261
100
AcDbEntity
  8
Geo
100
AcDbLine
 10
-28.20336761862787
 20
9.790799872673835
 30
0.0
 11
-28.10336761862787
 21
9.744985035082935
 31
0.0
  0
LINE
  5
F10705
330
261
100
AcDbEntity
  8
Geo
100
AcDbLine
 10
-28.10336761862787
 20
9.744985035082935
 30
0.0
 11
-28.00336761862786
 21
9.699390543146835
 31
0.0
  0
LINE
  5
F10707
330
261
100
AcDbEntity
  8
Geo
100
AcDbLine
 10
-28.00336761862786
 20
9.699390543146835
 30
0.0
 11
-27.90336761862787
 21
9.654018273175736
 31
0.0
  0
LINE
  5
F10709
330
261
100
AcDbEntity
  8
Geo
100
AcDbLine
 10
-27.90336761862787
 20
9.654018273175736
 30
0.0
 11
-27.80336761862788
 21
9.608870092334633
 31
0.0
  0
LINE
  5
F1070B
330
261
100
AcDbEntity
  8
Geo
100
AcDbLine
 10
-27.80336761862788
 20
9.608870092334633
 30
0.0
 11
-27.70336761862786
 21
9.563947858567132
 31
0.0
  0
LINE
  5
F1070D
330
261
100
AcDbEntity
  8
Geo
100
AcDbLine
 10
-27.70336761862786
 20
9.563947858567132
 30
0.0
 11
-27.60336761862787
 21
9.519253420518431
 31
0.0
  0
LINE
  5
F1070F
330
261
100
AcDbEntity
  8
Geo
100
AcDbLine
 10
-27.60336761862787
 20
9.519253420518431
 30
0.0
 11
-27.50336761862786
 21
9.474788617459532
 31
0.0
  0
LINE
  5
F10711
330
261
100
AcDbEntity
  8
Geo
100
AcDbLine
 10
-27.50336761862786
 20
9.474788617459532
 30
0.0
 11
-27.40336761862787
 21
9.430555279211533
 31
0.0
  0
LINE
  5
F10713
330
261
100
AcDbEntity
  8
Geo
100
AcDbLine
 10
-27.40336761862787
 20
9.430555279211533
 30
0.0
 11
-27.30336761862787
 21
9.386555226070033
 31
0.0
  0
LINE
  5
F10715
330
261
100
AcDbEntity
  8
Geo
100
AcDbLine
 10
-27.30336761862787
 20
9.386555226070033
 30
0.0
 11
-27.20336761862788
 21
9.342790268730633
 31
0.0
  0
LINE
  5
F10717
330
261
100
AcDbEntity
  8
Geo
100
AcDbLine
 10
-27.20336761862788
 20
9.342790268730633
 30
0.0
 11
-27.10336761862787
 21
9.299262208214232
 31
0.0
  0
LINE
  5
F10719
330
261
100
AcDbEntity
  8
Geo
100
AcDbLine
 10
-27.10336761862787
 20
9.299262208214232
 30
0.0
 11
-27.00336761862786
 21
9.255972835792832
 31
0.0
  0
LINE
  5
F1071B
330
261
100
AcDbEntity
  8
Geo
100
AcDbLine
 10
-27.00336761862786
 20
9.255972835792832
 30
0.0
 11
-26.90336761862787
 21
9.212923932916133
 31
0.0
  0
LINE
  5
F1071D
330
261
100
AcDbEntity
  8
Geo
100
AcDbLine
 10
-26.90336761862787
 20
9.212923932916133
 30
0.0
 11
-26.80336761862788
 21
9.170117271137732
 31
0.0
  0
LINE
  5
F1071F
330
261
100
AcDbEntity
  8
Geo
100
AcDbLine
 10
-26.80336761862788
 20
9.170117271137732
 30
0.0
 11
-26.70336761862787
 21
9.127554612042633
 31
0.0
  0
LINE
  5
F10721
330
261
100
AcDbEntity
  8
Geo
100
AcDbLine
 10
-26.70336761862787
 20
9.127554612042633
 30
0.0
 11
-26.60336761862787
 21
9.085237707174533
 31
0.0
  0
LINE
  5
F10723
330
261
100
AcDbEntity
  8
Geo
100
AcDbLine
 10
-26.60336761862787
 20
9.085237707174533
 30
0.0
 11
-26.50336761862777
 21
9.043168297964033
 31
0.0
  0
LINE
  5
F10725
330
261
100
AcDbEntity
  8
Geo
100
AcDbLine
 10
-26.50336761862777
 20
9.043168297964033
 30
0.0
 11
-26.40336761862787
 21
9.001348115656432
 31
0.0
  0
LINE
  5
F10727
330
261
100
AcDbEntity
  8
Geo
100
AcDbLine
 10
-26.40336761862787
 20
9.001348115656432
 30
0.0
 11
-26.30336761862788
 21
8.959778881241033
 31
0.0
  0
LINE
  5
F10729
330
261
100
AcDbEntity
  8
Geo
100
AcDbLine
 10
-26.30336761862788
 20
8.959778881241033
 30
0.0
 11
-26.20336761862777
 21
8.918462305380133
 31
0.0
  0
LINE
  5
F1072B
330
261
100
AcDbEntity
  8
Geo
100
AcDbLine
 10
-26.20336761862777
 20
8.918462305380133
 30
0.0
 11
-26.10336761862777
 21
8.877400088338431
 31
0.0
  0
LINE
  5
F1072D
330
261
100
AcDbEntity
  8
Geo
100
AcDbLine
 10
-26.10336761862777
 20
8.877400088338431
 30
0.0
 11
-26.00336761862776
 21
8.836593919913331
 31
0.0
  0
LINE
  5
F1072F
330
261
100
AcDbEntity
  8
Geo
100
AcDbLine
 10
-26.00336761862776
 20
8.836593919913331
 30
0.0
 11
-25.90336761862787
 21
8.796045479365233
 31
0.0
  0
LINE
  5
F10731
330
261
100
AcDbEntity
  8
Geo
100
AcDbLine
 10
-25.90336761862787
 20
8.796045479365233
 30
0.0
 11
-25.80336761862776
 21
8.755756435348532
 31
0.0
  0
LINE
  5
F10733
330
261
100
AcDbEntity
  8
Geo
100
AcDbLine
 10
-25.80336761862776
 20
8.755756435348532
 30
0.0
 11
-25.70336761862777
 21
8.715728445842835
 31
0.0
  0
LINE
  5
F10735
330
261
100
AcDbEntity
  8
Geo
100
AcDbLine
 10
-25.70336761862777
 20
8.715728445842835
 30
0.0
 11
-25.60336761862777
 21
8.675963158085032
 31
0.0
  0
LINE
  5
F10737
330
261
100
AcDbEntity
  8
Geo
100
AcDbLine
 10
-25.60336761862777
 20
8.675963158085032
 30
0.0
 11
-25.50336761862777
 21
8.636462208501033
 31
0.0
  0
LINE
  5
F10739
330
261
100
AcDbEntity
  8
Geo
100
AcDbLine
 10
-25.50336761862777
 20
8.636462208501033
 30
0.0
 11
-25.40336761862777
 21
8.597227222638631
 31
0.0
  0
LINE
  5
F1073B
330
261
100
AcDbEntity
  8
Geo
100
AcDbLine
 10
-25.40336761862777
 20
8.597227222638631
 30
0.0
 11
-25.30336761862777
 21
8.558259815100836
 31
0.0
  0
LINE
  5
F1073D
330
261
100
AcDbEntity
  8
Geo
100
AcDbLine
 10
-25.30336761862777
 20
8.558259815100836
 30
0.0
 11
-25.20336761862777
 21
8.519561589479232
 31
0.0
  0
LINE
  5
F1073F
330
261
100
AcDbEntity
  8
Geo
100
AcDbLine
 10
-25.20336761862777
 20
8.519561589479232
 30
0.0
 11
-25.10336761862776
 21
8.481134138287831
 31
0.0
  0
LINE
  5
F10741
330
261
100
AcDbEntity
  8
Geo
100
AcDbLine
 10
-25.10336761862776
 20
8.481134138287831
 30
0.0
 11
-25.00336761862776
 21
8.442979042897832
 31
0.0
  0
LINE
  5
F10743
330
261
100
AcDbEntity
  8
Geo
100
AcDbLine
 10
-25.00336761862776
 20
8.442979042897832
 30
0.0
 11
-24.90336761862777
 21
8.405097873472433
 31
0.0
  0
LINE
  5
F10745
330
261
100
AcDbEntity
  8
Geo
100
AcDbLine
 10
-24.90336761862777
 20
8.405097873472433
 30
0.0
 11
-24.80336761862777
 21
8.367492188902032
 31
0.0
  0
LINE
  5
F10747
330
261
100
AcDbEntity
  8
Geo
100
AcDbLine
 10
-24.80336761862777
 20
8.367492188902032
 30
0.0
 11
-24.70336761862777
 21
8.330163536740531
 31
0.0
  0
LINE
  5
F10749
330
261
100
AcDbEntity
  8
Geo
100
AcDbLine
 10
-24.70336761862777
 20
8.330163536740531
 30
0.0
 11
-24.60336761862777
 21
8.293113453141032
 31
0.0
  0
LINE
  5
F1074B
330
261
100
AcDbEntity
  8
Geo
100
AcDbLine
 10
-24.60336761862777
 20
8.293113453141032
 30
0.0
 11
-24.50336761862776
 21
8.256343462793132
 31
0.0
  0
LINE
  5
F1074D
330
261
100
AcDbEntity
  8
Geo
100
AcDbLine
 10
-24.50336761862776
 20
8.256343462793132
 30
0.0
 11
-24.40336761862777
 21
8.219855078860133
 31
0.0
  0
LINE
  5
F1074F
330
261
100
AcDbEntity
  8
Geo
100
AcDbLine
 10
-24.40336761862777
 20
8.219855078860133
 30
0.0
 11
-24.30336761862776
 21
8.183649802916235
 31
0.0
  0
LINE
  5
F10751
330
261
100
AcDbEntity
  8
Geo
100
AcDbLine
 10
-24.30336761862776
 20
8.183649802916235
 30
0.0
 11
-24.20336761862777
 21
8.147729124885534
 31
0.0
  0
LINE
  5
F10753
330
261
100
AcDbEntity
  8
Geo
100
AcDbLine
 10
-24.20336761862777
 20
8.147729124885534
 30
0.0
 11
-24.10336761862776
 21
8.112094522980132
 31
0.0
  0
LINE
  5
F10755
330
261
100
AcDbEntity
  8
Geo
100
AcDbLine
 10
-24.10336761862776
 20
8.112094522980132
 30
0.0
 11
-24.00336761862777
 21
8.076747463639435
 31
0.0
  0
LINE
  5
F10757
330
261
100
AcDbEntity
  8
Geo
100
AcDbLine
 10
-24.00336761862777
 20
8.076747463639435
 30
0.0
 11
-23.90336761862777
 21
8.041689401470032
 31
0.0
  0
LINE
  5
F10759
330
261
100
AcDbEntity
  8
Geo
100
AcDbLine
 10
-23.90336761862777
 20
8.041689401470032
 30
0.0
 11
-23.80336761862777
 21
8.006921779185631
 31
0.0
  0
LINE
  5
F1075B
330
261
100
AcDbEntity
  8
Geo
100
AcDbLine
 10
-23.80336761862777
 20
8.006921779185631
 30
0.0
 11
-23.70336761862777
 21
7.972446027547534
 31
0.0
  0
LINE
  5
F1075D
330
261
100
AcDbEntity
  8
Geo
100
AcDbLine
 10
-23.70336761862777
 20
7.972446027547534
 30
0.0
 11
-23.60336761862777
 21
7.938263565306233
 31
0.0
  0
LINE
  5
F1075F
330
261
100
AcDbEntity
  8
Geo
100
AcDbLine
 10
-23.60336761862777
 20
7.938263565306233
 30
0.0
 11
-23.50336761862776
 21
7.904375799142532
 31
0.0
  0
LINE
  5
F10761
330
261
100
AcDbEntity
  8
Geo
100
AcDbLine
 10
-23.50336761862776
 20
7.904375799142532
 30
0.0
 11
-23.40336761862777
 21
7.870784123609935
 31
0.0
  0
LINE
  5
F10763
330
261
100
AcDbEntity
  8
Geo
100
AcDbLine
 10
-23.40336761862777
 20
7.870784123609935
 30
0.0
 11
-23.30336761862776
 21
7.837489921077133
 31
0.0
  0
LINE
  5
F10765
330
261
100
AcDbEntity
  8
Geo
100
AcDbLine
 10
-23.30336761862776
 20
7.837489921077133
 30
0.0
 11
-23.20336761862777
 21
7.804494561671233
 31
0.0
  0
LINE
  5
F10767
330
261
100
AcDbEntity
  8
Geo
100
AcDbLine
 10
-23.20336761862777
 20
7.804494561671233
 30
0.0
 11
-23.10336761862776
 21
7.771799403221335
 31
0.0
  0
LINE
  5
F10769
330
261
100
AcDbEntity
  8
Geo
100
AcDbLine
 10
-23.10336761862776
 20
7.771799403221335
 30
0.0
 11
-23.00336761862777
 21
7.739405791202631
 31
0.0
  0
LINE
  5
F1076B
330
261
100
AcDbEntity
  8
Geo
100
AcDbLine
 10
-23.00336761862777
 20
7.739405791202631
 30
0.0
 11
-22.90336761862777
 21
7.707315058680932
 31
0.0
  0
LINE
  5
F1076D
330
261
100
AcDbEntity
  8
Geo
100
AcDbLine
 10
-22.90336761862777
 20
7.707315058680932
 30
0.0
 11
-22.80336761862777
 21
7.675528526257932
 31
0.0
  0
LINE
  5
F1076F
330
261
100
AcDbEntity
  8
Geo
100
AcDbLine
 10
-22.80336761862777
 20
7.675528526257932
 30
0.0
 11
-22.70336761862777
 21
7.644047502017034
 31
0.0
  0
LINE
  5
F10771
330
261
100
AcDbEntity
  8
Geo
100
AcDbLine
 10
-22.70336761862777
 20
7.644047502017034
 30
0.0
 11
-22.60336761862776
 21
7.612873281469133
 31
0.0
  0
LINE
  5
F10773
330
261
100
AcDbEntity
  8
Geo
100
AcDbLine
 10
-22.60336761862776
 20
7.612873281469133
 30
0.0
 11
-22.50336761862776
 21
7.582007147499633
 31
0.0
  0
LINE
  5
F10775
330
261
100
AcDbEntity
  8
Geo
100
AcDbLine
 10
-22.50336761862776
 20
7.582007147499633
 30
0.0
 11
-22.40336761862777
 21
7.551450370315332
 31
0.0
  0
LINE
  5
F10777
330
261
100
AcDbEntity
  8
Geo
100
AcDbLine
 10
-22.40336761862777
 20
7.551450370315332
 30
0.0
 11
-22.30336761862776
 21
7.521204207392433
 31
0.0
  0
LINE
  5
F10779
330
261
100
AcDbEntity
  8
Geo
100
AcDbLine
 10
-48.20336761862787
 20
15.09940280896473
 30
0.0
 11
-48.20336761862787
 21
15.09940280896473
 31
0.0
  0
LINE
  5
F1077B
330
261
100
AcDbEntity
  8
Geo
100
AcDbLine
 10
-48.20336761862787
 20
15.09940280896473
 30
0.0
 11
-48.20336761862787
 21
15.09940280896473
 31
0.0
  0
LINE
  5
F1077D
330
261
100
AcDbEntity
  8
Geo
100
AcDbLine
 10
-49.20336761862786
 20
15.09940280896473
 30
0.0
 11
-48.90336761862785
 21
15.09940280896473
 31
0.0
  0
LINE
  5
F1077F
330
261
100
AcDbEntity
  8
Geo
100
AcDbLine
 10
-48.77586761862787
 20
15.09940280896473
 30
0.0
 11
-48.69086761862786
 21
15.09940280896473
 31
0.0
  0
LINE
  5
F10781
330
261
100
AcDbEntity
  8
Geo
100
AcDbLine
 10
-48.47836761862787
 20
15.09940280896473
 30
0.0
 11
-48.05336761862786
 21
15.09940280896473
 31
0.0
  0
LINE
  5
F10783
330
261
100
AcDbEntity
  8
Geo
100
AcDbLine
 10
-47.92586761862786
 20
15.09940280896473
 30
0.0
 11
-47.84086761862785
 21
15.09940280896473
 31
0.0
  0
LINE
  5
F10785
330
261
100
AcDbEntity
  8
Geo
100
AcDbLine
 10
-47.62836761862786
 20
15.09940280896473
 30
0.0
 11
-47.20336761862786
 21
15.09940280896473
 31
0.0
  0
LINE
  5
F10787
330
261
100
AcDbEntity
  8
Geo
100
AcDbLine
 10
43.79663238137213
 20
23.09940280896473
 30
0.0
 11
43.79663238137213
 21
15.09940280896473
 31
0.0
  0
ARC
  5
F10789
330
261
100
AcDbEntity
  8
Geo
100
AcDbCircle
 10
-39.20336761862787
 20
15.09940280896473
 30
0.0
 40
9.0
100
AcDbArc
 50
180.0
 51
270.0
  0
LINE
  5
F1078B
330
261
100
AcDbEntity
  8
Geo
100
AcDbLine
 10
-39.20336761862787
 20
6.099402808964732
 30
0.0
 11
-4.203367618627871
 21
6.099402808964732
 31
0.0
  0
LINE
  5
F1078D
330
261
100
AcDbEntity
  8
Geo
100
AcDbLine
 10
-4.203367618627871
 20
6.099402808964732
 30
0.0
 11
42.79663238137215
 21
6.099402808964732
 31
0.0
  0
LINE
  5
F1078F
330
261
100
AcDbEntity
  8
Geo
100
AcDbLine
 10
42.79663238137215
 20
6.099402808964732
 30
0.0
 11
43.79663238137213
 21
7.099402808964732
 31
0.0
  0
LINE
  5
F10791
330
261
100
AcDbEntity
  8
Geo
100
AcDbLine
 10
-39.20336761862787
 20
24.09940280896473
 30
0.0
 11
-39.20336761862787
 21
6.099402808964732
 31
0.0
  0
LINE
  5
F10793
330
261
100
AcDbEntity
  8
Geo
100
AcDbLine
 10
-4.203367618627871
 20
24.09940280896473
 30
0.0
 11
-4.203367618627871
 21
6.099402808964732
 31
0.0
  0
LINE
  5
F10795
330
261
100
AcDbEntity
  8
Geo
100
AcDbLine
 10
-4.203367618627871
 20
24.09940280896473
 30
0.0
 11
-4.203367618627871
 21
6.099402808964732
 31
0.0
  0
LINE
  5
F10797
330
261
100
AcDbEntity
  8
Geo
100
AcDbLine
 10
42.79663238137215
 20
24.09940280896473
 30
0.0
 11
42.79663238137215
 21
6.099402808964732
 31
0.0
  0
LINE
  5
F10799
330
261
100
AcDbEntity
  8
Geo
100
AcDbLine
 10
43.79663238137213
 20
23.09940280896473
 30
0.0
 11
43.79663238137213
 21
7.099402808964732
 31
0.0
  0
LWPOLYLINE
  5
F107A3
330
261
100
AcDbEntity
  8
Rahmen
100
AcDbPolyline
 90
        4
 70
     1
 43
0.0
 10
-134.524070021882
 20
99.945295404814
 10
143.484682713348
 20
99.945295404814
 10
143.484682713348
 20
-100.175054704595
 10
-134.524070021882
 20
-100.175054704595
  0
TEXT
  5
F107A5
330
261
100
AcDbEntity
  8
Text
100
AcDbText
 10
-133.6050328227569
 20
-99.67505470459521
 30
0.0
 40
1.0
  1
ISBESketcher
100
AcDbText
  0
LWPOLYLINE
  5
F107A7
330
261
100
AcDbEntity
  8
Rahmen
100
AcDbPolyline
 90
        4
 70
     1
 43
0.0
 10
103.276805251641
 20
-97.1881838074398
 10
143.484682713348
 20
-97.1881838074398
 10
143.484682713348
 20
-100.175054704595
 10
103.276805251641
 20
-100.175054704595
  0
TEXT
  5
F107A9
330
261
100
AcDbEntity
  8
Text
100
AcDbText
 10
104.425601750547
 20
-98.1881838074398
 30
0.0
 40
0.75
  1
Ers. durch:
100
AcDbText
  0
LWPOLYLINE
  5
F107AD
330
261
100
AcDbEntity
  8
Rahmen
100
AcDbPolyline
 90
        4
 70
     1
 43
0.0
 10
63.2986870897155
 20
-97.1881838074398
 10
103.276805251641
 20
-97.1881838074398
 10
103.276805251641
 20
-100.175054704595
 10
63.2986870897155
 20
-100.175054704595
  0
TEXT
  5
F107AF
330
261
100
AcDbEntity
  8
Text
100
AcDbText
 10
64.44748358862138
 20
-98.1881838074398
 30
0.0
 40
0.75
  1
Ers. für:
100
AcDbText
  0
TEXT
  5
F107B1
330
261
100
AcDbEntity
  8
Text
100
AcDbText
 10
91.32932166301969
 20
-99.5667396061269
 30
0.0
 40
0.75
  1

100
AcDbText
  0
LWPOLYLINE
  5
F107B3
330
261
100
AcDbEntity
  8
Rahmen
100
AcDbPolyline
 90
        4
 70
     1
 43
0.0
 10
130.158643326039
 20
-94.2013129102845
 10
143.484682713348
 20
-94.2013129102845
 10
143.484682713348
 20
-97.1881838074398
 10
130.158643326039
 20
-97.1881838074398
  0
TEXT
  5
F107B5
330
261
100
AcDbEntity
  8
Text
100
AcDbText
 10
131.077680525164
 20
-95.2013129102845
 30
0.0
 40
0.75
  1
Blätter
100
AcDbText
  0
TEXT
  5
F107B7
330
261
100
AcDbEntity
  8
Text
100
AcDbText
 10
141.187089715536
 20
-96.57986870897152
 30
0.0
 40
0.75
  1

100
AcDbText
  0
LWPOLYLINE
  5
F107B9
330
261
100
AcDbEntity
  8
Rahmen
100
AcDbPolyline
 90
        4
 70
     1
 43
0.0
 10
130.158643326039
 20
-91.21444201312909
 10
143.484682713348
 20
-91.21444201312909
 10
143.484682713348
 20
-94.2013129102845
 10
130.158643326039
 20
-94.2013129102845
  0
TEXT
  5
F107BB
330
261
100
AcDbEntity
  8
Text
100
AcDbText
 10
131.077680525164
 20
-92.21444201312911
 30
0.0
 40
0.75
  1
Blatt
100
AcDbText
  0
TEXT
  5
F107BD
330
261
100
AcDbEntity
  8
Text
100
AcDbText
 10
141.187089715536
 20
-93.59299781181618
 30
0.0
 40
0.75
  1

100
AcDbText
  0
LWPOLYLINE
  5
F107BF
330
261
100
AcDbEntity
  8
Rahmen
100
AcDbPolyline
 90
        4
 70
     1
 43
0.0
 10
63.2986870897155
 20
-91.21444201312909
 10
130.158643326039
 20
-91.21444201312909
 10
130.158643326039
 20
-97.1881838074398
 10
63.2986870897155
 20
-97.1881838074398
  0
TEXT
  5
F107C1
330
261
100
AcDbEntity
  8
Text
100
AcDbText
 10
64.44748358862138
 20
-92.21444201312911
 30
0.0
 40
0.75
  1
Datum:
100
AcDbText
  0
TEXT
  5
F107C3
330
261
100
AcDbEntity
  8
Text
100
AcDbText
 10
90.410284463895
 20
-95.2013129102845
 30
0.0
 40
0.75
  1
14.08.2014
100
AcDbText
  0
LWPOLYLINE
  5
F107C5
330
261
100
AcDbEntity
  8
Rahmen
100
AcDbPolyline
 90
        4
 70
     1
 43
0.0
 10
63.2986870897155
 20
-85.0109409190372
 10
143.484682713348
 20
-85.0109409190372
 10
143.484682713348
 20
-91.21444201312909
 10
63.2986870897155
 20
-91.21444201312909
  0
TEXT
  5
F107C7
330
261
100
AcDbEntity
  8
Text
100
AcDbText
 10
-200.924507658643
 20
102.770240700219
 30
0.0
 40
1.5
  1

100
AcDbText
  0
TEXT
  5
F107C9
330
261
100
AcDbEntity
  8
Text
100
AcDbText
 10
78.0032822757112
 20
-88.8037928519329
 30
0.0
 40
2.5
  1
4135-180
100
AcDbText
  0
LWPOLYLINE
  5
F107CB
330
261
100
AcDbEntity
  8
Rahmen
100
AcDbPolyline
 90
        4
 70
     1
 43
0.0
 10
103.276805251641
 20
-79.0371991247265
 10
143.484682713348
 20
-79.0371991247265
 10
143.484682713348
 20
-85.0109409190372
 10
103.276805251641
 20
-85.0109409190372
  0
TEXT
  5
F107CD
330
261
100
AcDbEntity
  8
Text
100
AcDbText
 10
104.425601750547
 20
-80.0371991247265
 30
0.0
 40
0.75
  1
Zu bearb. Material:
100
AcDbText
  0
TEXT
  5
F107CF
330
261
100
AcDbEntity
  8
Text
100
AcDbText
 10
123.265864332604
 20
-84.4026258205689
 30
0.0
 40
0.75
  1

100
AcDbText
  0
LWPOLYLINE
  5
F107D1
330
261
100
AcDbEntity
  8
Rahmen
100
AcDbPolyline
 90
        4
 70
     1
 43
0.0
 10
63.2986870897155
 20
-79.0371991247265
 10
103.276805251641
 20
-79.0371991247265
 10
103.276805251641
 20
-85.0109409190372
 10
63.2986870897155
 20
-85.0109409190372
  0
TEXT
  5
F107D3
330
261
100
AcDbEntity
  8
Text
100
AcDbText
 10
64.44748358862138
 20
-80.0371991247265
 30
0.0
 40
0.75
  1
Werkstoff:
100
AcDbText
  0
TEXT
  5
F107D5
330
261
100
AcDbEntity
  8
Text
100
AcDbText
 10
83.28774617067841
 20
-84.4026258205689
 30
0.0
 40
0.75
  1

100
AcDbText
  0
LWPOLYLINE
  5
F107D7
330
261
100
AcDbEntity
  8
Rahmen
100
AcDbPolyline
 90
        4
 70
     1
 43
0.0
 10
103.276805251641
 20
-76.0503282275711
 10
143.484682713348
 20
-76.0503282275711
 10
143.484682713348
 20
-79.0371991247265
 10
103.276805251641
 20
-79.0371991247265
  0
TEXT
  5
F107D9
330
261
100
AcDbEntity
  8
Text
100
AcDbText
 10
-200.924507658643
 20
102.770240700219
 30
0.0
 40
1.5
  1

100
AcDbText
  0
TEXT
  5
F107DB
330
261
100
AcDbEntity
  8
Text
100
AcDbText
 10
123.265864332604
 20
-78.4288840262582
 30
0.0
 40
0.75
  1

100
AcDbText
  0
LWPOLYLINE
  5
F107DD
330
261
100
AcDbEntity
  8
Rahmen
100
AcDbPolyline
 90
        4
 70
     1
 43
0.0
 10
63.2986870897155
 20
-76.0503282275711
 10
103.276805251641
 20
-76.0503282275711
 10
103.276805251641
 20
-79.0371991247265
 10
63.2986870897155
 20
-79.0371991247265
  0
TEXT
  5
F107DF
330
261
100
AcDbEntity
  8
Text
100
AcDbText
 10
64.44748358862138
 20
-77.0503282275711
 30
0.0
 40
0.75
  1
Maßstab:
100
AcDbText
  0
TEXT
  5
F107E1
330
261
100
AcDbEntity
  8
Text
100
AcDbText
 10
88.80196936542672
 20
-77.0503282275711
 30
0.0
 40
0.75
  1
1 : 1
100
AcDbText
  0
VIEWPORT
  5
294
102
{ACAD_XDICTIONARY
360
F10A92
102
}
330
25D
100
AcDbEntity
 67
     1
  8
0
 60
     1
100
AcDbViewport
 10
0.0
 20
0.0
 30
0.0
 40
10.0
 41
10.0
 68
    -1
 69
     1
 12
0.0
 22
0.0
 13
0.0
 23
0.0
 14
1.0
 24
1.0
 15
0.0
 25
0.0
 16
0.0
 26
0.0
 36
1.0
 17
0.0
 27
0.0
 37
0.0
 42
0.0
 43
0.0
 44
0.0
 45
10.0
 50
0.0
 51
0.0000000000007958
 72
   100
 90
    32800
  1

281
     0
 71
     0
 74
     0
110
0.0
120
0.0
130
0.0
111
1.0
121
0.0
131
0.0
112
0.0
122
1.0
132
0.0
 79
     0
146
0.0
1001
VD_INVISIBLE_NOT_FOR_READ
1000
VD_INVISIBLE_NOT_FOR_READ
1001
GENIUS_GENODEF_13
1002
{
1000
HIER
1070
     0
1002
}
1002
{
1000
MANEDIT
1070
     0
1002
}
1002
{
1000
NOSEL
1070
     0
1002
}
1002
{
1000
BEHIND
1070
     0
1002
}
1002
{
1000
OTHER
1070
     0
1002
}
1002
{
1000
REACTOR
1002
}
1001
GENIUS_GENOBJ-N-SDF_13
1002
{
1000
OWNER
1000
GEN
1002
}
1001
GENIUS_GENSCREG_15
1000
PF
1040
1.0
1000
DF
1040
1.0
1000
MIN
1011
-5.0
1021
-5.0
1031
0.0
1000
MAX
1011
5.0
1021
5.0
1031
0.0
1000
FLAGS
1070
     4
  0
VIEWPORT
  5
295
102
{ACAD_XDICTIONARY
360
F10A94
102
}
330
25D
100
AcDbEntity
 67
     1
  8
0
 60
     1
100
AcDbViewport
 10
0.0
 20
0.0
 30
0.0
 40
10.0
 41
10.0
 68
     0
 69
     2
 12
0.0
 22
0.0
 13
0.0
 23
0.0
 14
1.0
 24
1.0
 15
0.0
 25
0.0
 16
0.0
 26
0.0
 36
1.0
 17
0.0
 27
0.0
 37
0.0
 42
0.0
 43
0.0
 44
0.0
 45
10.0
 50
0.0
 51
0.0000000000007958
 72
   100
 90
   163872
  1

281
     0
 71
     0
 74
     0
110
0.0
120
0.0
130
0.0
111
1.0
121
0.0
131
0.0
112
0.0
122
1.0
132
0.0
 79
     0
146
0.0
1001
VD_INVISIBLE_NOT_FOR_READ
1000
VD_INVISIBLE_NOT_FOR_READ
1001
GENIUS_GENOBJ-N-SDF_13
1002
{
1000
OWNER
1000
GEN
1002
}
1001
GENIUS_GENODEF_13
1002
{
1000
HIER
1070
     0
1002
}
1002
{
1000
MANEDIT
1070
     0
1002
}
1002
{
1000
NOSEL
1070
     0
1002
}
1002
{
1000
BEHIND
1070
     0
1002
}
1002
{
1000
OTHER
1070
     0
1002
}
1002
{
1000
REACTOR
1002
}
1001
GENIUS_GENSCREG_15
1000
PF
1040
1.0
1000
DF
1040
1.0
1000
MIN
1011
-5.0
1021
-5.0
1031
0.0
1000
MAX
1011
5.0
1021
5.0
1031
0.0
1000
FLAGS
1070
     4
  0
ENDSEC
  0
SECTION
  2
OBJECTS
  0
DICTIONARY
  5
13
330
0
100
AcDbDictionary
281
     1
  3
ACAD_2007HEADERVARS_RT
350
F10A8D
  3
ACAD_COLOR
350
FA7
  3
ACAD_GROUP
350
14
  3
ACAD_LAYOUT
350
FCF
  3
ACAD_MATERIAL
350
F7A
  3
ACAD_MLEADERSTYLE
350
FCD
  3
ACAD_MLINESTYLE
350
16
  3
ACAD_PLOTSETTINGS
350
17
  3
ACAD_PLOTSTYLENAME
350
18
  3
ACAD_SCALELIST
350
FAB
  3
ACAD_TABLESTYLE
350
FA8
  3
ACAD_VISUALSTYLE
350
F93
  3
ACDB_RECOMPOSE_DATA
350
F10A8B
  3
AcDbVariableDictionary
350
F109C6
  3
AcmDictionary
350
F10838
  3
AMG
350
F1081F
  3
AMGSNAPSETTINGS
350
F108AD
  3
DWGPROPS
350
F10A8C
  0
DICTIONARY
  5
F109BC
330
252
100
AcDbDictionary
280
     1
281
     1
  3
ADSK_XREC_LAYER_RECONCILED
360
F109BD
  0
DICTIONARY
  5
F109BE
330
23F
100
AcDbDictionary
280
     1
281
     1
  3
ADSK_XREC_LAYER_RECONCILED
360
F109BF
  0
DICTIONARY
  5
F109C0
330
240
100
AcDbDictionary
280
     1
281
     1
  3
ADSK_XREC_LAYER_RECONCILED
360
F109C1
  0
DICTIONARY
  5
F109C2
330
241
100
AcDbDictionary
280
     1
281
     1
  3
ADSK_XREC_LAYER_RECONCILED
360
F109C3
  0
DICTIONARY
  5
F109C4
330
57E
100
AcDbDictionary
280
     1
281
     1
  3
ADSK_XREC_LAYER_RECONCILED
360
F109C5
  0
DICTIONARY
  5
F10A96
330
296
100
AcDbDictionary
280
     1
281
     1
  3
ACAD_XREC_ROUNDTRIP
360
F10A97
  0
DICTIONARY
  5
F10A98
330
297
100
AcDbDictionary
280
     1
281
     1
  3
ACAD_XREC_ROUNDTRIP
360
F10A99
  0
DICTIONARY
  5
F10A92
330
294
100
AcDbDictionary
280
     1
281
     1
  3
ACAD_XREC_ROUNDTRIP
360
F10A93
  0
DICTIONARY
  5
F10A94
330
295
100
AcDbDictionary
280
     1
281
     1
  3
ACAD_XREC_ROUNDTRIP
360
F10A95
  0
DICTIONARY
  5
F10A8D
102
{ACAD_REACTORS
330
13
102
}
330
13
100
AcDbDictionary
281
     1
  3
DIMARCSYM
350
F10A8E
  3
DIMLTEX1
350
F10A90
  3
DIMLTEX2
350
F10A91
  3
DIMLTYPE
350
F10A8F
  0
DICTIONARY
  5
FA7
102
{ACAD_REACTORS
330
13
102
}
330
13
100
AcDbDictionary
281
     1
  0
DICTIONARY
  5
14
330
13
100
AcDbDictionary
281
     1
  0
DICTIONARY
  5
FCF
102
{ACAD_REACTORS
330
13
102
}
330
13
100
AcDbDictionary
281
     1
  3
Layout1
350
FD1
  3
Model
350
FD0
  0
DICTIONARY
  5
F7A
102
{ACAD_REACTORS
330
13
102
}
330
13
100
AcDbDictionary
281
     1
  3
ByBlock
350
F83
  3
ByLayer
350
F7B
  3
Global
350
F8B
  0
DICTIONARY
  5
FCD
102
{ACAD_REACTORS
330
13
102
}
330
13
100
AcDbDictionary
281
     1
  3
Standard
350
FCE
  0
DICTIONARY
  5
16
330
13
100
AcDbDictionary
281
     1
  3
Standard
350
FAA
  0
DICTIONARY
  5
17
102
{ACAD_REACTORS
330
13
102
}
330
13
100
AcDbDictionary
281
     1
  0
ACDBDICTIONARYWDFLT
  5
18
102
{ACAD_REACTORS
330
13
102
}
330
13
100
AcDbDictionary
281
     1
  3
Normal
350
19
100
AcDbDictionaryWithDefault
340
19
  0
DICTIONARY
  5
FAB
102
{ACAD_REACTORS
330
13
102
}
330
13
100
AcDbDictionary
281
     1
  3
A0
350
FAC
  3
A1
350
FAD
  3
A2
350
FAE
  3
A3
350
FAF
  3
A4
350
FB0
  3
A5
350
FB1
  3
A6
350
FB2
  3
A7
350
FB3
  3
A8
350
FB4
  3
A9
350
FB5
  3
B0
350
FB6
  3
B1
350
FB7
  3
B2
350
FB8
  3
B3
350
FB9
  3
B4
350
FBA
  3
B5
350
FBB
  3
B6
350
FBC
  3
B7
350
FBD
  3
B8
350
FBE
  3
B9
350
FBF
  3
C0
350
FC0
  3
C1
350
FC1
  3
C2
350
FC2
  3
C3
350
FC3
  3
C4
350
FC4
  3
C5
350
FC5
  3
C6
350
FC6
  3
C7
350
FC7
  3
C8
350
FC8
  3
C9
350
FC9
  3
D0
350
FCA
  3
D1
350
FCB
  3
D2
350
FCC
  0
DICTIONARY
  5
FA8
102
{ACAD_REACTORS
330
13
102
}
330
13
100
AcDbDictionary
281
     1
  3
Standard
350
FA9
  0
DICTIONARY
  5
F93
102
{ACAD_REACTORS
330
13
102
}
330
13
100
AcDbDictionary
281
     1
  3
2dWireframe
350
F99
  3
3D Hidden
350
F9B
  3
3dWireframe
350
F9A
  3
Basic
350
F98
  3
Brighten
350
F9F
  3
ColorChange
350
FA3
  3
Conceptual
350
F9C
  3
Dim
350
F9E
  3
EdgeColorOff
350
FA6
  3
Facepattern
350
FA2
  3
Flat
350
F94
  3
FlatWithEdges
350
F95
  3
Gouraud
350
F96
  3
GouraudWithEdges
350
F97
  3
Hidden
350
F107E4
  3
JitterOff
350
FA4
  3
Linepattern
350
FA1
  3
OverhangOff
350
FA5
  3
Realistic
350
F9D
  3
Shaded
350
F107E9
  3
Shaded with edges
350
F107E8
  3
Shades of Gray
350
F107E5
  3
Sketchy
350
F107E6
  3
Thicken
350
FA0
  3
Wireframe
350
F107E3
  3
X-Ray
350
F107E7
  0
XRECORD
  5
F10A8B
102
{ACAD_REACTORS
330
13
102
}
330
13
100
AcDbXrecord
280
     1
 90
        1
330
FA9
  0
DICTIONARY
  5
F109C6
102
{ACAD_REACTORS
330
13
102
}
330
13
100
AcDbDictionary
281
     1
  3
CANNOSCALE
350
F109C9
  3
CMLEADERSTYLE
350
F109C8
  3
CTABLESTYLE
350
F109C7
  3
DIMASSOC
350
F109CC
  3
INDEXCTL
350
F109CB
  3
SORTENTS
350
F109CA
  3
XCLIPFRAME
350
F10A89
  0
DICTIONARY
  5
F10838
102
{ACAD_REACTORS
330
13
102
}
330
13
100
AcDbDictionary
281
     1
  3
AcmStdDictionary
350
F10841
  0
DICTIONARY
  5
F1081F
102
{ACAD_REACTORS
330
13
102
}
330
13
100
AcDbDictionary
281
     1
  0
DICTIONARY
  5
F108AD
102
{ACAD_REACTORS
330
13
102
}
330
13
100
AcDbDictionary
281
     1
  0
XRECORD
  5
F10A8C
102
{ACAD_REACTORS
330
13
102
}
330
13
100
AcDbXrecord
280
     1
  1
DWGPROPS COOKIE
  2

  3

  4

  6

  7

  8
steigner
  9

300
=
301
=
302
=
303
=
304
=
305
=
306
=
307
=
308
=
309
=
 40
0.0352545833333333
 41
2456884.311929641
 42
2456884.407577824
  1

 90
        0
  0
XRECORD
  5
F109BD
102
{ACAD_REACTORS
330
F109BC
102
}
330
F109BC
100
AcDbXrecord
280
     1
290
     1
  0
XRECORD
  5
F109BF
102
{ACAD_REACTORS
330
F109BE
102
}
330
F109BE
100
AcDbXrecord
280
     1
290
     1
  0
XRECORD
  5
F109C1
102
{ACAD_REACTORS
330
F109C0
102
}
330
F109C0
100
AcDbXrecord
280
     1
290
     1
  0
XRECORD
  5
F109C3
102
{ACAD_REACTORS
330
F109C2
102
}
330
F109C2
100
AcDbXrecord
280
     1
290
     1
  0
XRECORD
  5
F109C5
102
{ACAD_REACTORS
330
F109C4
102
}
330
F109C4
100
AcDbXrecord
280
     1
290
     1
  0
XRECORD
  5
F10A97
102
{ACAD_REACTORS
330
F10A96
102
}
330
F10A96
100
AcDbXrecord
280
     1
102
SHADEPLOT
 70
     0
  0
XRECORD
  5
F10A99
102
{ACAD_REACTORS
330
F10A98
102
}
330
F10A98
100
AcDbXrecord
280
     1
102
SHADEPLOT
 70
     0
  0
XRECORD
  5
F10A93
102
{ACAD_REACTORS
330
F10A92
102
}
330
F10A92
100
AcDbXrecord
280
     1
102
SHADEPLOT
 70
     0
  0
XRECORD
  5
F10A95
102
{ACAD_REACTORS
330
F10A94
102
}
330
F10A94
100
AcDbXrecord
280
     1
102
SHADEPLOT
 70
     0
  0
XRECORD
  5
F10A8E
102
{ACAD_REACTORS
330
F10A8D
102
}
330
F10A8D
100
AcDbXrecord
280
     1
 70
     1
  0
XRECORD
  5
F10A90
102
{ACAD_REACTORS
330
F10A8D
102
}
330
F10A8D
100
AcDbXrecord
280
     1
340
256
  0
XRECORD
  5
F10A91
102
{ACAD_REACTORS
330
F10A8D
102
}
330
F10A8D
100
AcDbXrecord
280
     1
340
256
  0
XRECORD
  5
F10A8F
102
{ACAD_REACTORS
330
F10A8D
102
}
330
F10A8D
100
AcDbXrecord
280
     1
340
256
  0
LAYOUT
  5
FD1
102
{ACAD_XDICTIONARY
360
F10AC3
102
}
102
{ACAD_REACTORS
330
FCF
102
}
330
FCF
100
AcDbPlotSettings
  1

  2
Microsoft XPS Document Writer
  4

  6

 40
0.0
 41
0.0
 42
0.0
 43
0.0
 44
0.0
 45
0.0
 46
0.0
 47
0.0
 48
0.0
 49
0.0
140
0.0
141
0.0
142
1.0
143
1.0
 70
   688
 72
     0
 73
     0
 74
     5
  7

 75
    16
147
1.0
148
0.0
149
0.0
100
AcDbLayout
  1
Layout1
 70
     1
 71
     1
 10
0.0
 20
0.0
 11
12.0
 21
9.0
 12
0.0
 22
0.0
 32
0.0
 14
1.000000000000000E+20
 24
1.000000000000000E+20
 34
1.000000000000000E+20
 15
-1.000000000000000E+20
 25
-1.000000000000000E+20
 35
-1.000000000000000E+20
146
0.0
 13
0.0
 23
0.0
 33
0.0
 16
1.0
 26
0.0
 36
0.0
 17
0.0
 27
1.0
 37
0.0
 76
     0
330
25D
  0
LAYOUT
  5
FD0
102
{ACAD_XDICTIONARY
360
F10AC1
102
}
102
{ACAD_REACTORS
330
FCF
102
}
330
FCF
100
AcDbPlotSettings
  1

  2
Microsoft XPS Document Writer
  4

  6

 40
0.0
 41
0.0
 42
0.0
 43
0.0
 44
0.0
 45
0.0
 46
0.0
 47
0.0
 48
0.0
 49
0.0
140
0.0
141
0.0
142
1.0
143
1.0
 70
  1712
 72
     0
 73
     0
 74
     0
  7

 75
     0
147
1.0
148
0.0
149
0.0
100
AcDbLayout
  1
Model
 70
     1
 71
     0
 10
0.0
 20
0.0
 11
12.0
 21
9.0
 12
0.0
 22
0.0
 32
0.0
 14
0.0
 24
0.0
 34
0.0
 15
0.0
 25
0.0
 35
0.0
146
0.0
 13
0.0
 23
0.0
 33
0.0
 16
1.0
 26
0.0
 36
0.0
 17
0.0
 27
1.0
 37
0.0
 76
     0
330
261
331
26B
  0
MATERIAL
  5
F83
102
{ACAD_XDICTIONARY
360
F84
102
}
102
{ACAD_REACTORS
330
F7A
102
}
330
F7A
100
AcDbMaterial
  1
ByBlock
 72
     0
 43
0.0208333333333333
 43
0.0
 43
0.0
 43
0.0
 43
0.0
 43
0.0208333333333333
 43
0.0
 43
0.0
 43
0.0
 43
0.0
 43
1.0
 43
0.0
 43
0.0
 43
0.0
 43
0.0
 43
1.0
 77
     0
 47
0.0208333333333333
 47
0.0
 47
0.0
 47
0.0
 47
0.0
 47
0.0208333333333333
 47
0.0
 47
0.0
 47
0.0
 47
0.0
 47
1.0
 47
0.0
 47
0.0
 47
0.0
 47
0.0
 47
1.0
171
     0
 49
0.0208333333333333
 49
0.0
 49
0.0
 49
0.0
 49
0.0
 49
0.0208333333333333
 49
0.0
 49
0.0
 49
0.0
 49
0.0
 49
1.0
 49
0.0
 49
0.0
 49
0.0
 49
0.0
 49
1.0
175
     0
142
0.0208333333333333
142
0.0
142
0.0
142
0.0
142
0.0
142
0.0208333333333333
142
0.0
142
0.0
142
0.0
142
0.0
142
1.0
142
0.0
142
0.0
142
0.0
142
0.0
142
1.0
179
     0
144
0.0208333333333333
144
0.0
144
0.0
144
0.0
144
0.0
144
0.0208333333333333
144
0.0
144
0.0
144
0.0
144
0.0
144
1.0
144
0.0
144
0.0
144
0.0
144
0.0
144
1.0
147
0.0208333333333333
147
0.0
147
0.0
147
0.0
147
0.0
147
0.0208333333333333
147
0.0
147
0.0
147
0.0
147
0.0
147
1.0
147
0.0
147
0.0
147
0.0
147
0.0
147
1.0
  0
MATERIAL
  5
F7B
102
{ACAD_XDICTIONARY
360
F7C
102
}
102
{ACAD_REACTORS
330
F7A
102
}
330
F7A
100
AcDbMaterial
  1
ByLayer
 72
     0
 43
0.0208333333333333
 43
0.0
 43
0.0
 43
0.0
 43
0.0
 43
0.0208333333333333
 43
0.0
 43
0.0
 43
0.0
 43
0.0
 43
1.0
 43
0.0
 43
0.0
 43
0.0
 43
0.0
 43
1.0
 77
     0
 47
0.0208333333333333
 47
0.0
 47
0.0
 47
0.0
 47
0.0
 47
0.0208333333333333
 47
0.0
 47
0.0
 47
0.0
 47
0.0
 47
1.0
 47
0.0
 47
0.0
 47
0.0
 47
0.0
 47
1.0
171
     0
 49
0.0208333333333333
 49
0.0
 49
0.0
 49
0.0
 49
0.0
 49
0.0208333333333333
 49
0.0
 49
0.0
 49
0.0
 49
0.0
 49
1.0
 49
0.0
 49
0.0
 49
0.0
 49
0.0
 49
1.0
175
     0
142
0.0208333333333333
142
0.0
142
0.0
142
0.0
142
0.0
142
0.0208333333333333
142
0.0
142
0.0
142
0.0
142
0.0
142
1.0
142
0.0
142
0.0
142
0.0
142
0.0
142
1.0
179
     0
144
0.0208333333333333
144
0.0
144
0.0
144
0.0
144
0.0
144
0.0208333333333333
144
0.0
144
0.0
144
0.0
144
0.0
144
1.0
144
0.0
144
0.0
144
0.0
144
0.0
144
1.0
147
0.0208333333333333
147
0.0
147
0.0
147
0.0
147
0.0
147
0.0208333333333333
147
0.0
147
0.0
147
0.0
147
0.0
147
1.0
147
0.0
147
0.0
147
0.0
147
0.0
147
1.0
  0
MATERIAL
  5
F8B
102
{ACAD_XDICTIONARY
360
F8C
102
}
102
{ACAD_REACTORS
330
F7A
102
}
330
F7A
100
AcDbMaterial
  1
Global
 72
     0
 43
0.0208333333333333
 43
0.0
 43
0.0
 43
0.0
 43
0.0
 43
0.0208333333333333
 43
0.0
 43
0.0
 43
0.0
 43
0.0
 43
1.0
 43
0.0
 43
0.0
 43
0.0
 43
0.0
 43
1.0
 77
     0
 47
0.0208333333333333
 47
0.0
 47
0.0
 47
0.0
 47
0.0
 47
0.0208333333333333
 47
0.0
 47
0.0
 47
0.0
 47
0.0
 47
1.0
 47
0.0
 47
0.0
 47
0.0
 47
0.0
 47
1.0
171
     0
 49
0.0208333333333333
 49
0.0
 49
0.0
 49
0.0
 49
0.0
 49
0.0208333333333333
 49
0.0
 49
0.0
 49
0.0
 49
0.0
 49
1.0
 49
0.0
 49
0.0
 49
0.0
 49
0.0
 49
1.0
175
     0
142
0.0208333333333333
142
0.0
142
0.0
142
0.0
142
0.0
142
0.0208333333333333
142
0.0
142
0.0
142
0.0
142
0.0
142
1.0
142
0.0
142
0.0
142
0.0
142
0.0
142
1.0
179
     0
144
0.0208333333333333
144
0.0
144
0.0
144
0.0
144
0.0
144
0.0208333333333333
144
0.0
144
0.0
144
0.0
144
0.0
144
1.0
144
0.0
144
0.0
144
0.0
144
0.0
144
1.0
147
0.0208333333333333
147
0.0
147
0.0
147
0.0
147
0.0
147
0.0208333333333333
147
0.0
147
0.0
147
0.0
147
0.0
147
1.0
147
0.0
147
0.0
147
0.0
147
0.0
147
1.0
  0
MLEADERSTYLE
  5
FCE
102
{ACAD_REACTORS
330
FCD
102
}
330
FCD
100
AcDbMLeaderStyle
170
     2
171
     1
172
     0
 90
        2
 40
0.0
 41
0.0
173
     1
 91
-1056964608
340
256
 92
       -2
290
     1
 42
0.09
291
     1
 43
0.36
  3
Standard
 44
0.18
300

342
253
174
     1
178
     6
175
     1
176
     0
 93
-1056964608
 45
0.18
292
     0
297
     0
 46
0.18
 94
-1056964608
 47
1.0
 49
1.0
140
1.0
293
     1
141
0.0
294
     1
177
     0
142
1.0
295
     0
296
     0
143
0.125
1001
ACAD_MLEADERVER
1070
     2
  0
MLINESTYLE
  5
FAA
102
{ACAD_REACTORS
330
16
102
}
330
16
100
AcDbMlineStyle
  2
STANDARD
 70
     0
  3

 62
   256
 51
90.0
 52
90.0
 71
     2
 49
0.5
 62
   256
  6
BYLAYER
 49
-0.5
 62
   256
  6
BYLAYER
  0
ACDBPLACEHOLDER
  5
19
102
{ACAD_REACTORS
330
18
102
}
330
18
  0
SCALE
  5
FAC
102
{ACAD_REACTORS
330
FAB
102
}
330
FAB
100
AcDbScale
 70
     0
300
1:1
140
1.0
141
1.0
290
     1
  0
SCALE
  5
FAD
102
{ACAD_REACTORS
330
FAB
102
}
330
FAB
100
AcDbScale
 70
     0
300
1:2
140
1.0
141
2.0
290
     0
  0
SCALE
  5
FAE
102
{ACAD_REACTORS
330
FAB
102
}
330
FAB
100
AcDbScale
 70
     0
300
1:4
140
1.0
141
4.0
290
     0
  0
SCALE
  5
FAF
102
{ACAD_REACTORS
330
FAB
102
}
330
FAB
100
AcDbScale
 70
     0
300
1:5
140
1.0
141
5.0
290
     0
  0
SCALE
  5
FB0
102
{ACAD_REACTORS
330
FAB
102
}
330
FAB
100
AcDbScale
 70
     0
300
1:8
140
1.0
141
8.0
290
     0
  0
SCALE
  5
FB1
102
{ACAD_REACTORS
330
FAB
102
}
330
FAB
100
AcDbScale
 70
     0
300
1:10
140
1.0
141
10.0
290
     0
  0
SCALE
  5
FB2
102
{ACAD_REACTORS
330
FAB
102
}
330
FAB
100
AcDbScale
 70
     0
300
1:16
140
1.0
141
16.0
290
     0
  0
SCALE
  5
FB3
102
{ACAD_REACTORS
330
FAB
102
}
330
FAB
100
AcDbScale
 70
     0
300
1:20
140
1.0
141
20.0
290
     0
  0
SCALE
  5
FB4
102
{ACAD_REACTORS
330
FAB
102
}
330
FAB
100
AcDbScale
 70
     0
300
1:30
140
1.0
141
30.0
290
     0
  0
SCALE
  5
FB5
102
{ACAD_REACTORS
330
FAB
102
}
330
FAB
100
AcDbScale
 70
     0
300
1:40
140
1.0
141
40.0
290
     0
  0
SCALE
  5
FB6
102
{ACAD_REACTORS
330
FAB
102
}
330
FAB
100
AcDbScale
 70
     0
300
1:50
140
1.0
141
50.0
290
     0
  0
SCALE
  5
FB7
102
{ACAD_REACTORS
330
FAB
102
}
330
FAB
100
AcDbScale
 70
     0
300
1:100
140
1.0
141
100.0
290
     0
  0
SCALE
  5
FB8
102
{ACAD_REACTORS
330
FAB
102
}
330
FAB
100
AcDbScale
 70
     0
300
2:1
140
2.0
141
1.0
290
     0
  0
SCALE
  5
FB9
102
{ACAD_REACTORS
330
FAB
102
}
330
FAB
100
AcDbScale
 70
     0
300
4:1
140
4.0
141
1.0
290
     0
  0
SCALE
  5
FBA
102
{ACAD_REACTORS
330
FAB
102
}
330
FAB
100
AcDbScale
 70
     0
300
8:1
140
8.0
141
1.0
290
     0
  0
SCALE
  5
FBB
102
{ACAD_REACTORS
330
FAB
102
}
330
FAB
100
AcDbScale
 70
     0
300
10:1
140
10.0
141
1.0
290
     0
  0
SCALE
  5
FBC
102
{ACAD_REACTORS
330
FAB
102
}
330
FAB
100
AcDbScale
 70
     0
300
100:1
140
100.0
141
1.0
290
     0
  0
SCALE
  5
FBD
102
{ACAD_REACTORS
330
FAB
102
}
330
FAB
100
AcDbScale
 70
     0
300
1/128" = 1'-0"
140
0.0078125
141
12.0
290
     0
  0
SCALE
  5
FBE
102
{ACAD_REACTORS
330
FAB
102
}
330
FAB
100
AcDbScale
 70
     0
300
1/64" = 1'-0"
140
0.015625
141
12.0
290
     0
  0
SCALE
  5
FBF
102
{ACAD_REACTORS
330
FAB
102
}
330
FAB
100
AcDbScale
 70
     0
300
1/32" = 1'-0"
140
0.03125
141
12.0
290
     0
  0
SCALE
  5
FC0
102
{ACAD_REACTORS
330
FAB
102
}
330
FAB
100
AcDbScale
 70
     0
300
1/16" = 1'-0"
140
0.0625
141
12.0
290
     0
  0
SCALE
  5
FC1
102
{ACAD_REACTORS
330
FAB
102
}
330
FAB
100
AcDbScale
 70
     0
300
3/32" = 1'-0"
140
0.09375
141
12.0
290
     0
  0
SCALE
  5
FC2
102
{ACAD_REACTORS
330
FAB
102
}
330
FAB
100
AcDbScale
 70
     0
300
1/8" = 1'-0"
140
0.125
141
12.0
290
     0
  0
SCALE
  5
FC3
102
{ACAD_REACTORS
330
FAB
102
}
330
FAB
100
AcDbScale
 70
     0
300
3/16" = 1'-0"
140
0.1875
141
12.0
290
     0
  0
SCALE
  5
FC4
102
{ACAD_REACTORS
330
FAB
102
}
330
FAB
100
AcDbScale
 70
     0
300
1/4" = 1'-0"
140
0.25
141
12.0
290
     0
  0
SCALE
  5
FC5
102
{ACAD_REACTORS
330
FAB
102
}
330
FAB
100
AcDbScale
 70
     0
300
3/8" = 1'-0"
140
0.375
141
12.0
290
     0
  0
SCALE
  5
FC6
102
{ACAD_REACTORS
330
FAB
102
}
330
FAB
100
AcDbScale
 70
     0
300
1/2" = 1'-0"
140
0.5
141
12.0
290
     0
  0
SCALE
  5
FC7
102
{ACAD_REACTORS
330
FAB
102
}
330
FAB
100
AcDbScale
 70
     0
300
3/4" = 1'-0"
140
0.75
141
12.0
290
     0
  0
SCALE
  5
FC8
102
{ACAD_REACTORS
330
FAB
102
}
330
FAB
100
AcDbScale
 70
     0
300
1" = 1'-0"
140
1.0
141
12.0
290
     0
  0
SCALE
  5
FC9
102
{ACAD_REACTORS
330
FAB
102
}
330
FAB
100
AcDbScale
 70
     0
300
1-1/2" = 1'-0"
140
1.5
141
12.0
290
     0
  0
SCALE
  5
FCA
102
{ACAD_REACTORS
330
FAB
102
}
330
FAB
100
AcDbScale
 70
     0
300
3" = 1'-0"
140
3.0
141
12.0
290
     0
  0
SCALE
  5
FCB
102
{ACAD_REACTORS
330
FAB
102
}
330
FAB
100
AcDbScale
 70
     0
300
6" = 1'-0"
140
6.0
141
12.0
290
     0
  0
SCALE
  5
FCC
102
{ACAD_REACTORS
330
FAB
102
}
330
FAB
100
AcDbScale
 70
     0
300
1'-0" = 1'-0"
140
12.0
141
12.0
290
     0
  0
TABLESTYLE
  5
FA9
102
{ACAD_XDICTIONARY
360
FF8
102
}
102
{ACAD_REACTORS
330
FA8
102
}
330
FA8
100
AcDbTableStyle
  3
Standard
 70
     0
 71
     0
 40
0.06
 41
0.06
280
     0
281
     0
  7
Standard
140
0.18
170
     2
 62
     0
 63
     7
283
     0
274
    -2
284
     1
 64
     0
275
    -2
285
     1
 65
     0
276
    -2
286
     1
 66
     0
277
    -2
287
     1
 67
     0
278
    -2
288
     1
 68
     0
279
    -2
289
     1
 69
     0
  7
Standard
140
0.25
170
     5
 62
     0
 63
     7
283
     0
274
    -2
284
     1
 64
     0
275
    -2
285
     1
 65
     0
276
    -2
286
     1
 66
     0
277
    -2
287
     1
 67
     0
278
    -2
288
     1
 68
     0
279
    -2
289
     1
 69
     0
  7
Standard
140
0.18
170
     5
 62
     0
 63
     7
283
     0
274
    -2
284
     1
 64
     0
275
    -2
285
     1
 65
     0
276
    -2
286
     1
 66
     0
277
    -2
287
     1
 67
     0
278
    -2
288
     1
 68
     0
279
    -2
289
     1
 69
     0
  0
VISUALSTYLE
  5
F99
102
{ACAD_XDICTIONARY
360
F10AA4
102
}
102
{ACAD_REACTORS
330
F93
102
}
330
F93
100
AcDbVisualStyle
  2

 70
     4
 71
     0
 72
     2
 73
     0
 90
        0
 40
-0.6
 41
-30.0
 62
     5
 63
     7
 74
     1
 91
        4
 64
     7
 65
   257
 75
     1
175
     1
 42
1.0
 92
        0
 66
   257
 43
1.0
 76
     1
 77
     6
 78
     2
 67
     7
 79
     5
170
     0
171
     0
290
     0
174
     0
 93
        1
 44
0.0
173
     0
291
     0
 45
0.0
1001
ACAD
1000
AcDbSavedByObjectVersion
1070
     0
  0
VISUALSTYLE
  5
F9B
102
{ACAD_XDICTIONARY
360
F10AA8
102
}
102
{ACAD_REACTORS
330
F93
102
}
330
F93
100
AcDbVisualStyle
  2

 70
     6
 71
     1
 72
     2
 73
     2
 90
        0
 40
-0.6
 41
-30.0
 62
     5
 63
     7
 74
     2
 91
        2
 64
     7
 65
   257
 75
     2
175
     1
 42
179.0
 92
        0
 66
   257
 43
1.0
 76
     1
 77
     6
 78
     2
 67
     7
 79
     3
170
     0
171
     0
290
     0
174
     0
 93
        1
 44
0.0
173
     0
291
     0
 45
0.0
1001
ACAD
1000
AcDbSavedByObjectVersion
1070
     0
  0
VISUALSTYLE
  5
F9A
102
{ACAD_XDICTIONARY
360
F10AA6
102
}
102
{ACAD_REACTORS
330
F93
102
}
330
F93
100
AcDbVisualStyle
  2

 70
     5
 71
     0
 72
     2
 73
     0
 90
        0
 40
-0.6
 41
-30.0
 62
     5
 63
     7
 74
     1
 91
        4
 64
     7
 65
   257
 75
     1
175
     1
 42
1.0
 92
        0
 66
   257
 43
1.0
 76
     1
 77
     6
 78
     2
 67
     7
 79
     5
170
     0
171
     0
290
     0
174
     0
 93
        1
 44
0.0
173
     0
291
     0
 45
0.0
1001
ACAD
1000
AcDbSavedByObjectVersion
1070
     0
  0
VISUALSTYLE
  5
F98
102
{ACAD_XDICTIONARY
360
F10AA2
102
}
102
{ACAD_REACTORS
330
F93
102
}
330
F93
100
AcDbVisualStyle
  2

 70
     7
 71
     1
 72
     0
 73
     1
 90
        0
 40
-0.6
 41
-30.0
 62
     5
 63
     7
 74
     0
 91
        4
 64
     7
 65
   257
 75
     1
175
     1
 42
1.0
 92
        8
 66
     7
 43
1.0
 76
     1
 77
     6
 78
     2
 67
     7
 79
     5
170
     0
171
     0
290
     0
174
     0
 93
        1
 44
0.0
173
     0
291
     1
 45
0.0
1001
ACAD
1000
AcDbSavedByObjectVersion
1070
     0
  0
VISUALSTYLE
  5
F9F
102
{ACAD_XDICTIONARY
360
F10AB0
102
}
102
{ACAD_REACTORS
330
F93
102
}
330
F93
100
AcDbVisualStyle
  2

 70
    12
 71
     2
 72
     2
 73
     0
 90
        0
 40
-0.6
 41
-30.0
 62
     5
 63
     7
 74
     1
 91
        4
 64
     7
 65
   257
 75
     1
175
     1
 42
1.0
 92
        8
 66
     7
 43
1.0
 76
     1
 77
     6
 78
     2
 67
     7
 79
     5
170
     0
171
     0
290
     0
174
     0
 93
        1
 44
50.0
173
     0
291
     1
 45
0.0
1001
ACAD
1000
AcDbSavedByObjectVersion
1070
     0
  0
VISUALSTYLE
  5
FA3
102
{ACAD_XDICTIONARY
360
F10AB8
102
}
102
{ACAD_REACTORS
330
F93
102
}
330
F93
100
AcDbVisualStyle
  2

 70
    16
 71
     2
 72
     2
 73
     3
 90
        0
 40
-0.6
 41
-30.0
 62
     5
 63
     8
 74
     1
 91
        4
 64
     7
 65
   257
 75
     1
175
     1
 42
1.0
 92
        8
 66
     8
 43
1.0
 76
     1
 77
     6
 78
     2
 67
     7
 79
     5
170
     0
171
     0
290
     0
174
     0
 93
        1
 44
0.0
173
     0
291
     1
 45
0.0
1001
ACAD
1000
AcDbSavedByObjectVersion
1070
     0
  0
VISUALSTYLE
  5
F9C
102
{ACAD_XDICTIONARY
360
F10AAA
102
}
102
{ACAD_REACTORS
330
F93
102
}
330
F93
100
AcDbVisualStyle
  2

 70
     9
 71
     3
 72
     2
 73
     0
 90
        0
 40
-0.6
 41
-30.0
 62
     5
 63
     7
 74
     2
 91
        2
 64
     7
 65
   257
 75
     1
175
     1
 42
179.0
 92
        8
 66
     7
 43
1.0
 76
     1
 77
     6
 78
     2
 67
     7
 79
     3
170
     0
171
     0
290
     0
174
     0
 93
        1
 44
0.0
173
     0
291
     0
 45
0.0
1001
ACAD
1000
AcDbSavedByObjectVersion
1070
     0
  0
VISUALSTYLE
  5
F9E
102
{ACAD_XDICTIONARY
360
F10AAE
102
}
102
{ACAD_REACTORS
330
F93
102
}
330
F93
100
AcDbVisualStyle
  2

 70
    11
 71
     2
 72
     2
 73
     0
 90
        0
 40
-0.6
 41
-30.0
 62
     5
 63
     7
 74
     1
 91
        4
 64
     7
 65
   257
 75
     1
175
     1
 42
1.0
 92
        8
 66
     7
 43
1.0
 76
     1
 77
     6
 78
     2
 67
     7
 79
     5
170
     0
171
     0
290
     0
174
     0
 93
        1
 44
-50.0
173
     0
291
     1
 45
0.0
1001
ACAD
1000
AcDbSavedByObjectVersion
1070
     0
  0
VISUALSTYLE
  5
FA6
102
{ACAD_XDICTIONARY
360
F10ABE
102
}
102
{ACAD_REACTORS
330
F93
102
}
330
F93
100
AcDbVisualStyle
  2

 70
    22
 71
     2
 72
     2
 73
     0
 90
        0
 40
-0.6
 41
-30.0
 62
     5
 63
     7
 74
     1
 91
        4
 64
     7
 65
   257
 75
     1
175
     1
 42
1.0
 92
        8
 66
     7
 43
1.0
 76
     1
 77
     6
 78
     2
 67
     7
 79
     5
170
     0
171
     0
290
     0
174
     0
 93
        1
 44
0.0
173
     0
291
     1
 45
0.0
1001
ACAD
1000
AcDbSavedByObjectVersion
1070
     0
  0
VISUALSTYLE
  5
FA2
102
{ACAD_XDICTIONARY
360
F10AB6
102
}
102
{ACAD_REACTORS
330
F93
102
}
330
F93
100
AcDbVisualStyle
  2

 70
    15
 71
     2
 72
     2
 73
     0
 90
        0
 40
-0.6
 41
-30.0
 62
     5
 63
     7
 74
     1
 91
        4
 64
     7
 65
   257
 75
     1
175
     1
 42
1.0
 92
        8
 66
     7
 43
1.0
 76
     1
 77
     6
 78
     2
 67
     7
 79
     5
170
     0
171
     0
290
     0
174
     0
 93
        1
 44
0.0
173
     0
291
     1
 45
0.0
1001
ACAD
1000
AcDbSavedByObjectVersion
1070
     0
  0
VISUALSTYLE
  5
F94
102
{ACAD_XDICTIONARY
360
F10A9A
102
}
102
{ACAD_REACTORS
330
F93
102
}
330
F93
100
AcDbVisualStyle
  2

 70
     0
 71
     2
 72
     1
 73
     1
 90
        2
 40
-0.6
 41
30.0
 62
     5
 63
     7
 74
     0
 91
        4
 64
     7
 65
   257
 75
     1
175
     1
 42
1.0
 92
        8
 66
     7
 43
1.0
 76
     1
 77
     6
 78
     2
 67
     7
 79
     5
170
     0
171
     0
290
     0
174
     0
 93
       13
 44
0.0
173
     0
291
     1
 45
0.0
1001
ACAD
1000
AcDbSavedByObjectVersion
1070
     0
  0
VISUALSTYLE
  5
F95
102
{ACAD_XDICTIONARY
360
F10A9C
102
}
102
{ACAD_REACTORS
330
F93
102
}
330
F93
100
AcDbVisualStyle
  2

 70
     1
 71
     2
 72
     1
 73
     1
 90
        2
 40
-0.6
 41
30.0
 62
     5
 63
     7
 74
     1
 91
        4
 64
     7
 65
   257
 75
     1
175
     1
 42
1.0
 92
        0
 66
   257
 43
1.0
 76
     1
 77
     6
 78
     2
 67
     7
 79
     5
170
     0
171
     0
290
     0
174
     0
 93
       13
 44
0.0
173
     0
291
     1
 45
0.0
1001
ACAD
1000
AcDbSavedByObjectVersion
1070
     0
  0
VISUALSTYLE
  5
F96
102
{ACAD_XDICTIONARY
360
F10A9E
102
}
102
{ACAD_REACTORS
330
F93
102
}
330
F93
100
AcDbVisualStyle
  2

 70
     2
 71
     2
 72
     2
 73
     1
 90
        2
 40
-0.6
 41
30.0
 62
     5
 63
     7
 74
     0
 91
        4
 64
     7
 65
   257
 75
     1
175
     1
 42
1.0
 92
        0
 66
     7
 43
1.0
 76
     1
 77
     6
 78
     2
 67
     7
 79
     5
170
     0
171
     0
290
     0
174
     0
 93
       13
 44
0.0
173
     0
291
     1
 45
0.0
1001
ACAD
1000
AcDbSavedByObjectVersion
1070
     0
  0
VISUALSTYLE
  5
F97
102
{ACAD_XDICTIONARY
360
F10AA0
102
}
102
{ACAD_REACTORS
330
F93
102
}
330
F93
100
AcDbVisualStyle
  2

 70
     3
 71
     2
 72
     2
 73
     1
 90
        2
 40
-0.6
 41
30.0
 62
     5
 63
     7
 74
     1
 91
        4
 64
     7
 65
   257
 75
     1
175
     1
 42
1.0
 92
        0
 66
   257
 43
1.0
 76
     1
 77
     6
 78
     2
 67
     7
 79
     5
170
     0
171
     0
290
     0
174
     0
 93
       13
 44
0.0
173
     0
291
     1
 45
0.0
1001
ACAD
1000
AcDbSavedByObjectVersion
1070
     0
  0
VISUALSTYLE
  5
F107E4
102
{ACAD_XDICTIONARY
360
F10AC7
102
}
102
{ACAD_REACTORS
330
F93
102
}
330
F93
100
AcDbVisualStyle
  2

 70
     6
 71
     1
 72
     2
 73
     2
 90
        0
 40
-0.6
 41
-30.0
 62
     5
 63
     7
 74
     2
 91
        2
 64
     7
 65
   257
 75
     2
175
     1
 42
40.0
 92
        0
 66
   257
 43
1.0
 76
     1
 77
     6
 78
     2
 67
     7
 79
     3
170
     0
171
     0
290
     0
174
     0
 93
        1
 44
0.0
173
     0
291
     0
 45
0.0
1001
ACAD
1000
AcDbSavedByObjectVersion
1070
     0
  0
VISUALSTYLE
  5
FA4
102
{ACAD_XDICTIONARY
360
F10ABA
102
}
102
{ACAD_REACTORS
330
F93
102
}
330
F93
100
AcDbVisualStyle
  2

 70
    20
 71
     2
 72
     2
 73
     0
 90
        0
 40
-0.6
 41
-30.0
 62
     5
 63
     7
 74
     1
 91
        4
 64
     7
 65
   257
 75
     1
175
     1
 42
1.0
 92
       10
 66
     7
 43
1.0
 76
     1
 77
     6
 78
     2
 67
     7
 79
     5
170
     0
171
     0
290
     0
174
     0
 93
        1
 44
0.0
173
     0
291
     1
 45
0.0
1001
ACAD
1000
AcDbSavedByObjectVersion
1070
     0
  0
VISUALSTYLE
  5
FA1
102
{ACAD_XDICTIONARY
360
F10AB4
102
}
102
{ACAD_REACTORS
330
F93
102
}
330
F93
100
AcDbVisualStyle
  2

 70
    14
 71
     2
 72
     2
 73
     0
 90
        0
 40
-0.6
 41
-30.0
 62
     5
 63
     7
 74
     1
 91
        4
 64
     7
 65
   257
 75
     7
175
     7
 42
1.0
 92
        8
 66
     7
 43
1.0
 76
     1
 77
     6
 78
     2
 67
     7
 79
     5
170
     0
171
     0
290
     0
174
     0
 93
        1
 44
0.0
173
     0
291
     1
 45
0.0
1001
ACAD
1000
AcDbSavedByObjectVersion
1070
     0
  0
VISUALSTYLE
  5
FA5
102
{ACAD_XDICTIONARY
360
F10ABC
102
}
102
{ACAD_REACTORS
330
F93
102
}
330
F93
100
AcDbVisualStyle
  2

 70
    21
 71
     2
 72
     2
 73
     0
 90
        0
 40
-0.6
 41
-30.0
 62
     5
 63
     7
 74
     1
 91
        4
 64
     7
 65
   257
 75
     1
175
     1
 42
1.0
 92
        9
 66
     7
 43
1.0
 76
     1
 77
     6
 78
     2
 67
     7
 79
     5
170
     0
171
     0
290
     0
174
     0
 93
        1
 44
0.0
173
     0
291
     1
 45
0.0
1001
ACAD
1000
AcDbSavedByObjectVersion
1070
     0
  0
VISUALSTYLE
  5
F9D
102
{ACAD_XDICTIONARY
360
F10AAC
102
}
102
{ACAD_REACTORS
330
F93
102
}
330
F93
100
AcDbVisualStyle
  2

 70
     8
 71
     2
 72
     2
 73
     0
 90
        0
 40
-0.6
 41
-30.0
 62
     5
 63
     7
 74
     1
 91
        0
 64
     7
 65
   257
 75
     1
175
     1
 42
1.0
 92
        8
 66
     8
 43
1.0
 76
     1
 77
     6
 78
     2
 67
     7
 79
     5
170
     0
171
     0
290
     0
174
     0
 93
       13
 44
0.0
173
     0
291
     0
 45
0.0
1001
ACAD
1000
AcDbSavedByObjectVersion
1070
     0
  0
VISUALSTYLE
  5
F107E9
102
{ACAD_XDICTIONARY
360
F10AD1
102
}
102
{ACAD_REACTORS
330
F93
102
}
330
F93
100
AcDbVisualStyle
  2

 70
    27
 71
     2
 72
     2
 73
     1
 90
        2
 40
-0.6
 41
30.0
 62
     5
 63
     7
 74
     0
 91
        4
 64
     7
 65
   257
 75
     1
175
     1
 42
1.0
 92
        8
 66
   257
 43
1.0
 76
     1
 77
     6
 78
     2
 67
     8
 79
     3
170
     0
171
     0
290
     0
174
     0
 93
        5
 44
0.0
173
     0
291
     0
 45
0.0
1001
ACAD
1000
AcDbSavedByObjectVersion
1070
     0
  0
VISUALSTYLE
  5
F107E8
102
{ACAD_XDICTIONARY
360
F10ACF
102
}
102
{ACAD_REACTORS
330
F93
102
}
330
F93
100
AcDbVisualStyle
  2

 70
    26
 71
     2
 72
     2
 73
     1
 90
        2
 40
-0.6
 41
30.0
 62
     5
 63
     7
 74
     1
 91
       10
 64
     7
 65
   257
 75
     2
175
     1
 42
1.0
 92
        8
 66
   257
 43
1.0
 76
     1
 77
     6
 78
     2
 67
     7
 79
     3
170
     0
171
     0
290
     0
174
     0
 93
        5
 44
0.0
173
     0
291
     0
 45
0.0
1001
ACAD
1000
AcDbSavedByObjectVersion
1070
     0
  0
VISUALSTYLE
  5
F107E5
102
{ACAD_XDICTIONARY
360
F10AC9
102
}
102
{ACAD_REACTORS
330
F93
102
}
330
F93
100
AcDbVisualStyle
  2

 70
    23
 71
     2
 72
     2
 73
     3
 90
        0
 40
-0.6
 41
-30.0
 62
     5
 63
     7
 74
     2
 91
        2
 64
     7
 65
     7
 75
     1
175
     1
 42
40.0
 92
        8
 66
     7
 43
1.0
 76
     1
 77
     6
 78
     2
 67
     7
 79
     3
170
     0
171
     0
290
     0
174
     0
 93
        1
 44
0.0
173
     0
291
     0
 45
0.0
1001
ACAD
1000
AcDbSavedByObjectVersion
1070
     0
  0
VISUALSTYLE
  5
F107E6
102
{ACAD_XDICTIONARY
360
F10ACB
102
}
102
{ACAD_REACTORS
330
F93
102
}
330
F93
100
AcDbVisualStyle
  2

 70
    24
 71
     1
 72
     2
 73
     2
 90
        0
 40
-0.6
 41
-30.0
 62
     5
 63
     7
 74
     2
 91
        2
 64
     7
 65
     7
 75
     1
175
     1
 42
40.0
 92
       11
 66
     7
 43
1.0
 76
     1
 77
     6
 78
     2
 67
     7
 79
     6
170
     0
171
     0
290
     0
174
     0
 93
        1
 44
0.0
173
     0
291
     0
 45
0.0
1001
ACAD
1000
AcDbSavedByObjectVersion
1070
     0
  0
VISUALSTYLE
  5
FA0
102
{ACAD_XDICTIONARY
360
F10AB2
102
}
102
{ACAD_REACTORS
330
F93
102
}
330
F93
100
AcDbVisualStyle
  2

 70
    13
 71
     2
 72
     2
 73
     0
 90
        0
 40
-0.6
 41
-30.0
 62
     5
 63
     7
 74
     1
 91
        4
 64
     7
 65
   257
 75
     1
175
     1
 42
1.0
 92
       12
 66
     7
 43
1.0
 76
     1
 77
     6
 78
     2
 67
     7
 79
     5
170
     0
171
     0
290
     0
174
     0
 93
        1
 44
0.0
173
     0
291
     1
 45
0.0
1001
ACAD
1000
AcDbSavedByObjectVersion
1070
     0
  0
VISUALSTYLE
  5
F107E3
102
{ACAD_XDICTIONARY
360
F10AC5
102
}
102
{ACAD_REACTORS
330
F93
102
}
330
F93
100
AcDbVisualStyle
  2

 70
     5
 71
     0
 72
     2
 73
     0
 90
        0
 40
-0.6
 41
-30.0
 62
     5
 63
     7
 74
     1
 91
        4
 64
     7
 65
   257
 75
     1
175
     1
 42
1.0
 92
        0
 66
   257
 43
1.0
 76
     1
 77
     6
 78
     2
 67
     7
 79
     3
170
     0
171
     0
290
     0
174
     0
 93
        1
 44
0.0
173
     0
291
     0
 45
0.0
1001
ACAD
1000
AcDbSavedByObjectVersion
1070
     0
  0
VISUALSTYLE
  5
F107E7
102
{ACAD_XDICTIONARY
360
F10ACD
102
}
102
{ACAD_REACTORS
330
F93
102
}
330
F93
100
AcDbVisualStyle
  2

 70
    25
 71
     2
 72
     2
 73
     1
 90
        1
 40
0.5
 41
-30.0
 62
     5
 63
     7
 74
     1
 91
        0
 64
     7
 65
   257
 75
     1
175
     1
 42
1.0
 92
        8
 66
     7
 43
1.0
 76
     1
 77
     6
 78
     2
 67
     7
 79
     3
170
     0
171
     0
290
     0
174
     0
 93
       13
 44
0.0
173
     0
291
     0
 45
0.0
1001
ACAD
1000
AcDbSavedByObjectVersion
1070
     0
  0
DICTIONARYVAR
  5
F109C9
102
{ACAD_REACTORS
330
F109C6
102
}
330
F109C6
100
DictionaryVariables
280
     0
  1
1:1
  0
DICTIONARYVAR
  5
F109C8
102
{ACAD_REACTORS
330
F109C6
102
}
330
F109C6
100
DictionaryVariables
280
     0
  1
STANDARD
  0
DICTIONARYVAR
  5
F109C7
102
{ACAD_REACTORS
330
F109C6
102
}
330
F109C6
100
DictionaryVariables
280
     0
  1
STANDARD
  0
DICTIONARYVAR
  5
F109CC
102
{ACAD_REACTORS
330
F109C6
102
}
330
F109C6
100
DictionaryVariables
280
     0
  1
1
  0
DICTIONARYVAR
  5
F109CB
102
{ACAD_REACTORS
330
F109C6
102
}
330
F109C6
100
DictionaryVariables
280
     0
  1
0
  0
DICTIONARYVAR
  5
F109CA
102
{ACAD_REACTORS
330
F109C6
102
}
330
F109C6
100
DictionaryVariables
280
     0
  1
127
  0
DICTIONARYVAR
  5
F10A89
102
{ACAD_REACTORS
330
F109C6
102
}
330
F109C6
100
DictionaryVariables
280
     0
  1
2
  0
DICTIONARY
  5
F10841
102
{ACAD_REACTORS
330
F10838
102
}
330
F10838
100
AcDbDictionary
281
     1
  0
DICTIONARY
  5
F10AC3
330
FD1
100
AcDbDictionary
280
     1
281
     1
  3
ACAD_XREC_ROUNDTRIP
360
F10AC4
  0
DICTIONARY
  5
F10AC1
330
FD0
100
AcDbDictionary
280
     1
281
     1
  3
ACAD_XREC_ROUNDTRIP
360
F10AC2
  0
DICTIONARY
  5
F84
330
F83
100
AcDbDictionary
280
     1
281
     1
  3
ACAD_XREC_ROUNDTRIP
360
FFF
  3
BUMPTILE
360
F86
  3
DIFFUSETILE
360
F85
  3
OPACITYTILE
360
F89
  3
REFLECTIONTILE
360
F88
  3
REFRACTIONTILE
360
F8A
  3
SPECULARTILE
360
F87
  0
DICTIONARY
  5
F7C
330
F7B
100
AcDbDictionary
280
     1
281
     1
  3
ACAD_XREC_ROUNDTRIP
360
FFE
  3
BUMPTILE
360
F7E
  3
DIFFUSETILE
360
F7D
  3
OPACITYTILE
360
F81
  3
REFLECTIONTILE
360
F80
  3
REFRACTIONTILE
360
F82
  3
SPECULARTILE
360
F7F
  0
DICTIONARY
  5
F8C
330
F8B
100
AcDbDictionary
280
     1
281
     1
  3
ACAD_XREC_ROUNDTRIP
360
1000
  3
BUMPTILE
360
F8E
  3
DIFFUSETILE
360
F8D
  3
OPACITYTILE
360
F91
  3
REFLECTIONTILE
360
F90
  3
REFRACTIONTILE
360
F92
  3
SPECULARTILE
360
F8F
  0
DICTIONARY
  5
FF8
330
FA9
100
AcDbDictionary
280
     1
281
     1
  3
ACAD_ROUNDTRIP_2008_TABLESTYLE_CELLSTYLEMAP
360
F10A8A
  3
ACAD_XREC_ROUNDTRIP
360
F10AC0
  0
DICTIONARY
  5
F10AA4
330
F99
100
AcDbDictionary
280
     1
281
     1
  3
ACAD_XREC_ROUNDTRIP
360
F10AA5
  0
DICTIONARY
  5
F10AA8
330
F9B
100
AcDbDictionary
280
     1
281
     1
  3
ACAD_XREC_ROUNDTRIP
360
F10AA9
  0
DICTIONARY
  5
F10AA6
330
F9A
100
AcDbDictionary
280
     1
281
     1
  3
ACAD_XREC_ROUNDTRIP
360
F10AA7
  0
DICTIONARY
  5
F10AA2
330
F98
100
AcDbDictionary
280
     1
281
     1
  3
ACAD_XREC_ROUNDTRIP
360
F10AA3
  0
DICTIONARY
  5
F10AB0
330
F9F
100
AcDbDictionary
280
     1
281
     1
  3
ACAD_XREC_ROUNDTRIP
360
F10AB1
  0
DICTIONARY
  5
F10AB8
330
FA3
100
AcDbDictionary
280
     1
281
     1
  3
ACAD_XREC_ROUNDTRIP
360
F10AB9
  0
DICTIONARY
  5
F10AAA
330
F9C
100
AcDbDictionary
280
     1
281
     1
  3
ACAD_XREC_ROUNDTRIP
360
F10AAB
  0
DICTIONARY
  5
F10AAE
330
F9E
100
AcDbDictionary
280
     1
281
     1
  3
ACAD_XREC_ROUNDTRIP
360
F10AAF
  0
DICTIONARY
  5
F10ABE
330
FA6
100
AcDbDictionary
280
     1
281
     1
  3
ACAD_XREC_ROUNDTRIP
360
F10ABF
  0
DICTIONARY
  5
F10AB6
330
FA2
100
AcDbDictionary
280
     1
281
     1
  3
ACAD_XREC_ROUNDTRIP
360
F10AB7
  0
DICTIONARY
  5
F10A9A
330
F94
100
AcDbDictionary
280
     1
281
     1
  3
ACAD_XREC_ROUNDTRIP
360
F10A9B
  0
DICTIONARY
  5
F10A9C
330
F95
100
AcDbDictionary
280
     1
281
     1
  3
ACAD_XREC_ROUNDTRIP
360
F10A9D
  0
DICTIONARY
  5
F10A9E
330
F96
100
AcDbDictionary
280
     1
281
     1
  3
ACAD_XREC_ROUNDTRIP
360
F10A9F
  0
DICTIONARY
  5
F10AA0
330
F97
100
AcDbDictionary
280
     1
281
     1
  3
ACAD_XREC_ROUNDTRIP
360
F10AA1
  0
DICTIONARY
  5
F10AC7
330
F107E4
100
AcDbDictionary
280
     1
281
     1
  3
ACAD_XREC_ROUNDTRIP
360
F10AC8
  0
DICTIONARY
  5
F10ABA
330
FA4
100
AcDbDictionary
280
     1
281
     1
  3
ACAD_XREC_ROUNDTRIP
360
F10ABB
  0
DICTIONARY
  5
F10AB4
330
FA1
100
AcDbDictionary
280
     1
281
     1
  3
ACAD_XREC_ROUNDTRIP
360
F10AB5
  0
DICTIONARY
  5
F10ABC
330
FA5
100
AcDbDictionary
280
     1
281
     1
  3
ACAD_XREC_ROUNDTRIP
360
F10ABD
  0
DICTIONARY
  5
F10AAC
330
F9D
100
AcDbDictionary
280
     1
281
     1
  3
ACAD_XREC_ROUNDTRIP
360
F10AAD
  0
DICTIONARY
  5
F10AD1
330
F107E9
100
AcDbDictionary
280
     1
281
     1
  3
ACAD_XREC_ROUNDTRIP
360
F10AD2
  0
DICTIONARY
  5
F10ACF
330
F107E8
100
AcDbDictionary
280
     1
281
     1
  3
ACAD_XREC_ROUNDTRIP
360
F10AD0
  0
DICTIONARY
  5
F10AC9
330
F107E5
100
AcDbDictionary
280
     1
281
     1
  3
ACAD_XREC_ROUNDTRIP
360
F10ACA
  0
DICTIONARY
  5
F10ACB
330
F107E6
100
AcDbDictionary
280
     1
281
     1
  3
ACAD_XREC_ROUNDTRIP
360
F10ACC
  0
DICTIONARY
  5
F10AB2
330
FA0
100
AcDbDictionary
280
     1
281
     1
  3
ACAD_XREC_ROUNDTRIP
360
F10AB3
  0
DICTIONARY
  5
F10AC5
330
F107E3
100
AcDbDictionary
280
     1
281
     1
  3
ACAD_XREC_ROUNDTRIP
360
F10AC6
  0
DICTIONARY
  5
F10ACD
330
F107E7
100
AcDbDictionary
280
     1
281
     1
  3
ACAD_XREC_ROUNDTRIP
360
F10ACE
  0
XRECORD
  5
F10AC4
102
{ACAD_REACTORS
330
F10AC3
102
}
330
F10AC3
100
AcDbXrecord
280
     1
102
SHADEPLOT
 70
     0
102
SHADEPLOTRESLEVEL
 70
     2
102
SHADEPLOTCUSTOMDPI
 70
   300
  0
XRECORD
  5
F10AC2
102
{ACAD_REACTORS
330
F10AC1
102
}
330
F10AC1
100
AcDbXrecord
280
     1
102
SHADEPLOT
 70
     0
102
SHADEPLOTRESLEVEL
 70
     2
102
SHADEPLOTCUSTOMDPI
 70
   300
  0
XRECORD
  5
FFF
102
{ACAD_REACTORS
330
F84
102
}
330
F84
100
AcDbXrecord
280
     1
102
MATERIAL
148
0.0
149
0.0
149
0.0
 93
        0
 94
      127
282
     0
 72
     0
 77
     0
171
     0
175
     0
179
     0
273
     0
  0
XRECORD
  5
F86
102
{ACAD_REACTORS
330
F84
102
}
330
F84
100
AcDbXrecord
280
     1
270
     1
271
     1
  0
XRECORD
  5
F85
102
{ACAD_REACTORS
330
F84
102
}
330
F84
100
AcDbXrecord
280
     1
270
     1
271
     1
  0
XRECORD
  5
F89
102
{ACAD_REACTORS
330
F84
102
}
330
F84
100
AcDbXrecord
280
     1
270
     1
271
     1
  0
XRECORD
  5
F88
102
{ACAD_REACTORS
330
F84
102
}
330
F84
100
AcDbXrecord
280
     1
270
     1
271
     1
  0
XRECORD
  5
F8A
102
{ACAD_REACTORS
330
F84
102
}
330
F84
100
AcDbXrecord
280
     1
270
     1
271
     1
  0
XRECORD
  5
F87
102
{ACAD_REACTORS
330
F84
102
}
330
F84
100
AcDbXrecord
280
     1
270
     1
271
     1
  0
XRECORD
  5
FFE
102
{ACAD_REACTORS
330
F7C
102
}
330
F7C
100
AcDbXrecord
280
     1
102
MATERIAL
148
0.0
149
0.0
149
0.0
 93
        0
 94
      127
282
     0
 72
     0
 77
     0
171
     0
175
     0
179
     0
273
     0
  0
XRECORD
  5
F7E
102
{ACAD_REACTORS
330
F7C
102
}
330
F7C
100
AcDbXrecord
280
     1
270
     1
271
     1
  0
XRECORD
  5
F7D
102
{ACAD_REACTORS
330
F7C
102
}
330
F7C
100
AcDbXrecord
280
     1
270
     1
271
     1
  0
XRECORD
  5
F81
102
{ACAD_REACTORS
330
F7C
102
}
330
F7C
100
AcDbXrecord
280
     1
270
     1
271
     1
  0
XRECORD
  5
F80
102
{ACAD_REACTORS
330
F7C
102
}
330
F7C
100
AcDbXrecord
280
     1
270
     1
271
     1
  0
XRECORD
  5
F82
102
{ACAD_REACTORS
330
F7C
102
}
330
F7C
100
AcDbXrecord
280
     1
270
     1
271
     1
  0
XRECORD
  5
F7F
102
{ACAD_REACTORS
330
F7C
102
}
330
F7C
100
AcDbXrecord
280
     1
270
     1
271
     1
  0
XRECORD
  5
1000
102
{ACAD_REACTORS
330
F8C
102
}
330
F8C
100
AcDbXrecord
280
     1
102
MATERIAL
148
0.0
149
0.0
149
0.0
 93
        0
 94
      127
282
     0
 72
     0
 77
     0
171
     0
175
     0
179
     0
273
     0
  0
XRECORD
  5
F8E
102
{ACAD_REACTORS
330
F8C
102
}
330
F8C
100
AcDbXrecord
280
     1
270
     1
271
     1
  0
XRECORD
  5
F8D
102
{ACAD_REACTORS
330
F8C
102
}
330
F8C
100
AcDbXrecord
280
     1
270
     1
271
     1
  0
XRECORD
  5
F91
102
{ACAD_REACTORS
330
F8C
102
}
330
F8C
100
AcDbXrecord
280
     1
270
     1
271
     1
  0
XRECORD
  5
F90
102
{ACAD_REACTORS
330
F8C
102
}
330
F8C
100
AcDbXrecord
280
     1
270
     1
271
     1
  0
XRECORD
  5
F92
102
{ACAD_REACTORS
330
F8C
102
}
330
F8C
100
AcDbXrecord
280
     1
270
     1
271
     1
  0
XRECORD
  5
F8F
102
{ACAD_REACTORS
330
F8C
102
}
330
F8C
100
AcDbXrecord
280
     1
270
     1
271
     1
  0
CELLSTYLEMAP
  5
F10A8A
102
{ACAD_REACTORS
330
FF8
102
}
330
FF8
100
AcDbCellStyleMap
 90
        3
300
CELLSTYLE
  1
TABLEFORMAT_BEGIN
 90
        5
170
     1
 91
        0
 92
    32768
 62
   257
 93
        1
300
CONTENTFORMAT
  1
CONTENTFORMAT_BEGIN
 90
        0
 91
        0
 92
      512
 93
        0
300

 40
0.0
140
1.0
 94
        5
 62
     0
340
253
144
0.25
309
CONTENTFORMAT_END
171
     1
301
MARGIN
  1
CELLMARGIN_BEGIN
 40
0.06
 40
0.06
 40
0.06
 40
0.06
 40
0.18
 40
0.18
309
CELLMARGIN_END
 94
        6
 95
        1
302
GRIDFORMAT
  1
GRIDFORMAT_BEGIN
 90
        0
 91
        1
 62
     0
 92
       -2
340
0
 93
        0
 40
0.045
309
GRIDFORMAT_END
 95
        2
302
GRIDFORMAT
  1
GRIDFORMAT_BEGIN
 90
        0
 91
        1
 62
     0
 92
       -2
340
0
 93
        0
 40
0.045
309
GRIDFORMAT_END
 95
        4
302
GRIDFORMAT
  1
GRIDFORMAT_BEGIN
 90
        0
 91
        1
 62
     0
 92
       -2
340
0
 93
        0
 40
0.045
309
GRIDFORMAT_END
 95
        8
302
GRIDFORMAT
  1
GRIDFORMAT_BEGIN
 90
        0
 91
        1
 62
     0
 92
       -2
340
0
 93
        0
 40
0.045
309
GRIDFORMAT_END
 95
       16
302
GRIDFORMAT
  1
GRIDFORMAT_BEGIN
 90
        0
 91
        1
 62
     0
 92
       -2
340
0
 93
        0
 40
0.045
309
GRIDFORMAT_END
 95
       32
302
GRIDFORMAT
  1
GRIDFORMAT_BEGIN
 90
        0
 91
        1
 62
     0
 92
       -2
340
0
 93
        0
 40
0.045
309
GRIDFORMAT_END
309
TABLEFORMAT_END
  1
CELLSTYLE_BEGIN
 90
        1
 91
        1
300
_TITLE
309
CELLSTYLE_END
300
CELLSTYLE
  1
TABLEFORMAT_BEGIN
 90
        5
170
     1
 91
        0
 92
        0
 62
   257
 93
        1
300
CONTENTFORMAT
  1
CONTENTFORMAT_BEGIN
 90
        0
 91
        0
 92
      512
 93
        0
300

 40
0.0
140
1.0
 94
        5
 62
     0
340
253
144
0.18
309
CONTENTFORMAT_END
171
     1
301
MARGIN
  1
CELLMARGIN_BEGIN
 40
0.06
 40
0.06
 40
0.06
 40
0.06
 40
0.18
 40
0.18
309
CELLMARGIN_END
 94
        6
 95
        1
302
GRIDFORMAT
  1
GRIDFORMAT_BEGIN
 90
        0
 91
        1
 62
     0
 92
       -2
340
0
 93
        0
 40
0.045
309
GRIDFORMAT_END
 95
        2
302
GRIDFORMAT
  1
GRIDFORMAT_BEGIN
 90
        0
 91
        1
 62
     0
 92
       -2
340
0
 93
        0
 40
0.045
309
GRIDFORMAT_END
 95
        4
302
GRIDFORMAT
  1
GRIDFORMAT_BEGIN
 90
        0
 91
        1
 62
     0
 92
       -2
340
0
 93
        0
 40
0.045
309
GRIDFORMAT_END
 95
        8
302
GRIDFORMAT
  1
GRIDFORMAT_BEGIN
 90
        0
 91
        1
 62
     0
 92
       -2
340
0
 93
        0
 40
0.045
309
GRIDFORMAT_END
 95
       16
302
GRIDFORMAT
  1
GRIDFORMAT_BEGIN
 90
        0
 91
        1
 62
     0
 92
       -2
340
0
 93
        0
 40
0.045
309
GRIDFORMAT_END
 95
       32
302
GRIDFORMAT
  1
GRIDFORMAT_BEGIN
 90
        0
 91
        1
 62
     0
 92
       -2
340
0
 93
        0
 40
0.045
309
GRIDFORMAT_END
309
TABLEFORMAT_END
  1
CELLSTYLE_BEGIN
 90
        2
 91
        1
300
_HEADER
309
CELLSTYLE_END
300
CELLSTYLE
  1
TABLEFORMAT_BEGIN
 90
        5
170
     1
 91
        0
 92
        0
 62
   257
 93
        1
300
CONTENTFORMAT
  1
CONTENTFORMAT_BEGIN
 90
        0
 91
        0
 92
      512
 93
        0
300

 40
0.0
140
1.0
 94
        2
 62
     0
340
253
144
0.18
309
CONTENTFORMAT_END
171
     1
301
MARGIN
  1
CELLMARGIN_BEGIN
 40
0.06
 40
0.06
 40
0.06
 40
0.06
 40
0.18
 40
0.18
309
CELLMARGIN_END
 94
        6
 95
        1
302
GRIDFORMAT
  1
GRIDFORMAT_BEGIN
 90
        0
 91
        1
 62
     0
 92
       -2
340
0
 93
        0
 40
0.045
309
GRIDFORMAT_END
 95
        2
302
GRIDFORMAT
  1
GRIDFORMAT_BEGIN
 90
        0
 91
        1
 62
     0
 92
       -2
340
0
 93
        0
 40
0.045
309
GRIDFORMAT_END
 95
        4
302
GRIDFORMAT
  1
GRIDFORMAT_BEGIN
 90
        0
 91
        1
 62
     0
 92
       -2
340
0
 93
        0
 40
0.045
309
GRIDFORMAT_END
 95
        8
302
GRIDFORMAT
  1
GRIDFORMAT_BEGIN
 90
        0
 91
        1
 62
     0
 92
       -2
340
0
 93
        0
 40
0.045
309
GRIDFORMAT_END
 95
       16
302
GRIDFORMAT
  1
GRIDFORMAT_BEGIN
 90
        0
 91
        1
 62
     0
 92
       -2
340
0
 93
        0
 40
0.045
309
GRIDFORMAT_END
 95
       32
302
GRIDFORMAT
  1
GRIDFORMAT_BEGIN
 90
        0
 91
        1
 62
     0
 92
       -2
340
0
 93
        0
 40
0.045
309
GRIDFORMAT_END
309
TABLEFORMAT_END
  1
CELLSTYLE_BEGIN
 90
        3
 91
        2
300
_DATA
309
CELLSTYLE_END
  0
XRECORD
  5
F10AC0
102
{ACAD_REACTORS
330
FF8
102
}
330
FF8
100
AcDbXrecord
280
     1
102
ACAD_ROUNDTRIP_PRE2007_TABLESTYLE
 90
      512
 91
        0
  1

 92
      512
 93
        0
  2

 94
      512
 95
        0
  3

  0
XRECORD
  5
F10AA5
102
{ACAD_REACTORS
330
F10AA4
102
}
330
F10AA4
100
AcDbXrecord
280
     1
102
RTVSPropertyOp0
 70
     1
102
RTVSPropertyOp1
 70
     1
102
RTVSPropertyOp2
 70
     1
102
RTVSPropertyOp3
 70
     1
102
RTVSPropertyOp4
 70
     1
102
RTVSPropertyOp5
 70
     1
102
RTVSPropertyOp6
 70
     1
102
RTVSPropertyOp7
 70
     1
102
RTVSPropertyOp8
 70
     1
102
RTVSPropertyOp9
 70
     1
102
RTVSPropertyOp10
 70
     1
102
RTVSPropertyOp11
 70
     1
102
RTVSPropertyOp12
 70
     1
102
RTVSPropertyOp13
 70
     1
102
RTVSPropertyOp14
 70
     1
102
RTVSPropertyOp15
 70
     1
102
RTVSPropertyOp16
 70
     1
102
RTVSPropertyOp17
 70
     1
102
RTVSPropertyOp18
 70
     1
102
RTVSPropertyOp19
 70
     1
102
RTVSPropertyOp20
 70
     1
102
RTVSPropertyOp21
 70
     1
102
RTVSPropertyOp22
 70
     1
102
RTVSPropertyOp23
 70
     1
102
RTVSPropertyOp24
 70
     1
102
RTVSPropertyOp25
 70
     1
102
RTVSPropertyOp26
 70
     1
102
RTVSPropertyOp27
 70
     1
102
RTVSPropertyOp28
 70
     1
102
RTVSPropertyOp29
 70
     1
102
RTVSPropertyOp30
 70
     1
102
RTVSPropertyOp31
 70
     1
102
RTVSPropertyOp32
 70
     1
  0
XRECORD
  5
F10AA9
102
{ACAD_REACTORS
330
F10AA8
102
}
330
F10AA8
100
AcDbXrecord
280
     1
102
RTVSPropertyOp0
 70
     1
102
RTVSPropertyOp1
 70
     1
102
RTVSPropertyOp2
 70
     1
102
RTVSPropertyOp3
 70
     1
102
RTVSPropertyOp4
 70
     1
102
RTVSPropertyOp5
 70
     1
102
RTVSPropertyOp6
 70
     1
102
RTVSPropertyOp7
 70
     1
102
RTVSPropertyOp8
 70
     1
102
RTVSPropertyOp9
 70
     1
102
RTVSPropertyOp10
 70
     1
102
RTVSPropertyOp11
 70
     1
102
RTVSPropertyOp12
 70
     1
102
RTVSPropertyOp13
 70
     1
102
RTVSPropertyOp14
 70
     1
102
RTVSPropertyOp15
 70
     1
102
RTVSPropertyOp16
 70
     1
102
RTVSPropertyOp17
 70
     1
102
RTVSPropertyOp18
 70
     1
102
RTVSPropertyOp19
 70
     1
102
RTVSPropertyOp20
 70
     1
102
RTVSPropertyOp21
 70
     1
102
RTVSPropertyOp22
 70
     1
102
RTVSPropertyOp23
 70
     1
102
RTVSPropertyOp24
 70
     1
102
RTVSPropertyOp25
 70
     1
102
RTVSPropertyOp26
 70
     1
102
RTVSPropertyOp27
 70
     1
102
RTVSPropertyOp28
 70
     1
102
RTVSPropertyOp29
 70
     1
102
RTVSPropertyOp30
 70
     1
102
RTVSPropertyOp31
 70
     1
102
RTVSPropertyOp32
 70
     1
  0
XRECORD
  5
F10AA7
102
{ACAD_REACTORS
330
F10AA6
102
}
330
F10AA6
100
AcDbXrecord
280
     1
102
RTVSPropertyOp0
 70
     1
102
RTVSPropertyOp1
 70
     1
102
RTVSPropertyOp2
 70
     1
102
RTVSPropertyOp3
 70
     1
102
RTVSPropertyOp4
 70
     1
102
RTVSPropertyOp5
 70
     1
102
RTVSPropertyOp6
 70
     1
102
RTVSPropertyOp7
 70
     1
102
RTVSPropertyOp8
 70
     1
102
RTVSPropertyOp9
 70
     1
102
RTVSPropertyOp10
 70
     1
102
RTVSPropertyOp11
 70
     1
102
RTVSPropertyOp12
 70
     1
102
RTVSPropertyOp13
 70
     1
102
RTVSPropertyOp14
 70
     1
102
RTVSPropertyOp15
 70
     1
102
RTVSPropertyOp16
 70
     1
102
RTVSPropertyOp17
 70
     1
102
RTVSPropertyOp18
 70
     1
102
RTVSPropertyOp19
 70
     1
102
RTVSPropertyOp20
 70
     1
102
RTVSPropertyOp21
 70
     1
102
RTVSPropertyOp22
 70
     1
102
RTVSPropertyOp23
 70
     1
102
RTVSPropertyOp24
 70
     1
102
RTVSPropertyOp25
 70
     1
102
RTVSPropertyOp26
 70
     1
102
RTVSPropertyOp27
 70
     1
102
RTVSPropertyOp28
 70
     1
102
RTVSPropertyOp29
 70
     1
102
RTVSPropertyOp30
 70
     1
102
RTVSPropertyOp31
 70
     1
102
RTVSPropertyOp32
 70
     1
  0
XRECORD
  5
F10AA3
102
{ACAD_REACTORS
330
F10AA2
102
}
330
F10AA2
100
AcDbXrecord
280
     1
102
RTVSPropertyOp0
 70
     1
102
RTVSPropertyOp1
 70
     1
102
RTVSPropertyOp2
 70
     1
102
RTVSPropertyOp3
 70
     1
102
RTVSPropertyOp4
 70
     1
102
RTVSPropertyOp5
 70
     1
102
RTVSPropertyOp6
 70
     1
102
RTVSPropertyOp7
 70
     1
102
RTVSPropertyOp8
 70
     1
102
RTVSPropertyOp9
 70
     1
102
RTVSPropertyOp10
 70
     1
102
RTVSPropertyOp11
 70
     1
102
RTVSPropertyOp12
 70
     1
102
RTVSPropertyOp13
 70
     1
102
RTVSPropertyOp14
 70
     1
102
RTVSPropertyOp15
 70
     1
102
RTVSPropertyOp16
 70
     1
102
RTVSPropertyOp17
 70
     1
102
RTVSPropertyOp18
 70
     1
102
RTVSPropertyOp19
 70
     1
102
RTVSPropertyOp20
 70
     1
102
RTVSPropertyOp21
 70
     1
102
RTVSPropertyOp22
 70
     1
102
RTVSPropertyOp23
 70
     1
102
RTVSPropertyOp24
 70
     1
102
RTVSPropertyOp25
 70
     1
102
RTVSPropertyOp26
 70
     1
102
RTVSPropertyOp27
 70
     1
102
RTVSPropertyOp28
 70
     1
102
RTVSPropertyOp29
 70
     1
102
RTVSPropertyOp30
 70
     1
102
RTVSPropertyOp31
 70
     1
102
RTVSPropertyOp32
 70
     1
  0
XRECORD
  5
F10AB1
102
{ACAD_REACTORS
330
F10AB0
102
}
330
F10AB0
100
AcDbXrecord
280
     1
102
RTVSPropertyOp0
 70
     1
102
RTVSPropertyOp1
 70
     1
102
RTVSPropertyOp2
 70
     1
102
RTVSPropertyOp3
 70
     1
102
RTVSPropertyOp4
 70
     1
102
RTVSPropertyOp5
 70
     1
102
RTVSPropertyOp6
 70
     1
102
RTVSPropertyOp7
 70
     1
102
RTVSPropertyOp8
 70
     1
102
RTVSPropertyOp9
 70
     1
102
RTVSPropertyOp10
 70
     1
102
RTVSPropertyOp11
 70
     1
102
RTVSPropertyOp12
 70
     1
102
RTVSPropertyOp13
 70
     1
102
RTVSPropertyOp14
 70
     1
102
RTVSPropertyOp15
 70
     1
102
RTVSPropertyOp16
 70
     1
102
RTVSPropertyOp17
 70
     1
102
RTVSPropertyOp18
 70
     1
102
RTVSPropertyOp19
 70
     1
102
RTVSPropertyOp20
 70
     1
102
RTVSPropertyOp21
 70
     1
102
RTVSPropertyOp22
 70
     1
102
RTVSPropertyOp23
 70
     1
102
RTVSPropertyOp24
 70
     1
102
RTVSPropertyOp25
 70
     1
102
RTVSPropertyOp26
 70
     1
102
RTVSPropertyOp27
 70
     1
102
RTVSPropertyOp28
 70
     1
102
RTVSPropertyOp29
 70
     1
102
RTVSPropertyOp30
 70
     1
102
RTVSPropertyOp31
 70
     1
102
RTVSPropertyOp32
 70
     1
  0
XRECORD
  5
F10AB9
102
{ACAD_REACTORS
330
F10AB8
102
}
330
F10AB8
100
AcDbXrecord
280
     1
102
RTVSPropertyOp0
 70
     1
102
RTVSPropertyOp1
 70
     1
102
RTVSPropertyOp2
 70
     1
102
RTVSPropertyOp3
 70
     1
102
RTVSPropertyOp4
 70
     1
102
RTVSPropertyOp5
 70
     1
102
RTVSPropertyOp6
 70
     1
102
RTVSPropertyOp7
 70
     1
102
RTVSPropertyOp8
 70
     1
102
RTVSPropertyOp9
 70
     1
102
RTVSPropertyOp10
 70
     1
102
RTVSPropertyOp11
 70
     1
102
RTVSPropertyOp12
 70
     1
102
RTVSPropertyOp13
 70
     1
102
RTVSPropertyOp14
 70
     1
102
RTVSPropertyOp15
 70
     1
102
RTVSPropertyOp16
 70
     1
102
RTVSPropertyOp17
 70
     1
102
RTVSPropertyOp18
 70
     1
102
RTVSPropertyOp19
 70
     1
102
RTVSPropertyOp20
 70
     1
102
RTVSPropertyOp21
 70
     1
102
RTVSPropertyOp22
 70
     1
102
RTVSPropertyOp23
 70
     1
102
RTVSPropertyOp24
 70
     1
102
RTVSPropertyOp25
 70
     1
102
RTVSPropertyOp26
 70
     1
102
RTVSPropertyOp27
 70
     1
102
RTVSPropertyOp28
 70
     1
102
RTVSPropertyOp29
 70
     1
102
RTVSPropertyOp30
 70
     1
102
RTVSPropertyOp31
 70
     1
102
RTVSPropertyOp32
 70
     1
  0
XRECORD
  5
F10AAB
102
{ACAD_REACTORS
330
F10AAA
102
}
330
F10AAA
100
AcDbXrecord
280
     1
102
RTVSPropertyOp0
 70
     1
102
RTVSPropertyOp1
 70
     1
102
RTVSPropertyOp2
 70
     1
102
RTVSPropertyOp3
 70
     1
102
RTVSPropertyOp4
 70
     1
102
RTVSPropertyOp5
 70
     1
102
RTVSPropertyOp6
 70
     1
102
RTVSPropertyOp7
 70
     1
102
RTVSPropertyOp8
 70
     1
102
RTVSPropertyOp9
 70
     1
102
RTVSPropertyOp10
 70
     1
102
RTVSPropertyOp11
 70
     1
102
RTVSPropertyOp12
 70
     1
102
RTVSPropertyOp13
 70
     1
102
RTVSPropertyOp14
 70
     1
102
RTVSPropertyOp15
 70
     1
102
RTVSPropertyOp16
 70
     1
102
RTVSPropertyOp17
 70
     1
102
RTVSPropertyOp18
 70
     1
102
RTVSPropertyOp19
 70
     1
102
RTVSPropertyOp20
 70
     1
102
RTVSPropertyOp21
 70
     1
102
RTVSPropertyOp22
 70
     1
102
RTVSPropertyOp23
 70
     1
102
RTVSPropertyOp24
 70
     1
102
RTVSPropertyOp25
 70
     1
102
RTVSPropertyOp26
 70
     1
102
RTVSPropertyOp27
 70
     1
102
RTVSPropertyOp28
 70
     1
102
RTVSPropertyOp29
 70
     1
102
RTVSPropertyOp30
 70
     1
102
RTVSPropertyOp31
 70
     1
102
RTVSPropertyOp32
 70
     1
  0
XRECORD
  5
F10AAF
102
{ACAD_REACTORS
330
F10AAE
102
}
330
F10AAE
100
AcDbXrecord
280
     1
102
RTVSPropertyOp0
 70
     1
102
RTVSPropertyOp1
 70
     1
102
RTVSPropertyOp2
 70
     1
102
RTVSPropertyOp3
 70
     1
102
RTVSPropertyOp4
 70
     1
102
RTVSPropertyOp5
 70
     1
102
RTVSPropertyOp6
 70
     1
102
RTVSPropertyOp7
 70
     1
102
RTVSPropertyOp8
 70
     1
102
RTVSPropertyOp9
 70
     1
102
RTVSPropertyOp10
 70
     1
102
RTVSPropertyOp11
 70
     1
102
RTVSPropertyOp12
 70
     1
102
RTVSPropertyOp13
 70
     1
102
RTVSPropertyOp14
 70
     1
102
RTVSPropertyOp15
 70
     1
102
RTVSPropertyOp16
 70
     1
102
RTVSPropertyOp17
 70
     1
102
RTVSPropertyOp18
 70
     1
102
RTVSPropertyOp19
 70
     1
102
RTVSPropertyOp20
 70
     1
102
RTVSPropertyOp21
 70
     1
102
RTVSPropertyOp22
 70
     1
102
RTVSPropertyOp23
 70
     1
102
RTVSPropertyOp24
 70
     1
102
RTVSPropertyOp25
 70
     1
102
RTVSPropertyOp26
 70
     1
102
RTVSPropertyOp27
 70
     1
102
RTVSPropertyOp28
 70
     1
102
RTVSPropertyOp29
 70
     1
102
RTVSPropertyOp30
 70
     1
102
RTVSPropertyOp31
 70
     1
102
RTVSPropertyOp32
 70
     1
  0
XRECORD
  5
F10ABF
102
{ACAD_REACTORS
330
F10ABE
102
}
330
F10ABE
100
AcDbXrecord
280
     1
102
RTVSPropertyOp0
 70
     0
102
RTVSPropertyOp1
 70
     0
102
RTVSPropertyOp2
 70
     0
102
RTVSPropertyOp3
 70
     0
102
RTVSPropertyOp4
 70
     0
102
RTVSPropertyOp5
 70
     0
102
RTVSPropertyOp6
 70
     0
102
RTVSPropertyOp7
 70
     0
102
RTVSPropertyOp8
 70
     0
102
RTVSPropertyOp9
 70
     0
102
RTVSPropertyOp10
 70
     0
102
RTVSPropertyOp11
 70
     0
102
RTVSPropertyOp12
 70
     0
102
RTVSPropertyOp13
 70
     0
102
RTVSPropertyOp14
 70
     2
102
RTVSPropertyOp15
 70
     0
102
RTVSPropertyOp16
 70
     0
102
RTVSPropertyOp17
 70
     0
102
RTVSPropertyOp18
 70
     0
102
RTVSPropertyOp19
 70
     0
102
RTVSPropertyOp20
 70
     0
102
RTVSPropertyOp21
 70
     0
102
RTVSPropertyOp22
 70
     0
102
RTVSPropertyOp23
 70
     0
102
RTVSPropertyOp24
 70
     0
102
RTVSPropertyOp25
 70
     0
102
RTVSPropertyOp26
 70
     0
102
RTVSPropertyOp27
 70
     0
102
RTVSPropertyOp28
 70
     1
102
RTVSPropertyOp29
 70
     1
102
RTVSPropertyOp30
 70
     1
102
RTVSPropertyOp31
 70
     1
102
RTVSPropertyOp32
 70
     1
  0
XRECORD
  5
F10AB7
102
{ACAD_REACTORS
330
F10AB6
102
}
330
F10AB6
100
AcDbXrecord
280
     1
102
RTVSPropertyOp0
 70
     1
102
RTVSPropertyOp1
 70
     1
102
RTVSPropertyOp2
 70
     1
102
RTVSPropertyOp3
 70
     1
102
RTVSPropertyOp4
 70
     1
102
RTVSPropertyOp5
 70
     1
102
RTVSPropertyOp6
 70
     1
102
RTVSPropertyOp7
 70
     1
102
RTVSPropertyOp8
 70
     1
102
RTVSPropertyOp9
 70
     1
102
RTVSPropertyOp10
 70
     1
102
RTVSPropertyOp11
 70
     1
102
RTVSPropertyOp12
 70
     1
102
RTVSPropertyOp13
 70
     1
102
RTVSPropertyOp14
 70
     1
102
RTVSPropertyOp15
 70
     1
102
RTVSPropertyOp16
 70
     1
102
RTVSPropertyOp17
 70
     1
102
RTVSPropertyOp18
 70
     1
102
RTVSPropertyOp19
 70
     1
102
RTVSPropertyOp20
 70
     1
102
RTVSPropertyOp21
 70
     1
102
RTVSPropertyOp22
 70
     1
102
RTVSPropertyOp23
 70
     1
102
RTVSPropertyOp24
 70
     1
102
RTVSPropertyOp25
 70
     1
102
RTVSPropertyOp26
 70
     1
102
RTVSPropertyOp27
 70
     1
102
RTVSPropertyOp28
 70
     1
102
RTVSPropertyOp29
 70
     1
102
RTVSPropertyOp30
 70
     1
102
RTVSPropertyOp31
 70
     1
102
RTVSPropertyOp32
 70
     1
  0
XRECORD
  5
F10A9B
102
{ACAD_REACTORS
330
F10A9A
102
}
330
F10A9A
100
AcDbXrecord
280
     1
102
RTVSPropertyOp0
 70
     1
102
RTVSPropertyOp1
 70
     1
102
RTVSPropertyOp2
 70
     1
102
RTVSPropertyOp3
 70
     1
102
RTVSPropertyOp4
 70
     1
102
RTVSPropertyOp5
 70
     1
102
RTVSPropertyOp6
 70
     1
102
RTVSPropertyOp7
 70
     1
102
RTVSPropertyOp8
 70
     1
102
RTVSPropertyOp9
 70
     1
102
RTVSPropertyOp10
 70
     1
102
RTVSPropertyOp11
 70
     1
102
RTVSPropertyOp12
 70
     1
102
RTVSPropertyOp13
 70
     1
102
RTVSPropertyOp14
 70
     1
102
RTVSPropertyOp15
 70
     1
102
RTVSPropertyOp16
 70
     1
102
RTVSPropertyOp17
 70
     1
102
RTVSPropertyOp18
 70
     1
102
RTVSPropertyOp19
 70
     1
102
RTVSPropertyOp20
 70
     1
102
RTVSPropertyOp21
 70
     1
102
RTVSPropertyOp22
 70
     1
102
RTVSPropertyOp23
 70
     1
102
RTVSPropertyOp24
 70
     1
102
RTVSPropertyOp25
 70
     1
102
RTVSPropertyOp26
 70
     1
102
RTVSPropertyOp27
 70
     1
102
RTVSPropertyOp28
 70
     1
102
RTVSPropertyOp29
 70
     1
102
RTVSPropertyOp30
 70
     1
102
RTVSPropertyOp31
 70
     1
102
RTVSPropertyOp32
 70
     1
  0
XRECORD
  5
F10A9D
102
{ACAD_REACTORS
330
F10A9C
102
}
330
F10A9C
100
AcDbXrecord
280
     1
102
RTVSPropertyOp0
 70
     1
102
RTVSPropertyOp1
 70
     1
102
RTVSPropertyOp2
 70
     1
102
RTVSPropertyOp3
 70
     1
102
RTVSPropertyOp4
 70
     1
102
RTVSPropertyOp5
 70
     1
102
RTVSPropertyOp6
 70
     1
102
RTVSPropertyOp7
 70
     1
102
RTVSPropertyOp8
 70
     1
102
RTVSPropertyOp9
 70
     1
102
RTVSPropertyOp10
 70
     1
102
RTVSPropertyOp11
 70
     1
102
RTVSPropertyOp12
 70
     1
102
RTVSPropertyOp13
 70
     1
102
RTVSPropertyOp14
 70
     1
102
RTVSPropertyOp15
 70
     1
102
RTVSPropertyOp16
 70
     1
102
RTVSPropertyOp17
 70
     1
102
RTVSPropertyOp18
 70
     1
102
RTVSPropertyOp19
 70
     1
102
RTVSPropertyOp20
 70
     1
102
RTVSPropertyOp21
 70
     1
102
RTVSPropertyOp22
 70
     1
102
RTVSPropertyOp23
 70
     1
102
RTVSPropertyOp24
 70
     1
102
RTVSPropertyOp25
 70
     1
102
RTVSPropertyOp26
 70
     1
102
RTVSPropertyOp27
 70
     1
102
RTVSPropertyOp28
 70
     1
102
RTVSPropertyOp29
 70
     1
102
RTVSPropertyOp30
 70
     1
102
RTVSPropertyOp31
 70
     1
102
RTVSPropertyOp32
 70
     1
  0
XRECORD
  5
F10A9F
102
{ACAD_REACTORS
330
F10A9E
102
}
330
F10A9E
100
AcDbXrecord
280
     1
102
RTVSPropertyOp0
 70
     1
102
RTVSPropertyOp1
 70
     1
102
RTVSPropertyOp2
 70
     1
102
RTVSPropertyOp3
 70
     1
102
RTVSPropertyOp4
 70
     1
102
RTVSPropertyOp5
 70
     1
102
RTVSPropertyOp6
 70
     1
102
RTVSPropertyOp7
 70
     1
102
RTVSPropertyOp8
 70
     1
102
RTVSPropertyOp9
 70
     1
102
RTVSPropertyOp10
 70
     1
102
RTVSPropertyOp11
 70
     1
102
RTVSPropertyOp12
 70
     1
102
RTVSPropertyOp13
 70
     1
102
RTVSPropertyOp14
 70
     1
102
RTVSPropertyOp15
 70
     1
102
RTVSPropertyOp16
 70
     1
102
RTVSPropertyOp17
 70
     1
102
RTVSPropertyOp18
 70
     1
102
RTVSPropertyOp19
 70
     1
102
RTVSPropertyOp20
 70
     1
102
RTVSPropertyOp21
 70
     1
102
RTVSPropertyOp22
 70
     1
102
RTVSPropertyOp23
 70
     1
102
RTVSPropertyOp24
 70
     1
102
RTVSPropertyOp25
 70
     1
102
RTVSPropertyOp26
 70
     1
102
RTVSPropertyOp27
 70
     1
102
RTVSPropertyOp28
 70
     1
102
RTVSPropertyOp29
 70
     1
102
RTVSPropertyOp30
 70
     1
102
RTVSPropertyOp31
 70
     1
102
RTVSPropertyOp32
 70
     1
  0
XRECORD
  5
F10AA1
102
{ACAD_REACTORS
330
F10AA0
102
}
330
F10AA0
100
AcDbXrecord
280
     1
102
RTVSPropertyOp0
 70
     1
102
RTVSPropertyOp1
 70
     1
102
RTVSPropertyOp2
 70
     1
102
RTVSPropertyOp3
 70
     1
102
RTVSPropertyOp4
 70
     1
102
RTVSPropertyOp5
 70
     1
102
RTVSPropertyOp6
 70
     1
102
RTVSPropertyOp7
 70
     1
102
RTVSPropertyOp8
 70
     1
102
RTVSPropertyOp9
 70
     1
102
RTVSPropertyOp10
 70
     1
102
RTVSPropertyOp11
 70
     1
102
RTVSPropertyOp12
 70
     1
102
RTVSPropertyOp13
 70
     1
102
RTVSPropertyOp14
 70
     1
102
RTVSPropertyOp15
 70
     1
102
RTVSPropertyOp16
 70
     1
102
RTVSPropertyOp17
 70
     1
102
RTVSPropertyOp18
 70
     1
102
RTVSPropertyOp19
 70
     1
102
RTVSPropertyOp20
 70
     1
102
RTVSPropertyOp21
 70
     1
102
RTVSPropertyOp22
 70
     1
102
RTVSPropertyOp23
 70
     1
102
RTVSPropertyOp24
 70
     1
102
RTVSPropertyOp25
 70
     1
102
RTVSPropertyOp26
 70
     1
102
RTVSPropertyOp27
 70
     1
102
RTVSPropertyOp28
 70
     1
102
RTVSPropertyOp29
 70
     1
102
RTVSPropertyOp30
 70
     1
102
RTVSPropertyOp31
 70
     1
102
RTVSPropertyOp32
 70
     1
  0
XRECORD
  5
F10AC8
102
{ACAD_REACTORS
330
F10AC7
102
}
330
F10AC7
100
AcDbXrecord
280
     1
102
RTVSPropertyOp0
 70
     1
102
RTVSPropertyOp1
 70
     1
102
RTVSPropertyOp2
 70
     1
102
RTVSPropertyOp3
 70
     1
102
RTVSPropertyOp4
 70
     1
102
RTVSPropertyOp5
 70
     1
102
RTVSPropertyOp6
 70
     1
102
RTVSPropertyOp7
 70
     1
102
RTVSPropertyOp8
 70
     1
102
RTVSPropertyOp9
 70
     1
102
RTVSPropertyOp10
 70
     1
102
RTVSPropertyOp11
 70
     1
102
RTVSPropertyOp12
 70
     1
102
RTVSPropertyOp13
 70
     1
102
RTVSPropertyOp14
 70
     1
102
RTVSPropertyOp15
 70
     1
102
RTVSPropertyOp16
 70
     1
102
RTVSPropertyOp17
 70
     1
102
RTVSPropertyOp18
 70
     1
102
RTVSPropertyOp19
 70
     1
102
RTVSPropertyOp20
 70
     1
102
RTVSPropertyOp21
 70
     1
102
RTVSPropertyOp22
 70
     1
102
RTVSPropertyOp23
 70
     1
102
RTVSPropertyOp24
 70
     1
102
RTVSPropertyOp25
 70
     1
102
RTVSPropertyOp26
 70
     1
102
RTVSPropertyOp27
 70
     1
102
RTVSPropertyOp28
 70
     1
102
RTVSPropertyOp29
 70
     1
102
RTVSPropertyOp30
 70
     1
102
RTVSPropertyOp31
 70
     1
102
RTVSPropertyOp32
 70
     1
  0
XRECORD
  5
F10ABB
102
{ACAD_REACTORS
330
F10ABA
102
}
330
F10ABA
100
AcDbXrecord
280
     1
102
RTVSPropertyOp0
 70
     0
102
RTVSPropertyOp1
 70
     0
102
RTVSPropertyOp2
 70
     0
102
RTVSPropertyOp3
 70
     0
102
RTVSPropertyOp4
 70
     0
102
RTVSPropertyOp5
 70
     0
102
RTVSPropertyOp6
 70
     0
102
RTVSPropertyOp7
 70
     0
102
RTVSPropertyOp8
 70
     0
102
RTVSPropertyOp9
 70
     0
102
RTVSPropertyOp10
 70
     0
102
RTVSPropertyOp11
 70
     0
102
RTVSPropertyOp12
 70
     0
102
RTVSPropertyOp13
 70
     0
102
RTVSPropertyOp14
 70
     2
102
RTVSPropertyOp15
 70
     0
102
RTVSPropertyOp16
 70
     0
102
RTVSPropertyOp17
 70
     0
102
RTVSPropertyOp18
 70
     0
102
RTVSPropertyOp19
 70
     0
102
RTVSPropertyOp20
 70
     0
102
RTVSPropertyOp21
 70
     0
102
RTVSPropertyOp22
 70
     0
102
RTVSPropertyOp23
 70
     0
102
RTVSPropertyOp24
 70
     0
102
RTVSPropertyOp25
 70
     0
102
RTVSPropertyOp26
 70
     0
102
RTVSPropertyOp27
 70
     0
102
RTVSPropertyOp28
 70
     1
102
RTVSPropertyOp29
 70
     1
102
RTVSPropertyOp30
 70
     1
102
RTVSPropertyOp31
 70
     1
102
RTVSPropertyOp32
 70
     1
  0
XRECORD
  5
F10AB5
102
{ACAD_REACTORS
330
F10AB4
102
}
330
F10AB4
100
AcDbXrecord
280
     1
102
RTVSPropertyOp0
 70
     1
102
RTVSPropertyOp1
 70
     1
102
RTVSPropertyOp2
 70
     1
102
RTVSPropertyOp3
 70
     1
102
RTVSPropertyOp4
 70
     1
102
RTVSPropertyOp5
 70
     1
102
RTVSPropertyOp6
 70
     1
102
RTVSPropertyOp7
 70
     1
102
RTVSPropertyOp8
 70
     1
102
RTVSPropertyOp9
 70
     1
102
RTVSPropertyOp10
 70
     1
102
RTVSPropertyOp11
 70
     1
102
RTVSPropertyOp12
 70
     1
102
RTVSPropertyOp13
 70
     1
102
RTVSPropertyOp14
 70
     1
102
RTVSPropertyOp15
 70
     1
102
RTVSPropertyOp16
 70
     1
102
RTVSPropertyOp17
 70
     1
102
RTVSPropertyOp18
 70
     1
102
RTVSPropertyOp19
 70
     1
102
RTVSPropertyOp20
 70
     1
102
RTVSPropertyOp21
 70
     1
102
RTVSPropertyOp22
 70
     1
102
RTVSPropertyOp23
 70
     1
102
RTVSPropertyOp24
 70
     1
102
RTVSPropertyOp25
 70
     1
102
RTVSPropertyOp26
 70
     1
102
RTVSPropertyOp27
 70
     1
102
RTVSPropertyOp28
 70
     1
102
RTVSPropertyOp29
 70
     1
102
RTVSPropertyOp30
 70
     1
102
RTVSPropertyOp31
 70
     1
102
RTVSPropertyOp32
 70
     1
  0
XRECORD
  5
F10ABD
102
{ACAD_REACTORS
330
F10ABC
102
}
330
F10ABC
100
AcDbXrecord
280
     1
102
RTVSPropertyOp0
 70
     0
102
RTVSPropertyOp1
 70
     0
102
RTVSPropertyOp2
 70
     0
102
RTVSPropertyOp3
 70
     0
102
RTVSPropertyOp4
 70
     0
102
RTVSPropertyOp5
 70
     0
102
RTVSPropertyOp6
 70
     0
102
RTVSPropertyOp7
 70
     0
102
RTVSPropertyOp8
 70
     0
102
RTVSPropertyOp9
 70
     0
102
RTVSPropertyOp10
 70
     0
102
RTVSPropertyOp11
 70
     0
102
RTVSPropertyOp12
 70
     0
102
RTVSPropertyOp13
 70
     0
102
RTVSPropertyOp14
 70
     2
102
RTVSPropertyOp15
 70
     0
102
RTVSPropertyOp16
 70
     0
102
RTVSPropertyOp17
 70
     0
102
RTVSPropertyOp18
 70
     0
102
RTVSPropertyOp19
 70
     0
102
RTVSPropertyOp20
 70
     0
102
RTVSPropertyOp21
 70
     0
102
RTVSPropertyOp22
 70
     0
102
RTVSPropertyOp23
 70
     0
102
RTVSPropertyOp24
 70
     0
102
RTVSPropertyOp25
 70
     0
102
RTVSPropertyOp26
 70
     0
102
RTVSPropertyOp27
 70
     0
102
RTVSPropertyOp28
 70
     1
102
RTVSPropertyOp29
 70
     1
102
RTVSPropertyOp30
 70
     1
102
RTVSPropertyOp31
 70
     1
102
RTVSPropertyOp32
 70
     1
  0
XRECORD
  5
F10AAD
102
{ACAD_REACTORS
330
F10AAC
102
}
330
F10AAC
100
AcDbXrecord
280
     1
102
RTVSPropertyOp0
 70
     1
102
RTVSPropertyOp1
 70
     1
102
RTVSPropertyOp2
 70
     1
102
RTVSPropertyOp3
 70
     1
102
RTVSPropertyOp4
 70
     1
102
RTVSPropertyOp5
 70
     1
102
RTVSPropertyOp6
 70
     1
102
RTVSPropertyOp7
 70
     1
102
RTVSPropertyOp8
 70
     1
102
RTVSPropertyOp9
 70
     1
102
RTVSPropertyOp10
 70
     1
102
RTVSPropertyOp11
 70
     1
102
RTVSPropertyOp12
 70
     1
102
RTVSPropertyOp13
 70
     1
102
RTVSPropertyOp14
 70
     1
102
RTVSPropertyOp15
 70
     1
102
RTVSPropertyOp16
 70
     1
102
RTVSPropertyOp17
 70
     1
102
RTVSPropertyOp18
 70
     1
102
RTVSPropertyOp19
 70
     1
102
RTVSPropertyOp20
 70
     1
102
RTVSPropertyOp21
 70
     1
102
RTVSPropertyOp22
 70
     1
102
RTVSPropertyOp23
 70
     1
102
RTVSPropertyOp24
 70
     1
102
RTVSPropertyOp25
 70
     1
102
RTVSPropertyOp26
 70
     1
102
RTVSPropertyOp27
 70
     1
102
RTVSPropertyOp28
 70
     1
102
RTVSPropertyOp29
 70
     1
102
RTVSPropertyOp30
 70
     1
102
RTVSPropertyOp31
 70
     1
102
RTVSPropertyOp32
 70
     1
  0
XRECORD
  5
F10AD2
102
{ACAD_REACTORS
330
F10AD1
102
}
330
F10AD1
100
AcDbXrecord
280
     1
102
RTVSPropertyOp0
 70
     1
102
RTVSPropertyOp1
 70
     1
102
RTVSPropertyOp2
 70
     1
102
RTVSPropertyOp3
 70
     1
102
RTVSPropertyOp4
 70
     1
102
RTVSPropertyOp5
 70
     1
102
RTVSPropertyOp6
 70
     1
102
RTVSPropertyOp7
 70
     1
102
RTVSPropertyOp8
 70
     1
102
RTVSPropertyOp9
 70
     1
102
RTVSPropertyOp10
 70
     1
102
RTVSPropertyOp11
 70
     1
102
RTVSPropertyOp12
 70
     1
102
RTVSPropertyOp13
 70
     1
102
RTVSPropertyOp14
 70
     1
102
RTVSPropertyOp15
 70
     1
102
RTVSPropertyOp16
 70
     1
102
RTVSPropertyOp17
 70
     1
102
RTVSPropertyOp18
 70
     1
102
RTVSPropertyOp19
 70
     1
102
RTVSPropertyOp20
 70
     1
102
RTVSPropertyOp21
 70
     1
102
RTVSPropertyOp22
 70
     1
102
RTVSPropertyOp23
 70
     1
102
RTVSPropertyOp24
 70
     1
102
RTVSPropertyOp25
 70
     1
102
RTVSPropertyOp26
 70
     1
102
RTVSPropertyOp27
 70
     1
102
RTVSPropertyOp28
 70
     1
102
RTVSPropertyOp29
 70
     1
102
RTVSPropertyOp30
 70
     1
102
RTVSPropertyOp31
 70
     1
102
RTVSPropertyOp32
 70
     1
  0
XRECORD
  5
F10AD0
102
{ACAD_REACTORS
330
F10ACF
102
}
330
F10ACF
100
AcDbXrecord
280
     1
102
RTVSPropertyOp0
 70
     1
102
RTVSPropertyOp1
 70
     1
102
RTVSPropertyOp2
 70
     1
102
RTVSPropertyOp3
 70
     1
102
RTVSPropertyOp4
 70
     1
102
RTVSPropertyOp5
 70
     1
102
RTVSPropertyOp6
 70
     1
102
RTVSPropertyOp7
 70
     1
102
RTVSPropertyOp8
 70
     1
102
RTVSPropertyOp9
 70
     1
102
RTVSPropertyOp10
 70
     1
102
RTVSPropertyOp11
 70
     1
102
RTVSPropertyOp12
 70
     1
102
RTVSPropertyOp13
 70
     1
102
RTVSPropertyOp14
 70
     1
102
RTVSPropertyOp15
 70
     1
102
RTVSPropertyOp16
 70
     1
102
RTVSPropertyOp17
 70
     1
102
RTVSPropertyOp18
 70
     1
102
RTVSPropertyOp19
 70
     1
102
RTVSPropertyOp20
 70
     1
102
RTVSPropertyOp21
 70
     1
102
RTVSPropertyOp22
 70
     1
102
RTVSPropertyOp23
 70
     1
102
RTVSPropertyOp24
 70
     1
102
RTVSPropertyOp25
 70
     1
102
RTVSPropertyOp26
 70
     1
102
RTVSPropertyOp27
 70
     1
102
RTVSPropertyOp28
 70
     1
102
RTVSPropertyOp29
 70
     1
102
RTVSPropertyOp30
 70
     1
102
RTVSPropertyOp31
 70
     1
102
RTVSPropertyOp32
 70
     1
  0
XRECORD
  5
F10ACA
102
{ACAD_REACTORS
330
F10AC9
102
}
330
F10AC9
100
AcDbXrecord
280
     1
102
RTVSPropertyOp0
 70
     1
102
RTVSPropertyOp1
 70
     1
102
RTVSPropertyOp2
 70
     1
102
RTVSPropertyOp3
 70
     1
102
RTVSPropertyOp4
 70
     1
102
RTVSPropertyOp5
 70
     1
102
RTVSPropertyOp6
 70
     1
102
RTVSPropertyOp7
 70
     1
102
RTVSPropertyOp8
 70
     1
102
RTVSPropertyOp9
 70
     1
102
RTVSPropertyOp10
 70
     1
102
RTVSPropertyOp11
 70
     1
102
RTVSPropertyOp12
 70
     1
102
RTVSPropertyOp13
 70
     1
102
RTVSPropertyOp14
 70
     1
102
RTVSPropertyOp15
 70
     1
102
RTVSPropertyOp16
 70
     1
102
RTVSPropertyOp17
 70
     1
102
RTVSPropertyOp18
 70
     1
102
RTVSPropertyOp19
 70
     1
102
RTVSPropertyOp20
 70
     1
102
RTVSPropertyOp21
 70
     1
102
RTVSPropertyOp22
 70
     1
102
RTVSPropertyOp23
 70
     1
102
RTVSPropertyOp24
 70
     1
102
RTVSPropertyOp25
 70
     1
102
RTVSPropertyOp26
 70
     1
102
RTVSPropertyOp27
 70
     1
102
RTVSPropertyOp28
 70
     1
102
RTVSPropertyOp29
 70
     1
102
RTVSPropertyOp30
 70
     1
102
RTVSPropertyOp31
 70
     1
102
RTVSPropertyOp32
 70
     1
  0
XRECORD
  5
F10ACC
102
{ACAD_REACTORS
330
F10ACB
102
}
330
F10ACB
100
AcDbXrecord
280
     1
102
RTVSPropertyOp0
 70
     1
102
RTVSPropertyOp1
 70
     1
102
RTVSPropertyOp2
 70
     1
102
RTVSPropertyOp3
 70
     1
102
RTVSPropertyOp4
 70
     1
102
RTVSPropertyOp5
 70
     1
102
RTVSPropertyOp6
 70
     1
102
RTVSPropertyOp7
 70
     1
102
RTVSPropertyOp8
 70
     1
102
RTVSPropertyOp9
 70
     1
102
RTVSPropertyOp10
 70
     1
102
RTVSPropertyOp11
 70
     1
102
RTVSPropertyOp12
 70
     1
102
RTVSPropertyOp13
 70
     1
102
RTVSPropertyOp14
 70
     1
102
RTVSPropertyOp15
 70
     1
102
RTVSPropertyOp16
 70
     1
102
RTVSPropertyOp17
 70
     1
102
RTVSPropertyOp18
 70
     1
102
RTVSPropertyOp19
 70
     1
102
RTVSPropertyOp20
 70
     1
102
RTVSPropertyOp21
 70
     1
102
RTVSPropertyOp22
 70
     1
102
RTVSPropertyOp23
 70
     1
102
RTVSPropertyOp24
 70
     1
102
RTVSPropertyOp25
 70
     1
102
RTVSPropertyOp26
 70
     1
102
RTVSPropertyOp27
 70
     1
102
RTVSPropertyOp28
 70
     1
102
RTVSPropertyOp29
 70
     1
102
RTVSPropertyOp30
 70
     1
102
RTVSPropertyOp31
 70
     1
102
RTVSPropertyOp32
 70
     1
  0
XRECORD
  5
F10AB3
102
{ACAD_REACTORS
330
F10AB2
102
}
330
F10AB2
100
AcDbXrecord
280
     1
102
RTVSPropertyOp0
 70
     1
102
RTVSPropertyOp1
 70
     1
102
RTVSPropertyOp2
 70
     1
102
RTVSPropertyOp3
 70
     1
102
RTVSPropertyOp4
 70
     1
102
RTVSPropertyOp5
 70
     1
102
RTVSPropertyOp6
 70
     1
102
RTVSPropertyOp7
 70
     1
102
RTVSPropertyOp8
 70
     1
102
RTVSPropertyOp9
 70
     1
102
RTVSPropertyOp10
 70
     1
102
RTVSPropertyOp11
 70
     1
102
RTVSPropertyOp12
 70
     1
102
RTVSPropertyOp13
 70
     1
102
RTVSPropertyOp14
 70
     1
102
RTVSPropertyOp15
 70
     1
102
RTVSPropertyOp16
 70
     1
102
RTVSPropertyOp17
 70
     1
102
RTVSPropertyOp18
 70
     1
102
RTVSPropertyOp19
 70
     1
102
RTVSPropertyOp20
 70
     1
102
RTVSPropertyOp21
 70
     1
102
RTVSPropertyOp22
 70
     1
102
RTVSPropertyOp23
 70
     1
102
RTVSPropertyOp24
 70
     1
102
RTVSPropertyOp25
 70
     1
102
RTVSPropertyOp26
 70
     1
102
RTVSPropertyOp27
 70
     1
102
RTVSPropertyOp28
 70
     1
102
RTVSPropertyOp29
 70
     1
102
RTVSPropertyOp30
 70
     1
102
RTVSPropertyOp31
 70
     1
102
RTVSPropertyOp32
 70
     1
  0
XRECORD
  5
F10AC6
102
{ACAD_REACTORS
330
F10AC5
102
}
330
F10AC5
100
AcDbXrecord
280
     1
102
RTVSPropertyOp0
 70
     1
102
RTVSPropertyOp1
 70
     1
102
RTVSPropertyOp2
 70
     1
102
RTVSPropertyOp3
 70
     1
102
RTVSPropertyOp4
 70
     1
102
RTVSPropertyOp5
 70
     1
102
RTVSPropertyOp6
 70
     1
102
RTVSPropertyOp7
 70
     1
102
RTVSPropertyOp8
 70
     1
102
RTVSPropertyOp9
 70
     1
102
RTVSPropertyOp10
 70
     1
102
RTVSPropertyOp11
 70
     1
102
RTVSPropertyOp12
 70
     1
102
RTVSPropertyOp13
 70
     1
102
RTVSPropertyOp14
 70
     1
102
RTVSPropertyOp15
 70
     1
102
RTVSPropertyOp16
 70
     1
102
RTVSPropertyOp17
 70
     1
102
RTVSPropertyOp18
 70
     1
102
RTVSPropertyOp19
 70
     1
102
RTVSPropertyOp20
 70
     1
102
RTVSPropertyOp21
 70
     1
102
RTVSPropertyOp22
 70
     1
102
RTVSPropertyOp23
 70
     1
102
RTVSPropertyOp24
 70
     1
102
RTVSPropertyOp25
 70
     1
102
RTVSPropertyOp26
 70
     1
102
RTVSPropertyOp27
 70
     1
102
RTVSPropertyOp28
 70
     1
102
RTVSPropertyOp29
 70
     1
102
RTVSPropertyOp30
 70
     1
102
RTVSPropertyOp31
 70
     1
102
RTVSPropertyOp32
 70
     1
  0
XRECORD
  5
F10ACE
102
{ACAD_REACTORS
330
F10ACD
102
}
330
F10ACD
100
AcDbXrecord
280
     1
102
RTVSPropertyOp0
 70
     1
102
RTVSPropertyOp1
 70
     1
102
RTVSPropertyOp2
 70
     1
102
RTVSPropertyOp3
 70
     1
102
RTVSPropertyOp4
 70
     1
102
RTVSPropertyOp5
 70
     1
102
RTVSPropertyOp6
 70
     1
102
RTVSPropertyOp7
 70
     1
102
RTVSPropertyOp8
 70
     1
102
RTVSPropertyOp9
 70
     1
102
RTVSPropertyOp10
 70
     1
102
RTVSPropertyOp11
 70
     1
102
RTVSPropertyOp12
 70
     1
102
RTVSPropertyOp13
 70
     1
102
RTVSPropertyOp14
 70
     1
102
RTVSPropertyOp15
 70
     1
102
RTVSPropertyOp16
 70
     1
102
RTVSPropertyOp17
 70
     1
102
RTVSPropertyOp18
 70
     1
102
RTVSPropertyOp19
 70
     1
102
RTVSPropertyOp20
 70
     1
102
RTVSPropertyOp21
 70
     1
102
RTVSPropertyOp22
 70
     1
102
RTVSPropertyOp23
 70
     1
102
RTVSPropertyOp24
 70
     1
102
RTVSPropertyOp25
 70
     1
102
RTVSPropertyOp26
 70
     1
102
RTVSPropertyOp27
 70
     1
102
RTVSPropertyOp28
 70
     1
102
RTVSPropertyOp29
 70
     1
102
RTVSPropertyOp30
 70
     1
102
RTVSPropertyOp31
 70
     1
102
RTVSPropertyOp32
 70
     1
  0
ENDSEC
  0
EOF
