  0
SECTION
  2
HEADER
  9
$ACADVER
  1
AC1015
  9
$ACADMAINTVER
 70
    20
  9
$DWGCODEPAGE
  3
ANSI_1252
  9
$INSBASE
 10
0.0
 20
0.0
 30
0.0
  9
$EXTMIN
 10
-208.09585492228
 20
-100.103626943005
 30
0.0
  9
$EXTMAX
 10
143.354922279793
 20
106.7646657571623
 30
0.0
  9
$LIMMIN
 10
0.0
 20
0.0
  9
$LIMMAX
 10
12.0
 20
9.0
  9
$ORTHOMODE
 70
     0
  9
$REGENMODE
 70
     1
  9
$FILLMODE
 70
     1
  9
$QTEXTMODE
 70
     0
  9
$MIRRTEXT
 70
     1
  9
$LTSCALE
 40
1.0
  9
$ATTMODE
 70
     1
  9
$TEXTSIZE
 40
0.2
  9
$TRACEWID
 40
0.05
  9
$TEXTSTYLE
  7
Standard
  9
$CLAYER
  8
0
  9
$CELTYPE
  6
ByLayer
  9
$CECOLOR
 62
   256
  9
$CELTSCALE
 40
1.0
  9
$DISPSILH
 70
     0
  9
$DIMSCALE
 40
1.0
  9
$DIMASZ
 40
2.5
  9
$DIMEXO
 40
0.625
  9
$DIMDLI
 40
0.38
  9
$DIMRND
 40
0.0
  9
$DIMDLE
 40
0.0
  9
$DIMEXE
 40
1.25
  9
$DIMTP
 40
0.0
  9
$DIMTM
 40
0.000000001
  9
$DIMTXT
 40
2.5
  9
$DIMCEN
 40
0.09
  9
$DIMTSZ
 40
0.0
  9
$DIMTOL
 70
     1
  9
$DIMLIM
 70
     0
  9
$DIMTIH
 70
     0
  9
$DIMTOH
 70
     0
  9
$DIMSE1
 70
     0
  9
$DIMSE2
 70
     0
  9
$DIMTAD
 70
     1
  9
$DIMZIN
 70
     0
  9
$DIMBLK
  1
VDDIM_DEFAULT
  9
$DIMASO
 70
     1
  9
$DIMSHO
 70
     1
  9
$DIMPOST
  1

  9
$DIMAPOST
  1

  9
$DIMALT
 70
     0
  9
$DIMALTD
 70
     2
  9
$DIMALTF
 40
25.4
  9
$DIMLFAC
 40
1.0
  9
$DIMTOFL
 70
     0
  9
$DIMTVP
 40
0.0
  9
$DIMTIX
 70
     0
  9
$DIMSOXD
 70
     0
  9
$DIMSAH
 70
     0
  9
$DIMBLK1
  1

  9
$DIMBLK2
  1

  9
$DIMSTYLE
  2
BEM-ISBE
  9
$DIMCLRD
 70
     0
  9
$DIMCLRE
 70
     0
  9
$DIMCLRT
 70
     0
  9
$DIMTFAC
 40
0.5
  9
$DIMGAP
 40
0.625
  9
$DIMJUST
 70
     0
  9
$DIMSD1
 70
     0
  9
$DIMSD2
 70
     0
  9
$DIMTOLJ
 70
     1
  9
$DIMTZIN
 70
     0
  9
$DIMALTZ
 70
     0
  9
$DIMALTTZ
 70
     0
  9
$DIMUPT
 70
     0
  9
$DIMDEC
 70
     3
  9
$DIMTDEC
 70
     3
  9
$DIMALTU
 70
     2
  9
$DIMALTTD
 70
     2
  9
$DIMTXSTY
  7
Standard
  9
$DIMAUNIT
 70
     0
  9
$DIMADEC
 70
     3
  9
$DIMALTRND
 40
0.0
  9
$DIMAZIN
 70
     0
  9
$DIMDSEP
 70
    46
  9
$DIMATFIT
 70
     3
  9
$DIMFRAC
 70
     0
  9
$DIMLDRBLK
  1

  9
$DIMLUNIT
 70
     2
  9
$DIMLWD
 70
    -2
  9
$DIMLWE
 70
    -2
  9
$DIMTMOVE
 70
     0
  9
$LUNITS
 70
     2
  9
$LUPREC
 70
     4
  9
$SKETCHINC
 40
0.1
  9
$FILLETRAD
 40
0.0
  9
$AUNITS
 70
     0
  9
$AUPREC
 70
     0
  9
$MENU
  1
.
  9
$ELEVATION
 40
0.0
  9
$PELEVATION
 40
0.0
  9
$THICKNESS
 40
0.0
  9
$LIMCHECK
 70
     0
  9
$CHAMFERA
 40
0.5
  9
$CHAMFERB
 40
0.5
  9
$CHAMFERC
 40
1.0
  9
$CHAMFERD
 40
0.0
  9
$SKPOLY
 70
     0
  9
$TDCREATE
 40
2457002.611266053
  9
$TDUCREATE
 40
2457002.569599387
  9
$TDUPDATE
 40
2457002.613126562
  9
$TDUUPDATE
 40
2457002.571459896
  9
$TDINDWG
 40
0.0018617824
  9
$TDUSRTIMER
 40
0.0018617361
  9
$USRTIMER
 70
     1
  9
$ANGBASE
 50
0.0
  9
$ANGDIR
 70
     0
  9
$PDMODE
 70
     0
  9
$PDSIZE
 40
0.0
  9
$PLINEWID
 40
0.0
  9
$SPLFRAME
 70
     0
  9
$SPLINETYPE
 70
     6
  9
$SPLINESEGS
 70
     8
  9
$HANDSEED
  5
F10AFE
  9
$SURFTAB1
 70
     6
  9
$SURFTAB2
 70
     6
  9
$SURFTYPE
 70
     6
  9
$SURFU
 70
     6
  9
$SURFV
 70
     6
  9
$UCSBASE
  2

  9
$UCSNAME
  2

  9
$UCSORG
 10
-12.58683896251004
 20
1.9140171310062
 30
0.0
  9
$UCSXDIR
 10
1.0
 20
0.0
 30
0.0
  9
$UCSYDIR
 10
0.0
 20
1.0
 30
0.0
  9
$UCSORTHOREF
  2

  9
$UCSORTHOVIEW
 70
     0
  9
$UCSORGTOP
 10
0.0
 20
0.0
 30
0.0
  9
$UCSORGBOTTOM
 10
0.0
 20
0.0
 30
0.0
  9
$UCSORGLEFT
 10
0.0
 20
0.0
 30
0.0
  9
$UCSORGRIGHT
 10
0.0
 20
0.0
 30
0.0
  9
$UCSORGFRONT
 10
0.0
 20
0.0
 30
0.0
  9
$UCSORGBACK
 10
0.0
 20
0.0
 30
0.0
  9
$PUCSBASE
  2

  9
$PUCSNAME
  2

  9
$PUCSORG
 10
0.0
 20
0.0
 30
0.0
  9
$PUCSXDIR
 10
1.0
 20
0.0
 30
0.0
  9
$PUCSYDIR
 10
0.0
 20
1.0
 30
0.0
  9
$PUCSORTHOREF
  2

  9
$PUCSORTHOVIEW
 70
     0
  9
$PUCSORGTOP
 10
0.0
 20
0.0
 30
0.0
  9
$PUCSORGBOTTOM
 10
0.0
 20
0.0
 30
0.0
  9
$PUCSORGLEFT
 10
0.0
 20
0.0
 30
0.0
  9
$PUCSORGRIGHT
 10
0.0
 20
0.0
 30
0.0
  9
$PUCSORGFRONT
 10
0.0
 20
0.0
 30
0.0
  9
$PUCSORGBACK
 10
0.0
 20
0.0
 30
0.0
  9
$USERI1
 70
     0
  9
$USERI2
 70
     0
  9
$USERI3
 70
     0
  9
$USERI4
 70
     0
  9
$USERI5
 70
     0
  9
$USERR1
 40
0.0
  9
$USERR2
 40
0.0
  9
$USERR3
 40
0.0
  9
$USERR4
 40
0.0
  9
$USERR5
 40
0.0
  9
$WORLDVIEW
 70
     1
  9
$SHADEDGE
 70
     3
  9
$SHADEDIF
 70
    70
  9
$TILEMODE
 70
     1
  9
$MAXACTVP
 70
    64
  9
$PINSBASE
 10
0.0
 20
0.0
 30
0.0
  9
$PLIMCHECK
 70
     0
  9
$PEXTMIN
 10
1.000000000000000E+20
 20
1.000000000000000E+20
 30
1.000000000000000E+20
  9
$PEXTMAX
 10
-1.000000000000000E+20
 20
-1.000000000000000E+20
 30
-1.000000000000000E+20
  9
$PLIMMIN
 10
0.0
 20
0.0
  9
$PLIMMAX
 10
12.0
 20
9.0
  9
$UNITMODE
 70
     0
  9
$VISRETAIN
 70
     1
  9
$PLINEGEN
 70
     0
  9
$PSLTSCALE
 70
     1
  9
$TREEDEPTH
 70
  3020
  9
$CMLSTYLE
  2
Standard
  9
$CMLJUST
 70
     0
  9
$CMLSCALE
 40
1.0
  9
$PROXYGRAPHICS
 70
     1
  9
$MEASUREMENT
 70
     0
  9
$CELWEIGHT
370
    -1
  9
$ENDCAPS
280
     0
  9
$JOINSTYLE
280
     0
  9
$LWDISPLAY
290
     0
  9
$INSUNITS
 70
     4
  9
$HYPERLINKBASE
  1

  9
$STYLESHEET
  1

  9
$XEDIT
290
     1
  9
$CEPSNTYPE
380
     0
  9
$PSTYLEMODE
290
     0
  9
$FINGERPRINTGUID
  2
{FAEB1C30-E019-11D5-929B-00C0DF256EC4}
  9
$VERSIONGUID
  2
{6C0523E1-F206-444E-989F-F1D35142659F}
  9
$EXTNAMES
290
     1
  9
$PSVPSCALE
 40
0.0
  9
$OLESTARTUP
290
     0
  0
ENDSEC
  0
SECTION
  2
CLASSES
  0
CLASS
  1
ACDBDICTIONARYWDFLT
  2
AcDbDictionaryWithDefault
  3
ObjectDBX Classes
 90
        0
280
     0
281
     0
  0
CLASS
  1
MATERIAL
  2
AcDbMaterial
  3
ObjectDBX Classes
 90
     1153
280
     0
281
     0
  0
CLASS
  1
MLEADERSTYLE
  2
AcDbMLeaderStyle
  3
ACDB_MLEADERSTYLE_CLASS
 90
     4095
280
     0
281
     0
  0
CLASS
  1
SCALE
  2
AcDbScale
  3
ObjectDBX Classes
 90
     1153
280
     0
281
     0
  0
CLASS
  1
TABLESTYLE
  2
AcDbTableStyle
  3
ObjectDBX Classes
 90
     4095
280
     0
281
     0
  0
CLASS
  1
VISUALSTYLE
  2
AcDbVisualStyle
  3
ObjectDBX Classes
 90
     4095
280
     0
281
     0
  0
CLASS
  1
DICTIONARYVAR
  2
AcDbDictionaryVar
  3
ObjectDBX Classes
 90
        0
280
     0
281
     0
  0
CLASS
  1
CELLSTYLEMAP
  2
AcDbCellStyleMap
  3
ObjectDBX Classes
 90
     1152
280
     0
281
     0
  0
CLASS
  1
AMGSETTINGSOBJ
  2
AmgSettingsObj
  3
"AcadM|Product Description: AutoCAD Mechanical|Company: Autodesk, Inc."
 90
     1024
280
     0
281
     0
  0
CLASS
  1
ACME_DOCUMENT
  2
AcMeDbDoc
  3
AcMeServices
 90
     1024
280
     0
281
     0
  0
CLASS
  1
ACMESCOPE
  2
AcMeScope
  3
AcMeServices
 90
     1024
280
     0
281
     0
  0
CLASS
  1
ACMECOMMANDHISTORY
  2
AcMeCommandHistory
  3
AcMeServices
 90
     1024
280
     0
281
     0
  0
CLASS
  1
ACIMSYSVARMAN
  2
AcImSysVarManager
  3
AcMeServices
 90
     1024
280
     0
281
     0
  0
CLASS
  1
ACIMINTSYSVAR
  2
AcImIntSysVar
  3
AcMeServices
 90
     1024
280
     0
281
     0
  0
CLASS
  1
ACMESTATEMGR
  2
AcMeStateMgr
  3
AcMeServices
 90
     1024
280
     0
281
     0
  0
CLASS
  1
ACDBENTITYCACHE
  2
AcMeEntityCache
  3
AcMeServices
 90
     1024
280
     0
281
     0
  0
CLASS
  1
ACGREFMASTER
  2
AcGrefMaster
  3
AcAttribServices
 90
     1024
280
     0
281
     0
  0
CLASS
  1
AM_DRAWING_MGR
  2
AcDmDwgMgr
  3
AcMechDwgViewMgmt
 90
     1024
280
     0
281
     0
  0
CLASS
  1
AM_DWG_DOCUMENT
  2
AcDmDwgDocument
  3
AcMechDwgViewMgmt
 90
     1024
280
     0
281
     0
  0
CLASS
  1
AM_DWG_SHEET
  2
AcDmSheet
  3
AcMechDwgViewMgmt
 90
     1024
280
     0
281
     0
  0
CLASS
  1
AM_VIEWDIMPARMAP
  2
AcDmViewDimParMap
  3
AcMechDwgViewMgmt
 90
     1024
280
     0
281
     0
  0
CLASS
  1
AMDTINTERNALREACTOR
  2
AmdtInternalReactor
  3
AcMeServices
 90
     1024
280
     0
281
     0
  0
CLASS
  1
ACIMREALSYSVAR
  2
AcImRealSysVar
  3
AcMeServices
 90
     1024
280
     0
281
     0
  0
CLASS
  1
AM_DWGMGR_NAME
  2
AcDmDwgMgrName
  3
AcMechDwgViewMgmt
 90
     1024
280
     0
281
     0
  0
CLASS
  1
ACME_DATABASE
  2
AcMeDbDatabase
  3
AcMeServices
 90
     1024
280
     0
281
     0
  0
CLASS
  1
ACRFINSADJUSTERMGR
  2
AcRfInsAdjusterMgr
  3
AcMeServices
 90
     1024
280
     0
281
     0
  0
CLASS
  1
ACGREFACADMASTER
  2
AcGrefacadMaster
  3
AcGrefServices
 90
     1024
280
     0
281
     0
  0
CLASS
  1
AMDTMENUSTATEMGR
  2
AmdtMenuStateMgr
  3
McadcomServices
 90
     1024
280
     0
281
     0
  0
CLASS
  1
AMDTMCOMMENUSTATE
  2
AmdtMcomMenuState
  3
McadcomServices
 90
     1024
280
     0
281
     0
  0
CLASS
  1
AMIMASTER
  2
AmiMaster
  3
AmiServices
 90
     1024
280
     0
281
     0
  0
CLASS
  1
MAPIAMMOUDLE
  2
MApiAmModule
  3
MApiAmServices
 90
     1024
280
     0
281
     0
  0
CLASS
  1
ACIMSTRSYSVAR
  2
AcImStrSysVar
  3
AcMeServices
 90
     1024
280
     0
281
     0
  0
CLASS
  1
AMDTDMMENUSTATE
  2
AmdtDmMenuState
  3
AcMechDwgViewMgmt
 90
     1024
280
     0
281
     0
  0
CLASS
  1
AMDTAMMENUSTATE
  2
AmdtAmMenuState
  3
DesignerAssemblies
 90
     1024
280
     0
281
     0
  0
CLASS
  1
ACAMPROJECT
  2
AcAmProject
  3
DesignerAssemblies
 90
     1024
280
     0
281
     0
  0
CLASS
  1
ACAMGRCOMPDEF
  2
AcAmGrCompDef
  3
DesignerAssemblies
 90
     1024
280
     0
281
     0
  0
CLASS
  1
ACAMCOMPDEF
  2
AcAmCompDef
  3
DesignerAssemblies
 90
     1024
280
     0
281
     0
  0
CLASS
  1
ACAMCOMPDEFMGR
  2
AcAmCompDefMgr
  3
DesignerAssemblies
 90
     1024
280
     0
281
     0
  0
CLASS
  1
AMCONTEXTMGR
  2
AcAmContextMgr
  3
DesignerAssemblies
 90
     1024
280
     0
281
     0
  0
CLASS
  1
ACAMCONTEXTMODELER
  2
AcAmContextModeler
  3
DesignerAssemblies
 90
     1024
280
     0
281
     0
  0
CLASS
  1
ACMDATADICTIONARY
  2
AcmDataDictionary
  3
"AcmSymBB|Product Description: AutoCAD Mechanical|Company: Autodesk, Inc."
 90
     1024
280
     0
281
     0
  0
CLASS
  1
ACAMGRCOMPDEFSET
  2
AcAmGrCompDefSet
  3
DesignerAssemblies
 90
     1024
280
     0
281
     0
  0
CLASS
  1
AMDTBROWSERDBTAB
  2
AmdtBrowserDbTab
  3
McadcomServices
 90
     1024
280
     0
281
     0
  0
CLASS
  1
CBROWSERAPPOBJECT
  2
CBrowserAppObject
  3
McadcomServices
 90
     1024
280
     0
281
     0
  0
CLASS
  1
DM_PLACEHOLDER
  2
AcDmSelsetPlaceholder
  3
AcMechDwgViewMgmt
 90
     1024
280
     0
281
     0
  0
CLASS
  1
EXACXREFPANELOBJECT
  2
ExAcXREFPanelObject
  3
EXAC_ESW
 90
     1025
280
     0
281
     0
  0
CLASS
  1
NPOCOLLECTION
  2
AcDbImpNonPersistentObjectsCollection
  3
ObjectDBX Classes
 90
     1153
280
     0
281
     0
  0
CLASS
  1
ACMSTANDARDANSI
  2
AcmStandardANSI
  3
"Amdt_StdImp|Product Description: AutoCAD Mechanical|Company: Autodesk, Inc."
 90
     1024
280
     0
281
     0
  0
CLASS
  1
ACMSURFSTANDARDANSI
  2
AcmSurfTextStdANSI
  3
"Amdt_StdImp|Product Description: AutoCAD Mechanical|Company: Autodesk, Inc."
 90
     1024
280
     0
281
     0
  0
CLASS
  1
ACMFCFSTANDARDANSI
  2
AcmFCFStdANSI
  3
"Amdt_StdImp|Product Description: AutoCAD Mechanical|Company: Autodesk, Inc."
 90
     1024
280
     0
281
     0
  0
CLASS
  1
ACMWELDSTANDARDANSI
  2
AcmWeldingStdANSI
  3
"Amdt_StdImp|Product Description: AutoCAD Mechanical|Company: Autodesk, Inc."
 90
     1024
280
     0
281
     0
  0
CLASS
  1
ACMIDSTANDARDANSI
  2
AcmIdStdANSI
  3
"Amdt_StdImp|Product Description: AutoCAD Mechanical|Company: Autodesk, Inc."
 90
     1024
280
     0
281
     0
  0
CLASS
  1
ACMDATUMSTANDARDANSI
  2
AcmDatumStdANSI
  3
"Amdt_StdImp|Product Description: AutoCAD Mechanical|Company: Autodesk, Inc."
 90
     1024
280
     0
281
     0
  0
CLASS
  1
ACMBOMSTANDARDANSI
  2
AcmBOMStdANSI
  3
"Amdt_StdImp|Product Description: AutoCAD Mechanical|Company: Autodesk, Inc."
 90
     1024
280
     0
281
     0
  0
CLASS
  1
ACMDETAILSTANDARDANSI
  2
AmdtDetailSymStdANSI
  3
"Amdt_StdImp|Product Description: AutoCAD Mechanical|Company: Autodesk, Inc."
 90
     1024
280
     0
281
     0
  0
CLASS
  1
ACMSECTIONSTANDARDANSI
  2
AmdtSectionSymStdANSI
  3
"Amdt_StdImp|Product Description: AutoCAD Mechanical|Company: Autodesk, Inc."
 90
     1024
280
     0
281
     0
  0
CLASS
  1
ACMCENTERLINESTANDARDANSI
  2
AmdtCenterLineStdANSI
  3
"Amdt_StdImp|Product Description: AutoCAD Mechanical|Company: Autodesk, Inc."
 90
     1024
280
     0
281
     0
  0
CLASS
  1
ACMTHREADLINESTANDARDANSI
  2
AmdtThreadLineStdANSI
  3
"Amdt_StdImp|Product Description: AutoCAD Mechanical|Company: Autodesk, Inc."
 90
     1024
280
     0
281
     0
  0
CLASS
  1
ACMNOTESTANDARDANSI
  2
AmdtNoteStdANSI
  3
"Amdt_StdImp|Product Description: AutoCAD Mechanical|Company: Autodesk, Inc."
 90
     1024
280
     0
281
     0
  0
CLASS
  1
ACMTAPERSTANDARDANSI
  2
AcmTaperStdANSI
  3
"Amdt_StdImp|Product Description: AutoCAD Mechanical|Company: Autodesk, Inc."
 90
     1024
280
     0
281
     0
  0
CLASS
  1
ACMANOOTATIONVIEWSTANDARDANSI
  2
AmdtAnViewStdANSI
  3
"Amdt_StdImp|Product Description: AutoCAD Mechanical|Company: Autodesk, Inc."
 90
     1024
280
     0
281
     0
  0
CLASS
  1
ACAMGLAYSTD
  2
AcAmgLayStd
  3
"AmgLay|Product Description: AutoCAD Mechanical|Company: Autodesk, Inc."
 90
     1024
280
     0
281
     0
  0
CLASS
  1
ACAMGDIMSTD
  2
AcAmgDimStd
  3
"AmgDim|Product Description: AutoCAD Mechanical|Company: Autodesk, Inc."
 90
     1024
280
     0
281
     0
  0
CLASS
  1
AMGOBJPROPCFG
  2
AmgObjPropCfg
  3
"AmgLay|Product Description: AutoCAD Mechanical|Company: Autodesk, Inc."
 90
     1025
280
     0
281
     0
  0
CLASS
  1
ACAMGHOLECHARTSTDANSI
  2
AcAmgHoleChartStdANSI
  3
AmgDim|Product Description: AutoCAD Mechanical|Company: Autodesk, Inc.
 90
     1024
280
     0
281
     0
  0
CLASS
  1
ACAMGTITLESTD
  2
AcAmgTitleStd
  3
"AmgTitle|Product Description: AutoCAD Mechanical|Company: Autodesk, Inc."
 90
     4095
280
     0
281
     0
  0
CLASS
  1
AMDTNOTETEMPLATEDB
  2
AmdtNoteTemplateDB
  3
AcmSymBB|Product Description: AutoCAD Mechanical|Company: Autodesk, Inc.
 90
     1024
280
     0
281
     0
  0
CLASS
  1
ACAMGFILTERDAT
  2
AcAmgFilterDat
  3
"AcadM|Product Description: AutoCAD Mechanical|Company: Autodesk, Inc."
 90
     1024
280
     0
281
     0
  0
CLASS
  1
ACDBPLACEHOLDER
  2
AcDbPlaceHolder
  3
ObjectDBX Classes
 90
        0
280
     0
281
     0
  0
CLASS
  1
LAYOUT
  2
AcDbLayout
  3
ObjectDBX Classes
 90
        0
280
     0
281
     0
  0
ENDSEC
  0
SECTION
  2
TABLES
  0
TABLE
  2
VPORT
  5
24A
330
0
100
AcDbSymbolTable
 70
     1
  0
VPORT
  5
26B
330
24A
100
AcDbSymbolTableRecord
100
AcDbViewportTableRecord
  2
*Active
 70
     0
 10
0.0
 20
0.0
 11
1.0
 21
1.0
 12
6.117892136304703
 22
-31.64081480972615
 13
0.0
 23
0.0
 14
10.0
 24
10.0
 15
10.0
 25
10.0
 16
0.0
 26
0.0
 36
1.0
 17
0.0
 27
0.0
 37
0.0
 40
266.622720837248
 41
1.492489270386266
 42
1.0
 43
0.0
 44
0.0
 50
0.0
 51
0.0000000000007958
 71
     0
 72
   100
 73
     1
 74
     3
 75
     0
 76
     0
 77
     0
 78
     1
281
     0
 65
     0
110
0.0
120
0.0
130
0.0
111
1.0
121
0.0
131
0.0
112
0.0
122
1.0
132
0.0
 79
     0
146
0.0
  0
ENDTAB
  0
TABLE
  2
LTYPE
  5
247
330
0
100
AcDbSymbolTable
 70
    37
  0
LTYPE
  5
256
330
247
100
AcDbSymbolTableRecord
100
AcDbLinetypeTableRecord
  2
ByBlock
 70
     0
  3

 72
    65
 73
     0
 40
0.0
  0
LTYPE
  5
257
330
247
100
AcDbSymbolTableRecord
100
AcDbLinetypeTableRecord
  2
ByLayer
 70
     0
  3

 72
    65
 73
     0
 40
0.0
  0
LTYPE
  5
258
330
247
100
AcDbSymbolTableRecord
100
AcDbLinetypeTableRecord
  2
Continuous
 70
     0
  3
Solid line
 72
    65
 73
     0
 40
0.0
  0
LTYPE
  5
273
330
247
100
AcDbSymbolTableRecord
100
AcDbLinetypeTableRecord
  2
CENTER
 70
     0
  3
Center ____ _ ____ _ ____ _ ____ _ ____ _ ____
 72
    65
 73
     4
 40
2.0
 49
1.25
 74
     0
 49
-0.25
 74
     0
 49
0.25
 74
     0
 49
-0.25
 74
     0
  0
LTYPE
  5
274
330
247
100
AcDbSymbolTableRecord
100
AcDbLinetypeTableRecord
  2
DASHDOT
 70
     0
  3
Dashdot __ . __ . __ . __ . __ . __ . __ . __
 72
    65
 73
     4
 40
1.0
 49
0.5
 74
     0
 49
-0.25
 74
     0
 49
0.0
 74
     0
 49
-0.25
 74
     0
  0
LTYPE
  5
275
330
247
100
AcDbSymbolTableRecord
100
AcDbLinetypeTableRecord
  2
DASHED
 70
     0
  3
Dashed __ __ __ __ __ __ __ __ __ __ __ __ __ _
 72
    65
 73
     2
 40
0.75
 49
0.5
 74
     0
 49
-0.25
 74
     0
  0
LTYPE
  5
276
330
247
100
AcDbSymbolTableRecord
100
AcDbLinetypeTableRecord
  2
HIDDEN
 70
     0
  3
Hidden __ __ __ __ __ __ __ __ __ __ __ __ __ __
 72
    65
 73
     2
 40
0.375
 49
0.25
 74
     0
 49
-0.125
 74
     0
  0
LTYPE
  5
277
330
247
100
AcDbSymbolTableRecord
100
AcDbLinetypeTableRecord
  2
HIDDEN2
 70
     0
  3
Hidden2 _ _ _ _ _ _ _ _ _ _ _ _ _ _ _ _ _
 72
    65
 73
     2
 40
0.1875
 49
0.125
 74
     0
 49
-0.0625
 74
     0
  0
LTYPE
  5
278
330
247
100
AcDbSymbolTableRecord
100
AcDbLinetypeTableRecord
  2
BORDER
 70
     0
  3
Border __ __ . __ __ . __ __ . __ __ . __ __ .
 72
    65
 73
     6
 40
1.75
 49
0.5
 74
     0
 49
-0.25
 74
     0
 49
0.5
 74
     0
 49
-0.25
 74
     0
 49
0.0
 74
     0
 49
-0.25
 74
     0
  0
LTYPE
  5
279
330
247
100
AcDbSymbolTableRecord
100
AcDbLinetypeTableRecord
  2
BORDER2
 70
     0
  3
Border2 __.__.__.__.__.__.__.__.__.__.__.
 72
    65
 73
     6
 40
0.875
 49
0.25
 74
     0
 49
-0.125
 74
     0
 49
0.25
 74
     0
 49
-0.125
 74
     0
 49
0.0
 74
     0
 49
-0.125
 74
     0
  0
LTYPE
  5
27A
330
247
100
AcDbSymbolTableRecord
100
AcDbLinetypeTableRecord
  2
BORDERX2
 70
     0
  3
Borderx2  ____  ____  .  ____  ____  .  ___
 72
    65
 73
     6
 40
3.5
 49
1.0
 74
     0
 49
-0.5
 74
     0
 49
1.0
 74
     0
 49
-0.5
 74
     0
 49
0.0
 74
     0
 49
-0.5
 74
     0
  0
LTYPE
  5
27B
330
247
100
AcDbSymbolTableRecord
100
AcDbLinetypeTableRecord
  2
CENTER2
 70
     0
  3
Center2  ___ _ ___ _ ___ _ ___ _ ___ _ ___
 72
    65
 73
     4
 40
1.125
 49
0.75
 74
     0
 49
-0.125
 74
     0
 49
0.125
 74
     0
 49
-0.125
 74
     0
  0
LTYPE
  5
27C
330
247
100
AcDbSymbolTableRecord
100
AcDbLinetypeTableRecord
  2
CENTERX2
 70
     0
  3
Centerx2  ________  __  ________  __  _____
 72
    65
 73
     4
 40
4.0
 49
2.5
 74
     0
 49
-0.5
 74
     0
 49
0.5
 74
     0
 49
-0.5
 74
     0
  0
LTYPE
  5
27D
330
247
100
AcDbSymbolTableRecord
100
AcDbLinetypeTableRecord
  2
DASHDOT2
 70
     0
  3
Dashdot2  _._._._._._._._._._._._._._._.
 72
    65
 73
     4
 40
0.5
 49
0.25
 74
     0
 49
-0.125
 74
     0
 49
0.0
 74
     0
 49
-0.125
 74
     0
  0
LTYPE
  5
27E
330
247
100
AcDbSymbolTableRecord
100
AcDbLinetypeTableRecord
  2
DASHDOTX2
 70
     0
  3
Dashdotx2 ____  .  ____  .  ____  .  ___
 72
    65
 73
     4
 40
2.0
 49
1.0
 74
     0
 49
-0.5
 74
     0
 49
0.0
 74
     0
 49
-0.5
 74
     0
  0
LTYPE
  5
27F
330
247
100
AcDbSymbolTableRecord
100
AcDbLinetypeTableRecord
  2
DASHED2
 70
     0
  3
Dashed2 _ _ _ _ _ _ _ _ _ _ _ _ _ _ _ _ _
 72
    65
 73
     2
 40
0.375
 49
0.25
 74
     0
 49
-0.125
 74
     0
  0
LTYPE
  5
280
330
247
100
AcDbSymbolTableRecord
100
AcDbLinetypeTableRecord
  2
DASHEDX2
 70
     0
  3
Dashedx2 ____  ____  ____  ____  ____  ___
 72
    65
 73
     2
 40
1.5
 49
1.0
 74
     0
 49
-0.5
 74
     0
  0
LTYPE
  5
281
330
247
100
AcDbSymbolTableRecord
100
AcDbLinetypeTableRecord
  2
DIVIDE
 70
     0
  3
Divide ____ . . ____ . . ____ . . ____ . . ____
 72
    65
 73
     6
 40
1.25
 49
0.5
 74
     0
 49
-0.25
 74
     0
 49
0.0
 74
     0
 49
-0.25
 74
     0
 49
0.0
 74
     0
 49
-0.25
 74
     0
  0
LTYPE
  5
282
330
247
100
AcDbSymbolTableRecord
100
AcDbLinetypeTableRecord
  2
DIVIDE2
 70
     0
  3
Divide2 __..__..__..__..__..__..__..__.._
 72
    65
 73
     6
 40
0.625
 49
0.25
 74
     0
 49
-0.125
 74
     0
 49
0.0
 74
     0
 49
-0.125
 74
     0
 49
0.0
 74
     0
 49
-0.125
 74
     0
  0
LTYPE
  5
283
330
247
100
AcDbSymbolTableRecord
100
AcDbLinetypeTableRecord
  2
DIVIDEX2
 70
     0
  3
Dividex2 ________  .  .  ________  .  .  _
 72
    65
 73
     6
 40
2.5
 49
1.0
 74
     0
 49
-0.5
 74
     0
 49
0.0
 74
     0
 49
-0.5
 74
     0
 49
0.0
 74
     0
 49
-0.5
 74
     0
  0
LTYPE
  5
284
330
247
100
AcDbSymbolTableRecord
100
AcDbLinetypeTableRecord
  2
DOT
 70
     0
  3
Dot . . . . . . . . . . . . . . . . . . . . . . . .
 72
    65
 73
     2
 40
0.25
 49
0.0
 74
     0
 49
-0.25
 74
     0
  0
LTYPE
  5
285
330
247
100
AcDbSymbolTableRecord
100
AcDbLinetypeTableRecord
  2
DOT2
 70
     0
  3
Dot2 ........................................
 72
    65
 73
     2
 40
0.125
 49
0.0
 74
     0
 49
-0.125
 74
     0
  0
LTYPE
  5
286
330
247
100
AcDbSymbolTableRecord
100
AcDbLinetypeTableRecord
  2
DOTX2
 70
     0
  3
Dotx2 .  .  .  .  .  .  .  .  .  .  .  .  .  .
 72
    65
 73
     2
 40
0.5
 49
0.0
 74
     0
 49
-0.5
 74
     0
  0
LTYPE
  5
287
330
247
100
AcDbSymbolTableRecord
100
AcDbLinetypeTableRecord
  2
HIDDENX2
 70
     0
  3
Hiddenx2 ____ ____ ____ ____ ____ ____ ____
 72
    65
 73
     2
 40
0.75
 49
0.5
 74
     0
 49
-0.25
 74
     0
  0
LTYPE
  5
288
330
247
100
AcDbSymbolTableRecord
100
AcDbLinetypeTableRecord
  2
PHANTOM
 70
     0
  3
Phantom ______  __  __  ______  __  __  ______
 72
    65
 73
     6
 40
2.5
 49
1.25
 74
     0
 49
-0.25
 74
     0
 49
0.25
 74
     0
 49
-0.25
 74
     0
 49
0.25
 74
     0
 49
-0.25
 74
     0
  0
LTYPE
  5
289
330
247
100
AcDbSymbolTableRecord
100
AcDbLinetypeTableRecord
  2
PHANTOM2
 70
     0
  3
Phantom2 ___ _ _ ___ _ _ ___ _ _ ___ _ _
 72
    65
 73
     6
 40
1.25
 49
0.625
 74
     0
 49
-0.125
 74
     0
 49
0.125
 74
     0
 49
-0.125
 74
     0
 49
0.125
 74
     0
 49
-0.125
 74
     0
  0
LTYPE
  5
28A
330
247
100
AcDbSymbolTableRecord
100
AcDbLinetypeTableRecord
  2
PHANTOMX2
 70
     0
  3
Phantomx2 ____________    ____    ____   _
 72
    65
 73
     6
 40
5.0
 49
2.5
 74
     0
 49
-0.5
 74
     0
 49
0.5
 74
     0
 49
-0.5
 74
     0
 49
0.5
 74
     0
 49
-0.5
 74
     0
  0
LTYPE
  5
F10999
330
247
100
AcDbSymbolTableRecord
100
AcDbLinetypeTableRecord
  2
AM_ISO02W050
 70
     0
  3
__ __ __ __ __ __ __ __ __ __ __ __ __ __ __
 72
    65
 73
     2
 40
7.5
 49
6.0
 74
     0
 49
-1.5
 74
     0
  0
LTYPE
  5
F1099A
330
247
100
AcDbSymbolTableRecord
100
AcDbLinetypeTableRecord
  2
AM_ISO08W050
 70
     0
  3
____ . ____ . ____ . ____ . ____ . ____ . ____
 72
    65
 73
     4
 40
18.0
 49
12.0
 74
     0
 49
-1.5
 74
     0
 49
3.0
 74
     0
 49
-1.5
 74
     0
  0
LTYPE
  5
F1099B
330
247
100
AcDbSymbolTableRecord
100
AcDbLinetypeTableRecord
  2
AM_ISO09W050
 70
     0
  3
_____ . . _____ . . _____ . . ____ .. ____
 72
    65
 73
     6
 40
22.5
 49
12.0
 74
     0
 49
-1.5
 74
     0
 49
3.0
 74
     0
 49
-1.5
 74
     0
 49
3.0
 74
     0
 49
-1.5
 74
     0
  0
LTYPE
  5
F1099C
330
247
100
AcDbSymbolTableRecord
100
AcDbLinetypeTableRecord
  2
Amconstr
 70
     0
  3
_______________________
 72
    65
 73
     2
 40
9999.0
 49
9999.0
 74
     0
 49
0.0
 74
     0
  0
LTYPE
  5
F1099D
330
247
100
AcDbSymbolTableRecord
100
AcDbLinetypeTableRecord
  2
AM_ISO08W050x2
 70
     0
  3
__ . __ . __ . __ . __ . __
 72
    65
 73
     4
 40
9.0
 49
6.0
 74
     0
 49
-0.75
 74
     0
 49
1.5
 74
     0
 49
-0.75
 74
     0
  0
LTYPE
  5
F1099E
330
247
100
AcDbSymbolTableRecord
100
AcDbLinetypeTableRecord
  2
AM_ISO02W050x2
 70
     0
  3
 _ _ _ _ _ _ _ _ _ _ _ _
 72
    65
 73
     2
 40
3.75
 49
3.0
 74
     0
 49
-0.75
 74
     0
  0
LTYPE
  5
F109A1
330
247
100
AcDbSymbolTableRecord
100
AcDbLinetypeTableRecord
  2
Amzigzag
 70
     0
  3
/\/-/\/-/\/-/\/-/\/-/\/
 72
    65
 73
     2
 40
11.0001
 49
0.0001
 74
     4
 75
   136
340
F109A0
 46
0.04
 50
0.0
 44
0.0
 45
0.0
 49
-11.0
 74
     0
  0
LTYPE
  5
F109A2
330
247
100
AcDbSymbolTableRecord
100
AcDbLinetypeTableRecord
  2
Amzigzag2
 70
     0
  3
/\/-/\/-/\/-/\/-/\/-/\/
 72
    65
 73
     2
 40
0.4401
 49
0.0001
 74
     4
 75
   136
340
F109A0
 46
0.0016
 50
0.0
 44
0.0
 45
0.0
 49
-0.4400000000000001
 74
     0
  0
LTYPE
  5
F109B0
330
247
100
AcDbSymbolTableRecord
100
AcDbLinetypeTableRecord
  2
ACANSTGB
 70
     0
  3
__ . . __ . .
 72
    65
 73
     6
 40
0.35433070866
 49
0.15748031496
 74
     0
 49
-0.03937007874
 74
     0
 49
0.03937007874
 74
     0
 49
-0.03937007874
 74
     0
 49
0.03937007874
 74
     0
 49
-0.03937007874
 74
     0
  0
LTYPE
  5
F109B1
330
247
100
AcDbSymbolTableRecord
100
AcDbLinetypeTableRecord
  2
ACANSTGL
 70
     0
  3
_ _ _ _ _
 72
    65
 73
     2
 40
0.11811023622
 49
0.07874015748
 74
     0
 49
-0.03937007874
 74
     0
  0
ENDTAB
  0
TABLE
  2
LAYER
  5
244
330
0
100
AcDbSymbolTable
 70
     6
  0
LAYER
  5
252
102
{ACAD_XDICTIONARY
360
F10AA2
102
}
330
244
100
AcDbSymbolTableRecord
100
AcDbLayerTableRecord
  2
0
 70
     0
 62
     7
  6
Continuous
370
     0
390
19
  0
LAYER
  5
23F
102
{ACAD_XDICTIONARY
360
F10AA4
102
}
330
244
100
AcDbSymbolTableRecord
100
AcDbLayerTableRecord
  2
Bemassung
 70
     0
 62
     7
  6
Continuous
370
     0
390
19
  0
LAYER
  5
240
102
{ACAD_XDICTIONARY
360
F10AA6
102
}
330
244
100
AcDbSymbolTableRecord
100
AcDbLayerTableRecord
  2
Rahmen
 70
     0
 62
     7
  6
Continuous
370
     0
390
19
  0
LAYER
  5
241
102
{ACAD_XDICTIONARY
360
F10AA8
102
}
330
244
100
AcDbSymbolTableRecord
100
AcDbLayerTableRecord
  2
Geo
 70
     0
 62
     7
  6
Continuous
370
     0
390
19
  0
LAYER
  5
33A
330
244
100
AcDbSymbolTableRecord
100
AcDbLayerTableRecord
  2
Defpoints
 70
     0
 62
     7
  6
Continuous
290
     0
370
    -3
390
19
  0
LAYER
  5
57E
102
{ACAD_XDICTIONARY
360
F10AAA
102
}
330
244
100
AcDbSymbolTableRecord
100
AcDbLayerTableRecord
  2
Text
 70
     0
 62
     7
  6
Continuous
370
     0
390
19
1001
AcAecLayerStandard
1000

1000

  0
ENDTAB
  0
TABLE
  2
STYLE
  5
245
330
0
100
AcDbSymbolTable
 70
     5
  0
STYLE
  5
253
330
245
100
AcDbSymbolTableRecord
100
AcDbTextStyleTableRecord
  2
Standard
 70
     0
 40
0.0
 41
1.0
 50
0.0
 71
     0
 42
0.2
  3
Arial
  4

1001
ACAD
1000
Arial
1071
        0
  0
STYLE
  5
132
330
245
100
AcDbSymbolTableRecord
100
AcDbTextStyleTableRecord
  2
Beschriftung
 70
     0
 40
0.0
 41
1.0
 50
0.0
 71
     0
 42
0.2
  3
Arial
  4

1001
ACAD
1000
Arial
1071
        0
1001
AcadAnnotative
1000
AnnotativeData
1070
     1
1070
     1
  0
STYLE
  5
F109A0
330
245
100
AcDbSymbolTableRecord
100
AcDbTextStyleTableRecord
  2

 70
     1
 40
0.0
 41
1.0
 50
0.0
 71
     0
 42
0.2
  3
genltshp.shx
  4

  0
STYLE
  5
F109AE
330
245
100
AcDbSymbolTableRecord
100
AcDbTextStyleTableRecord
  2
ACANSTS
 70
     0
 40
1.0
 41
1.0
 50
0.0
 71
     0
 42
0.2
  3
romans.shx
  4

  0
STYLE
  5
F109AF
330
245
100
AcDbSymbolTableRecord
100
AcDbTextStyleTableRecord
  2
ACANSGDT
 70
     0
 40
0.0
 41
1.0
 50
0.0
 71
     0
 42
0.2
  3
amgdt.shx
  4

  0
ENDTAB
  0
TABLE
  2
VIEW
  5
248
330
0
100
AcDbSymbolTable
 70
     0
  0
ENDTAB
  0
TABLE
  2
UCS
  5
249
330
0
100
AcDbSymbolTable
 70
     0
  0
ENDTAB
  0
TABLE
  2
APPID
  5
24B
330
0
100
AcDbSymbolTable
 70
    28
  0
APPID
  5
254
330
24B
100
AcDbSymbolTableRecord
100
AcDbRegAppTableRecord
  2
ACAD
 70
     0
  0
APPID
  5
26C
330
24B
100
AcDbSymbolTableRecord
100
AcDbRegAppTableRecord
  2
VD_INVISIBLE_NOT_FOR_READ
 70
     0
  0
APPID
  5
26D
330
24B
100
AcDbSymbolTableRecord
100
AcDbRegAppTableRecord
  2
VD_TEMPHATCH
 70
     0
  0
APPID
  5
26E
330
24B
100
AcDbSymbolTableRecord
100
AcDbRegAppTableRecord
  2
VDEXTRAPARAM
 70
     0
  0
APPID
  5
26F
330
24B
100
AcDbSymbolTableRecord
100
AcDbRegAppTableRecord
  2
PE_URL
 70
     0
  0
APPID
  5
270
330
24B
100
AcDbSymbolTableRecord
100
AcDbRegAppTableRecord
  2
VD_UNKNOWN
 70
     0
  0
APPID
  5
28F
330
24B
100
AcDbSymbolTableRecord
100
AcDbRegAppTableRecord
  2
AcadAnnotative
 70
     0
  0
APPID
  5
290
330
24B
100
AcDbSymbolTableRecord
100
AcDbRegAppTableRecord
  2
ACAD_DSTYLE_DIMJAG
 70
     0
  0
APPID
  5
291
330
24B
100
AcDbSymbolTableRecord
100
AcDbRegAppTableRecord
  2
ACAD_DSTYLE_DIMTALN
 70
     0
  0
APPID
  5
293
330
24B
100
AcDbSymbolTableRecord
100
AcDbRegAppTableRecord
  2
ACAD_PSEXT
 70
     0
  0
APPID
  5
42A
330
24B
100
AcDbSymbolTableRecord
100
AcDbRegAppTableRecord
  2
ACAD_MLEADERVER
 70
     0
  0
APPID
  5
532
330
24B
100
AcDbSymbolTableRecord
100
AcDbRegAppTableRecord
  2
ACAD_EXEMPT_FROM_CAD_STANDARDS
 70
     0
  0
APPID
  5
57F
330
24B
100
AcDbSymbolTableRecord
100
AcDbRegAppTableRecord
  2
AcAecLayerStandard
 70
     0
  0
APPID
  5
F10933
330
24B
100
AcDbSymbolTableRecord
100
AcDbRegAppTableRecord
  2
MCAD_NO_VIS
 70
     0
  0
APPID
  5
F10934
330
24B
100
AcDbSymbolTableRecord
100
AcDbRegAppTableRecord
  2
ACAD_TEMP_GRAPHIC
 70
     0
  0
APPID
  5
F1095D
330
24B
100
AcDbSymbolTableRecord
100
AcDbRegAppTableRecord
  2
AD_DRAW
 70
     0
  0
APPID
  5
F10960
330
24B
100
AcDbSymbolTableRecord
100
AcDbRegAppTableRecord
  2
ACATTRIBSERVICES
 70
     0
  0
APPID
  5
F10979
330
24B
100
AcDbSymbolTableRecord
100
AcDbRegAppTableRecord
  2
DESIGNERASSEMBLIES
 70
     0
  0
APPID
  5
F1097E
330
24B
100
AcDbSymbolTableRecord
100
AcDbRegAppTableRecord
  2
ACADM_DIM_EDIT
 70
     0
  0
APPID
  5
F1097F
330
24B
100
AcDbSymbolTableRecord
100
AcDbRegAppTableRecord
  2
AMDT_DM_ADJ
 70
     0
  0
APPID
  5
F10997
330
24B
100
AcDbSymbolTableRecord
100
AcDbRegAppTableRecord
  2
ACAD_DSTYLE_DIMBREAK
 70
     0
  0
APPID
  5
F109B8
330
24B
100
AcDbSymbolTableRecord
100
AcDbRegAppTableRecord
  2
GENIUS_GENSCREG_15
 70
     0
  0
APPID
  5
F109B9
330
24B
100
AcDbSymbolTableRecord
100
AcDbRegAppTableRecord
  2
GENIUS_GENOBJ-N-SDF_13
 70
     0
  0
APPID
  5
F109BA
330
24B
100
AcDbSymbolTableRecord
100
AcDbRegAppTableRecord
  2
GENIUS_GENODEF_13
 70
     0
  0
APPID
  5
F10AFA
330
24B
100
AcDbSymbolTableRecord
100
AcDbRegAppTableRecord
  2
ACAD_DSTYLE_DIMARC_LENGTH_SYMBOL
 70
     0
  0
APPID
  5
F10AFB
330
24B
100
AcDbSymbolTableRecord
100
AcDbRegAppTableRecord
  2
ACAD_DSTYLE_DIM_LINETYPE
 70
     0
  0
APPID
  5
F10AFC
330
24B
100
AcDbSymbolTableRecord
100
AcDbRegAppTableRecord
  2
ACAD_DSTYLE_DIM_EXT1_LINETYPE
 70
     0
  0
APPID
  5
F10AFD
330
24B
100
AcDbSymbolTableRecord
100
AcDbRegAppTableRecord
  2
ACAD_DSTYLE_DIM_EXT2_LINETYPE
 70
     0
  0
ENDTAB
  0
TABLE
  2
DIMSTYLE
  5
24C
330
0
100
AcDbSymbolTable
 70
    10
100
AcDbDimStyleTable
 71
     2
340
27
340
269
  0
DIMSTYLE
105
269
330
24C
100
AcDbSymbolTableRecord
100
AcDbDimStyleTableRecord
  2
Standard
 70
     0
172
     1
174
     1
288
     1
340
253
342
23C
  0
DIMSTYLE
105
137
330
24C
100
AcDbSymbolTableRecord
100
AcDbDimStyleTableRecord
  2
Beschriftung
 70
     0
 41
2.5
 42
0.625
 44
1.25
 73
     0
 74
     0
 77
     1
140
2.5
147
0.625
172
     1
174
     1
271
     2
288
     1
340
253
342
23C
1001
AcadAnnotative
1000
AnnotativeData
1070
     1
1070
     1
1001
ACAD_DSTYLE_DIMJAG
1070
   388
1040
1.5
1001
ACAD_DSTYLE_DIMTALN
1070
   392
1070
     0
  0
DIMSTYLE
105
27
102
{ACAD_REACTORS
330
F10017
330
F10021
330
F10026
330
F1002B
330
F10008
330
F1000D
330
F1001C
102
}
330
24C
100
AcDbSymbolTableRecord
100
AcDbDimStyleTableRecord
  2
BEM-ISBE
 70
     0
 41
2.5
 42
0.625
 44
1.25
 48
0.000000001
 71
     1
 73
     0
 74
     0
 77
     1
140
2.5
146
0.5
147
0.625
171
     3
172
     1
179
     3
271
     3
272
     3
274
     3
340
253
342
23C
1001
ACAD_DSTYLE_DIMJAG
1070
   388
1040
1.5
1001
ACAD_DSTYLE_DIMTALN
1070
   392
1070
     1
  0
DIMSTYLE
105
F10996
102
{ACAD_REACTORS
330
F10986
102
}
330
24C
100
AcDbSymbolTableRecord
100
AcDbDimStyleTableRecord
  2
AM_ANSI
 70
     0
  4
mm
 41
0.12
 42
0.05
 43
0.5
 44
0.1
 47
0.1
 48
0.1
 78
     7
 79
     2
140
0.12
141
0.0
146
0.71
147
0.06
176
   256
177
   256
178
     2
274
     4
284
     7
340
253
371
    -1
372
    -1
1001
ACAD_DSTYLE_DIMJAG
1070
   388
1040
1.5
1001
ACAD_DSTYLE_DIMBREAK
1070
   391
1040
0.125
1001
ACAD_DSTYLE_DIMARC_LENGTH_SYMBOL
1070
   379
1070
     1
1001
ACAD_DSTYLE_DIM_LINETYPE
1070
   380
1005
256
1001
ACAD_DSTYLE_DIM_EXT1_LINETYPE
1070
   381
1005
256
1001
ACAD_DSTYLE_DIM_EXT2_LINETYPE
1070
   382
1005
256
  0
DIMSTYLE
105
F109A3
330
24C
100
AcDbSymbolTableRecord
100
AcDbDimStyleTableRecord
  2
AM_ANSI$3
 70
     0
  4
mm
 41
0.12
 42
0.05
 43
0.5
 44
0.1
 47
0.1
 48
0.1
 78
     7
 79
     2
140
0.12
141
0.0
146
0.71
147
0.06
176
   256
177
   256
178
     2
274
     4
284
     7
288
     1
289
     0
340
253
371
    -1
372
    -1
1001
ACAD_DSTYLE_DIMBREAK
1070
   391
1040
0.125
1001
ACAD_DSTYLE_DIMJAG
1070
   388
1040
1.5
1001
ACAD_DSTYLE_DIMARC_LENGTH_SYMBOL
1070
   379
1070
     1
1001
ACAD_DSTYLE_DIM_LINETYPE
1070
   380
1005
256
1001
ACAD_DSTYLE_DIM_EXT1_LINETYPE
1070
   381
1005
256
1001
ACAD_DSTYLE_DIM_EXT2_LINETYPE
1070
   382
1005
256
  0
DIMSTYLE
105
F109A4
330
24C
100
AcDbSymbolTableRecord
100
AcDbDimStyleTableRecord
  2
AM_ANSI$4
 70
     0
  4
mm
 41
0.12
 42
0.05
 43
0.5
 44
0.1
 47
0.1
 48
0.1
 78
     7
 79
     2
140
0.12
141
0.0
146
0.71
147
0.06
176
   256
177
   256
178
     2
274
     4
284
     7
288
     1
289
     0
340
253
371
    -1
372
    -1
1001
ACAD_DSTYLE_DIMBREAK
1070
   391
1040
0.125
1001
ACAD_DSTYLE_DIMJAG
1070
   388
1040
1.5
1001
ACAD_DSTYLE_DIMARC_LENGTH_SYMBOL
1070
   379
1070
     1
1001
ACAD_DSTYLE_DIM_LINETYPE
1070
   380
1005
256
1001
ACAD_DSTYLE_DIM_EXT1_LINETYPE
1070
   381
1005
256
1001
ACAD_DSTYLE_DIM_EXT2_LINETYPE
1070
   382
1005
256
  0
DIMSTYLE
105
F109A5
330
24C
100
AcDbSymbolTableRecord
100
AcDbDimStyleTableRecord
  2
AM_ANSI$7
 70
     0
  4
mm
 41
0.12
 42
0.05
 43
0.5
 44
0.1
 47
0.1
 48
0.1
 78
     7
 79
     2
140
0.12
141
0.0
146
0.71
147
0.06
176
   256
177
   256
178
     2
274
     4
284
     7
340
253
371
    -1
372
    -1
1001
ACAD_DSTYLE_DIMBREAK
1070
   391
1040
0.125
1001
ACAD_DSTYLE_DIMJAG
1070
   388
1040
1.5
1001
ACAD_DSTYLE_DIMARC_LENGTH_SYMBOL
1070
   379
1070
     1
1001
ACAD_DSTYLE_DIM_LINETYPE
1070
   380
1005
256
1001
ACAD_DSTYLE_DIM_EXT1_LINETYPE
1070
   381
1005
256
1001
ACAD_DSTYLE_DIM_EXT2_LINETYPE
1070
   382
1005
256
  0
DIMSTYLE
105
F109A6
330
24C
100
AcDbSymbolTableRecord
100
AcDbDimStyleTableRecord
  2
AM_ANSI$SF
 70
     0
  4
mm
 41
0.12
 42
0.05
 43
0.5
 44
0.1
 47
0.1
 48
0.1
 75
     1
 76
     1
 78
     7
 79
     2
140
0.12
141
0.0
146
0.71
147
0.06
176
   256
177
   256
178
     2
274
     4
284
     7
340
253
371
    -1
372
    -1
1001
ACAD_DSTYLE_DIMBREAK
1070
   391
1040
0.125
1001
ACAD_DSTYLE_DIMJAG
1070
   388
1040
1.5
1001
ACAD_DSTYLE_DIMARC_LENGTH_SYMBOL
1070
   379
1070
     1
1001
ACAD_DSTYLE_DIM_LINETYPE
1070
   380
1005
256
1001
ACAD_DSTYLE_DIM_EXT1_LINETYPE
1070
   381
1005
256
1001
ACAD_DSTYLE_DIM_EXT2_LINETYPE
1070
   382
1005
256
  0
DIMSTYLE
105
F109AB
330
24C
100
AcDbSymbolTableRecord
100
AcDbDimStyleTableRecord
  2
AM_ANSI$SH
 70
     0
  4
mm
 41
0.12
 42
0.05
 43
0.5
 44
0.1
 47
0.1
 48
0.1
 75
     1
 76
     1
 78
     7
 79
     2
140
0.12
141
0.0
146
0.71
147
0.06
173
     1
176
   256
177
   256
178
     2
274
     4
284
     7
340
253
343
F109A7
371
    -1
372
    -1
1001
ACAD_DSTYLE_DIMBREAK
1070
   391
1040
0.125
1001
ACAD_DSTYLE_DIMJAG
1070
   388
1040
1.5
1001
ACAD_DSTYLE_DIMARC_LENGTH_SYMBOL
1070
   379
1070
     1
1001
ACAD_DSTYLE_DIM_LINETYPE
1070
   380
1005
256
1001
ACAD_DSTYLE_DIM_EXT1_LINETYPE
1070
   381
1005
256
1001
ACAD_DSTYLE_DIM_EXT2_LINETYPE
1070
   382
1005
256
  0
ENDTAB
  0
TABLE
  2
BLOCK_RECORD
  5
243
330
0
100
AcDbSymbolTable
 70
    15
  0
BLOCK_RECORD
  5
261
330
243
100
AcDbSymbolTableRecord
100
AcDbBlockTableRecord
  2
*Model_Space
340
FD0
  0
BLOCK_RECORD
  5
25D
330
243
100
AcDbSymbolTableRecord
100
AcDbBlockTableRecord
  2
*Paper_Space
340
FD1
  0
BLOCK_RECORD
  5
265
330
243
100
AcDbSymbolTableRecord
100
AcDbBlockTableRecord
  2
*Paper_Space0
340
0
  0
BLOCK_RECORD
  5
23C
330
243
100
AcDbSymbolTableRecord
100
AcDbBlockTableRecord
  2
VDDIM_DEFAULT
340
0
102
{BLKREFS
331
F10033
331
F10034
331
F10065
331
F10066
331
F10A62
331
F10A63
331
F10A6D
331
F10A6E
331
F10A76
331
F10A77
331
F10A81
331
F10A82
331
F10A8A
331
F10A8B
331
F10A93
331
F10A94
331
F10A9C
331
F10A9D
102
}
  0
BLOCK_RECORD
  5
23E
330
243
100
AcDbSymbolTableRecord
100
AcDbBlockTableRecord
  2
VDDIM_NONE
340
0
  0
BLOCK_RECORD
  5
F10002
330
243
100
AcDbSymbolTableRecord
100
AcDbBlockTableRecord
  2
*D3
340
0
  0
BLOCK_RECORD
  5
F10016
330
243
100
AcDbSymbolTableRecord
100
AcDbBlockTableRecord
  2
*D4
340
0
  0
BLOCK_RECORD
  5
F10020
330
243
100
AcDbSymbolTableRecord
100
AcDbBlockTableRecord
  2
*D5
340
0
  0
BLOCK_RECORD
  5
F10025
330
243
100
AcDbSymbolTableRecord
100
AcDbBlockTableRecord
  2
*D6
340
0
  0
BLOCK_RECORD
  5
F1002A
330
243
100
AcDbSymbolTableRecord
100
AcDbBlockTableRecord
  2
*D7
340
0
  0
BLOCK_RECORD
  5
F10011
330
243
100
AcDbSymbolTableRecord
100
AcDbBlockTableRecord
  2
*D8
340
0
  0
BLOCK_RECORD
  5
F10007
330
243
100
AcDbSymbolTableRecord
100
AcDbBlockTableRecord
  2
*D9
340
0
  0
BLOCK_RECORD
  5
F1000C
330
243
100
AcDbSymbolTableRecord
100
AcDbBlockTableRecord
  2
*D10
340
0
  0
BLOCK_RECORD
  5
F1001B
330
243
100
AcDbSymbolTableRecord
100
AcDbBlockTableRecord
  2
*D11
340
0
  0
BLOCK_RECORD
  5
F109A7
330
243
100
AcDbSymbolTableRecord
100
AcDbBlockTableRecord
  2
GENAXEH
340
0
  0
ENDTAB
  0
ENDSEC
  0
SECTION
  2
BLOCKS
  0
BLOCK
  5
262
330
261
100
AcDbEntity
  8
0
100
AcDbBlockBegin
  2
*Model_Space
 70
     0
 10
0.0
 20
0.0
 30
0.0
  3
*Model_Space
  1

  0
ENDBLK
  5
263
330
261
100
AcDbEntity
  8
0
100
AcDbBlockEnd
  0
BLOCK
  5
25E
330
25D
100
AcDbEntity
 67
     1
  8
0
100
AcDbBlockBegin
  2
*Paper_Space
 70
     0
 10
0.0
 20
0.0
 30
0.0
  3
*Paper_Space
  1

  0
ENDBLK
  5
25F
330
25D
100
AcDbEntity
 67
     1
  8
0
100
AcDbBlockEnd
  0
BLOCK
  5
266
330
265
100
AcDbEntity
  8
0
100
AcDbBlockBegin
  2
*Paper_Space0
 70
     0
 10
0.0
 20
0.0
 30
0.0
  3
*Paper_Space0
  1

  0
VIEWPORT
  5
296
102
{ACAD_XDICTIONARY
360
F10ABB
102
}
330
265
100
AcDbEntity
  8
0
 60
     1
100
AcDbViewport
 10
0.0
 20
0.0
 30
0.0
 40
10.0
 41
10.0
 69
     0
 12
0.0
 22
0.0
 13
0.0
 23
0.0
 14
1.0
 24
1.0
 15
0.0
 25
0.0
 16
0.0
 26
0.0
 36
1.0
 17
0.0
 27
0.0
 37
0.0
 42
0.0
 43
0.0
 44
0.0
 45
10.0
 50
0.0
 51
0.0000000000007958
 72
   100
 90
   163872
  1

281
     0
 71
     0
 74
     0
110
0.0
120
0.0
130
0.0
111
1.0
121
0.0
131
0.0
112
0.0
122
1.0
132
0.0
 79
     0
146
0.0
1001
VD_INVISIBLE_NOT_FOR_READ
1000
VD_INVISIBLE_NOT_FOR_READ
  0
VIEWPORT
  5
297
102
{ACAD_XDICTIONARY
360
F10ABD
102
}
330
265
100
AcDbEntity
  8
0
 60
     1
100
AcDbViewport
 10
0.0
 20
0.0
 30
0.0
 40
10.0
 41
10.0
 69
     0
 12
0.0
 22
0.0
 13
0.0
 23
0.0
 14
1.0
 24
1.0
 15
0.0
 25
0.0
 16
0.0
 26
0.0
 36
1.0
 17
0.0
 27
0.0
 37
0.0
 42
0.0
 43
0.0
 44
0.0
 45
10.0
 50
0.0
 51
0.0000000000007958
 72
   100
 90
   163872
  1

281
     0
 71
     0
 74
     0
110
0.0
120
0.0
130
0.0
111
1.0
121
0.0
131
0.0
112
0.0
122
1.0
132
0.0
 79
     0
146
0.0
1001
VD_INVISIBLE_NOT_FOR_READ
1000
VD_INVISIBLE_NOT_FOR_READ
  0
ENDBLK
  5
267
330
265
100
AcDbEntity
  8
0
100
AcDbBlockEnd
  0
BLOCK
  5
28B
330
23C
100
AcDbEntity
  8
0
100
AcDbBlockBegin
  2
VDDIM_DEFAULT
 70
     0
 10
0.0
 20
0.0
 30
0.0
  3
VDDIM_DEFAULT
  1

  0
LWPOLYLINE
  5
23D
330
23C
100
AcDbEntity
  8
0
  6
Continuous
 62
     0
100
AcDbPolyline
 90
        4
 70
     0
 43
0.0
 10
0.0
 20
0.0
 10
-1.0
 20
-0.1665
 10
-1.0
 20
0.1665
 10
0.0
 20
0.0
1001
VDEXTRAPARAM
1071
        1
1071
        0
1071
        0
1040
1.0
1000

1000

1040
0.0
1040
0.0
  0
HATCH
  5
292
330
23C
100
AcDbEntity
  8
0
  6
Continuous
 62
     0
100
AcDbHatch
 10
0.0
 20
0.0
 30
0.0
210
0.0
220
0.0
230
1.0
  2
SOLID
 70
     1
 71
     0
 91
        1
 92
        2
 72
     0
 73
     1
 93
        3
 10
0.0
 20
0.0
 10
-1.0
 20
-0.1665
 10
-1.0
 20
0.1665
 97
        0
 75
     0
 76
     1
 98
        1
 10
0.0
 20
0.0
1001
VDEXTRAPARAM
1071
        1
1071
        0
1071
        0
1040
1.0
1000

1000

1040
0.0
1040
0.0
1001
VD_TEMPHATCH
1000
VD_TEMPHATCH
  0
ENDBLK
  5
28C
330
23C
100
AcDbEntity
  8
0
100
AcDbBlockEnd
  0
BLOCK
  5
28D
330
23E
100
AcDbEntity
  8
0
100
AcDbBlockBegin
  2
VDDIM_NONE
 70
     0
 10
0.0
 20
0.0
 30
0.0
  3
VDDIM_NONE
  1

  0
ENDBLK
  5
28E
330
23E
100
AcDbEntity
  8
0
100
AcDbBlockEnd
  0
BLOCK
  5
F1002F
330
F10002
100
AcDbEntity
  8
0
100
AcDbBlockBegin
  2
*D3
 70
     1
 10
0.0
 20
0.0
 30
0.0
  3
*D3
  1

  0
LINE
  5
F10030
330
F10002
100
AcDbEntity
  8
Bemassung
 62
     0
370
    -2
100
AcDbLine
 10
-92.06718192627809
 20
9.470868014268919
 30
0.0
 11
-92.06718192627809
 21
59.47086801426889
 31
0.0
  0
LINE
  5
F10031
330
F10002
100
AcDbEntity
  8
Bemassung
 62
     0
370
    -2
100
AcDbLine
 10
-91.99218192627808
 20
26.9708680142689
 30
0.0
 11
-91.99218192627808
 21
37.7091752025826
 31
0.0
  0
LINE
  5
F10032
330
F10002
100
AcDbEntity
  8
Bemassung
 62
     0
370
    -2
100
AcDbLine
 10
-92.06718192627809
 20
35.7091752025826
 30
0.0
 11
-91.99218192627808
 21
35.7091752025826
 31
0.0
  0
INSERT
  5
F10033
330
F10002
100
AcDbEntity
  8
Bemassung
 62
     0
370
    -2
100
AcDbBlockReference
  2
VDDIM_DEFAULT
 10
-92.06718192627809
 20
35.7091752025826
 30
0.0
 41
2.5
 42
2.5
 43
2.5
  0
INSERT
  5
F10034
330
F10002
100
AcDbEntity
  8
Bemassung
 62
     0
370
    -2
100
AcDbBlockReference
  2
VDDIM_DEFAULT
 10
-91.99218192627808
 20
35.7091752025826
 30
0.0
 41
2.5
 42
2.5
 43
2.5
 50
180.0
  0
MTEXT
  5
F10035
102
{ACAD_XDICTIONARY
360
F10005
102
}
330
F10002
100
AcDbEntity
  8
Bemassung
 62
     0
100
AcDbMText
 10
-92.58119249851679
 20
35.042508535916
 30
0.0
 40
2.5
 41
0.0
 71
     8
 72
     1
  1
\A1;0.07 x 45\U+00B0{\H1.25000000000000;\S +0.030^  --0.030;}
 73
     1
 44
1.0
1001
ACAD
1000
MTEXTBEGIN
1070
    73
1070
     1
1070
    44
1040
1.0
1070
    74
1070
     0
1000
MTEXTEND
  0
POINT
  5
F10036
330
F10002
100
AcDbEntity
  8
Bemassung
 62
     0
100
AcDbPoint
 10
-92.06718192627809
 20
9.470868014268919
 30
0.0
  0
POINT
  5
F10037
330
F10002
100
AcDbEntity
  8
Bemassung
 62
     0
100
AcDbPoint
 10
-91.99218192627808
 20
26.9708680142689
 30
0.0
  0
ENDBLK
  5
F10038
330
F10002
100
AcDbEntity
  8
0
100
AcDbBlockEnd
  0
BLOCK
  5
F10039
330
F10016
100
AcDbEntity
  8
0
100
AcDbBlockBegin
  2
*D4
 70
     1
 10
0.0
 20
0.0
 30
0.0
  3
*D4
  1

  0
LINE
  5
F10A73
330
F10016
100
AcDbEntity
  8
Bemassung
 62
     0
370
    -2
100
AcDbLine
 10
-12.58683896251004
 20
5.5390171310062
 30
0.0
 11
-12.58683896251004
 21
21.1640171310062
 31
0.0
  0
LINE
  5
F10A74
330
F10016
100
AcDbEntity
  8
Bemassung
 62
     0
370
    -2
100
AcDbLine
 10
23.41316103748995
 20
5.0390171310062
 30
0.0
 11
23.41316103748995
 21
21.1640171310062
 31
0.0
  0
LINE
  5
F10A75
330
F10016
100
AcDbEntity
  8
Bemassung
 62
     0
370
    -2
100
AcDbLine
 10
-10.08683896251004
 20
19.9140171310062
 30
0.0
 11
20.91316103748995
 21
19.9140171310062
 31
0.0
  0
INSERT
  5
F10A76
330
F10016
100
AcDbEntity
  8
Bemassung
 62
     0
370
    -2
100
AcDbBlockReference
  2
VDDIM_DEFAULT
 10
-12.58683896251004
 20
19.9140171310062
 30
0.0
 41
2.5
 42
2.5
 43
2.5
 50
180.0
  0
INSERT
  5
F10A77
330
F10016
100
AcDbEntity
  8
Bemassung
 62
     0
370
    -2
100
AcDbBlockReference
  2
VDDIM_DEFAULT
 10
23.41316103748995
 20
19.9140171310062
 30
0.0
 41
2.5
 42
2.5
 43
2.5
  0
MTEXT
  5
F10A78
330
F10016
100
AcDbEntity
  8
Bemassung
 62
     0
100
AcDbMText
 10
5.413161037489953
 20
20.5390171310062
 30
0.0
 40
2.5
 41
0.0
 71
     8
 72
     1
  1
\A1;36
 73
     1
 44
1.0
1001
ACAD
1000
MTEXTBEGIN
1070
    73
1070
     1
1070
    44
1040
1.0
1070
    74
1070
     0
1000
MTEXTEND
  0
POINT
  5
F10A79
330
F10016
100
AcDbEntity
  8
Defpoints
 62
     0
100
AcDbPoint
 10
-12.58683896251004
 20
4.9140171310062
 30
0.0
  0
POINT
  5
F10A7A
330
F10016
100
AcDbEntity
  8
Defpoints
 62
     0
100
AcDbPoint
 10
23.41316103748995
 20
4.4140171310062
 30
0.0
  0
POINT
  5
F10A7B
330
F10016
100
AcDbEntity
  8
Defpoints
 62
     0
100
AcDbPoint
 10
23.41316103748995
 20
19.9140171310062
 30
0.0
  0
ENDBLK
  5
F10042
330
F10016
100
AcDbEntity
  8
0
100
AcDbBlockEnd
  0
BLOCK
  5
F10043
330
F10020
100
AcDbEntity
  8
0
100
AcDbBlockBegin
  2
*D5
 70
     1
 10
0.0
 20
0.0
 30
0.0
  3
*D5
  1

  0
LINE
  5
F10A87
330
F10020
100
AcDbEntity
  8
Bemassung
 62
     0
370
    -2
100
AcDbLine
 10
-20.58683896251004
 20
-1.110982868993797
 30
0.0
 11
-20.58683896251004
 21
-12.33598286899379
 31
0.0
  0
LINE
  5
F10A88
330
F10020
100
AcDbEntity
  8
Bemassung
 62
     0
370
    -2
100
AcDbLine
 10
-33.58683896251005
 20
-12.46098286899378
 30
0.0
 11
-33.58683896251005
 21
-9.835982868993795
 31
0.0
  0
LINE
  5
F10A89
330
F10020
100
AcDbEntity
  8
Bemassung
 62
     0
370
    -2
100
AcDbLine
 10
-23.08683896251004
 20
-11.08598286899379
 30
0.0
 11
-31.08683896251005
 21
-11.08598286899379
 31
0.0
  0
INSERT
  5
F10A8A
330
F10020
100
AcDbEntity
  8
Bemassung
 62
     0
370
    -2
100
AcDbBlockReference
  2
VDDIM_DEFAULT
 10
-20.58683896251004
 20
-11.08598286899379
 30
0.0
 41
2.5
 42
2.5
 43
2.5
  0
INSERT
  5
F10A8B
330
F10020
100
AcDbEntity
  8
Bemassung
 62
     0
370
    -2
100
AcDbBlockReference
  2
VDDIM_DEFAULT
 10
-33.58683896251005
 20
-11.08598286899379
 30
0.0
 41
2.5
 42
2.5
 43
2.5
 50
180.0
  0
MTEXT
  5
F10A8C
330
F10020
100
AcDbEntity
  8
Bemassung
 62
     0
100
AcDbMText
 10
-27.08683896251005
 20
-10.46098286899379
 30
0.0
 40
2.5
 41
0.0
 71
     8
 72
     1
  1
\A1;13
 73
     1
 44
1.0
1001
ACAD
1000
MTEXTBEGIN
1070
    73
1070
     1
1070
    44
1040
1.0
1070
    74
1070
     0
1000
MTEXTEND
  0
POINT
  5
F10A8D
330
F10020
100
AcDbEntity
  8
Defpoints
 62
     0
100
AcDbPoint
 10
-20.58683896251004
 20
-0.4859828689937978
 30
0.0
  0
POINT
  5
F10A8E
330
F10020
100
AcDbEntity
  8
Defpoints
 62
     0
100
AcDbPoint
 10
-33.58683896251005
 20
-13.08598286899378
 30
0.0
  0
POINT
  5
F10A8F
330
F10020
100
AcDbEntity
  8
Defpoints
 62
     0
100
AcDbPoint
 10
-33.58683896251005
 20
-11.08598286899379
 30
0.0
  0
ENDBLK
  5
F1004C
330
F10020
100
AcDbEntity
  8
0
100
AcDbBlockEnd
  0
BLOCK
  5
F1004D
330
F10025
100
AcDbEntity
  8
0
100
AcDbBlockBegin
  2
*D6
 70
     1
 10
0.0
 20
0.0
 30
0.0
  3
*D6
  1

  0
LINE
  5
F10A90
330
F10025
100
AcDbEntity
  8
Bemassung
 62
     0
370
    -2
100
AcDbLine
 10
23.41316103748995
 20
5.0390171310062
 30
0.0
 11
23.41316103748996
 21
36.1640171310062
 31
0.0
  0
LINE
  5
F10A91
330
F10025
100
AcDbEntity
  8
Bemassung
 62
     0
370
    -2
100
AcDbLine
 10
-33.58683896251005
 20
-12.46098286899378
 30
0.0
 11
-33.58683896251005
 21
36.16401713100619
 31
0.0
  0
LINE
  5
F10A92
330
F10025
100
AcDbEntity
  8
Bemassung
 62
     0
370
    -2
100
AcDbLine
 10
20.91316103748996
 20
34.9140171310062
 30
0.0
 11
-31.08683896251005
 21
34.9140171310062
 31
0.0
  0
INSERT
  5
F10A93
330
F10025
100
AcDbEntity
  8
Bemassung
 62
     0
370
    -2
100
AcDbBlockReference
  2
VDDIM_DEFAULT
 10
23.41316103748996
 20
34.9140171310062
 30
0.0
 41
2.5
 42
2.5
 43
2.5
  0
INSERT
  5
F10A94
330
F10025
100
AcDbEntity
  8
Bemassung
 62
     0
370
    -2
100
AcDbBlockReference
  2
VDDIM_DEFAULT
 10
-33.58683896251005
 20
34.9140171310062
 30
0.0
 41
2.5
 42
2.5
 43
2.5
 50
180.0
  0
MTEXT
  5
F10A95
330
F10025
100
AcDbEntity
  8
Bemassung
 62
     0
100
AcDbMText
 10
-5.086838962510045
 20
35.5390171310062
 30
0.0
 40
2.5
 41
0.0
 71
     8
 72
     1
  1
\A1;57
 73
     1
 44
1.0
1001
ACAD
1000
MTEXTBEGIN
1070
    73
1070
     1
1070
    44
1040
1.0
1070
    74
1070
     0
1000
MTEXTEND
  0
POINT
  5
F10A96
330
F10025
100
AcDbEntity
  8
Defpoints
 62
     0
100
AcDbPoint
 10
23.41316103748995
 20
4.4140171310062
 30
0.0
  0
POINT
  5
F10A97
330
F10025
100
AcDbEntity
  8
Defpoints
 62
     0
100
AcDbPoint
 10
-33.58683896251005
 20
-13.08598286899378
 30
0.0
  0
POINT
  5
F10A98
330
F10025
100
AcDbEntity
  8
Defpoints
 62
     0
100
AcDbPoint
 10
-33.58683896251005
 20
34.9140171310062
 30
0.0
  0
ENDBLK
  5
F10056
330
F10025
100
AcDbEntity
  8
0
100
AcDbBlockEnd
  0
BLOCK
  5
F10057
330
F1002A
100
AcDbEntity
  8
0
100
AcDbBlockBegin
  2
*D7
 70
     1
 10
0.0
 20
0.0
 30
0.0
  3
*D7
  1

  0
LINE
  5
F10A99
330
F1002A
100
AcDbEntity
  8
Bemassung
 62
     0
370
    -2
100
AcDbLine
 10
-33.58683896251005
 20
0.0765171310061987
 30
0.0
 11
-33.58683896251005
 21
-25.02100489542558
 31
0.0
  0
LINE
  5
F10A9A
330
F1002A
100
AcDbEntity
  8
Bemassung
 62
     0
370
    -2
100
AcDbLine
 10
-13.58683896251004
 20
-1.110982868993797
 30
0.0
 11
-13.58683896251004
 21
-25.02100489542558
 31
0.0
  0
LINE
  5
F10A9B
330
F1002A
100
AcDbEntity
  8
Bemassung
 62
     0
370
    -2
100
AcDbLine
 10
-31.08683896251005
 20
-23.77100489542558
 30
0.0
 11
-16.08683896251004
 21
-23.77100489542558
 31
0.0
  0
INSERT
  5
F10A9C
330
F1002A
100
AcDbEntity
  8
Bemassung
 62
     0
370
    -2
100
AcDbBlockReference
  2
VDDIM_DEFAULT
 10
-33.58683896251005
 20
-23.77100489542558
 30
0.0
 41
2.5
 42
2.5
 43
2.5
 50
180.0
  0
INSERT
  5
F10A9D
330
F1002A
100
AcDbEntity
  8
Bemassung
 62
     0
370
    -2
100
AcDbBlockReference
  2
VDDIM_DEFAULT
 10
-13.58683896251004
 20
-23.77100489542558
 30
0.0
 41
2.5
 42
2.5
 43
2.5
  0
MTEXT
  5
F10A9E
330
F1002A
100
AcDbEntity
  8
Bemassung
 62
     0
100
AcDbMText
 10
-23.58683896251005
 20
-23.14600489542558
 30
0.0
 40
2.5
 41
0.0
 71
     8
 72
     1
  1
\A1;20
 73
     1
 44
1.0
1001
ACAD
1000
MTEXTBEGIN
1070
    73
1070
     1
1070
    44
1040
1.0
1070
    74
1070
     0
1000
MTEXTEND
  0
POINT
  5
F10A9F
330
F1002A
100
AcDbEntity
  8
Defpoints
 62
     0
100
AcDbPoint
 10
-33.58683896251005
 20
0.7015171310061988
 30
0.0
  0
POINT
  5
F10AA0
330
F1002A
100
AcDbEntity
  8
Defpoints
 62
     0
100
AcDbPoint
 10
-13.58683896251004
 20
-0.4859828689937978
 30
0.0
  0
POINT
  5
F10AA1
330
F1002A
100
AcDbEntity
  8
Defpoints
 62
     0
100
AcDbPoint
 10
-13.58683896251004
 20
-23.77100489542558
 30
0.0
  0
ENDBLK
  5
F10060
330
F1002A
100
AcDbEntity
  8
0
100
AcDbBlockEnd
  0
BLOCK
  5
F10061
330
F10011
100
AcDbEntity
  8
0
100
AcDbBlockBegin
  2
*D8
 70
     1
 10
0.0
 20
0.0
 30
0.0
  3
*D8
  1

  0
ARC
  5
F10062
330
F10011
100
AcDbEntity
  8
Bemassung
 62
     0
370
    -2
100
AcDbCircle
 10
-71.06718192627809
 20
27.4708680142689
 30
0.0
 40
11.9785415193596
100
AcDbArc
 50
0.0
 51
45.0
  0
LINE
  5
F10063
330
F10011
100
AcDbEntity
  8
Bemassung
 62
     0
370
    -2
100
AcDbLine
 10
-71.06718192627809
 20
27.4708680142689
 30
0.0
 11
-57.0886404069185
 21
27.4708680142689
 31
0.0
  0
LINE
  5
F10064
330
F10011
100
AcDbEntity
  8
Bemassung
 62
     0
370
    -2
100
AcDbLine
 10
-71.06718192627809
 20
27.4708680142689
 30
0.0
 11
-61.1828604268412
 21
37.35518951370579
 31
0.0
  0
INSERT
  5
F10065
330
F10011
100
AcDbEntity
  8
Bemassung
 62
     0
370
    -2
100
AcDbBlockReference
  2
VDDIM_DEFAULT
 10
-59.0886404069185
 20
27.4708680142689
 30
0.0
 41
2.5
 42
2.5
 43
2.5
 50
89.76083922319508
  0
INSERT
  5
F10066
330
F10011
100
AcDbEntity
  8
Bemassung
 62
     0
370
    -2
100
AcDbBlockReference
  2
VDDIM_DEFAULT
 10
-62.59707398921429
 20
35.9409759513327
 30
0.0
 41
2.5
 42
2.5
 43
2.5
 50
315.239160776808
  0
MTEXT
  5
F10067
102
{ACAD_XDICTIONARY
360
F10014
102
}
330
F10011
100
AcDbEntity
  8
Bemassung
 62
     0
100
AcDbMText
 10
-59.9814603390294
 20
32.0087346739483
 30
0.0
 40
2.5
 41
0.0
 71
     8
 72
     1
  1
\A1;45\U+00B0{\H1.25000000000000;\S +5.000^  --5.000;}
 11
0.38268343236509
 21
-0.9238795325112867
 31
0.0
 73
     1
 44
1.0
1001
ACAD
1000
MTEXTBEGIN
1070
    73
1070
     1
1070
    44
1040
1.0
1070
    74
1070
     0
1000
MTEXTEND
  0
POINT
  5
F10068
330
F10011
100
AcDbEntity
  8
Bemassung
 62
     0
100
AcDbPoint
 10
-71.06718192627809
 20
27.4708680142689
 30
0.0
  0
POINT
  5
F10069
330
F10011
100
AcDbEntity
  8
Bemassung
 62
     0
100
AcDbPoint
 10
-59.0886404069185
 20
27.4708680142689
 30
0.0
  0
POINT
  5
F1006A
330
F10011
100
AcDbEntity
  8
Bemassung
 62
     0
100
AcDbPoint
 10
-62.59707398921429
 20
35.9409759513327
 30
0.0
  0
POINT
  5
F1006B
330
F10011
100
AcDbEntity
  8
Bemassung
 62
     0
100
AcDbPoint
 10
-60.0004525872051
 20
32.0548573976252
 30
0.0
  0
ENDBLK
  5
F1006C
330
F10011
100
AcDbEntity
  8
0
100
AcDbBlockEnd
  0
BLOCK
  5
F1006D
330
F10007
100
AcDbEntity
  8
0
100
AcDbBlockBegin
  2
*D9
 70
     1
 10
0.0
 20
0.0
 30
0.0
  3
*D9
  1

  0
LINE
  5
F10A5D
330
F10007
100
AcDbEntity
  8
Bemassung
 62
     0
370
    -2
100
AcDbLine
 10
-34.13683896251004
 20
-0.5859828689937991
 30
0.0
 11
-44.83683896250994
 21
-0.585982868993796
 31
0.0
  0
LINE
  5
F10A5E
330
F10007
100
AcDbEntity
  8
Bemassung
 62
     0
370
    -2
100
AcDbLine
 10
-34.13683896251004
 20
4.414017131006201
 30
0.0
 11
-44.83683896250994
 21
4.414017131006204
 31
0.0
  0
LINE
  5
F10A5F
330
F10007
100
AcDbEntity
  8
Bemassung
 62
     0
370
    -2
100
AcDbLine
 10
-43.58683896250994
 20
-3.085982868993796
 30
0.0
 11
-43.58683896250994
 21
-5.585982868993796
 31
0.0
  0
LINE
  5
F10A60
330
F10007
100
AcDbEntity
  8
Bemassung
 62
     0
370
    -2
100
AcDbLine
 10
-43.58683896250994
 20
6.914017131006204
 30
0.0
 11
-43.58683896250994
 21
15.04157511190661
 31
0.0
  0
LINE
  5
F10A61
330
F10007
100
AcDbEntity
  8
Bemassung
 62
     0
370
    -2
100
AcDbLine
 10
-43.58683896250994
 20
-0.5859828689937963
 30
0.0
 11
-43.58683896250994
 21
4.414017131006204
 31
0.0
  0
INSERT
  5
F10A62
330
F10007
100
AcDbEntity
  8
Bemassung
 62
     0
370
    -2
100
AcDbBlockReference
  2
VDDIM_DEFAULT
 10
-43.58683896250994
 20
-0.5859828689937963
 30
0.0
 41
2.5
 42
2.5
 43
2.5
 50
90.0
  0
INSERT
  5
F10A63
330
F10007
100
AcDbEntity
  8
Bemassung
 62
     0
370
    -2
100
AcDbBlockReference
  2
VDDIM_DEFAULT
 10
-43.58683896250994
 20
4.414017131006204
 30
0.0
 41
2.5
 42
2.5
 43
2.5
 50
270.0
  0
MTEXT
  5
F10A64
330
F10007
100
AcDbEntity
  8
Bemassung
 62
     0
100
AcDbMText
 10
-44.21183896250994
 20
12.2277961214564
 30
0.0
 40
2.5
 41
0.0
 71
     8
 72
     1
  1
\A1;%%c5
 11
0.0000000000000001
 21
1.0
 31
0.0
 73
     1
 44
1.0
1001
ACAD
1000
MTEXTBEGIN
1070
    73
1070
     1
1070
    44
1040
1.0
1070
    74
1070
     0
1000
MTEXTEND
  0
POINT
  5
F10A65
330
F10007
100
AcDbEntity
  8
Defpoints
 62
     0
100
AcDbPoint
 10
-33.51183896251004
 20
-0.5859828689937992
 30
0.0
  0
POINT
  5
F10A66
330
F10007
100
AcDbEntity
  8
Defpoints
 62
     0
100
AcDbPoint
 10
-33.51183896251004
 20
4.4140171310062
 30
0.0
  0
POINT
  5
F10A67
330
F10007
100
AcDbEntity
  8
Defpoints
 62
     0
100
AcDbPoint
 10
-43.58683896250994
 20
4.414017131006204
 30
0.0
  0
ENDBLK
  5
F10076
330
F10007
100
AcDbEntity
  8
0
100
AcDbBlockEnd
  0
BLOCK
  5
F10077
330
F1000C
100
AcDbEntity
  8
0
100
AcDbBlockBegin
  2
*D10
 70
     1
 10
0.0
 20
0.0
 30
0.0
  3
*D10
  1

  0
LINE
  5
F10A68
330
F1000C
100
AcDbEntity
  8
Bemassung
 62
     0
370
    -2
100
AcDbLine
 10
-16.41582126339504
 20
-0.4859828689937979
 30
0.0
 11
-13.79082126339504
 21
-0.4859828689937987
 31
0.0
  0
LINE
  5
F10A69
330
F1000C
100
AcDbEntity
  8
Bemassung
 62
     0
370
    -2
100
AcDbLine
 10
-16.41582126339504
 20
4.314017131006202
 30
0.0
 11
-13.79082126339504
 21
4.314017131006202
 31
0.0
  0
LINE
  5
F10A6A
330
F1000C
100
AcDbEntity
  8
Bemassung
 62
     0
370
    -2
100
AcDbLine
 10
-15.04082126339504
 20
-2.985982868993798
 30
0.0
 11
-15.04082126339505
 21
-5.485982868993797
 31
0.0
  0
LINE
  5
F10A6B
330
F1000C
100
AcDbEntity
  8
Bemassung
 62
     0
370
    -2
100
AcDbLine
 10
-15.04082126339504
 20
6.814017131006202
 30
0.0
 11
-15.04082126339504
 21
17.84062013237046
 31
0.0
  0
LINE
  5
F10A6C
330
F1000C
100
AcDbEntity
  8
Bemassung
 62
     0
370
    -2
100
AcDbLine
 10
-15.04082126339504
 20
-0.4859828689937983
 30
0.0
 11
-15.04082126339504
 21
4.314017131006202
 31
0.0
  0
INSERT
  5
F10A6D
330
F1000C
100
AcDbEntity
  8
Bemassung
 62
     0
370
    -2
100
AcDbBlockReference
  2
VDDIM_DEFAULT
 10
-15.04082126339504
 20
-0.4859828689937983
 30
0.0
 41
2.5
 42
2.5
 43
2.5
 50
90.0
  0
INSERT
  5
F10A6E
330
F1000C
100
AcDbEntity
  8
Bemassung
 62
     0
370
    -2
100
AcDbBlockReference
  2
VDDIM_DEFAULT
 10
-15.04082126339504
 20
4.314017131006202
 30
0.0
 41
2.5
 42
2.5
 43
2.5
 50
270.0
  0
MTEXT
  5
F10A6F
330
F1000C
100
AcDbEntity
  8
Bemassung
 62
     0
100
AcDbMText
 10
-15.66582126339505
 20
13.57731863168833
 30
0.0
 40
2.5
 41
0.0
 71
     8
 72
     1
  1
\A1;%%c4.8
 11
0.0000000000000001
 21
1.0
 31
0.0
 73
     1
 44
1.0
1001
ACAD
1000
MTEXTBEGIN
1070
    73
1070
     1
1070
    44
1040
1.0
1070
    74
1070
     0
1000
MTEXTEND
  0
POINT
  5
F10A70
330
F1000C
100
AcDbEntity
  8
Defpoints
 62
     0
100
AcDbPoint
 10
-17.04082126339504
 20
-0.4859828689937978
 30
0.0
  0
POINT
  5
F10A71
330
F1000C
100
AcDbEntity
  8
Defpoints
 62
     0
100
AcDbPoint
 10
-17.04082126339504
 20
4.314017131006202
 30
0.0
  0
POINT
  5
F10A72
330
F1000C
100
AcDbEntity
  8
Defpoints
 62
     0
100
AcDbPoint
 10
-15.04082126339504
 20
4.314017131006202
 30
0.0
  0
ENDBLK
  5
F10080
330
F1000C
100
AcDbEntity
  8
0
100
AcDbBlockEnd
  0
BLOCK
  5
F10081
330
F1001B
100
AcDbEntity
  8
0
100
AcDbBlockBegin
  2
*D11
 70
     1
 10
0.0
 20
0.0
 30
0.0
  3
*D11
  1

  0
LINE
  5
F10A7C
330
F1001B
100
AcDbEntity
  8
Bemassung
 62
     0
370
    -2
100
AcDbLine
 10
23.53816103748995
 20
-1.085982868993799
 30
0.0
 11
34.66316103748996
 21
-1.085982868993802
 31
0.0
  0
LINE
  5
F10A7D
330
F1001B
100
AcDbEntity
  8
Bemassung
 62
     0
370
    -2
100
AcDbLine
 10
23.53816103748995
 20
4.9140171310062
 30
0.0
 11
34.66316103748996
 21
4.914017131006197
 31
0.0
  0
LINE
  5
F10A7E
330
F1001B
100
AcDbEntity
  8
Bemassung
 62
     0
370
    -2
100
AcDbLine
 10
33.41316103748996
 20
-3.585982868993802
 30
0.0
 11
33.41316103748996
 21
-6.085982868993801
 31
0.0
  0
LINE
  5
F10A7F
330
F1001B
100
AcDbEntity
  8
Bemassung
 62
     0
370
    -2
100
AcDbLine
 10
33.41316103748996
 20
7.414017131006198
 30
0.0
 11
33.41316103748996
 21
20.37615901368015
 31
0.0
  0
LINE
  5
F10A80
330
F1001B
100
AcDbEntity
  8
Bemassung
 62
     0
370
    -2
100
AcDbLine
 10
33.41316103748996
 20
-1.085982868993802
 30
0.0
 11
33.41316103748996
 21
4.914017131006198
 31
0.0
  0
INSERT
  5
F10A81
330
F1001B
100
AcDbEntity
  8
Bemassung
 62
     0
370
    -2
100
AcDbBlockReference
  2
VDDIM_DEFAULT
 10
33.41316103748996
 20
-1.085982868993802
 30
0.0
 41
2.5
 42
2.5
 43
2.5
 50
90.0
  0
INSERT
  5
F10A82
330
F1001B
100
AcDbEntity
  8
Bemassung
 62
     0
370
    -2
100
AcDbBlockReference
  2
VDDIM_DEFAULT
 10
33.41316103748996
 20
4.914017131006198
 30
0.0
 41
2.5
 42
2.5
 43
2.5
 50
270.0
  0
MTEXT
  5
F10A83
330
F1001B
100
AcDbEntity
  8
Bemassung
 62
     0
100
AcDbMText
 10
32.78816103748996
 20
15.14508807234317
 30
0.0
 40
2.5
 41
0.0
 71
     8
 72
     1
  1
\A1;%%c6 h6
 11
0.0000000000000001
 21
1.0
 31
0.0
 73
     1
 44
1.0
1001
ACAD
1000
MTEXTBEGIN
1070
    73
1070
     1
1070
    44
1040
1.0
1070
    74
1070
     0
1000
MTEXTEND
  0
POINT
  5
F10A84
330
F1001B
100
AcDbEntity
  8
Defpoints
 62
     0
100
AcDbPoint
 10
22.91316103748995
 20
-1.085982868993799
 30
0.0
  0
POINT
  5
F10A85
330
F1001B
100
AcDbEntity
  8
Defpoints
 62
     0
100
AcDbPoint
 10
22.91316103748995
 20
4.9140171310062
 30
0.0
  0
POINT
  5
F10A86
330
F1001B
100
AcDbEntity
  8
Defpoints
 62
     0
100
AcDbPoint
 10
33.41316103748996
 20
4.914017131006198
 30
0.0
  0
ENDBLK
  5
F1008A
330
F1001B
100
AcDbEntity
  8
0
100
AcDbBlockEnd
  0
BLOCK
  5
F109A9
330
F109A7
100
AcDbEntity
  8
0
100
AcDbBlockBegin
  2
GENAXEH
 70
     0
 10
0.0
 20
0.0
 30
0.0
  3
GENAXEH
  1

  0
LINE
  5
F109A8
330
F109A7
100
AcDbEntity
  8
0
100
AcDbLine
 10
-1.0
 20
0.0
 30
0.0
 11
1.0
 21
0.0
 31
0.0
  0
ENDBLK
  5
F109AA
330
F109A7
100
AcDbEntity
  8
0
100
AcDbBlockEnd
  0
ENDSEC
  0
SECTION
  2
ENTITIES
  0
DIMENSION
  5
F10017
330
261
100
AcDbEntity
  8
Bemassung
100
AcDbDimension
  2
*D4
 10
23.41316103748995
 20
19.9140171310062
 30
0.0
 11
5.413161037489953
 21
21.81630226061057
 31
0.0
 70
    32
  1
<>
 71
     8
 42
36.0
  3
BEM-ISBE
100
AcDbAlignedDimension
 13
-12.58683896251004
 23
4.9140171310062
 33
0.0
 14
23.41316103748995
 24
4.4140171310062
 34
0.0
100
AcDbRotatedDimension
1001
ACAD
1000
DSTYLE
1002
{
1070
   147
1040
0.625
1070
    72
1070
     0
1070
    71
1070
     0
1070
   284
1070
     8
1070
    78
1070
     8
1070
   144
1040
1.0
1070
    47
1040
2.0
1070
    48
1040
0.0
1002
}
  0
DIMENSION
  5
F10021
330
261
100
AcDbEntity
  8
Bemassung
100
AcDbDimension
  2
*D5
 10
-33.58683896251005
 20
-11.08598286899379
 30
0.0
 11
-27.08683896251005
 21
-9.18369773938943
 31
0.0
 70
    32
  1
<>
 71
     8
 42
13.0
  3
BEM-ISBE
100
AcDbAlignedDimension
 13
-20.58683896251004
 23
-0.4859828689937978
 33
0.0
 14
-33.58683896251005
 24
-13.08598286899378
 34
0.0
100
AcDbRotatedDimension
1001
ACAD
1000
DSTYLE
1002
{
1070
   147
1040
0.625
1070
    72
1070
     0
1070
    71
1070
     0
1070
   284
1070
     8
1070
    78
1070
     8
1070
   144
1040
1.0
1070
    47
1040
1.5
1070
    48
1040
0.0
1002
}
  0
DIMENSION
  5
F10026
330
261
100
AcDbEntity
  8
Bemassung
100
AcDbDimension
  2
*D6
 10
-33.58683896251005
 20
34.9140171310062
 30
0.0
 11
-5.086838962510045
 21
36.81033363850961
 31
0.0
 70
    32
  1
<>
 71
     8
 42
56.99999999999999
  3
BEM-ISBE
100
AcDbAlignedDimension
 13
23.41316103748995
 23
4.4140171310062
 33
0.0
 14
-33.58683896251005
 24
-13.08598286899378
 34
0.0
100
AcDbRotatedDimension
1001
ACAD
1000
DSTYLE
1002
{
1070
   147
1040
0.625
1070
    72
1070
     0
1070
    71
1070
     0
1070
   284
1070
     8
1070
    78
1070
     8
1070
   144
1040
1.0
1070
    47
1040
2.0
1070
    48
1040
0.0
1002
}
  0
DIMENSION
  5
F1002B
330
261
100
AcDbEntity
  8
Bemassung
100
AcDbDimension
  2
*D7
 10
-13.58683896251004
 20
-23.77100489542558
 30
0.0
 11
-23.58683896251005
 21
-21.86957242612135
 31
0.0
 70
    32
  1
<>
 71
     8
 42
20.0
  3
BEM-ISBE
100
AcDbAlignedDimension
 13
-33.58683896251005
 23
0.7015171310061988
 33
0.0
 14
-13.58683896251004
 24
-0.4859828689937978
 34
0.0
100
AcDbRotatedDimension
1001
ACAD
1000
DSTYLE
1002
{
1070
   284
1070
     8
1070
    78
1070
     8
1070
   144
1040
1.0
1070
   147
1040
0.625
1070
    72
1070
     0
1070
    71
1070
     0
1002
}
  0
DIMENSION
  5
F10008
330
261
100
AcDbEntity
  8
Bemassung
100
AcDbDimension
  2
*D9
 10
-43.58683896250994
 20
4.414017131006204
 30
0.0
 11
-45.55818957642536
 21
12.2277961214564
 31
0.0
 70
    32
  1
%%c<>
 71
     8
 42
5.0
  3
BEM-ISBE
100
AcDbAlignedDimension
 13
-33.51183896251004
 23
-0.5859828689937992
 33
0.0
 14
-33.51183896251004
 24
4.4140171310062
 34
0.0
 50
90.0
100
AcDbRotatedDimension
1001
ACAD
1000
DSTYLE
1002
{
1070
   147
1040
0.625
1070
    72
1070
     0
1070
    71
1070
     0
1070
   284
1070
     8
1070
    78
1070
     8
1070
   144
1040
1.0
1070
    47
1040
0.0
1070
    48
1040
-0.048
1002
}
  0
DIMENSION
  5
F1000D
330
261
100
AcDbEntity
  8
Bemassung
100
AcDbDimension
  2
*D10
 10
-15.04082126339504
 20
4.314017131006202
 30
0.0
 11
-17.01217187731046
 21
13.57731863168833
 31
0.0
 70
    32
  1
%%c<>
 71
     8
 42
4.8
  3
BEM-ISBE
100
AcDbAlignedDimension
 13
-17.04082126339504
 23
-0.4859828689937978
 33
0.0
 14
-17.04082126339504
 24
4.314017131006202
 34
0.0
 50
90.0
100
AcDbRotatedDimension
1001
ACAD
1000
DSTYLE
1002
{
1070
   147
1040
0.625
1070
    72
1070
     0
1070
    71
1070
     0
1070
   284
1070
     8
1070
    78
1070
     8
1070
   144
1040
1.0
1070
    47
1040
0.0
1070
    48
1040
-0.1
1002
}
  0
DIMENSION
  5
F1001C
330
261
100
AcDbEntity
  8
Bemassung
100
AcDbDimension
  2
*D11
 10
33.41316103748996
 20
4.914017131006198
 30
0.0
 11
31.44181042357454
 21
15.14508807234317
 31
0.0
 70
    32
  1
%%c<> h6
 71
     8
 42
6.0
  3
BEM-ISBE
100
AcDbAlignedDimension
 13
22.91316103748995
 23
-1.085982868993799
 33
0.0
 14
22.91316103748995
 24
4.9140171310062
 34
0.0
 50
90.0
100
AcDbRotatedDimension
1001
ACAD
1000
DSTYLE
1002
{
1070
   284
1070
     8
1070
    78
1070
     8
1070
   144
1040
1.0
1070
   147
1040
0.625
1070
    72
1070
     0
1070
    71
1070
     0
1002
}
  0
LINE
  5
F1008B
330
261
100
AcDbEntity
  8
Geo
100
AcDbLine
 10
-33.58683896251005
 20
1.9140171310062
 30
0.0
 11
-33.58683896251005
 21
4.339017131006201
 31
0.0
  0
LINE
  5
F1008D
330
261
100
AcDbEntity
  8
Geo
100
AcDbLine
 10
-33.58683896251005
 20
4.339017131006201
 30
0.0
 11
-33.51183896251004
 21
4.4140171310062
 31
0.0
  0
LINE
  5
F1008F
330
261
100
AcDbEntity
  8
Geo
100
AcDbLine
 10
-33.51183896251004
 20
4.4140171310062
 30
0.0
 11
-20.58683896251004
 21
4.4140171310062
 31
0.0
  0
LINE
  5
F10091
330
261
100
AcDbEntity
  8
Geo
100
AcDbLine
 10
-20.58683896251004
 20
4.4140171310062
 30
0.0
 11
-20.58683896251004
 21
4.314017131006202
 31
0.0
  0
LINE
  5
F10093
330
261
100
AcDbEntity
  8
Geo
100
AcDbLine
 10
-20.58683896251004
 20
4.314017131006202
 30
0.0
 11
-13.58683896251004
 21
4.314017131006202
 31
0.0
  0
LINE
  5
F10095
330
261
100
AcDbEntity
  8
Geo
100
AcDbLine
 10
-13.58683896251004
 20
4.314017131006202
 30
0.0
 11
-12.58683896251004
 21
4.9140171310062
 31
0.0
  0
LINE
  5
F10097
330
261
100
AcDbEntity
  8
Geo
100
AcDbLine
 10
-12.58683896251004
 20
4.9140171310062
 30
0.0
 11
2.413161037489949
 21
4.9140171310062
 31
0.0
  0
LINE
  5
F10099
330
261
100
AcDbEntity
  8
Geo
100
AcDbLine
 10
2.413161037489949
 20
4.9140171310062
 30
0.0
 11
3.313161037489948
 21
4.014017131006202
 31
0.0
  0
LINE
  5
F1009B
330
261
100
AcDbEntity
  8
Geo
100
AcDbLine
 10
3.313161037489948
 20
4.014017131006202
 30
0.0
 11
7.51316103748995
 21
4.014017131006202
 31
0.0
  0
LINE
  5
F1009D
330
261
100
AcDbEntity
  8
Geo
100
AcDbLine
 10
7.51316103748995
 20
4.014017131006202
 30
0.0
 11
8.413161037489949
 21
4.9140171310062
 31
0.0
  0
LINE
  5
F1009F
330
261
100
AcDbEntity
  8
Geo
100
AcDbLine
 10
8.413161037489949
 20
4.9140171310062
 30
0.0
 11
22.91316103748995
 21
4.9140171310062
 31
0.0
  0
LINE
  5
F100A1
330
261
100
AcDbEntity
  8
Geo
100
AcDbLine
 10
22.91316103748995
 20
4.9140171310062
 30
0.0
 11
23.41316103748995
 21
4.4140171310062
 31
0.0
  0
LINE
  5
F100A3
330
261
100
AcDbEntity
  8
Geo
100
AcDbLine
 10
-31.88683896251004
 20
4.413826555237502
 30
0.0
 11
-31.78683896251005
 21
4.413749488409404
 31
0.0
  0
LINE
  5
F100A5
330
261
100
AcDbEntity
  8
Geo
100
AcDbLine
 10
-31.78683896251005
 20
4.413749488409404
 30
0.0
 11
-31.68683896251004
 21
4.411852879831805
 31
0.0
  0
LINE
  5
F100A7
330
261
100
AcDbEntity
  8
Geo
100
AcDbLine
 10
-31.68683896251004
 20
4.411852879831805
 30
0.0
 11
-31.58683896251004
 21
4.408138110035903
 31
0.0
  0
LINE
  5
F100A9
330
261
100
AcDbEntity
  8
Geo
100
AcDbLine
 10
-31.58683896251004
 20
4.408138110035903
 30
0.0
 11
-31.48683896251005
 21
4.402607882982799
 31
0.0
  0
LINE
  5
F100AB
330
261
100
AcDbEntity
  8
Geo
100
AcDbLine
 10
-31.48683896251005
 20
4.402607882982799
 30
0.0
 11
-31.38683896251004
 21
4.395266224094804
 31
0.0
  0
LINE
  5
F100AD
330
261
100
AcDbEntity
  8
Geo
100
AcDbLine
 10
-31.38683896251004
 20
4.395266224094804
 30
0.0
 11
-31.28683896251005
 21
4.386118477326199
 31
0.0
  0
LINE
  5
F100AF
330
261
100
AcDbEntity
  8
Geo
100
AcDbLine
 10
-31.28683896251005
 20
4.386118477326199
 30
0.0
 11
-31.18683896251004
 21
4.375171301272501
 31
0.0
  0
LINE
  5
F100B1
330
261
100
AcDbEntity
  8
Geo
100
AcDbLine
 10
-31.18683896251004
 20
4.375171301272501
 30
0.0
 11
-31.08683896251005
 21
4.362432664324501
 31
0.0
  0
LINE
  5
F100B3
330
261
100
AcDbEntity
  8
Geo
100
AcDbLine
 10
-31.08683896251005
 20
4.362432664324501
 30
0.0
 11
-30.98683896251005
 21
4.347911838867499
 31
0.0
  0
LINE
  5
F100B5
330
261
100
AcDbEntity
  8
Geo
100
AcDbLine
 10
-30.98683896251005
 20
4.347911838867499
 30
0.0
 11
-30.88683896251004
 21
4.331619394532303
 31
0.0
  0
LINE
  5
F100B7
330
261
100
AcDbEntity
  8
Geo
100
AcDbLine
 10
-30.88683896251004
 20
4.331619394532303
 30
0.0
 11
-30.78683896251005
 21
4.313567190501601
 31
0.0
  0
LINE
  5
F100B9
330
261
100
AcDbEntity
  8
Geo
100
AcDbLine
 10
-30.78683896251005
 20
4.313567190501601
 30
0.0
 11
-30.68683896251004
 21
4.293768366877603
 31
0.0
  0
LINE
  5
F100BB
330
261
100
AcDbEntity
  8
Geo
100
AcDbLine
 10
-30.68683896251004
 20
4.293768366877603
 30
0.0
 11
-30.58683896251004
 21
4.2722373351178
 31
0.0
  0
LINE
  5
F100BD
330
261
100
AcDbEntity
  8
Geo
100
AcDbLine
 10
-30.58683896251004
 20
4.2722373351178
 30
0.0
 11
-30.48683896251005
 21
4.248989767544401
 31
0.0
  0
LINE
  5
F100BF
330
261
100
AcDbEntity
  8
Geo
100
AcDbLine
 10
-30.48683896251005
 20
4.248989767544401
 30
0.0
 11
-30.38683896251004
 21
4.224042585937002
 31
0.0
  0
LINE
  5
F100C1
330
261
100
AcDbEntity
  8
Geo
100
AcDbLine
 10
-30.38683896251004
 20
4.224042585937002
 30
0.0
 11
-30.28683896251005
 21
4.197413949214904
 31
0.0
  0
LINE
  5
F100C3
330
261
100
AcDbEntity
  8
Geo
100
AcDbLine
 10
-30.28683896251005
 20
4.197413949214904
 30
0.0
 11
-30.18683896251004
 21
4.1691232402197
 31
0.0
  0
LINE
  5
F100C5
330
261
100
AcDbEntity
  8
Geo
100
AcDbLine
 10
-30.18683896251004
 20
4.1691232402197
 30
0.0
 11
-30.08683896251004
 21
4.139191051606406
 31
0.0
  0
LINE
  5
F100C7
330
261
100
AcDbEntity
  8
Geo
100
AcDbLine
 10
-30.08683896251004
 20
4.139191051606406
 30
0.0
 11
-29.98683896251005
 21
4.107639170854405
 31
0.0
  0
LINE
  5
F100C9
330
261
100
AcDbEntity
  8
Geo
100
AcDbLine
 10
-29.98683896251005
 20
4.107639170854405
 30
0.0
 11
-29.88683896251004
 21
4.074490564408002
 31
0.0
  0
LINE
  5
F100CB
330
261
100
AcDbEntity
  8
Geo
100
AcDbLine
 10
-29.88683896251004
 20
4.074490564408002
 30
0.0
 11
-29.78683896251005
 21
4.039769360959802
 31
0.0
  0
LINE
  5
F100CD
330
261
100
AcDbEntity
  8
Geo
100
AcDbLine
 10
-29.78683896251005
 20
4.039769360959802
 30
0.0
 11
-29.68683896251004
 21
4.003500833887102
 31
0.0
  0
LINE
  5
F100CF
330
261
100
AcDbEntity
  8
Geo
100
AcDbLine
 10
-29.68683896251004
 20
4.003500833887102
 30
0.0
 11
-29.58683896251005
 21
3.965711382855904
 31
0.0
  0
LINE
  5
F100D1
330
261
100
AcDbEntity
  8
Geo
100
AcDbLine
 10
-29.58683896251005
 20
3.965711382855904
 30
0.0
 11
-29.48683896251005
 21
3.926428514604499
 31
0.0
  0
LINE
  5
F100D3
330
261
100
AcDbEntity
  8
Geo
100
AcDbLine
 10
-29.48683896251005
 20
3.926428514604499
 30
0.0
 11
-29.38683896251004
 21
3.885680822921603
 31
0.0
  0
LINE
  5
F100D5
330
261
100
AcDbEntity
  8
Geo
100
AcDbLine
 10
-29.38683896251004
 20
3.885680822921603
 30
0.0
 11
-29.28683896251005
 21
3.843497967833002
 31
0.0
  0
LINE
  5
F100D7
330
261
100
AcDbEntity
  8
Geo
100
AcDbLine
 10
-29.28683896251005
 20
3.843497967833002
 30
0.0
 11
-29.18683896251004
 21
3.7999106540123
 31
0.0
  0
LINE
  5
F100D9
330
261
100
AcDbEntity
  8
Geo
100
AcDbLine
 10
-29.18683896251004
 20
3.7999106540123
 30
0.0
 11
-29.08683896251004
 21
3.754950608430903
 31
0.0
  0
LINE
  5
F100DB
330
261
100
AcDbEntity
  8
Geo
100
AcDbLine
 10
-29.08683896251004
 20
3.754950608430903
 30
0.0
 11
-28.98683896251005
 21
3.708650557264302
 31
0.0
  0
LINE
  5
F100DD
330
261
100
AcDbEntity
  8
Geo
100
AcDbLine
 10
-28.98683896251005
 20
3.708650557264302
 30
0.0
 11
-28.88683896251004
 21
3.661044202071103
 31
0.0
  0
LINE
  5
F100DF
330
261
100
AcDbEntity
  8
Geo
100
AcDbLine
 10
-28.88683896251004
 20
3.661044202071103
 30
0.0
 11
-28.78683896251004
 21
3.612166195261405
 31
0.0
  0
LINE
  5
F100E1
330
261
100
AcDbEntity
  8
Geo
100
AcDbLine
 10
-28.78683896251004
 20
3.612166195261405
 30
0.0
 11
-28.68683896251004
 21
3.562052114873502
 31
0.0
  0
LINE
  5
F100E3
330
261
100
AcDbEntity
  8
Geo
100
AcDbLine
 10
-28.68683896251004
 20
3.562052114873502
 30
0.0
 11
-28.58683896251005
 21
3.510738438677403
 31
0.0
  0
LINE
  5
F100E5
330
261
100
AcDbEntity
  8
Geo
100
AcDbLine
 10
-28.58683896251005
 20
3.510738438677403
 30
0.0
 11
-28.48683896251005
 21
3.458262517622202
 31
0.0
  0
LINE
  5
F100E7
330
261
100
AcDbEntity
  8
Geo
100
AcDbLine
 10
-28.48683896251005
 20
3.458262517622202
 30
0.0
 11
-28.38683896251004
 21
3.404662548648804
 31
0.0
  0
LINE
  5
F100E9
330
261
100
AcDbEntity
  8
Geo
100
AcDbLine
 10
-28.38683896251004
 20
3.404662548648804
 30
0.0
 11
-28.28683896251005
 21
3.349977546886499
 31
0.0
  0
LINE
  5
F100EB
330
261
100
AcDbEntity
  8
Geo
100
AcDbLine
 10
-28.28683896251005
 20
3.349977546886499
 30
0.0
 11
-28.18683896251004
 21
3.294247317254303
 31
0.0
  0
LINE
  5
F100ED
330
261
100
AcDbEntity
  8
Geo
100
AcDbLine
 10
-28.18683896251004
 20
3.294247317254303
 30
0.0
 11
-28.08683896251004
 21
3.237512425486901
 31
0.0
  0
LINE
  5
F100EF
330
261
100
AcDbEntity
  8
Geo
100
AcDbLine
 10
-28.08683896251004
 20
3.237512425486901
 30
0.0
 11
-27.98683896251005
 21
3.179814168606998
 31
0.0
  0
LINE
  5
F100F1
330
261
100
AcDbEntity
  8
Geo
100
AcDbLine
 10
-27.98683896251005
 20
3.179814168606998
 30
0.0
 11
-27.88683896251004
 21
3.121194544865801
 31
0.0
  0
LINE
  5
F100F3
330
261
100
AcDbEntity
  8
Geo
100
AcDbLine
 10
-27.88683896251004
 20
3.121194544865801
 30
0.0
 11
-27.78683896251005
 21
3.061696223172404
 31
0.0
  0
LINE
  5
F100F5
330
261
100
AcDbEntity
  8
Geo
100
AcDbLine
 10
-27.78683896251005
 20
3.061696223172404
 30
0.0
 11
-27.68683896251004
 21
3.001362512035402
 31
0.0
  0
LINE
  5
F100F7
330
261
100
AcDbEntity
  8
Geo
100
AcDbLine
 10
-27.68683896251004
 20
3.001362512035402
 30
0.0
 11
-27.58683896251004
 21
2.940237328038904
 31
0.0
  0
LINE
  5
F100F9
330
261
100
AcDbEntity
  8
Geo
100
AcDbLine
 10
-27.58683896251004
 20
2.940237328038904
 30
0.0
 11
-27.48683896251005
 21
2.878365163875901
 31
0.0
  0
LINE
  5
F100FB
330
261
100
AcDbEntity
  8
Geo
100
AcDbLine
 10
-27.48683896251005
 20
2.878365163875901
 30
0.0
 11
-27.38683896251004
 21
2.815791055962105
 31
0.0
  0
LINE
  5
F100FD
330
261
100
AcDbEntity
  8
Geo
100
AcDbLine
 10
-27.38683896251004
 20
2.815791055962105
 30
0.0
 11
-27.28683896251005
 21
2.752560551654404
 31
0.0
  0
LINE
  5
F100FF
330
261
100
AcDbEntity
  8
Geo
100
AcDbLine
 10
-27.28683896251005
 20
2.752560551654404
 30
0.0
 11
-27.18683896251004
 21
2.6887196760971
 31
0.0
  0
LINE
  5
F10101
330
261
100
AcDbEntity
  8
Geo
100
AcDbLine
 10
-27.18683896251004
 20
2.6887196760971
 30
0.0
 11
-27.08683896251005
 21
2.624314898720502
 31
0.0
  0
LINE
  5
F10103
330
261
100
AcDbEntity
  8
Geo
100
AcDbLine
 10
-27.08683896251005
 20
2.624314898720502
 30
0.0
 11
-26.98683896251005
 21
2.559393099415903
 31
0.0
  0
LINE
  5
F10105
330
261
100
AcDbEntity
  8
Geo
100
AcDbLine
 10
-26.98683896251005
 20
2.559393099415903
 30
0.0
 11
-26.88683896251004
 21
2.494001534412102
 31
0.0
  0
LINE
  5
F10107
330
261
100
AcDbEntity
  8
Geo
100
AcDbLine
 10
-26.88683896251004
 20
2.494001534412102
 30
0.0
 11
-26.78683896251005
 21
2.428187801877903
 31
0.0
  0
LINE
  5
F10109
330
261
100
AcDbEntity
  8
Geo
100
AcDbLine
 10
-26.78683896251005
 20
2.428187801877903
 30
0.0
 11
-26.68683896251004
 21
2.361999807275502
 31
0.0
  0
LINE
  5
F1010B
330
261
100
AcDbEntity
  8
Geo
100
AcDbLine
 10
-26.68683896251004
 20
2.361999807275502
 30
0.0
 11
-26.58683896251004
 21
2.295485728490504
 31
0.0
  0
LINE
  5
F1010D
330
261
100
AcDbEntity
  8
Geo
100
AcDbLine
 10
-26.58683896251004
 20
2.295485728490504
 30
0.0
 11
-26.48683896251005
 21
2.228693980763406
 31
0.0
  0
LINE
  5
F1010F
330
261
100
AcDbEntity
  8
Geo
100
AcDbLine
 10
-26.48683896251005
 20
2.228693980763406
 30
0.0
 11
-26.38683896251004
 21
2.161673181448406
 31
0.0
  0
LINE
  5
F10111
330
261
100
AcDbEntity
  8
Geo
100
AcDbLine
 10
-26.38683896251004
 20
2.161673181448406
 30
0.0
 11
-26.28683896251005
 21
2.094472114625105
 31
0.0
  0
LINE
  5
F10113
330
261
100
AcDbEntity
  8
Geo
100
AcDbLine
 10
-26.28683896251005
 20
2.094472114625105
 30
0.0
 11
-26.18683896251004
 21
2.027139695589102
 31
0.0
  0
LINE
  5
F10115
330
261
100
AcDbEntity
  8
Geo
100
AcDbLine
 10
-26.18683896251004
 20
2.027139695589102
 30
0.0
 11
-26.08683896251005
 21
1.9597249352462
 31
0.0
  0
LINE
  5
F10117
330
261
100
AcDbEntity
  8
Geo
100
AcDbLine
 10
-26.08683896251005
 20
1.9597249352462
 30
0.0
 11
-25.98683896251005
 21
1.892276904438304
 31
0.0
  0
LINE
  5
F10119
330
261
100
AcDbEntity
  8
Geo
100
AcDbLine
 10
-25.98683896251005
 20
1.892276904438304
 30
0.0
 11
-25.88683896251004
 21
1.824844698224403
 31
0.0
  0
LINE
  5
F1011B
330
261
100
AcDbEntity
  8
Geo
100
AcDbLine
 10
-25.88683896251004
 20
1.824844698224403
 30
0.0
 11
-25.78683896251005
 21
1.757477400145106
 31
0.0
  0
LINE
  5
F1011D
330
261
100
AcDbEntity
  8
Geo
100
AcDbLine
 10
-25.78683896251005
 20
1.757477400145106
 30
0.0
 11
-25.68683896251004
 21
1.690224046494702
 31
0.0
  0
LINE
  5
F1011F
330
261
100
AcDbEntity
  8
Geo
100
AcDbLine
 10
-25.68683896251004
 20
1.690224046494702
 30
0.0
 11
-25.58683896251004
 21
1.623133590627901
 31
0.0
  0
LINE
  5
F10121
330
261
100
AcDbEntity
  8
Geo
100
AcDbLine
 10
-25.58683896251004
 20
1.623133590627901
 30
0.0
 11
-25.48683896251005
 21
1.556254867326902
 31
0.0
  0
LINE
  5
F10123
330
261
100
AcDbEntity
  8
Geo
100
AcDbLine
 10
-25.48683896251005
 20
1.556254867326902
 30
0.0
 11
-25.38683896251004
 21
1.489636557255
 31
0.0
  0
LINE
  5
F10125
330
261
100
AcDbEntity
  8
Geo
100
AcDbLine
 10
-25.38683896251004
 20
1.489636557255
 30
0.0
 11
-25.28683896251005
 21
1.423327151522201
 31
0.0
  0
LINE
  5
F10127
330
261
100
AcDbEntity
  8
Geo
100
AcDbLine
 10
-25.28683896251005
 20
1.423327151522201
 30
0.0
 11
-25.18683896251004
 21
1.357374916388501
 31
0.0
  0
LINE
  5
F10129
330
261
100
AcDbEntity
  8
Geo
100
AcDbLine
 10
-25.18683896251004
 20
1.357374916388501
 30
0.0
 11
-25.08683896251004
 21
1.291827858131401
 31
0.0
  0
LINE
  5
F1012B
330
261
100
AcDbEntity
  8
Geo
100
AcDbLine
 10
-25.08683896251004
 20
1.291827858131401
 30
0.0
 11
-24.98683896251005
 21
1.226733688102406
 31
0.0
  0
LINE
  5
F1012D
330
261
100
AcDbEntity
  8
Geo
100
AcDbLine
 10
-24.98683896251005
 20
1.226733688102406
 30
0.0
 11
-24.88683896251004
 21
1.162139787998103
 31
0.0
  0
LINE
  5
F1012F
330
261
100
AcDbEntity
  8
Geo
100
AcDbLine
 10
-24.88683896251004
 20
1.162139787998103
 30
0.0
 11
-24.78683896251005
 21
1.098093175371101
 31
0.0
  0
LINE
  5
F10131
330
261
100
AcDbEntity
  8
Geo
100
AcDbLine
 10
-24.78683896251005
 20
1.098093175371101
 30
0.0
 11
-24.68683896251004
 21
1.034640469406802
 31
0.0
  0
LINE
  5
F10133
330
261
100
AcDbEntity
  8
Geo
100
AcDbLine
 10
-24.68683896251004
 20
1.034640469406802
 30
0.0
 11
-24.58683896251005
 21
0.9718278569886997
 31
0.0
  0
LINE
  5
F10135
330
261
100
AcDbEntity
  8
Geo
100
AcDbLine
 10
-24.58683896251005
 20
0.9718278569886997
 30
0.0
 11
-24.48683896251005
 21
0.9097010590798042
 31
0.0
  0
LINE
  5
F10137
330
261
100
AcDbEntity
  8
Geo
100
AcDbLine
 10
-24.48683896251005
 20
0.9097010590798042
 30
0.0
 11
-24.38683896251004
 21
0.8483052974425007
 31
0.0
  0
LINE
  5
F10139
330
261
100
AcDbEntity
  8
Geo
100
AcDbLine
 10
-24.38683896251004
 20
0.8483052974425007
 30
0.0
 11
-24.28683896251005
 21
0.7876852617218013
 31
0.0
  0
LINE
  5
F1013B
330
261
100
AcDbEntity
  8
Geo
100
AcDbLine
 10
-24.28683896251005
 20
0.7876852617218013
 30
0.0
 11
-24.18683896251004
 21
0.7278850769159036
 31
0.0
  0
LINE
  5
F1013D
330
261
100
AcDbEntity
  8
Geo
100
AcDbLine
 10
-24.18683896251004
 20
0.7278850769159036
 30
0.0
 11
-24.08683896251004
 21
0.6689482712579036
 31
0.0
  0
LINE
  5
F1013F
330
261
100
AcDbEntity
  8
Geo
100
AcDbLine
 10
-24.08683896251004
 20
0.6689482712579036
 30
0.0
 11
-23.98683896251005
 21
0.6109177445320029
 31
0.0
  0
LINE
  5
F10141
330
261
100
AcDbEntity
  8
Geo
100
AcDbLine
 10
-23.98683896251005
 20
0.6109177445320029
 30
0.0
 11
-23.88683896251004
 21
0.553835736846704
 31
0.0
  0
LINE
  5
F10143
330
261
100
AcDbEntity
  8
Geo
100
AcDbLine
 10
-23.88683896251004
 20
0.553835736846704
 30
0.0
 11
-23.78683896251005
 21
0.4977437978886031
 31
0.0
  0
LINE
  5
F10145
330
261
100
AcDbEntity
  8
Geo
100
AcDbLine
 10
-23.78683896251005
 20
0.4977437978886031
 30
0.0
 11
-23.68683896251004
 21
0.4426827566786998
 31
0.0
  0
LINE
  5
F10147
330
261
100
AcDbEntity
  8
Geo
100
AcDbLine
 10
-23.68683896251004
 20
0.4426827566786998
 30
0.0
 11
-23.58683896251005
 21
0.3886926918529028
 31
0.0
  0
LINE
  5
F10149
330
261
100
AcDbEntity
  8
Geo
100
AcDbLine
 10
-23.58683896251005
 20
0.3886926918529028
 30
0.0
 11
-23.48683896251005
 21
0.3358129024894048
 31
0.0
  0
LINE
  5
F1014B
330
261
100
AcDbEntity
  8
Geo
100
AcDbLine
 10
-23.48683896251005
 20
0.3358129024894048
 30
0.0
 11
-23.38683896251004
 21
0.2840818795026045
 31
0.0
  0
LINE
  5
F1014D
330
261
100
AcDbEntity
  8
Geo
100
AcDbLine
 10
-23.38683896251004
 20
0.2840818795026045
 30
0.0
 11
-23.28683896251005
 21
0.2335372776261018
 31
0.0
  0
LINE
  5
F1014F
330
261
100
AcDbEntity
  8
Geo
100
AcDbLine
 10
-23.28683896251005
 20
0.2335372776261018
 30
0.0
 11
-23.18683896251004
 21
0.1842158880041005
 31
0.0
  0
LINE
  5
F10151
330
261
100
AcDbEntity
  8
Geo
100
AcDbLine
 10
-23.18683896251004
 20
0.1842158880041005
 30
0.0
 11
-23.08683896251004
 21
0.1361536114110038
 31
0.0
  0
LINE
  5
F10153
330
261
100
AcDbEntity
  8
Geo
100
AcDbLine
 10
-23.08683896251004
 20
0.1361536114110038
 30
0.0
 11
-22.98683896251005
 21
0.0893854321196024
 31
0.0
  0
LINE
  5
F10155
330
261
100
AcDbEntity
  8
Geo
100
AcDbLine
 10
-22.98683896251005
 20
0.0893854321196024
 30
0.0
 11
-22.88683896251004
 21
0.0439453924363029
 31
0.0
  0
LINE
  5
F10157
330
261
100
AcDbEntity
  8
Geo
100
AcDbLine
 10
-22.88683896251004
 20
0.0439453924363029
 30
0.0
 11
-22.78683896251004
 21
-0.0001334320781972
 31
0.0
  0
LINE
  5
F10159
330
261
100
AcDbEntity
  8
Geo
100
AcDbLine
 10
-22.78683896251004
 20
-0.0001334320781972
 30
0.0
 11
-22.68683896251004
 21
-0.0428189566843962
 31
0.0
  0
LINE
  5
F1015B
330
261
100
AcDbEntity
  8
Geo
100
AcDbLine
 10
-22.68683896251004
 20
-0.0428189566843962
 30
0.0
 11
-22.58683896251004
 21
-0.0840801108182952
 31
0.0
  0
LINE
  5
F1015D
330
261
100
AcDbEntity
  8
Geo
100
AcDbLine
 10
-22.58683896251004
 20
-0.0840801108182952
 30
0.0
 11
-22.48683896251005
 21
-0.1238868607075929
 31
0.0
  0
LINE
  5
F1015F
330
261
100
AcDbEntity
  8
Geo
100
AcDbLine
 10
-22.48683896251005
 20
-0.1238868607075929
 30
0.0
 11
-22.38683896251004
 21
-0.1622102312329972
 31
0.0
  0
LINE
  5
F10161
330
261
100
AcDbEntity
  8
Geo
100
AcDbLine
 10
-22.38683896251004
 20
-0.1622102312329972
 30
0.0
 11
-22.28683896251005
 21
-0.1990223270188949
 31
0.0
  0
LINE
  5
F10163
330
261
100
AcDbEntity
  8
Geo
100
AcDbLine
 10
-22.28683896251005
 20
-0.1990223270188949
 30
0.0
 11
-22.18683896251004
 21
-0.2342963527388022
 31
0.0
  0
LINE
  5
F10165
330
261
100
AcDbEntity
  8
Geo
100
AcDbLine
 10
-22.18683896251004
 20
-0.2342963527388022
 30
0.0
 11
-22.08683896251004
 21
-0.2680066326187998
 31
0.0
  0
LINE
  5
F10167
330
261
100
AcDbEntity
  8
Geo
100
AcDbLine
 10
-22.08683896251004
 20
-0.2680066326187998
 30
0.0
 11
-21.98683896251005
 21
-0.3001286291273999
 31
0.0
  0
LINE
  5
F10169
330
261
100
AcDbEntity
  8
Geo
100
AcDbLine
 10
-21.98683896251005
 20
-0.3001286291273999
 30
0.0
 11
-21.88683896251004
 21
-0.3306389608359979
 31
0.0
  0
LINE
  5
F1016B
330
261
100
AcDbEntity
  8
Geo
100
AcDbLine
 10
-21.88683896251004
 20
-0.3306389608359979
 30
0.0
 11
-21.78683896251005
 21
-0.3595154194379972
 31
0.0
  0
LINE
  5
F1016D
330
261
100
AcDbEntity
  8
Geo
100
AcDbLine
 10
-21.78683896251005
 20
-0.3595154194379972
 30
0.0
 11
-21.68683896251004
 21
-0.3867369859143999
 31
0.0
  0
LINE
  5
F1016F
330
261
100
AcDbEntity
  8
Geo
100
AcDbLine
 10
-21.68683896251004
 20
-0.3867369859143999
 30
0.0
 11
-21.58683896251004
 21
-0.4122838458331977
 31
0.0
  0
LINE
  5
F10171
330
261
100
AcDbEntity
  8
Geo
100
AcDbLine
 10
-21.58683896251004
 20
-0.4122838458331977
 30
0.0
 11
-21.48683896251005
 21
-0.4361374037724986
 31
0.0
  0
LINE
  5
F10173
330
261
100
AcDbEntity
  8
Geo
100
AcDbLine
 10
-21.48683896251005
 20
-0.4361374037724986
 30
0.0
 11
-21.38683896251004
 21
-0.4582802968555946
 31
0.0
  0
LINE
  5
F10175
330
261
100
AcDbEntity
  8
Geo
100
AcDbLine
 10
-21.38683896251004
 20
-0.4582802968555946
 30
0.0
 11
-21.28683896251005
 21
-0.4786964073895952
 31
0.0
  0
LINE
  5
F10177
330
261
100
AcDbEntity
  8
Geo
100
AcDbLine
 10
-21.28683896251005
 20
-0.4786964073895952
 30
0.0
 11
-21.18683896251004
 21
-0.4973708745973973
 31
0.0
  0
LINE
  5
F10179
330
261
100
AcDbEntity
  8
Geo
100
AcDbLine
 10
-21.18683896251004
 20
-0.4973708745973973
 30
0.0
 11
-21.08683896251005
 21
-0.514290105434597
 31
0.0
  0
LINE
  5
F1017B
330
261
100
AcDbEntity
  8
Geo
100
AcDbLine
 10
-21.08683896251005
 20
-0.514290105434597
 30
0.0
 11
-20.98683896251005
 21
-0.5294417844839963
 31
0.0
  0
LINE
  5
F1017D
330
261
100
AcDbEntity
  8
Geo
100
AcDbLine
 10
-20.98683896251005
 20
-0.5294417844839963
 30
0.0
 11
-20.88683896251004
 21
-0.5428148829198954
 31
0.0
  0
LINE
  5
F1017F
330
261
100
AcDbEntity
  8
Geo
100
AcDbLine
 10
-20.88683896251004
 20
-0.5428148829198954
 30
0.0
 11
-20.78683896251005
 21
-0.5543996665357973
 31
0.0
  0
LINE
  5
F10181
330
261
100
AcDbEntity
  8
Geo
100
AcDbLine
 10
-20.78683896251005
 20
-0.5543996665357973
 30
0.0
 11
-20.68683896251004
 21
-0.5641877028298979
 31
0.0
  0
LINE
  5
F10183
330
261
100
AcDbEntity
  8
Geo
100
AcDbLine
 10
-20.68683896251004
 20
-0.5641877028298979
 30
0.0
 11
-20.58683896251004
 21
-0.5721718671432967
 31
0.0
  0
LINE
  5
F10185
330
261
100
AcDbEntity
  8
Geo
100
AcDbLine
 10
-20.58683896251004
 20
-0.5721718671432967
 30
0.0
 11
-20.58683896251004
 21
-0.5721718671432967
 31
0.0
  0
LINE
  5
F10187
330
261
100
AcDbEntity
  8
Geo
100
AcDbLine
 10
-20.58683896251004
 20
-0.5721718671432967
 30
0.0
 11
-20.58683896251004
 21
-0.4727243072172982
 31
0.0
  0
LINE
  5
F10189
330
261
100
AcDbEntity
  8
Geo
100
AcDbLine
 10
-20.58683896251004
 20
-0.4727243072172982
 30
0.0
 11
-20.58683896251004
 21
-0.5721718671432967
 31
0.0
  0
LINE
  5
F1018B
330
261
100
AcDbEntity
  8
Geo
100
AcDbLine
 10
-20.58683896251004
 20
-0.5721718671432967
 30
0.0
 11
-20.58683896251004
 21
-0.5721718671432967
 31
0.0
  0
LINE
  5
F1018D
330
261
100
AcDbEntity
  8
Geo
100
AcDbLine
 10
-20.58683896251004
 20
-0.5721718671432967
 30
0.0
 11
-20.48683896251005
 21
-0.4794032581447994
 31
0.0
  0
LINE
  5
F1018F
330
261
100
AcDbEntity
  8
Geo
100
AcDbLine
 10
-20.48683896251005
 20
-0.4794032581447994
 30
0.0
 11
-20.38683896251004
 21
-0.4838875861960937
 31
0.0
  0
LINE
  5
F10191
330
261
100
AcDbEntity
  8
Geo
100
AcDbLine
 10
-20.38683896251004
 20
-0.4838875861960937
 30
0.0
 11
-20.28683896251004
 21
-0.485899482558299
 31
0.0
  0
LINE
  5
F10193
330
261
100
AcDbEntity
  8
Geo
100
AcDbLine
 10
-33.58683896251005
 20
3.628751075383604
 30
0.0
 11
-33.58683896251005
 21
3.628751075383604
 31
0.0
  0
LINE
  5
F10195
330
261
100
AcDbEntity
  8
Geo
100
AcDbLine
 10
-33.58683896251005
 20
3.628751075383604
 30
0.0
 11
-33.58683896251005
 21
3.681784083972605
 31
0.0
  0
LINE
  5
F10197
330
261
100
AcDbEntity
  8
Geo
100
AcDbLine
 10
-33.58683896251005
 20
3.681784083972605
 30
0.0
 11
-33.48683896251005
 21
3.633451541607904
 31
0.0
  0
LINE
  5
F10199
330
261
100
AcDbEntity
  8
Geo
100
AcDbLine
 10
-33.48683896251005
 20
3.633451541607904
 30
0.0
 11
-33.38683896251004
 21
3.583867432175903
 31
0.0
  0
LINE
  5
F1019B
330
261
100
AcDbEntity
  8
Geo
100
AcDbLine
 10
-33.38683896251004
 20
3.583867432175903
 30
0.0
 11
-33.28683896251005
 21
3.533067847683405
 31
0.0
  0
LINE
  5
F1019D
330
261
100
AcDbEntity
  8
Geo
100
AcDbLine
 10
-33.28683896251005
 20
3.533067847683405
 30
0.0
 11
-33.18683896251004
 21
3.481089764874905
 31
0.0
  0
LINE
  5
F1019F
330
261
100
AcDbEntity
  8
Geo
100
AcDbLine
 10
-33.18683896251004
 20
3.481089764874905
 30
0.0
 11
-33.08683896251004
 21
3.427971018317602
 31
0.0
  0
LINE
  5
F101A1
330
261
100
AcDbEntity
  8
Geo
100
AcDbLine
 10
-33.08683896251004
 20
3.427971018317602
 30
0.0
 11
-32.98683896251005
 21
3.373750272861698
 31
0.0
  0
LINE
  5
F101A3
330
261
100
AcDbEntity
  8
Geo
100
AcDbLine
 10
-32.98683896251005
 20
3.373750272861698
 30
0.0
 11
-32.88683896251004
 21
3.318466995496404
 31
0.0
  0
LINE
  5
F101A5
330
261
100
AcDbEntity
  8
Geo
100
AcDbLine
 10
-32.88683896251004
 20
3.318466995496404
 30
0.0
 11
-32.78683896251005
 21
3.262161426622302
 31
0.0
  0
LINE
  5
F101A7
330
261
100
AcDbEntity
  8
Geo
100
AcDbLine
 10
-32.78683896251005
 20
3.262161426622302
 30
0.0
 11
-32.68683896251004
 21
3.204874550760202
 31
0.0
  0
LINE
  5
F101A9
330
261
100
AcDbEntity
  8
Geo
100
AcDbLine
 10
-32.68683896251004
 20
3.204874550760202
 30
0.0
 11
-32.58683896251004
 21
3.146648066719301
 31
0.0
  0
LINE
  5
F101AB
330
261
100
AcDbEntity
  8
Geo
100
AcDbLine
 10
-32.58683896251004
 20
3.146648066719301
 30
0.0
 11
-32.48683896251005
 21
3.087524357244404
 31
0.0
  0
LINE
  5
F101AD
330
261
100
AcDbEntity
  8
Geo
100
AcDbLine
 10
-32.48683896251005
 20
3.087524357244404
 30
0.0
 11
-32.38683896251004
 21
3.0275464581659
 31
0.0
  0
LINE
  5
F101AF
330
261
100
AcDbEntity
  8
Geo
100
AcDbLine
 10
-32.38683896251004
 20
3.0275464581659
 30
0.0
 11
-32.28683896251005
 21
2.966758027074202
 31
0.0
  0
LINE
  5
F101B1
330
261
100
AcDbEntity
  8
Geo
100
AcDbLine
 10
-32.28683896251005
 20
2.966758027074202
 30
0.0
 11
-32.18683896251004
 21
2.905203311541697
 31
0.0
  0
LINE
  5
F101B3
330
261
100
AcDbEntity
  8
Geo
100
AcDbLine
 10
-32.18683896251004
 20
2.905203311541697
 30
0.0
 11
-32.08683896251005
 21
2.842927116914999
 31
0.0
  0
LINE
  5
F101B5
330
261
100
AcDbEntity
  8
Geo
100
AcDbLine
 10
-32.08683896251005
 20
2.842927116914999
 30
0.0
 11
-31.98683896251005
 21
2.7799747737015
 31
0.0
  0
LINE
  5
F101B7
330
261
100
AcDbEntity
  8
Geo
100
AcDbLine
 10
-31.98683896251005
 20
2.7799747737015
 30
0.0
 11
-31.88683896251004
 21
2.716392104573404
 31
0.0
  0
LINE
  5
F101B9
330
261
100
AcDbEntity
  8
Geo
100
AcDbLine
 10
-31.88683896251004
 20
2.716392104573404
 30
0.0
 11
-31.78683896251005
 21
2.652225391014102
 31
0.0
  0
LINE
  5
F101BB
330
261
100
AcDbEntity
  8
Geo
100
AcDbLine
 10
-31.78683896251005
 20
2.652225391014102
 30
0.0
 11
-31.68683896251004
 21
2.587521339629404
 31
0.0
  0
LINE
  5
F101BD
330
261
100
AcDbEntity
  8
Geo
100
AcDbLine
 10
-31.68683896251004
 20
2.587521339629404
 30
0.0
 11
-31.58683896251004
 21
2.522327048150604
 31
0.0
  0
LINE
  5
F101BF
330
261
100
AcDbEntity
  8
Geo
100
AcDbLine
 10
-31.58683896251004
 20
2.522327048150604
 30
0.0
 11
-31.48683896251005
 21
2.456689971152201
 31
0.0
  0
LINE
  5
F101C1
330
261
100
AcDbEntity
  8
Geo
100
AcDbLine
 10
-31.48683896251005
 20
2.456689971152201
 30
0.0
 11
-31.38683896251004
 21
2.3906578855097
 31
0.0
  0
LINE
  5
F101C3
330
261
100
AcDbEntity
  8
Geo
100
AcDbLine
 10
-31.38683896251004
 20
2.3906578855097
 30
0.0
 11
-31.28683896251005
 21
2.3242788556235
 31
0.0
  0
LINE
  5
F101C5
330
261
100
AcDbEntity
  8
Geo
100
AcDbLine
 10
-31.28683896251005
 20
2.3242788556235
 30
0.0
 11
-31.18683896251004
 21
2.257601198432702
 31
0.0
  0
LINE
  5
F101C7
330
261
100
AcDbEntity
  8
Geo
100
AcDbLine
 10
-31.18683896251004
 20
2.257601198432702
 30
0.0
 11
-31.08683896251005
 21
2.190673448245604
 31
0.0
  0
LINE
  5
F101C9
330
261
100
AcDbEntity
  8
Geo
100
AcDbLine
 10
-31.08683896251005
 20
2.190673448245604
 30
0.0
 11
-30.98683896251005
 21
2.123544321411902
 31
0.0
  0
LINE
  5
F101CB
330
261
100
AcDbEntity
  8
Geo
100
AcDbLine
 10
-30.98683896251005
 20
2.123544321411902
 30
0.0
 11
-30.88683896251004
 21
2.0562626808623
 31
0.0
  0
LINE
  5
F101CD
330
261
100
AcDbEntity
  8
Geo
100
AcDbLine
 10
-30.88683896251004
 20
2.0562626808623
 30
0.0
 11
-30.78683896251005
 21
1.988877500541406
 31
0.0
  0
LINE
  5
F101CF
330
261
100
AcDbEntity
  8
Geo
100
AcDbLine
 10
-30.78683896251005
 20
1.988877500541406
 30
0.0
 11
-30.68683896251004
 21
1.921437829759902
 31
0.0
  0
LINE
  5
F101D1
330
261
100
AcDbEntity
  8
Geo
100
AcDbLine
 10
-30.68683896251004
 20
1.921437829759902
 30
0.0
 11
-30.58683896251004
 21
1.8539927574915
 31
0.0
  0
LINE
  5
F101D3
330
261
100
AcDbEntity
  8
Geo
100
AcDbLine
 10
-30.58683896251004
 20
1.8539927574915
 30
0.0
 11
-30.48683896251005
 21
1.7865913766421
 31
0.0
  0
LINE
  5
F101D5
330
261
100
AcDbEntity
  8
Geo
100
AcDbLine
 10
-30.48683896251005
 20
1.7865913766421
 30
0.0
 11
-30.38683896251004
 21
1.719282748314501
 31
0.0
  0
LINE
  5
F101D7
330
261
100
AcDbEntity
  8
Geo
100
AcDbLine
 10
-30.38683896251004
 20
1.719282748314501
 30
0.0
 11
-30.28683896251005
 21
1.652115866097602
 31
0.0
  0
LINE
  5
F101D9
330
261
100
AcDbEntity
  8
Geo
100
AcDbLine
 10
-30.28683896251005
 20
1.652115866097602
 30
0.0
 11
-30.18683896251004
 21
1.585139620403904
 31
0.0
  0
LINE
  5
F101DB
330
261
100
AcDbEntity
  8
Geo
100
AcDbLine
 10
-30.18683896251004
 20
1.585139620403904
 30
0.0
 11
-30.08683896251004
 21
1.518402762882903
 31
0.0
  0
LINE
  5
F101DD
330
261
100
AcDbEntity
  8
Geo
100
AcDbLine
 10
-30.08683896251004
 20
1.518402762882903
 30
0.0
 11
-29.98683896251005
 21
1.451953870934303
 31
0.0
  0
LINE
  5
F101DF
330
261
100
AcDbEntity
  8
Geo
100
AcDbLine
 10
-29.98683896251005
 20
1.451953870934303
 30
0.0
 11
-29.88683896251004
 21
1.3858413123497
 31
0.0
  0
LINE
  5
F101E1
330
261
100
AcDbEntity
  8
Geo
100
AcDbLine
 10
-29.88683896251004
 20
1.3858413123497
 30
0.0
 11
-29.78683896251005
 21
1.320113210105102
 31
0.0
  0
LINE
  5
F101E3
330
261
100
AcDbEntity
  8
Geo
100
AcDbLine
 10
-29.78683896251005
 20
1.320113210105102
 30
0.0
 11
-29.68683896251004
 21
1.254817407332801
 31
0.0
  0
LINE
  5
F101E5
330
261
100
AcDbEntity
  8
Geo
100
AcDbLine
 10
-29.68683896251004
 20
1.254817407332801
 30
0.0
 11
-29.58683896251005
 21
1.190001432496998
 31
0.0
  0
LINE
  5
F101E7
330
261
100
AcDbEntity
  8
Geo
100
AcDbLine
 10
-29.58683896251005
 20
1.190001432496998
 30
0.0
 11
-29.48683896251005
 21
1.125712464797199
 31
0.0
  0
LINE
  5
F101E9
330
261
100
AcDbEntity
  8
Geo
100
AcDbLine
 10
-29.48683896251005
 20
1.125712464797199
 30
0.0
 11
-29.38683896251004
 21
1.061997299827602
 31
0.0
  0
LINE
  5
F101EB
330
261
100
AcDbEntity
  8
Geo
100
AcDbLine
 10
-29.38683896251004
 20
1.061997299827602
 30
0.0
 11
-29.28683896251005
 21
0.9989023155145027
 31
0.0
  0
LINE
  5
F101ED
330
261
100
AcDbEntity
  8
Geo
100
AcDbLine
 10
-29.28683896251005
 20
0.9989023155145027
 30
0.0
 11
-29.18683896251004
 21
0.9364734383577015
 31
0.0
  0
LINE
  5
F101EF
330
261
100
AcDbEntity
  8
Geo
100
AcDbLine
 10
-29.18683896251004
 20
0.9364734383577015
 30
0.0
 11
-29.08683896251004
 21
0.8747561100014991
 31
0.0
  0
LINE
  5
F101F1
330
261
100
AcDbEntity
  8
Geo
100
AcDbLine
 10
-29.08683896251004
 20
0.8747561100014991
 30
0.0
 11
-28.98683896251005
 21
0.8137952541576041
 31
0.0
  0
LINE
  5
F101F3
330
261
100
AcDbEntity
  8
Geo
100
AcDbLine
 10
-28.98683896251005
 20
0.8137952541576041
 30
0.0
 11
-28.88683896251004
 21
0.753635243905304
 31
0.0
  0
LINE
  5
F101F5
330
261
100
AcDbEntity
  8
Geo
100
AcDbLine
 10
-28.88683896251004
 20
0.753635243905304
 30
0.0
 11
-28.78683896251004
 21
0.6943198693927002
 31
0.0
  0
LINE
  5
F101F7
330
261
100
AcDbEntity
  8
Geo
100
AcDbLine
 10
-28.78683896251004
 20
0.6943198693927002
 30
0.0
 11
-28.68683896251004
 21
0.635892305962198
 31
0.0
  0
LINE
  5
F101F9
330
261
100
AcDbEntity
  8
Geo
100
AcDbLine
 10
-28.68683896251004
 20
0.635892305962198
 30
0.0
 11
-28.58683896251005
 21
0.5783950827233007
 31
0.0
  0
LINE
  5
F101FB
330
261
100
AcDbEntity
  8
Geo
100
AcDbLine
 10
-28.58683896251005
 20
0.5783950827233007
 30
0.0
 11
-28.48683896251005
 21
0.5218700515958013
 31
0.0
  0
LINE
  5
F101FD
330
261
100
AcDbEntity
  8
Geo
100
AcDbLine
 10
-28.48683896251005
 20
0.5218700515958013
 30
0.0
 11
-28.38683896251004
 21
0.4663583568460013
 31
0.0
  0
LINE
  5
F101FF
330
261
100
AcDbEntity
  8
Geo
100
AcDbLine
 10
-28.38683896251004
 20
0.4663583568460013
 30
0.0
 11
-28.28683896251005
 21
0.4119004051383009
 31
0.0
  0
LINE
  5
F10201
330
261
100
AcDbEntity
  8
Geo
100
AcDbLine
 10
-28.28683896251005
 20
0.4119004051383009
 30
0.0
 11
-28.18683896251004
 21
0.3585358361229041
 31
0.0
  0
LINE
  5
F10203
330
261
100
AcDbEntity
  8
Geo
100
AcDbLine
 10
-28.18683896251004
 20
0.3585358361229041
 30
0.0
 11
-28.08683896251004
 21
0.3063034935831013
 31
0.0
  0
LINE
  5
F10205
330
261
100
AcDbEntity
  8
Geo
100
AcDbLine
 10
-28.08683896251004
 20
0.3063034935831013
 30
0.0
 11
-27.98683896251005
 21
0.2552413971601055
 31
0.0
  0
LINE
  5
F10207
330
261
100
AcDbEntity
  8
Geo
100
AcDbLine
 10
-27.98683896251005
 20
0.2552413971601055
 30
0.0
 11
-27.88683896251004
 21
0.2053867146796016
 31
0.0
  0
LINE
  5
F10209
330
261
100
AcDbEntity
  8
Geo
100
AcDbLine
 10
-27.88683896251004
 20
0.2053867146796016
 30
0.0
 11
-27.78683896251005
 21
0.1567757350970034
 31
0.0
  0
LINE
  5
F1020B
330
261
100
AcDbEntity
  8
Geo
100
AcDbLine
 10
-27.78683896251005
 20
0.1567757350970034
 30
0.0
 11
-27.68683896251004
 21
0.1094438420831061
 31
0.0
  0
LINE
  5
F1020D
330
261
100
AcDbEntity
  8
Geo
100
AcDbLine
 10
-27.68683896251004
 20
0.1094438420831061
 30
0.0
 11
-27.58683896251004
 21
0.0634254882685035
 31
0.0
  0
LINE
  5
F1020F
330
261
100
AcDbEntity
  8
Geo
100
AcDbLine
 10
-27.58683896251004
 20
0.0634254882685035
 30
0.0
 11
-27.48683896251005
 21
0.0187541701656997
 31
0.0
  0
LINE
  5
F10211
330
261
100
AcDbEntity
  8
Geo
100
AcDbLine
 10
-27.48683896251005
 20
0.0187541701656997
 30
0.0
 11
-27.38683896251004
 21
-0.0245375962130936
 31
0.0
  0
LINE
  5
F10213
330
261
100
AcDbEntity
  8
Geo
100
AcDbLine
 10
-27.38683896251004
 20
-0.0245375962130936
 30
0.0
 11
-27.28683896251005
 21
-0.0664182990235958
 31
0.0
  0
LINE
  5
F10215
330
261
100
AcDbEntity
  8
Geo
100
AcDbLine
 10
-27.28683896251005
 20
-0.0664182990235958
 30
0.0
 11
-27.18683896251004
 21
-0.1068574535273932
 31
0.0
  0
LINE
  5
F10217
330
261
100
AcDbEntity
  8
Geo
100
AcDbLine
 10
-27.18683896251004
 20
-0.1068574535273932
 30
0.0
 11
-27.08683896251005
 21
-0.1458256242811977
 31
0.0
  0
LINE
  5
F10219
330
261
100
AcDbEntity
  8
Geo
100
AcDbLine
 10
-27.08683896251005
 20
-0.1458256242811977
 30
0.0
 11
-26.98683896251005
 21
-0.1832944465629964
 31
0.0
  0
LINE
  5
F1021B
330
261
100
AcDbEntity
  8
Geo
100
AcDbLine
 10
-26.98683896251005
 20
-0.1832944465629964
 30
0.0
 11
-26.88683896251004
 21
-0.2192366470182989
 31
0.0
  0
LINE
  5
F1021D
330
261
100
AcDbEntity
  8
Geo
100
AcDbLine
 10
-26.88683896251004
 20
-0.2192366470182989
 30
0.0
 11
-26.78683896251005
 21
-0.2536260635126979
 31
0.0
  0
LINE
  5
F1021F
330
261
100
AcDbEntity
  8
Geo
100
AcDbLine
 10
-26.78683896251005
 20
-0.2536260635126979
 30
0.0
 11
-26.68683896251004
 21
-0.2864376641745956
 31
0.0
  0
LINE
  5
F10221
330
261
100
AcDbEntity
  8
Geo
100
AcDbLine
 10
-26.68683896251004
 20
-0.2864376641745956
 30
0.0
 11
-26.58683896251004
 21
-0.3176475656161983
 31
0.0
  0
LINE
  5
F10223
330
261
100
AcDbEntity
  8
Geo
100
AcDbLine
 10
-26.58683896251004
 20
-0.3176475656161983
 30
0.0
 11
-26.48683896251005
 21
-0.3472330503180956
 31
0.0
  0
LINE
  5
F10225
330
261
100
AcDbEntity
  8
Geo
100
AcDbLine
 10
-26.48683896251005
 20
-0.3472330503180956
 30
0.0
 11
-26.38683896251004
 21
-0.3751725831647974
 31
0.0
  0
LINE
  5
F10227
330
261
100
AcDbEntity
  8
Geo
100
AcDbLine
 10
-26.38683896251004
 20
-0.3751725831647974
 30
0.0
 11
-26.28683896251005
 21
-0.4014458271206962
 31
0.0
  0
LINE
  5
F10229
330
261
100
AcDbEntity
  8
Geo
100
AcDbLine
 10
-26.28683896251005
 20
-0.4014458271206962
 30
0.0
 11
-26.18683896251004
 21
-0.4260336580324982
 31
0.0
  0
LINE
  5
F1022B
330
261
100
AcDbEntity
  8
Geo
100
AcDbLine
 10
-26.18683896251004
 20
-0.4260336580324982
 30
0.0
 11
-26.08683896251005
 21
-0.4489181785503967
 31
0.0
  0
LINE
  5
F1022D
330
261
100
AcDbEntity
  8
Geo
100
AcDbLine
 10
-26.08683896251005
 20
-0.4489181785503967
 30
0.0
 11
-25.98683896251005
 21
-0.4700827311548004
 31
0.0
  0
LINE
  5
F1022F
330
261
100
AcDbEntity
  8
Geo
100
AcDbLine
 10
-25.98683896251005
 20
-0.4700827311548004
 30
0.0
 11
-25.88683896251004
 21
-0.4895119102814967
 31
0.0
  0
LINE
  5
F10231
330
261
100
AcDbEntity
  8
Geo
100
AcDbLine
 10
-25.88683896251004
 20
-0.4895119102814967
 30
0.0
 11
-25.78683896251005
 21
-0.5071915735355966
 31
0.0
  0
LINE
  5
F10233
330
261
100
AcDbEntity
  8
Geo
100
AcDbLine
 10
-25.78683896251005
 20
-0.5071915735355966
 30
0.0
 11
-25.68683896251004
 21
-0.5231088519851994
 31
0.0
  0
LINE
  5
F10235
330
261
100
AcDbEntity
  8
Geo
100
AcDbLine
 10
-25.68683896251004
 20
-0.5231088519851994
 30
0.0
 11
-25.58683896251004
 21
-0.5372521595286948
 31
0.0
  0
LINE
  5
F10237
330
261
100
AcDbEntity
  8
Geo
100
AcDbLine
 10
-25.58683896251004
 20
-0.5372521595286948
 30
0.0
 11
-25.48683896251005
 21
-0.5496112013287977
 31
0.0
  0
LINE
  5
F10239
330
261
100
AcDbEntity
  8
Geo
100
AcDbLine
 10
-25.48683896251005
 20
-0.5496112013287977
 30
0.0
 11
-25.38683896251004
 21
-0.5601769813050943
 31
0.0
  0
LINE
  5
F1023B
330
261
100
AcDbEntity
  8
Geo
100
AcDbLine
 10
-25.38683896251004
 20
-0.5601769813050943
 30
0.0
 11
-25.28683896251005
 21
-0.5689418086833982
 31
0.0
  0
LINE
  5
F1023D
330
261
100
AcDbEntity
  8
Geo
100
AcDbLine
 10
-25.28683896251005
 20
-0.5689418086833982
 30
0.0
 11
-25.18683896251004
 21
-0.5758993035927987
 31
0.0
  0
LINE
  5
F1023F
330
261
100
AcDbEntity
  8
Geo
100
AcDbLine
 10
-25.18683896251004
 20
-0.5758993035927987
 30
0.0
 11
-25.08683896251004
 21
-0.5810444017101979
 31
0.0
  0
LINE
  5
F10241
330
261
100
AcDbEntity
  8
Geo
100
AcDbLine
 10
-25.08683896251004
 20
-0.5810444017101979
 30
0.0
 11
-24.98683896251005
 21
-0.5843733579461983
 31
0.0
  0
LINE
  5
F10243
330
261
100
AcDbEntity
  8
Geo
100
AcDbLine
 10
-24.98683896251005
 20
-0.5843733579461983
 30
0.0
 11
-24.88683896251004
 21
-0.5858837491716962
 31
0.0
  0
LINE
  5
F10245
330
261
100
AcDbEntity
  8
Geo
100
AcDbLine
 10
-33.58683896251005
 20
3.014456755925202
 30
0.0
 11
-33.58683896251005
 21
3.014456755925202
 31
0.0
  0
LINE
  5
F10247
330
261
100
AcDbEntity
  8
Geo
100
AcDbLine
 10
-33.58683896251005
 20
3.014456755925202
 30
0.0
 11
-33.58683896251005
 21
3.048490971128906
 31
0.0
  0
LINE
  5
F10249
330
261
100
AcDbEntity
  8
Geo
100
AcDbLine
 10
-33.58683896251005
 20
3.048490971128906
 30
0.0
 11
-33.48683896251005
 21
2.987979320719698
 31
0.0
  0
LINE
  5
F1024B
330
261
100
AcDbEntity
  8
Geo
100
AcDbLine
 10
-33.48683896251005
 20
2.987979320719698
 30
0.0
 11
-33.38683896251004
 21
2.926685939003998
 31
0.0
  0
LINE
  5
F1024D
330
261
100
AcDbEntity
  8
Geo
100
AcDbLine
 10
-33.38683896251004
 20
2.926685939003998
 30
0.0
 11
-33.28683896251005
 21
2.864655441105103
 31
0.0
  0
LINE
  5
F1024F
330
261
100
AcDbEntity
  8
Geo
100
AcDbLine
 10
-33.28683896251005
 20
2.864655441105103
 30
0.0
 11
-33.18683896251004
 21
2.801932978689002
 31
0.0
  0
LINE
  5
F10251
330
261
100
AcDbEntity
  8
Geo
100
AcDbLine
 10
-33.18683896251004
 20
2.801932978689002
 30
0.0
 11
-33.08683896251004
 21
2.738564207098903
 31
0.0
  0
LINE
  5
F10253
330
261
100
AcDbEntity
  8
Geo
100
AcDbLine
 10
-33.08683896251004
 20
2.738564207098903
 30
0.0
 11
-32.98683896251005
 21
2.674595252123303
 31
0.0
  0
LINE
  5
F10255
330
261
100
AcDbEntity
  8
Geo
100
AcDbLine
 10
-32.98683896251005
 20
2.674595252123303
 30
0.0
 11
-32.88683896251004
 21
2.6100726764206
 31
0.0
  0
LINE
  5
F10257
330
261
100
AcDbEntity
  8
Geo
100
AcDbLine
 10
-32.88683896251004
 20
2.6100726764206
 30
0.0
 11
-32.78683896251005
 21
2.545043445626905
 31
0.0
  0
LINE
  5
F10259
330
261
100
AcDbEntity
  8
Geo
100
AcDbLine
 10
-32.78683896251005
 20
2.545043445626905
 30
0.0
 11
-32.68683896251004
 21
2.47955489417
 31
0.0
  0
LINE
  5
F1025B
330
261
100
AcDbEntity
  8
Geo
100
AcDbLine
 10
-32.68683896251004
 20
2.47955489417
 30
0.0
 11
-32.58683896251004
 21
2.413654690814503
 31
0.0
  0
LINE
  5
F1025D
330
261
100
AcDbEntity
  8
Geo
100
AcDbLine
 10
-32.58683896251004
 20
2.413654690814503
 30
0.0
 11
-32.48683896251005
 21
2.347390803964199
 31
0.0
  0
LINE
  5
F1025F
330
261
100
AcDbEntity
  8
Geo
100
AcDbLine
 10
-32.48683896251005
 20
2.347390803964199
 30
0.0
 11
-32.38683896251004
 21
2.2808114667463
 31
0.0
  0
LINE
  5
F10261
330
261
100
AcDbEntity
  8
Geo
100
AcDbLine
 10
-32.38683896251004
 20
2.2808114667463
 30
0.0
 11
-32.28683896251005
 21
2.213965141902502
 31
0.0
  0
LINE
  5
F10263
330
261
100
AcDbEntity
  8
Geo
100
AcDbLine
 10
-32.28683896251005
 20
2.213965141902502
 30
0.0
 11
-32.18683896251004
 21
2.146900486513505
 31
0.0
  0
LINE
  5
F10265
330
261
100
AcDbEntity
  8
Geo
100
AcDbLine
 10
-32.18683896251004
 20
2.146900486513505
 30
0.0
 11
-32.08683896251005
 21
2.079666316581604
 31
0.0
  0
LINE
  5
F10267
330
261
100
AcDbEntity
  8
Geo
100
AcDbLine
 10
-32.08683896251005
 20
2.079666316581604
 30
0.0
 11
-31.98683896251005
 21
2.012311571497701
 31
0.0
  0
LINE
  5
F10269
330
261
100
AcDbEntity
  8
Geo
100
AcDbLine
 10
-31.98683896251005
 20
2.012311571497701
 30
0.0
 11
-31.88683896251004
 21
1.944885278418801
 31
0.0
  0
LINE
  5
F1026B
330
261
100
AcDbEntity
  8
Geo
100
AcDbLine
 10
-31.88683896251004
 20
1.944885278418801
 30
0.0
 11
-31.78683896251005
 21
1.877436516581198
 31
0.0
  0
LINE
  5
F1026D
330
261
100
AcDbEntity
  8
Geo
100
AcDbLine
 10
-31.78683896251005
 20
1.877436516581198
 30
0.0
 11
-31.68683896251004
 21
1.810014381576301
 31
0.0
  0
LINE
  5
F1026F
330
261
100
AcDbEntity
  8
Geo
100
AcDbLine
 10
-31.68683896251004
 20
1.810014381576301
 30
0.0
 11
-31.58683896251004
 21
1.742667949613803
 31
0.0
  0
LINE
  5
F10271
330
261
100
AcDbEntity
  8
Geo
100
AcDbLine
 10
-31.58683896251004
 20
1.742667949613803
 30
0.0
 11
-31.48683896251005
 21
1.675446241799701
 31
0.0
  0
LINE
  5
F10273
330
261
100
AcDbEntity
  8
Geo
100
AcDbLine
 10
-31.48683896251005
 20
1.675446241799701
 30
0.0
 11
-31.38683896251004
 21
1.608398188453701
 31
0.0
  0
LINE
  5
F10275
330
261
100
AcDbEntity
  8
Geo
100
AcDbLine
 10
-31.38683896251004
 20
1.608398188453701
 30
0.0
 11
-31.28683896251005
 21
1.541572593493604
 31
0.0
  0
LINE
  5
F10277
330
261
100
AcDbEntity
  8
Geo
100
AcDbLine
 10
-31.28683896251005
 20
1.541572593493604
 30
0.0
 11
-31.18683896251004
 21
1.475018098910801
 31
0.0
  0
LINE
  5
F10279
330
261
100
AcDbEntity
  8
Geo
100
AcDbLine
 10
-31.18683896251004
 20
1.475018098910801
 30
0.0
 11
-31.08683896251005
 21
1.408783149364403
 31
0.0
  0
LINE
  5
F1027B
330
261
100
AcDbEntity
  8
Geo
100
AcDbLine
 10
-31.08683896251005
 20
1.408783149364403
 30
0.0
 11
-30.98683896251005
 21
1.342915956918105
 31
0.0
  0
LINE
  5
F1027D
330
261
100
AcDbEntity
  8
Geo
100
AcDbLine
 10
-30.98683896251005
 20
1.342915956918105
 30
0.0
 11
-30.88683896251004
 21
1.277464465947304
 31
0.0
  0
LINE
  5
F1027F
330
261
100
AcDbEntity
  8
Geo
100
AcDbLine
 10
-30.88683896251004
 20
1.277464465947304
 30
0.0
 11
-30.78683896251005
 21
1.212476318240604
 31
0.0
  0
LINE
  5
F10281
330
261
100
AcDbEntity
  8
Geo
100
AcDbLine
 10
-30.78683896251005
 20
1.212476318240604
 30
0.0
 11
-30.68683896251004
 21
1.147998818321404
 31
0.0
  0
LINE
  5
F10283
330
261
100
AcDbEntity
  8
Geo
100
AcDbLine
 10
-30.68683896251004
 20
1.147998818321404
 30
0.0
 11
-30.58683896251004
 21
1.084078899015501
 31
0.0
  0
LINE
  5
F10285
330
261
100
AcDbEntity
  8
Geo
100
AcDbLine
 10
-30.58683896251004
 20
1.084078899015501
 30
0.0
 11
-30.48683896251005
 21
1.020763087288703
 31
0.0
  0
LINE
  5
F10287
330
261
100
AcDbEntity
  8
Geo
100
AcDbLine
 10
-30.48683896251005
 20
1.020763087288703
 30
0.0
 11
-30.38683896251004
 21
0.9580974703799043
 31
0.0
  0
LINE
  5
F10289
330
261
100
AcDbEntity
  8
Geo
100
AcDbLine
 10
-30.38683896251004
 20
0.9580974703799043
 30
0.0
 11
-30.28683896251005
 21
0.8961276622550009
 31
0.0
  0
LINE
  5
F1028B
330
261
100
AcDbEntity
  8
Geo
100
AcDbLine
 10
-30.28683896251005
 20
0.8961276622550009
 30
0.0
 11
-30.18683896251004
 21
0.8348987704043047
 31
0.0
  0
LINE
  5
F1028D
330
261
100
AcDbEntity
  8
Geo
100
AcDbLine
 10
-30.18683896251004
 20
0.8348987704043047
 30
0.0
 11
-30.08683896251004
 21
0.7744553630091034
 31
0.0
  0
LINE
  5
F1028F
330
261
100
AcDbEntity
  8
Geo
100
AcDbLine
 10
-30.08683896251004
 20
0.7744553630091034
 30
0.0
 11
-29.98683896251005
 21
0.7148414365009046
 31
0.0
  0
LINE
  5
F10291
330
261
100
AcDbEntity
  8
Geo
100
AcDbLine
 10
-29.98683896251005
 20
0.7148414365009046
 30
0.0
 11
-29.88683896251004
 21
0.6561003835365007
 31
0.0
  0
LINE
  5
F10293
330
261
100
AcDbEntity
  8
Geo
100
AcDbLine
 10
-29.88683896251004
 20
0.6561003835365007
 30
0.0
 11
-29.78683896251005
 21
0.5982749614124039
 31
0.0
  0
LINE
  5
F10295
330
261
100
AcDbEntity
  8
Geo
100
AcDbLine
 10
-29.78683896251005
 20
0.5982749614124039
 30
0.0
 11
-29.68683896251004
 21
0.5414072609429077
 31
0.0
  0
LINE
  5
F10297
330
261
100
AcDbEntity
  8
Geo
100
AcDbLine
 10
-29.68683896251004
 20
0.5414072609429077
 30
0.0
 11
-29.58683896251005
 21
0.4855386758215019
 31
0.0
  0
LINE
  5
F10299
330
261
100
AcDbEntity
  8
Geo
100
AcDbLine
 10
-29.58683896251005
 20
0.4855386758215019
 30
0.0
 11
-29.48683896251005
 21
0.4307098724909047
 31
0.0
  0
LINE
  5
F1029B
330
261
100
AcDbEntity
  8
Geo
100
AcDbLine
 10
-29.48683896251005
 20
0.4307098724909047
 30
0.0
 11
-29.38683896251004
 21
0.3769607605427012
 31
0.0
  0
LINE
  5
F1029D
330
261
100
AcDbEntity
  8
Geo
100
AcDbLine
 10
-29.38683896251004
 20
0.3769607605427012
 30
0.0
 11
-29.28683896251005
 21
0.3243304636663034
 31
0.0
  0
LINE
  5
F1029F
330
261
100
AcDbEntity
  8
Geo
100
AcDbLine
 10
-29.28683896251005
 20
0.3243304636663034
 30
0.0
 11
-29.18683896251004
 21
0.2728572911723042
 31
0.0
  0
LINE
  5
F102A1
330
261
100
AcDbEntity
  8
Geo
100
AcDbLine
 10
-29.18683896251004
 20
0.2728572911723042
 30
0.0
 11
-29.08683896251004
 21
0.2225787101059993
 31
0.0
  0
LINE
  5
F102A3
330
261
100
AcDbEntity
  8
Geo
100
AcDbLine
 10
-29.08683896251004
 20
0.2225787101059993
 30
0.0
 11
-28.98683896251005
 21
0.1735313179767033
 31
0.0
  0
LINE
  5
F102A5
330
261
100
AcDbEntity
  8
Geo
100
AcDbLine
 10
-28.98683896251005
 20
0.1735313179767033
 30
0.0
 11
-28.88683896251004
 21
0.1257508161173035
 31
0.0
  0
LINE
  5
F102A7
330
261
100
AcDbEntity
  8
Geo
100
AcDbLine
 10
-28.88683896251004
 20
0.1257508161173035
 30
0.0
 11
-28.78683896251004
 21
0.0792719836985008
 31
0.0
  0
LINE
  5
F102A9
330
261
100
AcDbEntity
  8
Geo
100
AcDbLine
 10
-28.78683896251004
 20
0.0792719836985008
 30
0.0
 11
-28.68683896251004
 21
0.0341286524125053
 31
0.0
  0
LINE
  5
F102AB
330
261
100
AcDbEntity
  8
Geo
100
AcDbLine
 10
-28.68683896251004
 20
0.0341286524125053
 30
0.0
 11
-28.58683896251005
 21
-0.0096463181523951
 31
0.0
  0
LINE
  5
F102AD
330
261
100
AcDbEntity
  8
Geo
100
AcDbLine
 10
-28.58683896251005
 20
-0.0096463181523951
 30
0.0
 11
-28.48683896251005
 21
-0.0520210644302992
 31
0.0
  0
LINE
  5
F102AF
330
261
100
AcDbEntity
  8
Geo
100
AcDbLine
 10
-28.48683896251005
 20
-0.0520210644302992
 30
0.0
 11
-28.38683896251004
 21
-0.0929647420711959
 31
0.0
  0
LINE
  5
F102B1
330
261
100
AcDbEntity
  8
Geo
100
AcDbLine
 10
-28.38683896251004
 20
-0.0929647420711959
 30
0.0
 11
-28.28683896251005
 21
-0.132447548392097
 31
0.0
  0
LINE
  5
F102B3
330
261
100
AcDbEntity
  8
Geo
100
AcDbLine
 10
-28.28683896251005
 20
-0.132447548392097
 30
0.0
 11
-28.18683896251004
 21
-0.1704407440704969
 31
0.0
  0
LINE
  5
F102B5
330
261
100
AcDbEntity
  8
Geo
100
AcDbLine
 10
-28.18683896251004
 20
-0.1704407440704969
 30
0.0
 11
-28.08683896251004
 21
-0.2069166740634962
 31
0.0
  0
LINE
  5
F102B7
330
261
100
AcDbEntity
  8
Geo
100
AcDbLine
 10
-28.08683896251004
 20
-0.2069166740634962
 30
0.0
 11
-27.98683896251005
 21
-0.2418487877375952
 31
0.0
  0
LINE
  5
F102B9
330
261
100
AcDbEntity
  8
Geo
100
AcDbLine
 10
-27.98683896251005
 20
-0.2418487877375952
 30
0.0
 11
-27.88683896251004
 21
-0.2752116581949977
 31
0.0
  0
LINE
  5
F102BB
330
261
100
AcDbEntity
  8
Geo
100
AcDbLine
 10
-27.88683896251004
 20
-0.2752116581949977
 30
0.0
 11
-27.78683896251005
 21
-0.3069810007814979
 31
0.0
  0
LINE
  5
F102BD
330
261
100
AcDbEntity
  8
Geo
100
AcDbLine
 10
-27.78683896251005
 20
-0.3069810007814979
 30
0.0
 11
-27.68683896251004
 21
-0.3371336907634976
 31
0.0
  0
LINE
  5
F102BF
330
261
100
AcDbEntity
  8
Geo
100
AcDbLine
 10
-27.68683896251004
 20
-0.3371336907634976
 30
0.0
 11
-27.58683896251004
 21
-0.3656477801599003
 31
0.0
  0
LINE
  5
F102C1
330
261
100
AcDbEntity
  8
Geo
100
AcDbLine
 10
-27.58683896251004
 20
-0.3656477801599003
 30
0.0
 11
-27.48683896251005
 21
-0.3925025137183979
 31
0.0
  0
LINE
  5
F102C3
330
261
100
AcDbEntity
  8
Geo
100
AcDbLine
 10
-27.48683896251005
 20
-0.3925025137183979
 30
0.0
 11
-27.38683896251004
 21
-0.417678344022594
 31
0.0
  0
LINE
  5
F102C5
330
261
100
AcDbEntity
  8
Geo
100
AcDbLine
 10
-27.38683896251004
 20
-0.417678344022594
 30
0.0
 11
-27.28683896251005
 21
-0.4411569457209979
 31
0.0
  0
LINE
  5
F102C7
330
261
100
AcDbEntity
  8
Geo
100
AcDbLine
 10
-27.28683896251005
 20
-0.4411569457209979
 30
0.0
 11
-27.18683896251004
 21
-0.462921228865497
 31
0.0
  0
LINE
  5
F102C9
330
261
100
AcDbEntity
  8
Geo
100
AcDbLine
 10
-27.18683896251004
 20
-0.462921228865497
 30
0.0
 11
-27.08683896251005
 21
-0.482955351351496
 31
0.0
  0
LINE
  5
F102CB
330
261
100
AcDbEntity
  8
Geo
100
AcDbLine
 10
-27.08683896251005
 20
-0.482955351351496
 30
0.0
 11
-26.98683896251005
 21
-0.5012447304488
 31
0.0
  0
LINE
  5
F102CD
330
261
100
AcDbEntity
  8
Geo
100
AcDbLine
 10
-26.98683896251005
 20
-0.5012447304488
 30
0.0
 11
-26.88683896251004
 21
-0.5177760534166965
 31
0.0
  0
LINE
  5
F102CF
330
261
100
AcDbEntity
  8
Geo
100
AcDbLine
 10
-26.88683896251004
 20
-0.5177760534166965
 30
0.0
 11
-26.78683896251005
 21
-0.5325372871940957
 31
0.0
  0
LINE
  5
F102D1
330
261
100
AcDbEntity
  8
Geo
100
AcDbLine
 10
-26.78683896251005
 20
-0.5325372871940957
 30
0.0
 11
-26.68683896251004
 21
-0.545517687158096
 31
0.0
  0
LINE
  5
F102D3
330
261
100
AcDbEntity
  8
Geo
100
AcDbLine
 10
-26.68683896251004
 20
-0.545517687158096
 30
0.0
 11
-26.58683896251004
 21
-0.5567078049454999
 31
0.0
  0
LINE
  5
F102D5
330
261
100
AcDbEntity
  8
Geo
100
AcDbLine
 10
-26.58683896251004
 20
-0.5567078049454999
 30
0.0
 11
-26.48683896251005
 21
-0.5660994953294996
 31
0.0
  0
LINE
  5
F102D7
330
261
100
AcDbEntity
  8
Geo
100
AcDbLine
 10
-26.48683896251005
 20
-0.5660994953294996
 30
0.0
 11
-26.38683896251004
 21
-0.5736859221492985
 31
0.0
  0
LINE
  5
F102D9
330
261
100
AcDbEntity
  8
Geo
100
AcDbLine
 10
-26.38683896251004
 20
-0.5736859221492985
 30
0.0
 11
-26.28683896251005
 21
-0.5794615632855944
 31
0.0
  0
LINE
  5
F102DB
330
261
100
AcDbEntity
  8
Geo
100
AcDbLine
 10
-26.28683896251005
 20
-0.5794615632855944
 30
0.0
 11
-26.18683896251004
 21
-0.5834222146800947
 31
0.0
  0
LINE
  5
F102DD
330
261
100
AcDbEntity
  8
Geo
100
AcDbLine
 10
-26.18683896251004
 20
-0.5834222146800947
 30
0.0
 11
-26.08683896251005
 21
-0.5855649933960976
 31
0.0
  0
LINE
  5
F102DF
330
261
100
AcDbEntity
  8
Geo
100
AcDbLine
 10
-33.58683896251005
 20
0.1992831866288043
 30
0.0
 11
-33.58683896251005
 21
0.1992831866288043
 31
0.0
  0
LINE
  5
F102E1
330
261
100
AcDbEntity
  8
Geo
100
AcDbLine
 10
-33.58683896251005
 20
0.1992831866288043
 30
0.0
 11
-33.58683896251005
 21
0.1462501780398036
 31
0.0
  0
LINE
  5
F102E3
330
261
100
AcDbEntity
  8
Geo
100
AcDbLine
 10
-33.58683896251005
 20
0.1462501780398036
 30
0.0
 11
-33.48683896251005
 21
0.0992043837403038
 31
0.0
  0
LINE
  5
F102E5
330
261
100
AcDbEntity
  8
Geo
100
AcDbLine
 10
-33.48683896251005
 20
0.0992043837403038
 30
0.0
 11
-33.38683896251004
 21
0.0534795818867018
 31
0.0
  0
LINE
  5
F102E7
330
261
100
AcDbEntity
  8
Geo
100
AcDbLine
 10
-33.38683896251004
 20
0.0534795818867018
 30
0.0
 11
-33.28683896251005
 21
0.0091090553166993
 31
0.0
  0
LINE
  5
F102E9
330
261
100
AcDbEntity
  8
Geo
100
AcDbLine
 10
-33.28683896251005
 20
0.0091090553166993
 30
0.0
 11
-33.18683896251004
 21
-0.033874898901999
 31
0.0
  0
LINE
  5
F102EB
330
261
100
AcDbEntity
  8
Geo
100
AcDbLine
 10
-33.18683896251004
 20
-0.033874898901999
 30
0.0
 11
-33.08683896251004
 21
-0.0754409929799991
 31
0.0
  0
LINE
  5
F102ED
330
261
100
AcDbEntity
  8
Geo
100
AcDbLine
 10
-33.08683896251004
 20
-0.0754409929799991
 30
0.0
 11
-32.98683896251005
 21
-0.1155589711807963
 31
0.0
  0
LINE
  5
F102EF
330
261
100
AcDbEntity
  8
Geo
100
AcDbLine
 10
-32.98683896251005
 20
-0.1155589711807963
 30
0.0
 11
-32.88683896251004
 21
-0.1541996318436958
 31
0.0
  0
LINE
  5
F102F1
330
261
100
AcDbEntity
  8
Geo
100
AcDbLine
 10
-32.88683896251004
 20
-0.1541996318436958
 30
0.0
 11
-32.78683896251005
 21
-0.1913348486394994
 31
0.0
  0
LINE
  5
F102F3
330
261
100
AcDbEntity
  8
Geo
100
AcDbLine
 10
-32.78683896251005
 20
-0.1913348486394994
 30
0.0
 11
-32.68683896251004
 21
-0.2269375910432956
 31
0.0
  0
LINE
  5
F102F5
330
261
100
AcDbEntity
  8
Geo
100
AcDbLine
 10
-32.68683896251004
 20
-0.2269375910432956
 30
0.0
 11
-32.58683896251004
 21
-0.2609819440103962
 31
0.0
  0
LINE
  5
F102F7
330
261
100
AcDbEntity
  8
Geo
100
AcDbLine
 10
-32.58683896251004
 20
-0.2609819440103962
 30
0.0
 11
-32.48683896251005
 21
-0.2934431268391968
 31
0.0
  0
LINE
  5
F102F9
330
261
100
AcDbEntity
  8
Geo
100
AcDbLine
 10
-32.48683896251005
 20
-0.2934431268391968
 30
0.0
 11
-32.38683896251004
 21
-0.3242975112090995
 31
0.0
  0
LINE
  5
F102FB
330
261
100
AcDbEntity
  8
Geo
100
AcDbLine
 10
-32.38683896251004
 20
-0.3242975112090995
 30
0.0
 11
-32.28683896251005
 21
-0.3535226383794985
 31
0.0
  0
LINE
  5
F102FD
330
261
100
AcDbEntity
  8
Geo
100
AcDbLine
 10
-32.28683896251005
 20
-0.3535226383794985
 30
0.0
 11
-32.18683896251004
 21
-0.3810972355374957
 31
0.0
  0
LINE
  5
F102FF
330
261
100
AcDbEntity
  8
Geo
100
AcDbLine
 10
-32.18683896251004
 20
-0.3810972355374957
 30
0.0
 11
-32.08683896251005
 21
-0.4070012312819955
 31
0.0
  0
LINE
  5
F10301
330
261
100
AcDbEntity
  8
Geo
100
AcDbLine
 10
-32.08683896251005
 20
-0.4070012312819955
 30
0.0
 11
-31.98683896251005
 21
-0.431215770233596
 31
0.0
  0
LINE
  5
F10303
330
261
100
AcDbEntity
  8
Geo
100
AcDbLine
 10
-31.98683896251005
 20
-0.431215770233596
 30
0.0
 11
-31.88683896251004
 21
-0.4537232267595961
 31
0.0
  0
LINE
  5
F10305
330
261
100
AcDbEntity
  8
Geo
100
AcDbLine
 10
-31.88683896251004
 20
-0.4537232267595961
 30
0.0
 11
-31.78683896251005
 21
-0.4745072178032999
 31
0.0
  0
LINE
  5
F10307
330
261
100
AcDbEntity
  8
Geo
100
AcDbLine
 10
-31.78683896251005
 20
-0.4745072178032999
 30
0.0
 11
-31.68683896251004
 21
-0.4935526148093956
 31
0.0
  0
LINE
  5
F10309
330
261
100
AcDbEntity
  8
Geo
100
AcDbLine
 10
-31.68683896251004
 20
-0.4935526148093956
 30
0.0
 11
-31.58683896251004
 21
-0.5108455547357984
 31
0.0
  0
LINE
  5
F1030B
330
261
100
AcDbEntity
  8
Geo
100
AcDbLine
 10
-31.58683896251004
 20
-0.5108455547357984
 30
0.0
 11
-31.48683896251005
 21
-0.5263734501441953
 31
0.0
  0
LINE
  5
F1030D
330
261
100
AcDbEntity
  8
Geo
100
AcDbLine
 10
-31.48683896251005
 20
-0.5263734501441953
 30
0.0
 11
-31.38683896251004
 21
-0.5401249983633001
 31
0.0
  0
LINE
  5
F1030F
330
261
100
AcDbEntity
  8
Geo
100
AcDbLine
 10
-31.38683896251004
 20
-0.5401249983633001
 30
0.0
 11
-31.28683896251005
 21
-0.552090189714896
 31
0.0
  0
LINE
  5
F10311
330
261
100
AcDbEntity
  8
Geo
100
AcDbLine
 10
-31.28683896251005
 20
-0.552090189714896
 30
0.0
 11
-31.18683896251004
 21
-0.5622603148003975
 31
0.0
  0
LINE
  5
F10313
330
261
100
AcDbEntity
  8
Geo
100
AcDbLine
 10
-31.18683896251004
 20
-0.5622603148003975
 30
0.0
 11
-31.08683896251005
 21
-0.5706279708405937
 31
0.0
  0
LINE
  5
F10315
330
261
100
AcDbEntity
  8
Geo
100
AcDbLine
 10
-31.08683896251005
 20
-0.5706279708405937
 30
0.0
 11
-30.98683896251005
 21
-0.5771870670635942
 31
0.0
  0
LINE
  5
F10317
330
261
100
AcDbEntity
  8
Geo
100
AcDbLine
 10
-30.98683896251005
 20
-0.5771870670635942
 30
0.0
 11
-30.88683896251004
 21
-0.5819328291383954
 31
0.0
  0
LINE
  5
F10319
330
261
100
AcDbEntity
  8
Geo
100
AcDbLine
 10
-30.88683896251004
 20
-0.5819328291383954
 30
0.0
 11
-30.78683896251005
 21
-0.5848618026503943
 31
0.0
  0
LINE
  5
F1031B
330
261
100
AcDbEntity
  8
Geo
100
AcDbLine
 10
-30.78683896251005
 20
-0.5848618026503943
 30
0.0
 11
-30.68683896251004
 21
-0.5859718556154974
 31
0.0
  0
LINE
  5
F1031D
330
261
100
AcDbEntity
  8
Geo
100
AcDbLine
 10
-33.58683896251005
 20
-0.2469219315098954
 30
0.0
 11
-33.58683896251005
 21
-0.2469219315098954
 31
0.0
  0
LINE
  5
F1031F
330
261
100
AcDbEntity
  8
Geo
100
AcDbLine
 10
-33.58683896251005
 20
-0.2469219315098954
 30
0.0
 11
-33.58683896251005
 21
-0.3137550983918977
 31
0.0
  0
LINE
  5
F10321
330
261
100
AcDbEntity
  8
Geo
100
AcDbLine
 10
-33.58683896251005
 20
-0.3137550983918977
 30
0.0
 11
-33.48683896251005
 21
-0.3435490839840938
 31
0.0
  0
LINE
  5
F10323
330
261
100
AcDbEntity
  8
Geo
100
AcDbLine
 10
-33.48683896251005
 20
-0.3435490839840938
 30
0.0
 11
-33.38683896251004
 21
-0.3716997992605933
 31
0.0
  0
LINE
  5
F10325
330
261
100
AcDbEntity
  8
Geo
100
AcDbLine
 10
-33.38683896251004
 20
-0.3716997992605933
 30
0.0
 11
-33.28683896251005
 21
-0.3981867534667991
 31
0.0
  0
LINE
  5
F10327
330
261
100
AcDbEntity
  8
Geo
100
AcDbLine
 10
-33.28683896251005
 20
-0.3981867534667991
 30
0.0
 11
-33.18683896251004
 21
-0.4229906668912982
 31
0.0
  0
LINE
  5
F10329
330
261
100
AcDbEntity
  8
Geo
100
AcDbLine
 10
-33.18683896251004
 20
-0.4229906668912982
 30
0.0
 11
-33.08683896251004
 21
-0.4460934848986966
 31
0.0
  0
LINE
  5
F1032B
330
261
100
AcDbEntity
  8
Geo
100
AcDbLine
 10
-33.08683896251004
 20
-0.4460934848986966
 30
0.0
 11
-32.98683896251005
 21
-0.4674783910718965
 31
0.0
  0
LINE
  5
F1032D
330
261
100
AcDbEntity
  8
Geo
100
AcDbLine
 10
-32.98683896251005
 20
-0.4674783910718965
 30
0.0
 11
-32.88683896251004
 21
-0.4871298194526972
 31
0.0
  0
LINE
  5
F1032F
330
261
100
AcDbEntity
  8
Geo
100
AcDbLine
 10
-32.88683896251004
 20
-0.4871298194526972
 30
0.0
 11
-32.78683896251005
 21
-0.5050334658718967
 31
0.0
  0
LINE
  5
F10331
330
261
100
AcDbEntity
  8
Geo
100
AcDbLine
 10
-32.78683896251005
 20
-0.5050334658718967
 30
0.0
 11
-32.68683896251004
 21
-0.5211762983614996
 31
0.0
  0
LINE
  5
F10333
330
261
100
AcDbEntity
  8
Geo
100
AcDbLine
 10
-32.68683896251004
 20
-0.5211762983614996
 30
0.0
 11
-32.58683896251004
 21
-0.5355465666404982
 31
0.0
  0
LINE
  5
F10335
330
261
100
AcDbEntity
  8
Geo
100
AcDbLine
 10
-32.58683896251004
 20
-0.5355465666404982
 30
0.0
 11
-32.48683896251005
 21
-0.5481338106678991
 31
0.0
  0
LINE
  5
F10337
330
261
100
AcDbEntity
  8
Geo
100
AcDbLine
 10
-32.48683896251005
 20
-0.5481338106678991
 30
0.0
 11
-32.38683896251004
 21
-0.5589288682563982
 31
0.0
  0
LINE
  5
F10339
330
261
100
AcDbEntity
  8
Geo
100
AcDbLine
 10
-32.38683896251004
 20
-0.5589288682563982
 30
0.0
 11
-32.28683896251005
 21
-0.5679238817414963
 31
0.0
  0
LINE
  5
F1033B
330
261
100
AcDbEntity
  8
Geo
100
AcDbLine
 10
-32.28683896251005
 20
-0.5679238817414963
 30
0.0
 11
-32.18683896251004
 21
-0.575112303701399
 31
0.0
  0
LINE
  5
F1033D
330
261
100
AcDbEntity
  8
Geo
100
AcDbLine
 10
-32.18683896251004
 20
-0.575112303701399
 30
0.0
 11
-32.08683896251005
 21
-0.5804889017220951
 31
0.0
  0
LINE
  5
F1033F
330
261
100
AcDbEntity
  8
Geo
100
AcDbLine
 10
-32.08683896251005
 20
-0.5804889017220951
 30
0.0
 11
-31.98683896251005
 21
-0.5840497622070942
 31
0.0
  0
LINE
  5
F10341
330
261
100
AcDbEntity
  8
Geo
100
AcDbLine
 10
-31.98683896251005
 20
-0.5840497622070942
 30
0.0
 11
-31.88683896251004
 21
-0.5857922932249977
 31
0.0
  0
LINE
  5
F10343
330
261
100
AcDbEntity
  8
Geo
100
AcDbLine
 10
-20.28683896251004
 20
4.313933744570803
 30
0.0
 11
-20.18683896251004
 21
4.313187479860605
 31
0.0
  0
LINE
  5
F10345
330
261
100
AcDbEntity
  8
Geo
100
AcDbLine
 10
-20.18683896251004
 20
4.313187479860605
 30
0.0
 11
-20.08683896251004
 21
4.3093904248602
 31
0.0
  0
LINE
  5
F10347
330
261
100
AcDbEntity
  8
Geo
100
AcDbLine
 10
-20.08683896251004
 20
4.3093904248602
 30
0.0
 11
-19.98683896251005
 21
4.3022442409993
 31
0.0
  0
LINE
  5
F10349
330
261
100
AcDbEntity
  8
Geo
100
AcDbLine
 10
-19.98683896251005
 20
4.3022442409993
 30
0.0
 11
-19.88683896251004
 21
4.291446251698801
 31
0.0
  0
LINE
  5
F1034B
330
261
100
AcDbEntity
  8
Geo
100
AcDbLine
 10
-19.88683896251004
 20
4.291446251698801
 30
0.0
 11
-19.78683896251004
 21
4.276691005048501
 31
0.0
  0
LINE
  5
F1034D
330
261
100
AcDbEntity
  8
Geo
100
AcDbLine
 10
-19.78683896251004
 20
4.276691005048501
 30
0.0
 11
-19.68683896251004
 21
4.257672037429202
 31
0.0
  0
LINE
  5
F1034F
330
261
100
AcDbEntity
  8
Geo
100
AcDbLine
 10
-19.68683896251004
 20
4.257672037429202
 30
0.0
 11
-19.58683896251004
 21
4.234083846574499
 31
0.0
  0
LINE
  5
F10351
330
261
100
AcDbEntity
  8
Geo
100
AcDbLine
 10
-19.58683896251004
 20
4.234083846574499
 30
0.0
 11
-19.48683896251005
 21
4.205624081193104
 31
0.0
  0
LINE
  5
F10353
330
261
100
AcDbEntity
  8
Geo
100
AcDbLine
 10
-19.48683896251005
 20
4.205624081193104
 30
0.0
 11
-19.38683896251004
 21
4.171995952601903
 31
0.0
  0
LINE
  5
F10355
330
261
100
AcDbEntity
  8
Geo
100
AcDbLine
 10
-19.38683896251004
 20
4.171995952601903
 30
0.0
 11
-19.28683896251004
 21
4.1329108718372
 31
0.0
  0
LINE
  5
F10357
330
261
100
AcDbEntity
  8
Geo
100
AcDbLine
 10
-19.28683896251004
 20
4.1329108718372
 30
0.0
 11
-19.18683896251003
 21
4.088091313402699
 31
0.0
  0
LINE
  5
F10359
330
261
100
AcDbEntity
  8
Geo
100
AcDbLine
 10
-19.18683896251003
 20
4.088091313402699
 30
0.0
 11
-19.08683896251004
 21
4.037273904149003
 31
0.0
  0
LINE
  5
F1035B
330
261
100
AcDbEntity
  8
Geo
100
AcDbLine
 10
-19.08683896251004
 20
4.037273904149003
 30
0.0
 11
-18.98683896251005
 21
3.980212732756999
 31
0.0
  0
LINE
  5
F1035D
330
261
100
AcDbEntity
  8
Geo
100
AcDbLine
 10
-18.98683896251005
 20
3.980212732756999
 30
0.0
 11
-18.88683896251004
 21
3.916682871898402
 31
0.0
  0
LINE
  5
F1035F
330
261
100
AcDbEntity
  8
Geo
100
AcDbLine
 10
-18.88683896251004
 20
3.916682871898402
 30
0.0
 11
-18.78683896251004
 21
3.846484101368002
 31
0.0
  0
LINE
  5
F10361
330
261
100
AcDbEntity
  8
Geo
100
AcDbLine
 10
-18.78683896251004
 20
3.846484101368002
 30
0.0
 11
-18.68683896251004
 21
3.769444816323304
 31
0.0
  0
LINE
  5
F10363
330
261
100
AcDbEntity
  8
Geo
100
AcDbLine
 10
-18.68683896251004
 20
3.769444816323304
 30
0.0
 11
-18.58683896251004
 21
3.685426100231403
 31
0.0
  0
LINE
  5
F10365
330
261
100
AcDbEntity
  8
Geo
100
AcDbLine
 10
-18.58683896251004
 20
3.685426100231403
 30
0.0
 11
-18.48683896251005
 21
3.594325937224301
 31
0.0
  0
LINE
  5
F10367
330
261
100
AcDbEntity
  8
Geo
100
AcDbLine
 10
-18.48683896251005
 20
3.594325937224301
 30
0.0
 11
-18.38683896251004
 21
3.496083533327102
 31
0.0
  0
LINE
  5
F10369
330
261
100
AcDbEntity
  8
Geo
100
AcDbLine
 10
-18.38683896251004
 20
3.496083533327102
 30
0.0
 11
-18.28683896251004
 21
3.390683710470604
 31
0.0
  0
LINE
  5
F1036B
330
261
100
AcDbEntity
  8
Geo
100
AcDbLine
 10
-18.28683896251004
 20
3.390683710470604
 30
0.0
 11
-18.18683896251004
 21
3.278161331385202
 31
0.0
  0
LINE
  5
F1036D
330
261
100
AcDbEntity
  8
Geo
100
AcDbLine
 10
-18.18683896251004
 20
3.278161331385202
 30
0.0
 11
-18.08683896251004
 21
3.1586057074378
 31
0.0
  0
LINE
  5
F1036F
330
261
100
AcDbEntity
  8
Geo
100
AcDbLine
 10
-18.08683896251004
 20
3.1586057074378
 30
0.0
 11
-18.08683896251004
 21
3.1586057074378
 31
0.0
  0
LINE
  5
F10371
330
261
100
AcDbEntity
  8
Geo
100
AcDbLine
 10
-24.88683896251004
 20
4.413918011184104
 30
0.0
 11
-24.78683896251005
 21
4.4136087379933
 31
0.0
  0
LINE
  5
F10373
330
261
100
AcDbEntity
  8
Geo
100
AcDbLine
 10
-24.78683896251005
 20
4.4136087379933
 30
0.0
 11
-24.68683896251004
 21
4.411480025504403
 31
0.0
  0
LINE
  5
F10375
330
261
100
AcDbEntity
  8
Geo
100
AcDbLine
 10
-24.68683896251004
 20
4.411480025504403
 30
0.0
 11
-24.58683896251005
 21
4.407533423195904
 31
0.0
  0
LINE
  5
F10377
330
261
100
AcDbEntity
  8
Geo
100
AcDbLine
 10
-24.58683896251005
 20
4.407533423195904
 30
0.0
 11
-24.48683896251005
 21
4.401771803778405
 31
0.0
  0
LINE
  5
F10379
330
261
100
AcDbEntity
  8
Geo
100
AcDbLine
 10
-24.48683896251005
 20
4.401771803778405
 30
0.0
 11
-24.38683896251004
 21
4.394199361103702
 31
0.0
  0
LINE
  5
F1037B
330
261
100
AcDbEntity
  8
Geo
100
AcDbLine
 10
-24.38683896251004
 20
4.394199361103702
 30
0.0
 11
-24.28683896251005
 21
4.384821607112101
 31
0.0
  0
LINE
  5
F1037D
330
261
100
AcDbEntity
  8
Geo
100
AcDbLine
 10
-24.28683896251005
 20
4.384821607112101
 30
0.0
 11
-24.18683896251004
 21
4.373645367820405
 31
0.0
  0
LINE
  5
F1037F
330
261
100
AcDbEntity
  8
Geo
100
AcDbLine
 10
-24.18683896251004
 20
4.373645367820405
 30
0.0
 11
-24.08683896251004
 21
4.360678778353001
 31
0.0
  0
LINE
  5
F10381
330
261
100
AcDbEntity
  8
Geo
100
AcDbLine
 10
-24.08683896251004
 20
4.360678778353001
 30
0.0
 11
-23.98683896251005
 21
4.345931277020905
 31
0.0
  0
LINE
  5
F10383
330
261
100
AcDbEntity
  8
Geo
100
AcDbLine
 10
-23.98683896251005
 20
4.345931277020905
 30
0.0
 11
-23.88683896251004
 21
4.329413598450802
 31
0.0
  0
LINE
  5
F10385
330
261
100
AcDbEntity
  8
Geo
100
AcDbLine
 10
-23.88683896251004
 20
4.329413598450802
 30
0.0
 11
-23.78683896251005
 21
4.311137765772404
 31
0.0
  0
LINE
  5
F10387
330
261
100
AcDbEntity
  8
Geo
100
AcDbLine
 10
-23.78683896251005
 20
4.311137765772404
 30
0.0
 11
-23.68683896251004
 21
4.291117081866001
 31
0.0
  0
LINE
  5
F10389
330
261
100
AcDbEntity
  8
Geo
100
AcDbLine
 10
-23.68683896251004
 20
4.291117081866001
 30
0.0
 11
-23.58683896251005
 21
4.269366119679801
 31
0.0
  0
LINE
  5
F1038B
330
261
100
AcDbEntity
  8
Geo
100
AcDbLine
 10
-23.58683896251005
 20
4.269366119679801
 30
0.0
 11
-23.48683896251005
 21
4.245900711622304
 31
0.0
  0
LINE
  5
F1038D
330
261
100
AcDbEntity
  8
Geo
100
AcDbLine
 10
-23.48683896251005
 20
4.245900711622304
 30
0.0
 11
-23.38683896251004
 21
4.220737938037903
 31
0.0
  0
LINE
  5
F1038F
330
261
100
AcDbEntity
  8
Geo
100
AcDbLine
 10
-23.38683896251004
 20
4.220737938037903
 30
0.0
 11
-23.28683896251005
 21
4.193896114774403
 31
0.0
  0
LINE
  5
F10391
330
261
100
AcDbEntity
  8
Geo
100
AcDbLine
 10
-23.28683896251005
 20
4.193896114774403
 30
0.0
 11
-23.18683896251004
 21
4.165394779850501
 31
0.0
  0
LINE
  5
F10393
330
261
100
AcDbEntity
  8
Geo
100
AcDbLine
 10
-23.18683896251004
 20
4.165394779850501
 30
0.0
 11
-23.08683896251004
 21
4.135254679234904
 31
0.0
  0
LINE
  5
F10395
330
261
100
AcDbEntity
  8
Geo
100
AcDbLine
 10
-23.08683896251004
 20
4.135254679234904
 30
0.0
 11
-22.98683896251005
 21
4.103497751744804
 31
0.0
  0
LINE
  5
F10397
330
261
100
AcDbEntity
  8
Geo
100
AcDbLine
 10
-22.98683896251005
 20
4.103497751744804
 30
0.0
 11
-22.88683896251004
 21
4.070147113076998
 31
0.0
  0
LINE
  5
F10399
330
261
100
AcDbEntity
  8
Geo
100
AcDbLine
 10
-22.88683896251004
 20
4.070147113076998
 30
0.0
 11
-22.78683896251004
 21
4.035227038982302
 31
0.0
  0
LINE
  5
F1039B
330
261
100
AcDbEntity
  8
Geo
100
AcDbLine
 10
-22.78683896251004
 20
4.035227038982302
 30
0.0
 11
-22.68683896251004
 21
3.998762947594801
 31
0.0
  0
LINE
  5
F1039D
330
261
100
AcDbEntity
  8
Geo
100
AcDbLine
 10
-22.68683896251004
 20
3.998762947594801
 30
0.0
 11
-22.58683896251004
 21
3.960781380930804
 31
0.0
  0
LINE
  5
F1039F
330
261
100
AcDbEntity
  8
Geo
100
AcDbLine
 10
-22.58683896251004
 20
3.960781380930804
 30
0.0
 11
-22.48683896251005
 21
3.921309985568601
 31
0.0
  0
LINE
  5
F103A1
330
261
100
AcDbEntity
  8
Geo
100
AcDbLine
 10
-22.48683896251005
 20
3.921309985568601
 30
0.0
 11
-22.38683896251004
 21
3.880377492524605
 31
0.0
  0
LINE
  5
F103A3
330
261
100
AcDbEntity
  8
Geo
100
AcDbLine
 10
-22.38683896251004
 20
3.880377492524605
 30
0.0
 11
-22.28683896251005
 21
3.838013696340603
 31
0.0
  0
LINE
  5
F103A5
330
261
100
AcDbEntity
  8
Geo
100
AcDbLine
 10
-22.28683896251005
 20
3.838013696340603
 30
0.0
 11
-22.18683896251004
 21
3.794249433396199
 31
0.0
  0
LINE
  5
F103A7
330
261
100
AcDbEntity
  8
Geo
100
AcDbLine
 10
-22.18683896251004
 20
3.794249433396199
 30
0.0
 11
-22.08683896251004
 21
3.7491165594632
 31
0.0
  0
LINE
  5
F103A9
330
261
100
AcDbEntity
  8
Geo
100
AcDbLine
 10
-22.08683896251004
 20
3.7491165594632
 30
0.0
 11
-21.98683896251005
 21
3.702647926518
 31
0.0
  0
LINE
  5
F103AB
330
261
100
AcDbEntity
  8
Geo
100
AcDbLine
 10
-21.98683896251005
 20
3.702647926518
 30
0.0
 11
-21.88683896251004
 21
3.654877358828802
 31
0.0
  0
LINE
  5
F103AD
330
261
100
AcDbEntity
  8
Geo
100
AcDbLine
 10
-21.88683896251004
 20
3.654877358828802
 30
0.0
 11
-21.78683896251005
 21
3.605839628335001
 31
0.0
  0
LINE
  5
F103AF
330
261
100
AcDbEntity
  8
Geo
100
AcDbLine
 10
-21.78683896251005
 20
3.605839628335001
 30
0.0
 11
-21.68683896251004
 21
3.555570429337304
 31
0.0
  0
LINE
  5
F103B1
330
261
100
AcDbEntity
  8
Geo
100
AcDbLine
 10
-21.68683896251004
 20
3.555570429337304
 30
0.0
 11
-21.58683896251004
 21
3.5041063525153
 31
0.0
  0
LINE
  5
F103B3
330
261
100
AcDbEntity
  8
Geo
100
AcDbLine
 10
-21.58683896251004
 20
3.5041063525153
 30
0.0
 11
-21.48683896251005
 21
3.451484858294104
 31
0.0
  0
LINE
  5
F103B5
330
261
100
AcDbEntity
  8
Geo
100
AcDbLine
 10
-21.48683896251005
 20
3.451484858294104
 30
0.0
 11
-21.38683896251004
 21
3.397744249576501
 31
0.0
  0
LINE
  5
F103B7
330
261
100
AcDbEntity
  8
Geo
100
AcDbLine
 10
-21.38683896251004
 20
3.397744249576501
 30
0.0
 11
-21.28683896251005
 21
3.342923643862803
 31
0.0
  0
LINE
  5
F103B9
330
261
100
AcDbEntity
  8
Geo
100
AcDbLine
 10
-21.28683896251005
 20
3.342923643862803
 30
0.0
 11
-21.18683896251004
 21
3.2870629447773
 31
0.0
  0
LINE
  5
F103BB
330
261
100
AcDbEntity
  8
Geo
100
AcDbLine
 10
-21.18683896251004
 20
3.2870629447773
 30
0.0
 11
-21.08683896251005
 21
3.230202813022604
 31
0.0
  0
LINE
  5
F103BD
330
261
100
AcDbEntity
  8
Geo
100
AcDbLine
 10
-21.08683896251005
 20
3.230202813022604
 30
0.0
 11
-20.98683896251005
 21
3.172384636783203
 31
0.0
  0
LINE
  5
F103BF
330
261
100
AcDbEntity
  8
Geo
100
AcDbLine
 10
-20.98683896251005
 20
3.172384636783203
 30
0.0
 11
-20.88683896251004
 21
3.113650501598701
 31
0.0
  0
LINE
  5
F103C1
330
261
100
AcDbEntity
  8
Geo
100
AcDbLine
 10
-20.88683896251004
 20
3.113650501598701
 30
0.0
 11
-20.78683896251005
 21
3.0540431597305
 31
0.0
  0
LINE
  5
F103C3
330
261
100
AcDbEntity
  8
Geo
100
AcDbLine
 10
-20.78683896251005
 20
3.0540431597305
 30
0.0
 11
-20.68683896251004
 21
2.9936059990425
 31
0.0
  0
LINE
  5
F103C5
330
261
100
AcDbEntity
  8
Geo
100
AcDbLine
 10
-20.68683896251004
 20
2.9936059990425
 30
0.0
 11
-20.58683896251004
 21
2.932383011419201
 31
0.0
  0
LINE
  5
F103C7
330
261
100
AcDbEntity
  8
Geo
100
AcDbLine
 10
-20.58683896251004
 20
2.932383011419201
 30
0.0
 11
-20.58683896251004
 21
2.932383011419105
 31
0.0
  0
LINE
  5
F103C9
330
261
100
AcDbEntity
  8
Geo
100
AcDbLine
 10
-20.58683896251004
 20
2.932383011419105
 30
0.0
 11
-20.58683896251004
 21
2.891648376202599
 31
0.0
  0
LINE
  5
F103CB
330
261
100
AcDbEntity
  8
Geo
100
AcDbLine
 10
-20.58683896251004
 20
2.891648376202599
 30
0.0
 11
-20.58683896251004
 21
2.932383011419105
 31
0.0
  0
LINE
  5
F103CD
330
261
100
AcDbEntity
  8
Geo
100
AcDbLine
 10
-20.58683896251004
 20
2.932383011419105
 30
0.0
 11
-20.58683896251004
 21
2.932383011419105
 31
0.0
  0
LINE
  5
F103CF
330
261
100
AcDbEntity
  8
Geo
100
AcDbLine
 10
-20.58683896251004
 20
2.932383011419105
 30
0.0
 11
-20.48683896251005
 21
2.899215990221502
 31
0.0
  0
LINE
  5
F103D1
330
261
100
AcDbEntity
  8
Geo
100
AcDbLine
 10
-20.48683896251005
 20
2.899215990221502
 30
0.0
 11
-20.38683896251004
 21
2.907057778642499
 31
0.0
  0
LINE
  5
F103D3
330
261
100
AcDbEntity
  8
Geo
100
AcDbLine
 10
-20.38683896251004
 20
2.907057778642499
 30
0.0
 11
-20.28683896251004
 21
2.915172247845404
 31
0.0
  0
LINE
  5
F103D5
330
261
100
AcDbEntity
  8
Geo
100
AcDbLine
 10
-20.28683896251004
 20
2.915172247845404
 30
0.0
 11
-20.18683896251004
 21
2.923557830481698
 31
0.0
  0
LINE
  5
F103D7
330
261
100
AcDbEntity
  8
Geo
100
AcDbLine
 10
-20.18683896251004
 20
2.923557830481698
 30
0.0
 11
-20.08683896251004
 21
2.9322128834592
 31
0.0
  0
LINE
  5
F103D9
330
261
100
AcDbEntity
  8
Geo
100
AcDbLine
 10
-20.08683896251004
 20
2.9322128834592
 30
0.0
 11
-19.98683896251005
 21
2.941135685864701
 31
0.0
  0
LINE
  5
F103DB
330
261
100
AcDbEntity
  8
Geo
100
AcDbLine
 10
-19.98683896251005
 20
2.941135685864701
 30
0.0
 11
-19.88683896251004
 21
2.950324436826903
 31
0.0
  0
LINE
  5
F103DD
330
261
100
AcDbEntity
  8
Geo
100
AcDbLine
 10
-19.88683896251004
 20
2.950324436826903
 30
0.0
 11
-19.78683896251004
 21
2.959777253319405
 31
0.0
  0
LINE
  5
F103DF
330
261
100
AcDbEntity
  8
Geo
100
AcDbLine
 10
-19.78683896251004
 20
2.959777253319405
 30
0.0
 11
-19.68683896251004
 21
2.969492167907404
 31
0.0
  0
LINE
  5
F103E1
330
261
100
AcDbEntity
  8
Geo
100
AcDbLine
 10
-19.68683896251004
 20
2.969492167907404
 30
0.0
 11
-19.58683896251004
 21
2.979467126435803
 31
0.0
  0
LINE
  5
F103E3
330
261
100
AcDbEntity
  8
Geo
100
AcDbLine
 10
-19.58683896251004
 20
2.979467126435803
 30
0.0
 11
-19.48683896251005
 21
2.989699985664305
 31
0.0
  0
LINE
  5
F103E5
330
261
100
AcDbEntity
  8
Geo
100
AcDbLine
 10
-19.48683896251005
 20
2.989699985664305
 30
0.0
 11
-19.38683896251004
 21
3.000188510847301
 31
0.0
  0
LINE
  5
F103E7
330
261
100
AcDbEntity
  8
Geo
100
AcDbLine
 10
-19.38683896251004
 20
3.000188510847301
 30
0.0
 11
-19.28683896251004
 21
3.010930373262805
 31
0.0
  0
LINE
  5
F103E9
330
261
100
AcDbEntity
  8
Geo
100
AcDbLine
 10
-19.28683896251004
 20
3.010930373262805
 30
0.0
 11
-19.18683896251003
 21
3.021923147689804
 31
0.0
  0
LINE
  5
F103EB
330
261
100
AcDbEntity
  8
Geo
100
AcDbLine
 10
-19.18683896251003
 20
3.021923147689804
 30
0.0
 11
-19.08683896251004
 21
3.033164309837903
 31
0.0
  0
LINE
  5
F103ED
330
261
100
AcDbEntity
  8
Geo
100
AcDbLine
 10
-19.08683896251004
 20
3.033164309837903
 30
0.0
 11
-18.98683896251005
 21
3.044651233728902
 31
0.0
  0
LINE
  5
F103EF
330
261
100
AcDbEntity
  8
Geo
100
AcDbLine
 10
-18.98683896251005
 20
3.044651233728902
 30
0.0
 11
-18.88683896251004
 21
3.056381189034102
 31
0.0
  0
LINE
  5
F103F1
330
261
100
AcDbEntity
  8
Geo
100
AcDbLine
 10
-18.88683896251004
 20
3.056381189034102
 30
0.0
 11
-18.78683896251004
 21
3.068351338367804
 31
0.0
  0
LINE
  5
F103F3
330
261
100
AcDbEntity
  8
Geo
100
AcDbLine
 10
-18.78683896251004
 20
3.068351338367804
 30
0.0
 11
-18.68683896251004
 21
3.080558734539604
 31
0.0
  0
LINE
  5
F103F5
330
261
100
AcDbEntity
  8
Geo
100
AcDbLine
 10
-18.68683896251004
 20
3.080558734539604
 30
0.0
 11
-18.58683896251004
 21
3.093000317768105
 31
0.0
  0
LINE
  5
F103F7
330
261
100
AcDbEntity
  8
Geo
100
AcDbLine
 10
-18.58683896251004
 20
3.093000317768105
 30
0.0
 11
-18.48683896251005
 21
3.105672912857002
 31
0.0
  0
LINE
  5
F103F9
330
261
100
AcDbEntity
  8
Geo
100
AcDbLine
 10
-18.48683896251005
 20
3.105672912857002
 30
0.0
 11
-18.38683896251004
 21
3.118573226337101
 31
0.0
  0
LINE
  5
F103FB
330
261
100
AcDbEntity
  8
Geo
100
AcDbLine
 10
-18.38683896251004
 20
3.118573226337101
 30
0.0
 11
-18.28683896251004
 21
3.131697843575906
 31
0.0
  0
LINE
  5
F103FD
330
261
100
AcDbEntity
  8
Geo
100
AcDbLine
 10
-18.28683896251004
 20
3.131697843575906
 30
0.0
 11
-18.18683896251004
 21
3.145043225858106
 31
0.0
  0
LINE
  5
F103FF
330
261
100
AcDbEntity
  8
Geo
100
AcDbLine
 10
-18.18683896251004
 20
3.145043225858106
 30
0.0
 11
-18.08683896251004
 21
3.1586057074378
 31
0.0
  0
LINE
  5
F10401
330
261
100
AcDbEntity
  8
Geo
100
AcDbLine
 10
-18.08683896251004
 20
3.1586057074378
 30
0.0
 11
-18.08683896251004
 21
3.1586057074378
 31
0.0
  0
LINE
  5
F10403
330
261
100
AcDbEntity
  8
Geo
100
AcDbLine
 10
-26.08683896251005
 20
4.413599255408499
 30
0.0
 11
-25.98683896251005
 21
4.413922601728799
 31
0.0
  0
LINE
  5
F10405
330
261
100
AcDbEntity
  8
Geo
100
AcDbLine
 10
-25.98683896251005
 20
4.413922601728799
 30
0.0
 11
-25.88683896251004
 21
4.412426280291402
 31
0.0
  0
LINE
  5
F10407
330
261
100
AcDbEntity
  8
Geo
100
AcDbLine
 10
-25.88683896251004
 20
4.412426280291402
 30
0.0
 11
-25.78683896251005
 21
4.409111380260497
 31
0.0
  0
LINE
  5
F10409
330
261
100
AcDbEntity
  8
Geo
100
AcDbLine
 10
-25.78683896251005
 20
4.409111380260497
 30
0.0
 11
-25.68683896251004
 21
4.403980314534202
 31
0.0
  0
LINE
  5
F1040B
330
261
100
AcDbEntity
  8
Geo
100
AcDbLine
 10
-25.68683896251004
 20
4.403980314534202
 30
0.0
 11
-25.58683896251004
 21
4.397036817987601
 31
0.0
  0
LINE
  5
F1040D
330
261
100
AcDbEntity
  8
Geo
100
AcDbLine
 10
-25.58683896251004
 20
4.397036817987601
 30
0.0
 11
-25.48683896251005
 21
4.388285944754404
 31
0.0
  0
LINE
  5
F1040F
330
261
100
AcDbEntity
  8
Geo
100
AcDbLine
 10
-25.48683896251005
 20
4.388285944754404
 30
0.0
 11
-25.38683896251004
 21
4.377734064548405
 31
0.0
  0
LINE
  5
F10411
330
261
100
AcDbEntity
  8
Geo
100
AcDbLine
 10
-25.38683896251004
 20
4.377734064548405
 30
0.0
 11
-25.28683896251005
 21
4.365388858026403
 31
0.0
  0
LINE
  5
F10413
330
261
100
AcDbEntity
  8
Geo
100
AcDbLine
 10
-25.28683896251005
 20
4.365388858026403
 30
0.0
 11
-25.18683896251004
 21
4.351259311197903
 31
0.0
  0
LINE
  5
F10415
330
261
100
AcDbEntity
  8
Geo
100
AcDbLine
 10
-25.18683896251004
 20
4.351259311197903
 30
0.0
 11
-25.08683896251004
 21
4.335355708884105
 31
0.0
  0
LINE
  5
F10417
330
261
100
AcDbEntity
  8
Geo
100
AcDbLine
 10
-25.08683896251004
 20
4.335355708884105
 30
0.0
 11
-24.98683896251005
 21
4.317689627231601
 31
0.0
  0
LINE
  5
F10419
330
261
100
AcDbEntity
  8
Geo
100
AcDbLine
 10
-24.98683896251005
 20
4.317689627231601
 30
0.0
 11
-24.88683896251004
 21
4.298273925286405
 31
0.0
  0
LINE
  5
F1041B
330
261
100
AcDbEntity
  8
Geo
100
AcDbLine
 10
-24.88683896251004
 20
4.298273925286405
 30
0.0
 11
-24.78683896251005
 21
4.277122735633501
 31
0.0
  0
LINE
  5
F1041D
330
261
100
AcDbEntity
  8
Geo
100
AcDbLine
 10
-24.78683896251005
 20
4.277122735633501
 30
0.0
 11
-24.68683896251004
 21
4.254251454110303
 31
0.0
  0
LINE
  5
F1041F
330
261
100
AcDbEntity
  8
Geo
100
AcDbLine
 10
-24.68683896251004
 20
4.254251454110303
 30
0.0
 11
-24.58683896251005
 21
4.229676728599603
 31
0.0
  0
LINE
  5
F10421
330
261
100
AcDbEntity
  8
Geo
100
AcDbLine
 10
-24.58683896251005
 20
4.229676728599603
 30
0.0
 11
-24.48683896251005
 21
4.2034164469121
 31
0.0
  0
LINE
  5
F10423
330
261
100
AcDbEntity
  8
Geo
100
AcDbLine
 10
-24.48683896251005
 20
4.2034164469121
 30
0.0
 11
-24.38683896251004
 21
4.1754897237657
 31
0.0
  0
LINE
  5
F10425
330
261
100
AcDbEntity
  8
Geo
100
AcDbLine
 10
-24.38683896251004
 20
4.1754897237657
 30
0.0
 11
-24.28683896251005
 21
4.145916886872104
 31
0.0
  0
LINE
  5
F10427
330
261
100
AcDbEntity
  8
Geo
100
AcDbLine
 10
-24.28683896251005
 20
4.145916886872104
 30
0.0
 11
-24.18683896251004
 21
4.114719462140406
 31
0.0
  0
LINE
  5
F10429
330
261
100
AcDbEntity
  8
Geo
100
AcDbLine
 10
-24.18683896251004
 20
4.114719462140406
 30
0.0
 11
-24.08683896251004
 21
4.081920158008401
 31
0.0
  0
LINE
  5
F1042B
330
261
100
AcDbEntity
  8
Geo
100
AcDbLine
 10
-24.08683896251004
 20
4.081920158008401
 30
0.0
 11
-23.98683896251005
 21
4.047542848913202
 31
0.0
  0
LINE
  5
F1042D
330
261
100
AcDbEntity
  8
Geo
100
AcDbLine
 10
-23.98683896251005
 20
4.047542848913202
 30
0.0
 11
-23.88683896251004
 21
4.011612557913501
 31
0.0
  0
LINE
  5
F1042F
330
261
100
AcDbEntity
  8
Geo
100
AcDbLine
 10
-23.88683896251004
 20
4.011612557913501
 30
0.0
 11
-23.78683896251005
 21
3.974155438474902
 31
0.0
  0
LINE
  5
F10431
330
261
100
AcDbEntity
  8
Geo
100
AcDbLine
 10
-23.78683896251005
 20
3.974155438474902
 30
0.0
 11
-23.68683896251004
 21
3.935198755433404
 31
0.0
  0
LINE
  5
F10433
330
261
100
AcDbEntity
  8
Geo
100
AcDbLine
 10
-23.68683896251004
 20
3.935198755433404
 30
0.0
 11
-23.58683896251005
 21
3.8947708651493
 31
0.0
  0
LINE
  5
F10435
330
261
100
AcDbEntity
  8
Geo
100
AcDbLine
 10
-23.58683896251005
 20
3.8947708651493
 30
0.0
 11
-23.48683896251005
 21
3.852901194866603
 31
0.0
  0
LINE
  5
F10437
330
261
100
AcDbEntity
  8
Geo
100
AcDbLine
 10
-23.48683896251005
 20
3.852901194866603
 30
0.0
 11
-23.38683896251004
 21
3.8096202212933
 31
0.0
  0
LINE
  5
F10439
330
261
100
AcDbEntity
  8
Geo
100
AcDbLine
 10
-23.38683896251004
 20
3.8096202212933
 30
0.0
 11
-23.28683896251005
 21
3.764959448417403
 31
0.0
  0
LINE
  5
F1043B
330
261
100
AcDbEntity
  8
Geo
100
AcDbLine
 10
-23.28683896251005
 20
3.764959448417403
 30
0.0
 11
-23.18683896251004
 21
3.718951384575699
 31
0.0
  0
LINE
  5
F1043D
330
261
100
AcDbEntity
  8
Geo
100
AcDbLine
 10
-23.18683896251004
 20
3.718951384575699
 30
0.0
 11
-23.08683896251004
 21
3.671629518790407
 31
0.0
  0
LINE
  5
F1043F
330
261
100
AcDbEntity
  8
Geo
100
AcDbLine
 10
-23.08683896251004
 20
3.671629518790407
 30
0.0
 11
-22.98683896251005
 21
3.623028296393403
 31
0.0
  0
LINE
  5
F10441
330
261
100
AcDbEntity
  8
Geo
100
AcDbLine
 10
-22.98683896251005
 20
3.623028296393403
 30
0.0
 11
-22.88683896251004
 21
3.573183093953304
 31
0.0
  0
LINE
  5
F10443
330
261
100
AcDbEntity
  8
Geo
100
AcDbLine
 10
-22.88683896251004
 20
3.573183093953304
 30
0.0
 11
-22.78683896251004
 21
3.522130193525104
 31
0.0
  0
LINE
  5
F10445
330
261
100
AcDbEntity
  8
Geo
100
AcDbLine
 10
-22.78683896251004
 20
3.522130193525104
 30
0.0
 11
-22.68683896251004
 21
3.469906756240604
 31
0.0
  0
LINE
  5
F10447
330
261
100
AcDbEntity
  8
Geo
100
AcDbLine
 10
-22.68683896251004
 20
3.469906756240604
 30
0.0
 11
-22.58683896251004
 21
3.416550795259102
 31
0.0
  0
LINE
  5
F10449
330
261
100
AcDbEntity
  8
Geo
100
AcDbLine
 10
-22.58683896251004
 20
3.416550795259102
 30
0.0
 11
-22.48683896251005
 21
3.362101148098105
 31
0.0
  0
LINE
  5
F1044B
330
261
100
AcDbEntity
  8
Geo
100
AcDbLine
 10
-22.48683896251005
 20
3.362101148098105
 30
0.0
 11
-22.38683896251004
 21
3.3065974483629
 31
0.0
  0
LINE
  5
F1044D
330
261
100
AcDbEntity
  8
Geo
100
AcDbLine
 10
-22.38683896251004
 20
3.3065974483629
 30
0.0
 11
-22.28683896251005
 21
3.2500800968985
 31
0.0
  0
LINE
  5
F1044F
330
261
100
AcDbEntity
  8
Geo
100
AcDbLine
 10
-22.28683896251005
 20
3.2500800968985
 30
0.0
 11
-22.18683896251004
 21
3.192590232381103
 31
0.0
  0
LINE
  5
F10451
330
261
100
AcDbEntity
  8
Geo
100
AcDbLine
 10
-22.18683896251004
 20
3.192590232381103
 30
0.0
 11
-22.08683896251004
 21
3.134169701374201
 31
0.0
  0
LINE
  5
F10453
330
261
100
AcDbEntity
  8
Geo
100
AcDbLine
 10
-22.08683896251004
 20
3.134169701374201
 30
0.0
 11
-21.98683896251005
 21
3.074861027868404
 31
0.0
  0
LINE
  5
F10455
330
261
100
AcDbEntity
  8
Geo
100
AcDbLine
 10
-21.98683896251005
 20
3.074861027868404
 30
0.0
 11
-21.88683896251004
 21
3.014707382328403
 31
0.0
  0
LINE
  5
F10457
330
261
100
AcDbEntity
  8
Geo
100
AcDbLine
 10
-21.88683896251004
 20
3.014707382328403
 30
0.0
 11
-21.78683896251005
 21
2.953752550269602
 31
0.0
  0
LINE
  5
F10459
330
261
100
AcDbEntity
  8
Geo
100
AcDbLine
 10
-21.78683896251005
 20
2.953752550269602
 30
0.0
 11
-21.68683896251004
 21
2.892040900386604
 31
0.0
  0
LINE
  5
F1045B
330
261
100
AcDbEntity
  8
Geo
100
AcDbLine
 10
-21.68683896251004
 20
2.892040900386604
 30
0.0
 11
-21.58683896251004
 21
2.829617352257699
 31
0.0
  0
LINE
  5
F1045D
330
261
100
AcDbEntity
  8
Geo
100
AcDbLine
 10
-21.58683896251004
 20
2.829617352257699
 30
0.0
 11
-21.48683896251005
 21
2.766527343648199
 31
0.0
  0
LINE
  5
F1045F
330
261
100
AcDbEntity
  8
Geo
100
AcDbLine
 10
-21.48683896251005
 20
2.766527343648199
 30
0.0
 11
-21.38683896251004
 21
2.702816797436202
 31
0.0
  0
LINE
  5
F10461
330
261
100
AcDbEntity
  8
Geo
100
AcDbLine
 10
-21.38683896251004
 20
2.702816797436202
 30
0.0
 11
-21.28683896251005
 21
2.638532088186106
 31
0.0
  0
LINE
  5
F10463
330
261
100
AcDbEntity
  8
Geo
100
AcDbLine
 10
-21.28683896251005
 20
2.638532088186106
 30
0.0
 11
-21.18683896251004
 21
2.573720008392104
 31
0.0
  0
LINE
  5
F10465
330
261
100
AcDbEntity
  8
Geo
100
AcDbLine
 10
-21.18683896251004
 20
2.573720008392104
 30
0.0
 11
-21.08683896251005
 21
2.508427734418905
 31
0.0
  0
LINE
  5
F10467
330
261
100
AcDbEntity
  8
Geo
100
AcDbLine
 10
-21.08683896251005
 20
2.508427734418905
 30
0.0
 11
-20.98683896251005
 21
2.442702792161803
 31
0.0
  0
LINE
  5
F10469
330
261
100
AcDbEntity
  8
Geo
100
AcDbLine
 10
-20.98683896251005
 20
2.442702792161803
 30
0.0
 11
-20.88683896251004
 21
2.3765930224531
 31
0.0
  0
LINE
  5
F1046B
330
261
100
AcDbEntity
  8
Geo
100
AcDbLine
 10
-20.88683896251004
 20
2.3765930224531
 30
0.0
 11
-20.78683896251005
 21
2.310146546238904
 31
0.0
  0
LINE
  5
F1046D
330
261
100
AcDbEntity
  8
Geo
100
AcDbLine
 10
-20.78683896251005
 20
2.310146546238904
 30
0.0
 11
-20.68683896251004
 21
2.243411729552104
 31
0.0
  0
LINE
  5
F1046F
330
261
100
AcDbEntity
  8
Geo
100
AcDbLine
 10
-20.68683896251004
 20
2.243411729552104
 30
0.0
 11
-20.58683896251004
 21
2.176437148307204
 31
0.0
  0
LINE
  5
F10471
330
261
100
AcDbEntity
  8
Geo
100
AcDbLine
 10
-20.58683896251004
 20
2.176437148307204
 30
0.0
 11
-20.58683896251004
 21
2.176437148307204
 31
0.0
  0
LINE
  5
F10473
330
261
100
AcDbEntity
  8
Geo
100
AcDbLine
 10
-20.58683896251004
 20
2.176437148307204
 30
0.0
 11
-20.58683896251004
 21
2.165940347615102
 31
0.0
  0
LINE
  5
F10475
330
261
100
AcDbEntity
  8
Geo
100
AcDbLine
 10
-20.58683896251004
 20
2.165940347615102
 30
0.0
 11
-20.58683896251004
 21
2.176437148307204
 31
0.0
  0
LINE
  5
F10477
330
261
100
AcDbEntity
  8
Geo
100
AcDbLine
 10
-20.58683896251004
 20
2.176437148307204
 30
0.0
 11
-20.58683896251004
 21
2.176437148307204
 31
0.0
  0
LINE
  5
F10479
330
261
100
AcDbEntity
  8
Geo
100
AcDbLine
 10
-20.58683896251004
 20
2.176437148307204
 30
0.0
 11
-20.48683896251005
 21
2.091608912336599
 31
0.0
  0
LINE
  5
F1047B
330
261
100
AcDbEntity
  8
Geo
100
AcDbLine
 10
-20.48683896251005
 20
2.091608912336599
 30
0.0
 11
-20.38683896251004
 21
2.014281617335303
 31
0.0
  0
LINE
  5
F1047D
330
261
100
AcDbEntity
  8
Geo
100
AcDbLine
 10
-20.38683896251004
 20
2.014281617335303
 30
0.0
 11
-20.28683896251004
 21
1.934023328469198
 31
0.0
  0
LINE
  5
F1047F
330
261
100
AcDbEntity
  8
Geo
100
AcDbLine
 10
-20.28683896251004
 20
1.934023328469198
 30
0.0
 11
-20.18683896251004
 21
1.850916915649303
 31
0.0
  0
LINE
  5
F10481
330
261
100
AcDbEntity
  8
Geo
100
AcDbLine
 10
-20.18683896251004
 20
1.850916915649303
 30
0.0
 11
-20.08683896251004
 21
1.765064846394199
 31
0.0
  0
LINE
  5
F10483
330
261
100
AcDbEntity
  8
Geo
100
AcDbLine
 10
-20.08683896251004
 20
1.765064846394199
 30
0.0
 11
-19.98683896251005
 21
1.676590782228601
 31
0.0
  0
LINE
  5
F10485
330
261
100
AcDbEntity
  8
Geo
100
AcDbLine
 10
-19.98683896251005
 20
1.676590782228601
 30
0.0
 11
-19.88683896251004
 21
1.585641163427904
 31
0.0
  0
LINE
  5
F10487
330
261
100
AcDbEntity
  8
Geo
100
AcDbLine
 10
-19.88683896251004
 20
1.585641163427904
 30
0.0
 11
-19.78683896251004
 21
1.492386765736
 31
0.0
  0
LINE
  5
F10489
330
261
100
AcDbEntity
  8
Geo
100
AcDbLine
 10
-19.78683896251004
 20
1.492386765736
 30
0.0
 11
-19.68683896251004
 21
1.397024210745904
 31
0.0
  0
LINE
  5
F1048B
330
261
100
AcDbEntity
  8
Geo
100
AcDbLine
 10
-19.68683896251004
 20
1.397024210745904
 30
0.0
 11
-19.58683896251004
 21
1.2997774096332
 31
0.0
  0
LINE
  5
F1048D
330
261
100
AcDbEntity
  8
Geo
100
AcDbLine
 10
-19.58683896251004
 20
1.2997774096332
 30
0.0
 11
-19.48683896251005
 21
1.200898917906002
 31
0.0
  0
LINE
  5
F1048F
330
261
100
AcDbEntity
  8
Geo
100
AcDbLine
 10
-19.48683896251005
 20
1.200898917906002
 30
0.0
 11
-19.38683896251004
 21
1.100671176798904
 31
0.0
  0
LINE
  5
F10491
330
261
100
AcDbEntity
  8
Geo
100
AcDbLine
 10
-19.38683896251004
 20
1.100671176798904
 30
0.0
 11
-19.28683896251004
 21
0.9994076149279074
 31
0.0
  0
LINE
  5
F10493
330
261
100
AcDbEntity
  8
Geo
100
AcDbLine
 10
-19.28683896251004
 20
0.9994076149279074
 30
0.0
 11
-19.18683896251003
 21
0.8974535818677047
 31
0.0
  0
LINE
  5
F10495
330
261
100
AcDbEntity
  8
Geo
100
AcDbLine
 10
-19.18683896251003
 20
0.8974535818677047
 30
0.0
 11
-19.08683896251004
 21
0.795187083455005
 31
0.0
  0
LINE
  5
F10497
330
261
100
AcDbEntity
  8
Geo
100
AcDbLine
 10
-19.08683896251004
 20
0.795187083455005
 30
0.0
 11
-18.98683896251005
 21
0.6930192869026044
 31
0.0
  0
LINE
  5
F10499
330
261
100
AcDbEntity
  8
Geo
100
AcDbLine
 10
-18.98683896251005
 20
0.6930192869026044
 30
0.0
 11
-18.88683896251004
 21
0.5913947622794034
 31
0.0
  0
LINE
  5
F1049B
330
261
100
AcDbEntity
  8
Geo
100
AcDbLine
 10
-18.88683896251004
 20
0.5913947622794034
 30
0.0
 11
-18.78683896251004
 21
0.4907914256240034
 31
0.0
  0
LINE
  5
F1049D
330
261
100
AcDbEntity
  8
Geo
100
AcDbLine
 10
-18.78683896251004
 20
0.4907914256240034
 30
0.0
 11
-18.68683896251004
 21
0.3917201479708048
 31
0.0
  0
LINE
  5
F1049F
330
261
100
AcDbEntity
  8
Geo
100
AcDbLine
 10
-18.68683896251004
 20
0.3917201479708048
 30
0.0
 11
-18.58683896251004
 21
0.2947239939403054
 31
0.0
  0
LINE
  5
F104A1
330
261
100
AcDbEntity
  8
Geo
100
AcDbLine
 10
-18.58683896251004
 20
0.2947239939403054
 30
0.0
 11
-18.48683896251005
 21
0.2003770533511044
 31
0.0
  0
LINE
  5
F104A3
330
261
100
AcDbEntity
  8
Geo
100
AcDbLine
 10
-18.48683896251005
 20
0.2003770533511044
 30
0.0
 11
-18.38683896251004
 21
0.1092828296069044
 31
0.0
  0
LINE
  5
F104A5
330
261
100
AcDbEntity
  8
Geo
100
AcDbLine
 10
-18.38683896251004
 20
0.1092828296069044
 30
0.0
 11
-18.28683896251004
 21
0.0220721494876983
 31
0.0
  0
LINE
  5
F104A7
330
261
100
AcDbEntity
  8
Geo
100
AcDbLine
 10
-18.28683896251004
 20
0.0220721494876983
 30
0.0
 11
-18.18683896251004
 21
-0.0605994395137977
 31
0.0
  0
LINE
  5
F104A9
330
261
100
AcDbEntity
  8
Geo
100
AcDbLine
 10
-18.18683896251004
 20
-0.0605994395137977
 30
0.0
 11
-18.08683896251004
 21
-0.1380548159333017
 31
0.0
  0
LINE
  5
F104AB
330
261
100
AcDbEntity
  8
Geo
100
AcDbLine
 10
-18.08683896251004
 20
-0.1380548159333017
 30
0.0
 11
-18.08683896251004
 21
-0.1380548159333017
 31
0.0
  0
LINE
  5
F104AD
330
261
100
AcDbEntity
  8
Geo
100
AcDbLine
 10
-30.68683896251004
 20
4.414006117628002
 30
0.0
 11
-30.58683896251004
 21
4.413296442044501
 31
0.0
  0
LINE
  5
F104AF
330
261
100
AcDbEntity
  8
Geo
100
AcDbLine
 10
-30.58683896251004
 20
4.413296442044501
 30
0.0
 11
-30.48683896251005
 21
4.410767554481605
 31
0.0
  0
LINE
  5
F104B1
330
261
100
AcDbEntity
  8
Geo
100
AcDbLine
 10
-30.48683896251005
 20
4.410767554481605
 30
0.0
 11
-30.38683896251004
 21
4.406421295703001
 31
0.0
  0
LINE
  5
F104B3
330
261
100
AcDbEntity
  8
Geo
100
AcDbLine
 10
-30.38683896251004
 20
4.406421295703001
 30
0.0
 11
-30.28683896251005
 21
4.400260829326903
 31
0.0
  0
LINE
  5
F104B5
330
261
100
AcDbEntity
  8
Geo
100
AcDbLine
 10
-30.28683896251005
 20
4.400260829326903
 30
0.0
 11
-30.18683896251004
 21
4.3922906395238
 31
0.0
  0
LINE
  5
F104B7
330
261
100
AcDbEntity
  8
Geo
100
AcDbLine
 10
-30.18683896251004
 20
4.3922906395238
 30
0.0
 11
-30.08683896251004
 21
4.382516527752002
 31
0.0
  0
LINE
  5
F104B9
330
261
100
AcDbEntity
  8
Geo
100
AcDbLine
 10
-30.08683896251004
 20
4.382516527752002
 30
0.0
 11
-29.98683896251005
 21
4.370945608535002
 31
0.0
  0
LINE
  5
F104BB
330
261
100
AcDbEntity
  8
Geo
100
AcDbLine
 10
-29.98683896251005
 20
4.370945608535002
 30
0.0
 11
-29.88683896251004
 21
4.357586304282602
 31
0.0
  0
LINE
  5
F104BD
330
261
100
AcDbEntity
  8
Geo
100
AcDbLine
 10
-29.88683896251004
 20
4.357586304282602
 30
0.0
 11
-29.78683896251005
 21
4.342448339160604
 31
0.0
  0
LINE
  5
F104BF
330
261
100
AcDbEntity
  8
Geo
100
AcDbLine
 10
-29.78683896251005
 20
4.342448339160604
 30
0.0
 11
-29.68683896251004
 21
4.3255427320125
 31
0.0
  0
LINE
  5
F104C1
330
261
100
AcDbEntity
  8
Geo
100
AcDbLine
 10
-29.68683896251004
 20
4.3255427320125
 30
0.0
 11
-29.58683896251005
 21
4.306881788339001
 31
0.0
  0
LINE
  5
F104C3
330
261
100
AcDbEntity
  8
Geo
100
AcDbLine
 10
-29.58683896251005
 20
4.306881788339001
 30
0.0
 11
-29.48683896251005
 21
4.286479091340503
 31
0.0
  0
LINE
  5
F104C5
330
261
100
AcDbEntity
  8
Geo
100
AcDbLine
 10
-29.48683896251005
 20
4.286479091340503
 30
0.0
 11
-29.38683896251004
 21
4.264349492030603
 31
0.0
  0
LINE
  5
F104C7
330
261
100
AcDbEntity
  8
Geo
100
AcDbLine
 10
-29.38683896251004
 20
4.264349492030603
 30
0.0
 11
-29.28683896251005
 21
4.2405090984257
 31
0.0
  0
LINE
  5
F104C9
330
261
100
AcDbEntity
  8
Geo
100
AcDbLine
 10
-29.28683896251005
 20
4.2405090984257
 30
0.0
 11
-29.18683896251004
 21
4.214975263820303
 31
0.0
  0
LINE
  5
F104CB
330
261
100
AcDbEntity
  8
Geo
100
AcDbLine
 10
-29.18683896251004
 20
4.214975263820303
 30
0.0
 11
-29.08683896251004
 21
4.187766574155201
 31
0.0
  0
LINE
  5
F104CD
330
261
100
AcDbEntity
  8
Geo
100
AcDbLine
 10
-29.08683896251004
 20
4.187766574155201
 30
0.0
 11
-28.98683896251005
 21
4.158902834489502
 31
0.0
  0
LINE
  5
F104CF
330
261
100
AcDbEntity
  8
Geo
100
AcDbLine
 10
-28.98683896251005
 20
4.158902834489502
 30
0.0
 11
-28.88683896251004
 21
4.128405054584202
 31
0.0
  0
LINE
  5
F104D1
330
261
100
AcDbEntity
  8
Geo
100
AcDbLine
 10
-28.88683896251004
 20
4.128405054584202
 30
0.0
 11
-28.78683896251004
 21
4.096295433609402
 31
0.0
  0
LINE
  5
F104D3
330
261
100
AcDbEntity
  8
Geo
100
AcDbLine
 10
-28.78683896251004
 20
4.096295433609402
 30
0.0
 11
-28.68683896251004
 21
4.062597343985505
 31
0.0
  0
LINE
  5
F104D5
330
261
100
AcDbEntity
  8
Geo
100
AcDbLine
 10
-28.68683896251004
 20
4.062597343985505
 30
0.0
 11
-28.58683896251005
 21
4.027335314371104
 31
0.0
  0
LINE
  5
F104D7
330
261
100
AcDbEntity
  8
Geo
100
AcDbLine
 10
-28.58683896251005
 20
4.027335314371104
 30
0.0
 11
-28.48683896251005
 21
3.990535011807903
 31
0.0
  0
LINE
  5
F104D9
330
261
100
AcDbEntity
  8
Geo
100
AcDbLine
 10
-28.48683896251005
 20
3.990535011807903
 30
0.0
 11
-28.38683896251004
 21
3.952223223038405
 31
0.0
  0
LINE
  5
F104DB
330
261
100
AcDbEntity
  8
Geo
100
AcDbLine
 10
-28.38683896251004
 20
3.952223223038405
 30
0.0
 11
-28.28683896251005
 21
3.912427835007701
 31
0.0
  0
LINE
  5
F104DD
330
261
100
AcDbEntity
  8
Geo
100
AcDbLine
 10
-28.28683896251005
 20
3.912427835007701
 30
0.0
 11
-28.18683896251004
 21
3.871177814565005
 31
0.0
  0
LINE
  5
F104DF
330
261
100
AcDbEntity
  8
Geo
100
AcDbLine
 10
-28.18683896251004
 20
3.871177814565005
 30
0.0
 11
-28.08683896251004
 21
3.828503187378405
 31
0.0
  0
LINE
  5
F104E1
330
261
100
AcDbEntity
  8
Geo
100
AcDbLine
 10
-28.08683896251004
 20
3.828503187378405
 30
0.0
 11
-27.98683896251005
 21
3.7844350160798
 31
0.0
  0
LINE
  5
F104E3
330
261
100
AcDbEntity
  8
Geo
100
AcDbLine
 10
-27.98683896251005
 20
3.7844350160798
 30
0.0
 11
-27.88683896251004
 21
3.739005377654201
 31
0.0
  0
LINE
  5
F104E5
330
261
100
AcDbEntity
  8
Geo
100
AcDbLine
 10
-27.88683896251004
 20
3.739005377654201
 30
0.0
 11
-27.78683896251005
 21
3.692247340091302
 31
0.0
  0
LINE
  5
F104E7
330
261
100
AcDbEntity
  8
Geo
100
AcDbLine
 10
-27.78683896251005
 20
3.692247340091302
 30
0.0
 11
-27.68683896251004
 21
3.644194938315404
 31
0.0
  0
LINE
  5
F104E9
330
261
100
AcDbEntity
  8
Geo
100
AcDbLine
 10
-27.68683896251004
 20
3.644194938315404
 30
0.0
 11
-27.58683896251004
 21
3.594883149411405
 31
0.0
  0
LINE
  5
F104EB
330
261
100
AcDbEntity
  8
Geo
100
AcDbLine
 10
-27.58683896251004
 20
3.594883149411405
 30
0.0
 11
-27.48683896251005
 21
3.544347867165601
 31
0.0
  0
LINE
  5
F104ED
330
261
100
AcDbEntity
  8
Geo
100
AcDbLine
 10
-27.48683896251005
 20
3.544347867165601
 30
0.0
 11
-27.38683896251004
 21
3.492625875938198
 31
0.0
  0
LINE
  5
F104EF
330
261
100
AcDbEntity
  8
Geo
100
AcDbLine
 10
-27.38683896251004
 20
3.492625875938198
 30
0.0
 11
-27.28683896251005
 21
3.439754823888801
 31
0.0
  0
LINE
  5
F104F1
330
261
100
AcDbEntity
  8
Geo
100
AcDbLine
 10
-27.28683896251005
 20
3.439754823888801
 30
0.0
 11
-27.18683896251004
 21
3.385773195572003
 31
0.0
  0
LINE
  5
F104F3
330
261
100
AcDbEntity
  8
Geo
100
AcDbLine
 10
-27.18683896251004
 20
3.385773195572003
 30
0.0
 11
-27.08683896251005
 21
3.330720283925003
 31
0.0
  0
LINE
  5
F104F5
330
261
100
AcDbEntity
  8
Geo
100
AcDbLine
 10
-27.08683896251005
 20
3.330720283925003
 30
0.0
 11
-26.98683896251005
 21
3.274636161666201
 31
0.0
  0
LINE
  5
F104F7
330
261
100
AcDbEntity
  8
Geo
100
AcDbLine
 10
-26.98683896251005
 20
3.274636161666201
 30
0.0
 11
-26.88683896251004
 21
3.217561652127002
 31
0.0
  0
LINE
  5
F104F9
330
261
100
AcDbEntity
  8
Geo
100
AcDbLine
 10
-26.88683896251004
 20
3.217561652127002
 30
0.0
 11
-26.78683896251005
 21
3.159538299536102
 31
0.0
  0
LINE
  5
F104FB
330
261
100
AcDbEntity
  8
Geo
100
AcDbLine
 10
-26.78683896251005
 20
3.159538299536102
 30
0.0
 11
-26.68683896251004
 21
3.100608338780002
 31
0.0
  0
LINE
  5
F104FD
330
261
100
AcDbEntity
  8
Geo
100
AcDbLine
 10
-26.68683896251004
 20
3.100608338780002
 30
0.0
 11
-26.58683896251004
 21
3.040814664660405
 31
0.0
  0
LINE
  5
F104FF
330
261
100
AcDbEntity
  8
Geo
100
AcDbLine
 10
-26.58683896251004
 20
3.040814664660405
 30
0.0
 11
-26.48683896251005
 21
2.9802008006715
 31
0.0
  0
LINE
  5
F10501
330
261
100
AcDbEntity
  8
Geo
100
AcDbLine
 10
-26.48683896251005
 20
2.9802008006715
 30
0.0
 11
-26.38683896251004
 21
2.918810867318999
 31
0.0
  0
LINE
  5
F10503
330
261
100
AcDbEntity
  8
Geo
100
AcDbLine
 10
-26.38683896251004
 20
2.918810867318999
 30
0.0
 11
-26.28683896251005
 21
2.856689550005601
 31
0.0
  0
LINE
  5
F10505
330
261
100
AcDbEntity
  8
Geo
100
AcDbLine
 10
-26.28683896251005
 20
2.856689550005601
 30
0.0
 11
-26.18683896251004
 21
2.793882066504302
 31
0.0
  0
LINE
  5
F10507
330
261
100
AcDbEntity
  8
Geo
100
AcDbLine
 10
-26.18683896251004
 20
2.793882066504302
 30
0.0
 11
-26.08683896251005
 21
2.730434134044902
 31
0.0
  0
LINE
  5
F10509
330
261
100
AcDbEntity
  8
Geo
100
AcDbLine
 10
-26.08683896251005
 20
2.730434134044902
 30
0.0
 11
-25.98683896251005
 21
2.666391936036305
 31
0.0
  0
LINE
  5
F1050B
330
261
100
AcDbEntity
  8
Geo
100
AcDbLine
 10
-25.98683896251005
 20
2.666391936036305
 30
0.0
 11
-25.88683896251004
 21
2.601802088450401
 31
0.0
  0
LINE
  5
F1050D
330
261
100
AcDbEntity
  8
Geo
100
AcDbLine
 10
-25.88683896251004
 20
2.601802088450401
 30
0.0
 11
-25.78683896251005
 21
2.536711605890001
 31
0.0
  0
LINE
  5
F1050F
330
261
100
AcDbEntity
  8
Geo
100
AcDbLine
 10
-25.78683896251005
 20
2.536711605890001
 30
0.0
 11
-25.68683896251004
 21
2.4711678673678
 31
0.0
  0
LINE
  5
F10511
330
261
100
AcDbEntity
  8
Geo
100
AcDbLine
 10
-25.68683896251004
 20
2.4711678673678
 30
0.0
 11
-25.58683896251004
 21
2.405218581818601
 31
0.0
  0
LINE
  5
F10513
330
261
100
AcDbEntity
  8
Geo
100
AcDbLine
 10
-25.58683896251004
 20
2.405218581818601
 30
0.0
 11
-25.48683896251005
 21
2.3389117533731
 31
0.0
  0
LINE
  5
F10515
330
261
100
AcDbEntity
  8
Geo
100
AcDbLine
 10
-25.48683896251005
 20
2.3389117533731
 30
0.0
 11
-25.38683896251004
 21
2.272295646415404
 31
0.0
  0
LINE
  5
F10517
330
261
100
AcDbEntity
  8
Geo
100
AcDbLine
 10
-25.38683896251004
 20
2.272295646415404
 30
0.0
 11
-25.28683896251005
 21
2.205418750451702
 31
0.0
  0
LINE
  5
F10519
330
261
100
AcDbEntity
  8
Geo
100
AcDbLine
 10
-25.28683896251005
 20
2.205418750451702
 30
0.0
 11
-25.18683896251004
 21
2.138329744815106
 31
0.0
  0
LINE
  5
F1051B
330
261
100
AcDbEntity
  8
Geo
100
AcDbLine
 10
-25.18683896251004
 20
2.138329744815106
 30
0.0
 11
-25.08683896251004
 21
2.071077463232501
 31
0.0
  0
LINE
  5
F1051D
330
261
100
AcDbEntity
  8
Geo
100
AcDbLine
 10
-25.08683896251004
 20
2.071077463232501
 30
0.0
 11
-24.98683896251005
 21
2.003710858278001
 31
0.0
  0
LINE
  5
F1051F
330
261
100
AcDbEntity
  8
Geo
100
AcDbLine
 10
-24.98683896251005
 20
2.003710858278001
 30
0.0
 11
-24.88683896251004
 21
1.936278965741404
 31
0.0
  0
LINE
  5
F10521
330
261
100
AcDbEntity
  8
Geo
100
AcDbLine
 10
-24.88683896251004
 20
1.936278965741404
 30
0.0
 11
-24.78683896251005
 21
1.868830868935003
 31
0.0
  0
LINE
  5
F10523
330
261
100
AcDbEntity
  8
Geo
100
AcDbLine
 10
-24.78683896251005
 20
1.868830868935003
 30
0.0
 11
-24.68683896251004
 21
1.801415662965901
 31
0.0
  0
LINE
  5
F10525
330
261
100
AcDbEntity
  8
Geo
100
AcDbLine
 10
-24.68683896251004
 20
1.801415662965901
 30
0.0
 11
-24.58683896251005
 21
1.734082419000298
 31
0.0
  0
LINE
  5
F10527
330
261
100
AcDbEntity
  8
Geo
100
AcDbLine
 10
-24.58683896251005
 20
1.734082419000298
 30
0.0
 11
-24.48683896251005
 21
1.666880148544599
 31
0.0
  0
LINE
  5
F10529
330
261
100
AcDbEntity
  8
Geo
100
AcDbLine
 10
-24.48683896251005
 20
1.666880148544599
 30
0.0
 11
-24.38683896251004
 21
1.599857767770302
 31
0.0
  0
LINE
  5
F1052B
330
261
100
AcDbEntity
  8
Geo
100
AcDbLine
 10
-24.38683896251004
 20
1.599857767770302
 30
0.0
 11
-24.28683896251005
 21
1.533064061908302
 31
0.0
  0
LINE
  5
F1052D
330
261
100
AcDbEntity
  8
Geo
100
AcDbLine
 10
-24.28683896251005
 20
1.533064061908302
 30
0.0
 11
-24.18683896251004
 21
1.466547649738
 31
0.0
  0
LINE
  5
F1052F
330
261
100
AcDbEntity
  8
Geo
100
AcDbLine
 10
-24.18683896251004
 20
1.466547649738
 30
0.0
 11
-24.08683896251004
 21
1.400356948198403
 31
0.0
  0
LINE
  5
F10531
330
261
100
AcDbEntity
  8
Geo
100
AcDbLine
 10
-24.08683896251004
 20
1.400356948198403
 30
0.0
 11
-23.98683896251005
 21
1.334540137145502
 31
0.0
  0
LINE
  5
F10533
330
261
100
AcDbEntity
  8
Geo
100
AcDbLine
 10
-23.98683896251005
 20
1.334540137145502
 30
0.0
 11
-23.88683896251004
 21
1.269145124282403
 31
0.0
  0
LINE
  5
F10535
330
261
100
AcDbEntity
  8
Geo
100
AcDbLine
 10
-23.88683896251004
 20
1.269145124282403
 30
0.0
 11
-23.78683896251005
 21
1.204219510287401
 31
0.0
  0
LINE
  5
F10537
330
261
100
AcDbEntity
  8
Geo
100
AcDbLine
 10
-23.78683896251005
 20
1.204219510287401
 30
0.0
 11
-23.68683896251004
 21
1.1398105541661
 31
0.0
  0
LINE
  5
F10539
330
261
100
AcDbEntity
  8
Geo
100
AcDbLine
 10
-23.68683896251004
 20
1.1398105541661
 30
0.0
 11
-23.58683896251005
 21
1.075965138851604
 31
0.0
  0
LINE
  5
F1053B
330
261
100
AcDbEntity
  8
Geo
100
AcDbLine
 10
-23.58683896251005
 20
1.075965138851604
 30
0.0
 11
-23.48683896251005
 21
1.012729737078402
 31
0.0
  0
LINE
  5
F1053D
330
261
100
AcDbEntity
  8
Geo
100
AcDbLine
 10
-23.48683896251005
 20
1.012729737078402
 30
0.0
 11
-23.38683896251004
 21
0.9501503775559037
 31
0.0
  0
LINE
  5
F1053F
330
261
100
AcDbEntity
  8
Geo
100
AcDbLine
 10
-23.38683896251004
 20
0.9501503775559037
 30
0.0
 11
-23.28683896251005
 21
0.8882726114633037
 31
0.0
  0
LINE
  5
F10541
330
261
100
AcDbEntity
  8
Geo
100
AcDbLine
 10
-23.28683896251005
 20
0.8882726114633037
 30
0.0
 11
-23.18683896251004
 21
0.8271414792943048
 31
0.0
  0
LINE
  5
F10543
330
261
100
AcDbEntity
  8
Geo
100
AcDbLine
 10
-23.18683896251004
 20
0.8271414792943048
 30
0.0
 11
-23.08683896251004
 21
0.7668014780712014
 31
0.0
  0
LINE
  5
F10545
330
261
100
AcDbEntity
  8
Geo
100
AcDbLine
 10
-23.08683896251004
 20
0.7668014780712014
 30
0.0
 11
-22.98683896251005
 21
0.7072965289569027
 31
0.0
  0
LINE
  5
F10547
330
261
100
AcDbEntity
  8
Geo
100
AcDbLine
 10
-22.98683896251005
 20
0.7072965289569027
 30
0.0
 11
-22.88683896251004
 21
0.6486699452839027
 31
0.0
  0
LINE
  5
F10549
330
261
100
AcDbEntity
  8
Geo
100
AcDbLine
 10
-22.88683896251004
 20
0.6486699452839027
 30
0.0
 11
-22.78683896251004
 21
0.5909644010275024
 31
0.0
  0
LINE
  5
F1054B
330
261
100
AcDbEntity
  8
Geo
100
AcDbLine
 10
-22.78683896251004
 20
0.5909644010275024
 30
0.0
 11
-22.68683896251004
 21
0.5342218997431019
 31
0.0
  0
LINE
  5
F1054D
330
261
100
AcDbEntity
  8
Geo
100
AcDbLine
 10
-22.68683896251004
 20
0.5342218997431019
 30
0.0
 11
-22.58683896251004
 21
0.478483743992701
 31
0.0
  0
LINE
  5
F1054F
330
261
100
AcDbEntity
  8
Geo
100
AcDbLine
 10
-22.58683896251004
 20
0.478483743992701
 30
0.0
 11
-22.48683896251005
 21
0.4237905052801026
 31
0.0
  0
LINE
  5
F10551
330
261
100
AcDbEntity
  8
Geo
100
AcDbLine
 10
-22.48683896251005
 20
0.4237905052801026
 30
0.0
 11
-22.38683896251004
 21
0.3701819945199993
 31
0.0
  0
LINE
  5
F10553
330
261
100
AcDbEntity
  8
Geo
100
AcDbLine
 10
-22.38683896251004
 20
0.3701819945199993
 30
0.0
 11
-22.28683896251005
 21
0.3176972330591994
 31
0.0
  0
LINE
  5
F10555
330
261
100
AcDbEntity
  8
Geo
100
AcDbLine
 10
-22.28683896251005
 20
0.3176972330591994
 30
0.0
 11
-22.18683896251004
 21
0.2663744242736037
 31
0.0
  0
LINE
  5
F10557
330
261
100
AcDbEntity
  8
Geo
100
AcDbLine
 10
-22.18683896251004
 20
0.2663744242736037
 30
0.0
 11
-22.08683896251004
 21
0.2162509257598018
 31
0.0
  0
LINE
  5
F10559
330
261
100
AcDbEntity
  8
Geo
100
AcDbLine
 10
-22.08683896251004
 20
0.2162509257598018
 30
0.0
 11
-21.98683896251005
 21
0.1673632221431056
 31
0.0
  0
LINE
  5
F1055B
330
261
100
AcDbEntity
  8
Geo
100
AcDbLine
 10
-21.98683896251005
 20
0.1673632221431056
 30
0.0
 11
-21.88683896251004
 21
0.119746898520102
 31
0.0
  0
LINE
  5
F1055D
330
261
100
AcDbEntity
  8
Geo
100
AcDbLine
 10
-21.88683896251004
 20
0.119746898520102
 30
0.0
 11
-21.78683896251005
 21
0.0734366145571031
 31
0.0
  0
LINE
  5
F1055F
330
261
100
AcDbEntity
  8
Geo
100
AcDbLine
 10
-21.78683896251005
 20
0.0734366145571031
 30
0.0
 11
-21.68683896251004
 21
0.0284660792606992
 31
0.0
  0
LINE
  5
F10561
330
261
100
AcDbEntity
  8
Geo
100
AcDbLine
 10
-21.68683896251004
 20
0.0284660792606992
 30
0.0
 11
-21.58683896251004
 21
-0.0151319735578994
 31
0.0
  0
LINE
  5
F10563
330
261
100
AcDbEntity
  8
Geo
100
AcDbLine
 10
-21.58683896251004
 20
-0.0151319735578994
 30
0.0
 11
-21.48683896251005
 21
-0.0573258091104982
 31
0.0
  0
LINE
  5
F10565
330
261
100
AcDbEntity
  8
Geo
100
AcDbLine
 10
-21.48683896251005
 20
-0.0573258091104982
 30
0.0
 11
-21.38683896251004
 21
-0.098084714730998
 31
0.0
  0
LINE
  5
F10567
330
261
100
AcDbEntity
  8
Geo
100
AcDbLine
 10
-21.38683896251004
 20
-0.098084714730998
 30
0.0
 11
-21.28683896251005
 21
-0.137379022230899
 31
0.0
  0
LINE
  5
F10569
330
261
100
AcDbEntity
  8
Geo
100
AcDbLine
 10
-21.28683896251005
 20
-0.137379022230899
 30
0.0
 11
-21.18683896251004
 21
-0.1751801294949971
 31
0.0
  0
LINE
  5
F1056B
330
261
100
AcDbEntity
  8
Geo
100
AcDbLine
 10
-21.18683896251004
 20
-0.1751801294949971
 30
0.0
 11
-21.08683896251005
 21
-0.211460521300399
 31
0.0
  0
LINE
  5
F1056D
330
261
100
AcDbEntity
  8
Geo
100
AcDbLine
 10
-21.08683896251005
 20
-0.211460521300399
 30
0.0
 11
-20.98683896251005
 21
-0.2461937893449999
 31
0.0
  0
LINE
  5
F1056F
330
261
100
AcDbEntity
  8
Geo
100
AcDbLine
 10
-20.98683896251005
 20
-0.2461937893449999
 30
0.0
 11
-20.88683896251004
 21
-0.2793546514695926
 31
0.0
  0
LINE
  5
F10571
330
261
100
AcDbEntity
  8
Geo
100
AcDbLine
 10
-20.88683896251004
 20
-0.2793546514695926
 30
0.0
 11
-20.78683896251005
 21
-0.310918970060797
 31
0.0
  0
LINE
  5
F10573
330
261
100
AcDbEntity
  8
Geo
100
AcDbLine
 10
-20.78683896251005
 20
-0.310918970060797
 30
0.0
 11
-20.68683896251004
 21
-0.3408637696206966
 31
0.0
  0
LINE
  5
F10575
330
261
100
AcDbEntity
  8
Geo
100
AcDbLine
 10
-20.68683896251004
 20
-0.3408637696206966
 30
0.0
 11
-20.58683896251004
 21
-0.3691672534907973
 31
0.0
  0
LINE
  5
F10577
330
261
100
AcDbEntity
  8
Geo
100
AcDbLine
 10
-20.58683896251004
 20
-0.3691672534907973
 30
0.0
 11
-20.58683896251004
 21
-0.3691672534907973
 31
0.0
  0
LINE
  5
F10579
330
261
100
AcDbEntity
  8
Geo
100
AcDbLine
 10
-20.58683896251004
 20
-0.3691672534907973
 30
0.0
 11
-20.58683896251004
 21
-0.2778398781108962
 31
0.0
  0
LINE
  5
F1057B
330
261
100
AcDbEntity
  8
Geo
100
AcDbLine
 10
-20.58683896251004
 20
-0.2778398781108962
 30
0.0
 11
-20.58683896251004
 21
-0.3691672534907973
 31
0.0
  0
LINE
  5
F1057D
330
261
100
AcDbEntity
  8
Geo
100
AcDbLine
 10
-20.58683896251004
 20
-0.3691672534907973
 30
0.0
 11
-20.58683896251004
 21
-0.3691672534907973
 31
0.0
  0
LINE
  5
F1057F
330
261
100
AcDbEntity
  8
Geo
100
AcDbLine
 10
-20.58683896251004
 20
-0.3691672534907973
 30
0.0
 11
-20.48683896251005
 21
-0.2744488175068014
 31
0.0
  0
LINE
  5
F10581
330
261
100
AcDbEntity
  8
Geo
100
AcDbLine
 10
-20.48683896251005
 20
-0.2744488175068014
 30
0.0
 11
-20.38683896251004
 21
-0.2709016940629958
 31
0.0
  0
LINE
  5
F10583
330
261
100
AcDbEntity
  8
Geo
100
AcDbLine
 10
-20.38683896251004
 20
-0.2709016940629958
 30
0.0
 11
-20.28683896251004
 21
-0.2671954748684975
 31
0.0
  0
LINE
  5
F10585
330
261
100
AcDbEntity
  8
Geo
100
AcDbLine
 10
-20.28683896251004
 20
-0.2671954748684975
 30
0.0
 11
-20.18683896251004
 21
-0.263327025553
 31
0.0
  0
LINE
  5
F10587
330
261
100
AcDbEntity
  8
Geo
100
AcDbLine
 10
-20.18683896251004
 20
-0.263327025553
 30
0.0
 11
-20.08683896251004
 21
-0.2592931113858938
 31
0.0
  0
LINE
  5
F10589
330
261
100
AcDbEntity
  8
Geo
100
AcDbLine
 10
-20.08683896251004
 20
-0.2592931113858938
 30
0.0
 11
-19.98683896251005
 21
-0.2550903984319
 31
0.0
  0
LINE
  5
F1058B
330
261
100
AcDbEntity
  8
Geo
100
AcDbLine
 10
-19.98683896251005
 20
-0.2550903984319
 30
0.0
 11
-19.88683896251004
 21
-0.2507154547656967
 31
0.0
  0
LINE
  5
F1058D
330
261
100
AcDbEntity
  8
Geo
100
AcDbLine
 10
-19.88683896251004
 20
-0.2507154547656967
 30
0.0
 11
-19.78683896251004
 21
-0.246164751748001
 31
0.0
  0
LINE
  5
F1058F
330
261
100
AcDbEntity
  8
Geo
100
AcDbLine
 10
-19.78683896251004
 20
-0.246164751748001
 30
0.0
 11
-19.68683896251004
 21
-0.2414346653646966
 31
0.0
  0
LINE
  5
F10591
330
261
100
AcDbEntity
  8
Geo
100
AcDbLine
 10
-19.68683896251004
 20
-0.2414346653646966
 30
0.0
 11
-19.58683896251004
 21
-0.2365214776309976
 31
0.0
  0
LINE
  5
F10593
330
261
100
AcDbEntity
  8
Geo
100
AcDbLine
 10
-19.58683896251004
 20
-0.2365214776309976
 30
0.0
 11
-19.48683896251005
 21
-0.2314213780623966
 31
0.0
  0
LINE
  5
F10595
330
261
100
AcDbEntity
  8
Geo
100
AcDbLine
 10
-19.48683896251005
 20
-0.2314213780623966
 30
0.0
 11
-19.38683896251004
 21
-0.2261304652155935
 31
0.0
  0
LINE
  5
F10597
330
261
100
AcDbEntity
  8
Geo
100
AcDbLine
 10
-19.38683896251004
 20
-0.2261304652155935
 30
0.0
 11
-19.28683896251004
 21
-0.2206447482998008
 31
0.0
  0
LINE
  5
F10599
330
261
100
AcDbEntity
  8
Geo
100
AcDbLine
 10
-19.28683896251004
 20
-0.2206447482998008
 30
0.0
 11
-19.18683896251003
 21
-0.2149601488622999
 31
0.0
  0
LINE
  5
F1059B
330
261
100
AcDbEntity
  8
Geo
100
AcDbLine
 10
-19.18683896251003
 20
-0.2149601488622999
 30
0.0
 11
-19.08683896251004
 21
-0.2090725025497981
 31
0.0
  0
LINE
  5
F1059D
330
261
100
AcDbEntity
  8
Geo
100
AcDbLine
 10
-19.08683896251004
 20
-0.2090725025497981
 30
0.0
 11
-18.98683896251005
 21
-0.2029775609475948
 31
0.0
  0
LINE
  5
F1059F
330
261
100
AcDbEntity
  8
Geo
100
AcDbLine
 10
-18.98683896251005
 20
-0.2029775609475948
 30
0.0
 11
-18.88683896251004
 21
-0.1966709934986994
 31
0.0
  0
LINE
  5
F105A1
330
261
100
AcDbEntity
  8
Geo
100
AcDbLine
 10
-18.88683896251004
 20
-0.1966709934986994
 30
0.0
 11
-18.78683896251004
 21
-0.1901483895065929
 31
0.0
  0
LINE
  5
F105A3
330
261
100
AcDbEntity
  8
Geo
100
AcDbLine
 10
-18.78683896251004
 20
-0.1901483895065929
 30
0.0
 11
-18.68683896251004
 21
-0.1834052602220986
 31
0.0
  0
LINE
  5
F105A5
330
261
100
AcDbEntity
  8
Geo
100
AcDbLine
 10
-18.68683896251004
 20
-0.1834052602220986
 30
0.0
 11
-18.58683896251004
 21
-0.1764370410177989
 31
0.0
  0
LINE
  5
F105A7
330
261
100
AcDbEntity
  8
Geo
100
AcDbLine
 10
-18.58683896251004
 20
-0.1764370410177989
 30
0.0
 11
-18.48683896251005
 21
-0.1692390936530934
 31
0.0
  0
LINE
  5
F105A9
330
261
100
AcDbEntity
  8
Geo
100
AcDbLine
 10
-18.48683896251005
 20
-0.1692390936530934
 30
0.0
 11
-18.38683896251004
 21
-0.1618067086298005
 31
0.0
  0
LINE
  5
F105AB
330
261
100
AcDbEntity
  8
Geo
100
AcDbLine
 10
-18.38683896251004
 20
-0.1618067086298005
 30
0.0
 11
-18.28683896251004
 21
-0.1541351076443966
 31
0.0
  0
LINE
  5
F105AD
330
261
100
AcDbEntity
  8
Geo
100
AcDbLine
 10
-18.28683896251004
 20
-0.1541351076443966
 30
0.0
 11
-18.18683896251004
 21
-0.1462194461357988
 31
0.0
  0
LINE
  5
F105AF
330
261
100
AcDbEntity
  8
Geo
100
AcDbLine
 10
-18.18683896251004
 20
-0.1462194461357988
 30
0.0
 11
-18.08683896251004
 21
-0.1380548159333017
 31
0.0
  0
LINE
  5
F105B1
330
261
100
AcDbEntity
  8
Geo
100
AcDbLine
 10
-18.08683896251004
 20
-0.1380548159333017
 30
0.0
 11
-18.08683896251004
 21
-0.1380548159333017
 31
0.0
  0
LINE
  5
F105B3
330
261
100
AcDbEntity
  8
Geo
100
AcDbLine
 10
-33.58683896251005
 20
3.402803778999402
 30
0.0
 11
-33.48683896251005
 21
3.395865692736499
 31
0.0
  0
LINE
  5
F105B5
330
261
100
AcDbEntity
  8
Geo
100
AcDbLine
 10
-33.58683896251005
 20
0.0290196863287022
 30
0.0
 11
-33.48683896251005
 21
-0.0699772017248961
 31
0.0
  0
LINE
  5
F105B7
330
261
100
AcDbEntity
  8
Geo
100
AcDbLine
 10
-33.48683896251005
 20
3.395865692736499
 30
0.0
 11
-33.38683896251004
 21
3.341804028992804
 31
0.0
  0
LINE
  5
F105B9
330
261
100
AcDbEntity
  8
Geo
100
AcDbLine
 10
-33.48683896251005
 20
-0.0699772017248961
 30
0.0
 11
-33.38683896251004
 21
-0.1092310609239959
 31
0.0
  0
LINE
  5
F105BB
330
261
100
AcDbEntity
  8
Geo
100
AcDbLine
 10
-33.38683896251004
 20
3.341804028992804
 30
0.0
 11
-33.28683896251005
 21
3.286703086838901
 31
0.0
  0
LINE
  5
F105BD
330
261
100
AcDbEntity
  8
Geo
100
AcDbLine
 10
-33.38683896251004
 20
-0.1092310609239959
 30
0.0
 11
-33.28683896251005
 21
-0.1470122086370971
 31
0.0
  0
LINE
  5
F105BF
330
261
100
AcDbEntity
  8
Geo
100
AcDbLine
 10
-33.28683896251005
 20
3.286703086838901
 30
0.0
 11
-33.18683896251004
 21
3.230602973954603
 31
0.0
  0
LINE
  5
F105C1
330
261
100
AcDbEntity
  8
Geo
100
AcDbLine
 10
-33.28683896251005
 20
-0.1470122086370971
 30
0.0
 11
-33.18683896251004
 21
-0.1832931441697987
 31
0.0
  0
LINE
  5
F105C3
330
261
100
AcDbEntity
  8
Geo
100
AcDbLine
 10
-33.18683896251004
 20
3.230602973954603
 30
0.0
 11
-33.08683896251004
 21
3.1735445253105
 31
0.0
  0
LINE
  5
F105C5
330
261
100
AcDbEntity
  8
Geo
100
AcDbLine
 10
-33.18683896251004
 20
-0.1832931441697987
 30
0.0
 11
-33.08683896251004
 21
-0.218047458823996
 31
0.0
  0
LINE
  5
F105C7
330
261
100
AcDbEntity
  8
Geo
100
AcDbLine
 10
-33.08683896251004
 20
3.1735445253105
 30
0.0
 11
-32.98683896251005
 21
3.115569273444698
 31
0.0
  0
LINE
  5
F105C9
330
261
100
AcDbEntity
  8
Geo
100
AcDbLine
 10
-33.08683896251004
 20
-0.218047458823996
 30
0.0
 11
-32.98683896251005
 21
-0.2512498551209994
 31
0.0
  0
LINE
  5
F105CB
330
261
100
AcDbEntity
  8
Geo
100
AcDbLine
 10
-32.98683896251005
 20
3.115569273444698
 30
0.0
 11
-32.88683896251004
 21
3.056719418231605
 31
0.0
  0
LINE
  5
F105CD
330
261
100
AcDbEntity
  8
Geo
100
AcDbLine
 10
-32.98683896251005
 20
-0.2512498551209994
 30
0.0
 11
-32.88683896251004
 21
-0.2828761652147982
 31
0.0
  0
LINE
  5
F105CF
330
261
100
AcDbEntity
  8
Geo
100
AcDbLine
 10
-32.88683896251004
 20
3.056719418231605
 30
0.0
 11
-32.78683896251005
 21
2.997037796164402
 31
0.0
  0
LINE
  5
F105D1
330
261
100
AcDbEntity
  8
Geo
100
AcDbLine
 10
-32.88683896251004
 20
-0.2828761652147982
 30
0.0
 11
-32.78683896251005
 21
-0.3129033684843989
 31
0.0
  0
LINE
  5
F105D3
330
261
100
AcDbEntity
  8
Geo
100
AcDbLine
 10
-32.78683896251005
 20
2.997037796164402
 30
0.0
 11
-32.68683896251004
 21
2.936567849175105
 31
0.0
  0
LINE
  5
F105D5
330
261
100
AcDbEntity
  8
Geo
100
AcDbLine
 10
-32.78683896251005
 20
-0.3129033684843989
 30
0.0
 11
-32.68683896251004
 21
-0.3413096082896949
 31
0.0
  0
LINE
  5
F105D7
330
261
100
AcDbEntity
  8
Geo
100
AcDbLine
 10
-32.68683896251004
 20
2.936567849175105
 30
0.0
 11
-32.58683896251004
 21
2.875353593013304
 31
0.0
  0
LINE
  5
F105D9
330
261
100
AcDbEntity
  8
Geo
100
AcDbLine
 10
-32.68683896251004
 20
-0.3413096082896949
 30
0.0
 11
-32.58683896251004
 21
-0.3680742078815946
 31
0.0
  0
LINE
  5
F105DB
330
261
100
AcDbEntity
  8
Geo
100
AcDbLine
 10
-32.58683896251004
 20
2.875353593013304
 30
0.0
 11
-32.48683896251005
 21
2.813439585207003
 31
0.0
  0
LINE
  5
F105DD
330
261
100
AcDbEntity
  8
Geo
100
AcDbLine
 10
-32.58683896251004
 20
-0.3680742078815946
 30
0.0
 11
-32.48683896251005
 21
-0.3931776854517999
 31
0.0
  0
LINE
  5
F105DF
330
261
100
AcDbEntity
  8
Geo
100
AcDbLine
 10
-32.48683896251005
 20
2.813439585207003
 30
0.0
 11
-32.38683896251004
 21
2.750870892629702
 31
0.0
  0
LINE
  5
F105E1
330
261
100
AcDbEntity
  8
Geo
100
AcDbLine
 10
-32.48683896251005
 20
-0.3931776854517999
 30
0.0
 11
-32.38683896251004
 21
-0.4166017683138002
 31
0.0
  0
LINE
  5
F105E3
330
261
100
AcDbEntity
  8
Geo
100
AcDbLine
 10
-32.38683896251004
 20
2.750870892629702
 30
0.0
 11
-32.28683896251005
 21
2.687693058696503
 31
0.0
  0
LINE
  5
F105E5
330
261
100
AcDbEntity
  8
Geo
100
AcDbLine
 10
-32.38683896251004
 20
-0.4166017683138002
 30
0.0
 11
-32.28683896251005
 21
-0.438329406203696
 31
0.0
  0
LINE
  5
F105E7
330
261
100
AcDbEntity
  8
Geo
100
AcDbLine
 10
-32.28683896251005
 20
2.687693058696503
 30
0.0
 11
-32.18683896251004
 21
2.623952070213302
 31
0.0
  0
LINE
  5
F105E9
330
261
100
AcDbEntity
  8
Geo
100
AcDbLine
 10
-32.28683896251005
 20
-0.438329406203696
 30
0.0
 11
-32.18683896251004
 21
-0.4583447836905954
 31
0.0
  0
LINE
  5
F105EB
330
261
100
AcDbEntity
  8
Geo
100
AcDbLine
 10
-32.18683896251004
 20
2.623952070213302
 30
0.0
 11
-32.08683896251005
 21
2.559694323903002
 31
0.0
  0
LINE
  5
F105ED
330
261
100
AcDbEntity
  8
Geo
100
AcDbLine
 10
-32.18683896251004
 20
-0.4583447836905954
 30
0.0
 11
-32.08683896251005
 21
-0.4766333316888023
 31
0.0
  0
LINE
  5
F105EF
330
261
100
AcDbEntity
  8
Geo
100
AcDbLine
 10
-32.08683896251005
 20
2.559694323903002
 30
0.0
 11
-31.98683896251005
 21
2.494966592633804
 31
0.0
  0
LINE
  5
F105F1
330
261
100
AcDbEntity
  8
Geo
100
AcDbLine
 10
-32.08683896251005
 20
-0.4766333316888023
 30
0.0
 11
-31.98683896251005
 21
-0.4931817380624964
 31
0.0
  0
LINE
  5
F105F3
330
261
100
AcDbEntity
  8
Geo
100
AcDbLine
 10
-31.98683896251005
 20
2.494966592633804
 30
0.0
 11
-31.88683896251004
 21
2.429815991373605
 31
0.0
  0
LINE
  5
F105F5
330
261
100
AcDbEntity
  8
Geo
100
AcDbLine
 10
-31.98683896251005
 20
-0.4931817380624964
 30
0.0
 11
-31.88683896251004
 21
-0.5079779573155925
 31
0.0
  0
LINE
  5
F105F7
330
261
100
AcDbEntity
  8
Geo
100
AcDbLine
 10
-31.88683896251004
 20
2.429815991373605
 30
0.0
 11
-31.78683896251005
 21
2.3642899428947
 31
0.0
  0
LINE
  5
F105F9
330
261
100
AcDbEntity
  8
Geo
100
AcDbLine
 10
-31.88683896251004
 20
-0.5079779573155925
 30
0.0
 11
-31.78683896251005
 21
-0.5210112193595933
 31
0.0
  0
LINE
  5
F105FB
330
261
100
AcDbEntity
  8
Geo
100
AcDbLine
 10
-31.78683896251005
 20
2.3642899428947
 30
0.0
 11
-31.68683896251004
 21
2.298436143255806
 31
0.0
  0
LINE
  5
F105FD
330
261
100
AcDbEntity
  8
Geo
100
AcDbLine
 10
-31.78683896251005
 20
-0.5210112193595933
 30
0.0
 11
-31.68683896251004
 21
-0.5322720373530956
 31
0.0
  0
LINE
  5
F105FF
330
261
100
AcDbEntity
  8
Geo
100
AcDbLine
 10
-31.68683896251004
 20
2.298436143255806
 30
0.0
 11
-31.58683896251004
 21
2.232302527083799
 31
0.0
  0
LINE
  5
F10601
330
261
100
AcDbEntity
  8
Geo
100
AcDbLine
 10
-31.68683896251004
 20
-0.5322720373530956
 30
0.0
 11
-31.58683896251004
 21
-0.5417522146071967
 31
0.0
  0
LINE
  5
F10603
330
261
100
AcDbEntity
  8
Geo
100
AcDbLine
 10
-31.58683896251004
 20
2.232302527083799
 30
0.0
 11
-31.48683896251005
 21
2.165937232682402
 31
0.0
  0
LINE
  5
F10605
330
261
100
AcDbEntity
  8
Geo
100
AcDbLine
 10
-31.58683896251004
 20
-0.5417522146071967
 30
0.0
 11
-31.48683896251005
 21
-0.5494448505518968
 31
0.0
  0
LINE
  5
F10607
330
261
100
AcDbEntity
  8
Geo
100
AcDbLine
 10
-31.48683896251005
 20
2.165937232682402
 30
0.0
 11
-31.38683896251004
 21
2.0993885669928
 31
0.0
  0
LINE
  5
F10609
330
261
100
AcDbEntity
  8
Geo
100
AcDbLine
 10
-31.48683896251005
 20
-0.5494448505518968
 30
0.0
 11
-31.38683896251004
 21
-0.5553443457587975
 31
0.0
  0
LINE
  5
F1060B
330
261
100
AcDbEntity
  8
Geo
100
AcDbLine
 10
-31.38683896251004
 20
2.0993885669928
 30
0.0
 11
-31.28683896251005
 21
2.032704970431201
 31
0.0
  0
LINE
  5
F1060D
330
261
100
AcDbEntity
  8
Geo
100
AcDbLine
 10
-31.38683896251004
 20
-0.5553443457587975
 30
0.0
 11
-31.28683896251005
 21
-0.559446406017095
 31
0.0
  0
LINE
  5
F1060F
330
261
100
AcDbEntity
  8
Geo
100
AcDbLine
 10
-31.28683896251005
 20
2.032704970431201
 30
0.0
 11
-31.18683896251004
 21
1.965934981629004
 31
0.0
  0
LINE
  5
F10611
330
261
100
AcDbEntity
  8
Geo
100
AcDbLine
 10
-31.28683896251005
 20
-0.559446406017095
 30
0.0
 11
-31.18683896251004
 21
-0.5617480454590016
 31
0.0
  0
LINE
  5
F10613
330
261
100
AcDbEntity
  8
Geo
100
AcDbLine
 10
-31.18683896251004
 20
1.965934981629004
 30
0.0
 11
-31.08683896251005
 21
1.899127202102402
 31
0.0
  0
LINE
  5
F10615
330
261
100
AcDbEntity
  8
Geo
100
AcDbLine
 10
-31.08683896251005
 20
1.899127202102402
 30
0.0
 11
-30.98683896251005
 21
1.832330260875
 31
0.0
  0
LINE
  5
F10617
330
261
100
AcDbEntity
  8
Geo
100
AcDbLine
 10
-31.08683896251005
 20
4.390281850746102
 30
0.0
 11
-30.98683896251005
 21
4.388978934238604
 31
0.0
  0
LINE
  5
F10619
330
261
100
AcDbEntity
  8
Geo
100
AcDbLine
 10
-30.98683896251005
 20
1.832330260875
 30
0.0
 11
-30.88683896251004
 21
1.765592779081405
 31
0.0
  0
LINE
  5
F1061B
330
261
100
AcDbEntity
  8
Geo
100
AcDbLine
 10
-30.98683896251005
 20
4.388978934238604
 30
0.0
 11
-30.88683896251004
 21
4.385874506334904
 31
0.0
  0
LINE
  5
F1061D
330
261
100
AcDbEntity
  8
Geo
100
AcDbLine
 10
-30.88683896251004
 20
1.765592779081405
 30
0.0
 11
-30.78683896251005
 21
1.698963334575999
 31
0.0
  0
LINE
  5
F1061F
330
261
100
AcDbEntity
  8
Geo
100
AcDbLine
 10
-30.88683896251004
 20
4.385874506334904
 30
0.0
 11
-30.78683896251005
 21
4.380970826731402
 31
0.0
  0
LINE
  5
F10621
330
261
100
AcDbEntity
  8
Geo
100
AcDbLine
 10
-30.78683896251005
 20
1.698963334575999
 30
0.0
 11
-30.68683896251004
 21
1.632490426573198
 31
0.0
  0
LINE
  5
F10623
330
261
100
AcDbEntity
  8
Geo
100
AcDbLine
 10
-30.78683896251005
 20
4.380970826731402
 30
0.0
 11
-30.68683896251004
 21
4.374271464789998
 31
0.0
  0
LINE
  5
F10625
330
261
100
AcDbEntity
  8
Geo
100
AcDbLine
 10
-30.68683896251004
 20
1.632490426573198
 30
0.0
 11
-30.58683896251004
 21
1.566222440345701
 31
0.0
  0
LINE
  5
F10627
330
261
100
AcDbEntity
  8
Geo
100
AcDbLine
 10
-30.68683896251004
 20
4.374271464789998
 30
0.0
 11
-30.58683896251004
 21
4.3657812969405
 31
0.0
  0
LINE
  5
F10629
330
261
100
AcDbEntity
  8
Geo
100
AcDbLine
 10
-30.58683896251004
 20
1.566222440345701
 30
0.0
 11
-30.48683896251005
 21
1.500207612004501
 31
0.0
  0
LINE
  5
F1062B
330
261
100
AcDbEntity
  8
Geo
100
AcDbLine
 10
-30.58683896251004
 20
4.3657812969405
 30
0.0
 11
-30.48683896251005
 21
4.3555065031303
 31
0.0
  0
LINE
  5
F1062D
330
261
100
AcDbEntity
  8
Geo
100
AcDbLine
 10
-30.48683896251005
 20
1.500207612004501
 30
0.0
 11
-30.38683896251004
 21
1.434493993388404
 31
0.0
  0
LINE
  5
F1062F
330
261
100
AcDbEntity
  8
Geo
100
AcDbLine
 10
-30.48683896251005
 20
4.3555065031303
 30
0.0
 11
-30.38683896251004
 21
4.343454562326503
 31
0.0
  0
LINE
  5
F10631
330
261
100
AcDbEntity
  8
Geo
100
AcDbLine
 10
-30.38683896251004
 20
1.434493993388404
 30
0.0
 11
-30.28683896251005
 21
1.369129417087201
 31
0.0
  0
LINE
  5
F10633
330
261
100
AcDbEntity
  8
Geo
100
AcDbLine
 10
-30.38683896251004
 20
4.343454562326503
 30
0.0
 11
-30.28683896251005
 21
4.329634247072199
 31
0.0
  0
LINE
  5
F10635
330
261
100
AcDbEntity
  8
Geo
100
AcDbLine
 10
-30.28683896251005
 20
1.369129417087201
 30
0.0
 11
-30.18683896251004
 21
1.304161461624801
 31
0.0
  0
LINE
  5
F10637
330
261
100
AcDbEntity
  8
Geo
100
AcDbLine
 10
-30.28683896251005
 20
4.329634247072199
 30
0.0
 11
-30.18683896251004
 21
4.314055617100603
 31
0.0
  0
LINE
  5
F10639
330
261
100
AcDbEntity
  8
Geo
100
AcDbLine
 10
-30.18683896251004
 20
1.304161461624801
 30
0.0
 11
-30.08683896251004
 21
1.239637416826806
 31
0.0
  0
LINE
  5
F1063B
330
261
100
AcDbEntity
  8
Geo
100
AcDbLine
 10
-30.18683896251004
 20
4.314055617100603
 30
0.0
 11
-30.08683896251004
 21
4.296730012012698
 31
0.0
  0
LINE
  5
F1063D
330
261
100
AcDbEntity
  8
Geo
100
AcDbLine
 10
-30.08683896251004
 20
1.239637416826806
 30
0.0
 11
-29.98683896251005
 21
1.175604249398602
 31
0.0
  0
LINE
  5
F1063F
330
261
100
AcDbEntity
  8
Geo
100
AcDbLine
 10
-30.08683896251004
 20
4.296730012012698
 30
0.0
 11
-29.98683896251005
 21
4.277670043023302
 31
0.0
  0
LINE
  5
F10641
330
261
100
AcDbEntity
  8
Geo
100
AcDbLine
 10
-29.98683896251005
 20
1.175604249398602
 30
0.0
 11
-29.88683896251004
 21
1.112108568738801
 31
0.0
  0
LINE
  5
F10643
330
261
100
AcDbEntity
  8
Geo
100
AcDbLine
 10
-29.98683896251005
 20
4.277670043023302
 30
0.0
 11
-29.88683896251004
 21
4.256889583781504
 31
0.0
  0
LINE
  5
F10645
330
261
100
AcDbEntity
  8
Geo
100
AcDbLine
 10
-29.88683896251004
 20
1.112108568738801
 30
0.0
 11
-29.78683896251005
 21
1.049196593012002
 31
0.0
  0
LINE
  5
F10647
330
261
100
AcDbEntity
  8
Geo
100
AcDbLine
 10
-29.88683896251004
 20
4.256889583781504
 30
0.0
 11
-29.78683896251005
 21
4.234403760271799
 31
0.0
  0
LINE
  5
F10649
330
261
100
AcDbEntity
  8
Geo
100
AcDbLine
 10
-29.78683896251005
 20
1.049196593012002
 30
0.0
 11
-29.68683896251004
 21
0.9869141155072007
 31
0.0
  0
LINE
  5
F1064B
330
261
100
AcDbEntity
  8
Geo
100
AcDbLine
 10
-29.78683896251005
 20
4.234403760271799
 30
0.0
 11
-29.68683896251004
 21
4.210228939804306
 31
0.0
  0
LINE
  5
F1064D
330
261
100
AcDbEntity
  8
Geo
100
AcDbLine
 10
-29.68683896251004
 20
0.9869141155072007
 30
0.0
 11
-29.58683896251005
 21
0.9253064713053014
 31
0.0
  0
LINE
  5
F1064F
330
261
100
AcDbEntity
  8
Geo
100
AcDbLine
 10
-29.68683896251004
 20
4.210228939804306
 30
0.0
 11
-29.58683896251005
 21
4.184382719101002
 31
0.0
  0
LINE
  5
F10651
330
261
100
AcDbEntity
  8
Geo
100
AcDbLine
 10
-29.58683896251005
 20
0.9253064713053014
 30
0.0
 11
-29.48683896251005
 21
0.8644185042792038
 31
0.0
  0
LINE
  5
F10653
330
261
100
AcDbEntity
  8
Geo
100
AcDbLine
 10
-29.58683896251005
 20
4.184382719101002
 30
0.0
 11
-29.48683896251005
 21
4.156883911486904
 31
0.0
  0
LINE
  5
F10655
330
261
100
AcDbEntity
  8
Geo
100
AcDbLine
 10
-29.48683896251005
 20
0.8644185042792038
 30
0.0
 11
-29.38683896251004
 21
0.8042945344531062
 31
0.0
  0
LINE
  5
F10657
330
261
100
AcDbEntity
  8
Geo
100
AcDbLine
 10
-29.48683896251005
 20
4.156883911486904
 30
0.0
 11
-29.38683896251004
 21
4.127752533196403
 31
0.0
  0
LINE
  5
F10659
330
261
100
AcDbEntity
  8
Geo
100
AcDbLine
 10
-29.38683896251004
 20
0.8042945344531062
 30
0.0
 11
-29.28683896251005
 21
0.7449783257413039
 31
0.0
  0
LINE
  5
F1065B
330
261
100
AcDbEntity
  8
Geo
100
AcDbLine
 10
-29.38683896251004
 20
4.127752533196403
 30
0.0
 11
-29.28683896251005
 21
4.097009788803305
 31
0.0
  0
LINE
  5
F1065D
330
261
100
AcDbEntity
  8
Geo
100
AcDbLine
 10
-29.28683896251005
 20
0.7449783257413039
 30
0.0
 11
-29.18683896251004
 21
0.6865130540935028
 31
0.0
  0
LINE
  5
F1065F
330
261
100
AcDbEntity
  8
Geo
100
AcDbLine
 10
-29.28683896251005
 20
4.097009788803305
 30
0.0
 11
-29.18683896251004
 21
4.064678055785801
 31
0.0
  0
LINE
  5
F10661
330
261
100
AcDbEntity
  8
Geo
100
AcDbLine
 10
-29.18683896251004
 20
0.6865130540935028
 30
0.0
 11
-29.08683896251004
 21
0.6289412760668043
 31
0.0
  0
LINE
  5
F10663
330
261
100
AcDbEntity
  8
Geo
100
AcDbLine
 10
-29.18683896251004
 20
4.064678055785801
 30
0.0
 11
-29.08683896251004
 21
4.030780868238799
 31
0.0
  0
LINE
  5
F10665
330
261
100
AcDbEntity
  8
Geo
100
AcDbLine
 10
-29.08683896251004
 20
0.6289412760668043
 30
0.0
 11
-28.98683896251005
 21
0.5723048978489054
 31
0.0
  0
LINE
  5
F10667
330
261
100
AcDbEntity
  8
Geo
100
AcDbLine
 10
-29.08683896251004
 20
4.030780868238799
 30
0.0
 11
-28.98683896251005
 21
3.995342899742801
 31
0.0
  0
LINE
  5
F10669
330
261
100
AcDbEntity
  8
Geo
100
AcDbLine
 10
-28.98683896251005
 20
0.5723048978489054
 30
0.0
 11
-28.88683896251004
 21
0.5166451447551986
 31
0.0
  0
LINE
  5
F1066B
330
261
100
AcDbEntity
  8
Geo
100
AcDbLine
 10
-28.98683896251005
 20
3.995342899742801
 30
0.0
 11
-28.88683896251004
 21
3.9583899454048
 31
0.0
  0
LINE
  5
F1066D
330
261
100
AcDbEntity
  8
Geo
100
AcDbLine
 10
-28.88683896251004
 20
0.5166451447551986
 30
0.0
 11
-28.78683896251004
 21
0.4620025312209038
 31
0.0
  0
LINE
  5
F1066F
330
261
100
AcDbEntity
  8
Geo
100
AcDbLine
 10
-28.88683896251004
 20
3.9583899454048
 30
0.0
 11
-28.78683896251004
 21
3.9199489030815
 31
0.0
  0
LINE
  5
F10671
330
261
100
AcDbEntity
  8
Geo
100
AcDbLine
 10
-28.78683896251004
 20
0.4620025312209038
 30
0.0
 11
-28.68683896251004
 21
0.4084168313106034
 31
0.0
  0
LINE
  5
F10673
330
261
100
AcDbEntity
  8
Geo
100
AcDbLine
 10
-28.78683896251004
 20
3.9199489030815
 30
0.0
 11
-28.68683896251004
 21
3.8800477538012
 31
0.0
  0
LINE
  5
F10675
330
261
100
AcDbEntity
  8
Geo
100
AcDbLine
 10
-28.68683896251004
 20
0.4084168313106034
 30
0.0
 11
-28.58683896251005
 21
0.3559270497675016
 31
0.0
  0
LINE
  5
F10677
330
261
100
AcDbEntity
  8
Geo
100
AcDbLine
 10
-28.68683896251004
 20
3.8800477538012
 30
0.0
 11
-28.58683896251005
 21
3.838715541395906
 31
0.0
  0
LINE
  5
F10679
330
261
100
AcDbEntity
  8
Geo
100
AcDbLine
 10
-28.58683896251005
 20
0.3559270497675016
 30
0.0
 11
-28.48683896251005
 21
0.3045713936214049
 31
0.0
  0
LINE
  5
F1067B
330
261
100
AcDbEntity
  8
Geo
100
AcDbLine
 10
-28.58683896251005
 20
3.838715541395906
 30
0.0
 11
-28.48683896251005
 21
3.795982351361001
 31
0.0
  0
LINE
  5
F1067D
330
261
100
AcDbEntity
  8
Geo
100
AcDbLine
 10
-28.48683896251005
 20
0.3045713936214049
 30
0.0
 11
-28.38683896251004
 21
0.2543872443784032
 31
0.0
  0
LINE
  5
F1067F
330
261
100
AcDbEntity
  8
Geo
100
AcDbLine
 10
-28.48683896251005
 20
3.795982351361001
 30
0.0
 11
-28.38683896251004
 21
3.751879288955702
 31
0.0
  0
LINE
  5
F10681
330
261
100
AcDbEntity
  8
Geo
100
AcDbLine
 10
-28.38683896251004
 20
0.2543872443784032
 30
0.0
 11
-28.28683896251005
 21
0.205411130811104
 31
0.0
  0
LINE
  5
F10683
330
261
100
AcDbEntity
  8
Geo
100
AcDbLine
 10
-28.38683896251004
 20
3.751879288955702
 30
0.0
 11
-28.28683896251005
 21
3.706438456562302
 31
0.0
  0
LINE
  5
F10685
330
261
100
AcDbEntity
  8
Geo
100
AcDbLine
 10
-28.28683896251005
 20
0.205411130811104
 30
0.0
 11
-28.18683896251004
 21
0.1576787023694024
 31
0.0
  0
LINE
  5
F10687
330
261
100
AcDbEntity
  8
Geo
100
AcDbLine
 10
-28.28683896251005
 20
3.706438456562302
 30
0.0
 11
-28.18683896251004
 21
3.659692930318502
 31
0.0
  0
LINE
  5
F10689
330
261
100
AcDbEntity
  8
Geo
100
AcDbLine
 10
-28.18683896251004
 20
0.1576787023694024
 30
0.0
 11
-28.08683896251004
 21
0.1112247032314038
 31
0.0
  0
LINE
  5
F1068B
330
261
100
AcDbEntity
  8
Geo
100
AcDbLine
 10
-28.18683896251004
 20
3.659692930318502
 30
0.0
 11
-28.08683896251004
 21
3.611676736041502
 31
0.0
  0
LINE
  5
F1068D
330
261
100
AcDbEntity
  8
Geo
100
AcDbLine
 10
-28.08683896251004
 20
0.1112247032314038
 30
0.0
 11
-27.98683896251005
 21
0.0660829470134061
 31
0.0
  0
LINE
  5
F1068F
330
261
100
AcDbEntity
  8
Geo
100
AcDbLine
 10
-28.08683896251004
 20
3.611676736041502
 30
0.0
 11
-27.98683896251005
 21
3.562424824461199
 31
0.0
  0
LINE
  5
F10691
330
261
100
AcDbEntity
  8
Geo
100
AcDbLine
 10
-27.98683896251005
 20
0.0660829470134061
 30
0.0
 11
-27.88683896251004
 21
0.022286292157105
 31
0.0
  0
LINE
  5
F10693
330
261
100
AcDbEntity
  8
Geo
100
AcDbLine
 10
-27.98683896251005
 20
3.562424824461199
 30
0.0
 11
-27.88683896251004
 21
3.511973045779303
 31
0.0
  0
LINE
  5
F10695
330
261
100
AcDbEntity
  8
Geo
100
AcDbLine
 10
-27.88683896251004
 20
0.022286292157105
 30
0.0
 11
-27.78683896251005
 21
-0.0201333819875984
 31
0.0
  0
LINE
  5
F10697
330
261
100
AcDbEntity
  8
Geo
100
AcDbLine
 10
-27.88683896251004
 20
3.511973045779303
 30
0.0
 11
-27.78683896251005
 21
3.460358123574405
 31
0.0
  0
LINE
  5
F10699
330
261
100
AcDbEntity
  8
Geo
100
AcDbLine
 10
-27.78683896251005
 20
-0.0201333819875984
 30
0.0
 11
-27.68683896251004
 21
-0.0611451983678961
 31
0.0
  0
LINE
  5
F1069B
330
261
100
AcDbEntity
  8
Geo
100
AcDbLine
 10
-27.78683896251005
 20
3.460358123574405
 30
0.0
 11
-27.68683896251004
 21
3.407617628071001
 31
0.0
  0
LINE
  5
F1069D
330
261
100
AcDbEntity
  8
Geo
100
AcDbLine
 10
-27.68683896251004
 20
-0.0611451983678961
 30
0.0
 11
-27.58683896251004
 21
-0.1007193047031976
 31
0.0
  0
LINE
  5
F1069F
330
261
100
AcDbEntity
  8
Geo
100
AcDbLine
 10
-27.68683896251004
 20
3.407617628071001
 30
0.0
 11
-27.58683896251004
 21
3.353789948792403
 31
0.0
  0
LINE
  5
F106A1
330
261
100
AcDbEntity
  8
Geo
100
AcDbLine
 10
-27.58683896251004
 20
-0.1007193047031976
 30
0.0
 11
-27.48683896251005
 21
-0.1388268952139953
 31
0.0
  0
LINE
  5
F106A3
330
261
100
AcDbEntity
  8
Geo
100
AcDbLine
 10
-27.58683896251004
 20
3.353789948792403
 30
0.0
 11
-27.48683896251005
 21
3.298914266617
 31
0.0
  0
LINE
  5
F106A5
330
261
100
AcDbEntity
  8
Geo
100
AcDbLine
 10
-27.48683896251005
 20
-0.1388268952139953
 30
0.0
 11
-27.38683896251004
 21
-0.1754402315900947
 31
0.0
  0
LINE
  5
F106A7
330
261
100
AcDbEntity
  8
Geo
100
AcDbLine
 10
-27.48683896251005
 20
3.298914266617
 30
0.0
 11
-27.38683896251004
 21
3.243030525258902
 31
0.0
  0
LINE
  5
F106A9
330
261
100
AcDbEntity
  8
Geo
100
AcDbLine
 10
-27.38683896251004
 20
-0.1754402315900947
 30
0.0
 11
-27.28683896251005
 21
-0.2105326631805973
 31
0.0
  0
LINE
  5
F106AB
330
261
100
AcDbEntity
  8
Geo
100
AcDbLine
 10
-27.38683896251004
 20
3.243030525258902
 30
0.0
 11
-27.28683896251005
 21
3.186179402193303
 31
0.0
  0
LINE
  5
F106AD
330
261
100
AcDbEntity
  8
Geo
100
AcDbLine
 10
-27.28683896251005
 20
-0.2105326631805973
 30
0.0
 11
-27.18683896251004
 21
-0.244078646393195
 31
0.0
  0
LINE
  5
F106AF
330
261
100
AcDbEntity
  8
Geo
100
AcDbLine
 10
-27.28683896251005
 20
3.186179402193303
 30
0.0
 11
-27.18683896251004
 21
3.128402279047001
 31
0.0
  0
LINE
  5
F106B1
330
261
100
AcDbEntity
  8
Geo
100
AcDbLine
 10
-27.18683896251004
 20
-0.244078646393195
 30
0.0
 11
-27.08683896251005
 21
-0.276053763286896
 31
0.0
  0
LINE
  5
F106B3
330
261
100
AcDbEntity
  8
Geo
100
AcDbLine
 10
-27.18683896251004
 20
3.128402279047001
 30
0.0
 11
-27.08683896251005
 21
3.069741211477502
 31
0.0
  0
LINE
  5
F106B5
330
261
100
AcDbEntity
  8
Geo
100
AcDbLine
 10
-27.08683896251005
 20
-0.276053763286896
 30
0.0
 11
-26.98683896251005
 21
-0.3064347393460949
 31
0.0
  0
LINE
  5
F106B7
330
261
100
AcDbEntity
  8
Geo
100
AcDbLine
 10
-27.08683896251005
 20
3.069741211477502
 30
0.0
 11
-26.98683896251005
 21
3.010238898560604
 31
0.0
  0
LINE
  5
F106B9
330
261
100
AcDbEntity
  8
Geo
100
AcDbLine
 10
-26.98683896251005
 20
-0.3064347393460949
 30
0.0
 11
-26.88683896251004
 21
-0.3351994604213964
 31
0.0
  0
LINE
  5
F106BB
330
261
100
AcDbEntity
  8
Geo
100
AcDbLine
 10
-26.98683896251005
 20
3.010238898560604
 30
0.0
 11
-26.88683896251004
 21
2.949938651710198
 31
0.0
  0
LINE
  5
F106BD
330
261
100
AcDbEntity
  8
Geo
100
AcDbLine
 10
-26.88683896251004
 20
-0.3351994604213964
 30
0.0
 11
-26.78683896251005
 21
-0.3623269888270961
 31
0.0
  0
LINE
  5
F106BF
330
261
100
AcDbEntity
  8
Geo
100
AcDbLine
 10
-26.88683896251004
 20
2.949938651710198
 30
0.0
 11
-26.78683896251005
 21
2.888884363151902
 31
0.0
  0
LINE
  5
F106C1
330
261
100
AcDbEntity
  8
Geo
100
AcDbLine
 10
-26.78683896251005
 20
-0.3623269888270961
 30
0.0
 11
-26.68683896251004
 21
-0.3877975785808942
 31
0.0
  0
LINE
  5
F106C3
330
261
100
AcDbEntity
  8
Geo
100
AcDbLine
 10
-26.78683896251005
 20
2.888884363151902
 30
0.0
 11
-26.68683896251004
 21
2.827120473974304
 31
0.0
  0
LINE
  5
F106C5
330
261
100
AcDbEntity
  8
Geo
100
AcDbLine
 10
-26.68683896251004
 20
-0.3877975785808942
 30
0.0
 11
-26.58683896251004
 21
-0.4115926897774998
 31
0.0
  0
LINE
  5
F106C7
330
261
100
AcDbEntity
  8
Geo
100
AcDbLine
 10
-26.68683896251004
 20
2.827120473974304
 30
0.0
 11
-26.58683896251004
 21
2.764691941780199
 31
0.0
  0
LINE
  5
F106C9
330
261
100
AcDbEntity
  8
Geo
100
AcDbLine
 10
-26.58683896251004
 20
-0.4115926897774998
 30
0.0
 11
-26.48683896251005
 21
-0.4336950020832973
 31
0.0
  0
LINE
  5
F106CB
330
261
100
AcDbEntity
  8
Geo
100
AcDbLine
 10
-26.58683896251004
 20
2.764691941780199
 30
0.0
 11
-26.48683896251005
 21
2.701644207962903
 31
0.0
  0
LINE
  5
F106CD
330
261
100
AcDbEntity
  8
Geo
100
AcDbLine
 10
-26.48683896251005
 20
-0.4336950020832973
 30
0.0
 11
-26.38683896251004
 21
-0.4540884273438977
 31
0.0
  0
LINE
  5
F106CF
330
261
100
AcDbEntity
  8
Geo
100
AcDbLine
 10
-26.48683896251005
 20
2.701644207962903
 30
0.0
 11
-26.38683896251004
 21
2.638023164629
 31
0.0
  0
LINE
  5
F106D1
330
261
100
AcDbEntity
  8
Geo
100
AcDbLine
 10
-26.38683896251004
 20
-0.4540884273438977
 30
0.0
 11
-26.28683896251005
 21
-0.4727581212947989
 31
0.0
  0
LINE
  5
F106D3
330
261
100
AcDbEntity
  8
Geo
100
AcDbLine
 10
-26.38683896251004
 20
2.638023164629
 30
0.0
 11
-26.28683896251005
 21
2.573875121194003
 31
0.0
  0
LINE
  5
F106D5
330
261
100
AcDbEntity
  8
Geo
100
AcDbLine
 10
-26.28683896251005
 20
-0.4727581212947989
 30
0.0
 11
-26.18683896251004
 21
-0.4896904943658989
 31
0.0
  0
LINE
  5
F106D7
330
261
100
AcDbEntity
  8
Geo
100
AcDbLine
 10
-26.28683896251005
 20
2.573875121194003
 30
0.0
 11
-26.18683896251004
 21
2.509246770673904
 31
0.0
  0
LINE
  5
F106D9
330
261
100
AcDbEntity
  8
Geo
100
AcDbLine
 10
-26.18683896251004
 20
-0.4896904943658989
 30
0.0
 11
-26.08683896251005
 21
-0.5048732215739982
 31
0.0
  0
LINE
  5
F106DB
330
261
100
AcDbEntity
  8
Geo
100
AcDbLine
 10
-26.18683896251004
 20
2.509246770673904
 30
0.0
 11
-26.08683896251005
 21
2.444185155697901
 31
0.0
  0
LINE
  5
F106DD
330
261
100
AcDbEntity
  8
Geo
100
AcDbLine
 10
-26.08683896251005
 20
-0.5048732215739982
 30
0.0
 11
-25.98683896251005
 21
-0.5182952514933988
 31
0.0
  0
LINE
  5
F106DF
330
261
100
AcDbEntity
  8
Geo
100
AcDbLine
 10
-26.08683896251005
 20
2.444185155697901
 30
0.0
 11
-25.98683896251005
 21
2.378737634265803
 31
0.0
  0
LINE
  5
F106E1
330
261
100
AcDbEntity
  8
Geo
100
AcDbLine
 10
-25.98683896251005
 20
-0.5182952514933988
 30
0.0
 11
-25.88683896251004
 21
-0.5299468143008
 31
0.0
  0
LINE
  5
F106E3
330
261
100
AcDbEntity
  8
Geo
100
AcDbLine
 10
-25.98683896251005
 20
2.378737634265803
 30
0.0
 11
-25.88683896251004
 21
2.312951845276803
 31
0.0
  0
LINE
  5
F106E5
330
261
100
AcDbEntity
  8
Geo
100
AcDbLine
 10
-25.88683896251004
 20
-0.5299468143008
 30
0.0
 11
-25.78683896251005
 21
-0.5398194288861938
 31
0.0
  0
LINE
  5
F106E7
330
261
100
AcDbEntity
  8
Geo
100
AcDbLine
 10
-25.88683896251004
 20
2.312951845276803
 30
0.0
 11
-25.78683896251005
 21
2.2468756738532
 31
0.0
  0
LINE
  5
F106E9
330
261
100
AcDbEntity
  8
Geo
100
AcDbLine
 10
-25.78683896251005
 20
-0.5398194288861938
 30
0.0
 11
-25.68683896251004
 21
-0.5479059090265004
 31
0.0
  0
LINE
  5
F106EB
330
261
100
AcDbEntity
  8
Geo
100
AcDbLine
 10
-25.78683896251005
 20
2.2468756738532
 30
0.0
 11
-25.68683896251004
 21
2.180557216485002
 31
0.0
  0
LINE
  5
F106ED
330
261
100
AcDbEntity
  8
Geo
100
AcDbLine
 10
-25.68683896251004
 20
-0.5479059090265004
 30
0.0
 11
-25.58683896251004
 21
-0.554200368616197
 31
0.0
  0
LINE
  5
F106EF
330
261
100
AcDbEntity
  8
Geo
100
AcDbLine
 10
-25.68683896251004
 20
2.180557216485002
 30
0.0
 11
-25.58683896251004
 21
2.114044746020901
 31
0.0
  0
LINE
  5
F106F1
330
261
100
AcDbEntity
  8
Geo
100
AcDbLine
 10
-25.58683896251004
 20
-0.554200368616197
 30
0.0
 11
-25.48683896251005
 21
-0.5586982259520959
 31
0.0
  0
LINE
  5
F106F3
330
261
100
AcDbEntity
  8
Geo
100
AcDbLine
 10
-25.58683896251004
 20
2.114044746020901
 30
0.0
 11
-25.48683896251005
 21
2.047386676530802
 31
0.0
  0
LINE
  5
F106F5
330
261
100
AcDbEntity
  8
Geo
100
AcDbLine
 10
-25.48683896251005
 20
-0.5586982259520959
 30
0.0
 11
-25.38683896251004
 21
-0.5613962070678973
 31
0.0
  0
LINE
  5
F106F7
330
261
100
AcDbEntity
  8
Geo
100
AcDbLine
 10
-25.48683896251005
 20
2.047386676530802
 30
0.0
 11
-25.38683896251004
 21
1.980631528065199
 31
0.0
  0
LINE
  5
F106F9
330
261
100
AcDbEntity
  8
Geo
100
AcDbLine
 10
-25.38683896251004
 20
1.980631528065199
 30
0.0
 11
-25.28683896251005
 21
1.913827891338005
 31
0.0
  0
LINE
  5
F106FB
330
261
100
AcDbEntity
  8
Geo
100
AcDbLine
 10
-25.28683896251005
 20
4.390326610130198
 30
0.0
 11
-25.18683896251004
 21
4.3894202588178
 31
0.0
  0
LINE
  5
F106FD
330
261
100
AcDbEntity
  8
Geo
100
AcDbLine
 10
-25.28683896251005
 20
1.913827891338005
 30
0.0
 11
-25.18683896251004
 21
1.847024392357404
 31
0.0
  0
LINE
  5
F106FF
330
261
100
AcDbEntity
  8
Geo
100
AcDbLine
 10
-25.18683896251004
 20
4.3894202588178
 30
0.0
 11
-25.08683896251004
 21
4.386712074871404
 31
0.0
  0
LINE
  5
F10701
330
261
100
AcDbEntity
  8
Geo
100
AcDbLine
 10
-25.18683896251004
 20
1.847024392357404
 30
0.0
 11
-25.08683896251004
 21
1.780269657031201
 31
0.0
  0
LINE
  5
F10703
330
261
100
AcDbEntity
  8
Geo
100
AcDbLine
 10
-25.08683896251004
 20
4.386712074871404
 30
0.0
 11
-24.98683896251005
 21
4.382204029563503
 31
0.0
  0
LINE
  5
F10705
330
261
100
AcDbEntity
  8
Geo
100
AcDbLine
 10
-25.08683896251004
 20
1.780269657031201
 30
0.0
 11
-24.98683896251005
 21
1.713612275772504
 31
0.0
  0
LINE
  5
F10707
330
261
100
AcDbEntity
  8
Geo
100
AcDbLine
 10
-24.98683896251005
 20
4.382204029563503
 30
0.0
 11
-24.88683896251004
 21
4.375899404276101
 31
0.0
  0
LINE
  5
F10709
330
261
100
AcDbEntity
  8
Geo
100
AcDbLine
 10
-24.98683896251005
 20
1.713612275772504
 30
0.0
 11
-24.88683896251004
 21
1.647100768131
 31
0.0
  0
LINE
  5
F1070B
330
261
100
AcDbEntity
  8
Geo
100
AcDbLine
 10
-24.88683896251004
 20
4.375899404276101
 30
0.0
 11
-24.78683896251005
 21
4.367802788112104
 31
0.0
  0
LINE
  5
F1070D
330
261
100
AcDbEntity
  8
Geo
100
AcDbLine
 10
-24.88683896251004
 20
1.647100768131
 30
0.0
 11
-24.78683896251005
 21
1.580783547475604
 31
0.0
  0
LINE
  5
F1070F
330
261
100
AcDbEntity
  8
Geo
100
AcDbLine
 10
-24.78683896251005
 20
4.367802788112104
 30
0.0
 11
-24.68683896251004
 21
4.357920074554805
 31
0.0
  0
LINE
  5
F10711
330
261
100
AcDbEntity
  8
Geo
100
AcDbLine
 10
-24.78683896251005
 20
1.580783547475604
 30
0.0
 11
-24.68683896251004
 21
1.514708885754902
 31
0.0
  0
LINE
  5
F10713
330
261
100
AcDbEntity
  8
Geo
100
AcDbLine
 10
-24.68683896251004
 20
4.357920074554805
 30
0.0
 11
-24.58683896251005
 21
4.346258457178301
 31
0.0
  0
LINE
  5
F10715
330
261
100
AcDbEntity
  8
Geo
100
AcDbLine
 10
-24.68683896251004
 20
1.514708885754902
 30
0.0
 11
-24.58683896251005
 21
1.448924878360102
 31
0.0
  0
LINE
  5
F10717
330
261
100
AcDbEntity
  8
Geo
100
AcDbLine
 10
-24.58683896251005
 20
4.346258457178301
 30
0.0
 11
-24.48683896251005
 21
4.332826424411404
 31
0.0
  0
LINE
  5
F10719
330
261
100
AcDbEntity
  8
Geo
100
AcDbLine
 10
-24.58683896251005
 20
1.448924878360102
 30
0.0
 11
-24.48683896251005
 21
1.3834794091165
 31
0.0
  0
LINE
  5
F1071B
330
261
100
AcDbEntity
  8
Geo
100
AcDbLine
 10
-24.48683896251005
 20
4.332826424411404
 30
0.0
 11
-24.38683896251004
 21
4.3176337533583
 31
0.0
  0
LINE
  5
F1071D
330
261
100
AcDbEntity
  8
Geo
100
AcDbLine
 10
-24.48683896251005
 20
1.3834794091165
 30
0.0
 11
-24.38683896251004
 21
1.318420115429699
 31
0.0
  0
LINE
  5
F1071F
330
261
100
AcDbEntity
  8
Geo
100
AcDbLine
 10
-24.38683896251004
 20
4.3176337533583
 30
0.0
 11
-24.28683896251005
 21
4.300691502682802
 31
0.0
  0
LINE
  5
F10721
330
261
100
AcDbEntity
  8
Geo
100
AcDbLine
 10
-24.38683896251004
 20
1.318420115429699
 30
0.0
 11
-24.28683896251005
 21
1.253794353609698
 31
0.0
  0
LINE
  5
F10723
330
261
100
AcDbEntity
  8
Geo
100
AcDbLine
 10
-24.28683896251005
 20
4.300691502682802
 30
0.0
 11
-24.18683896251004
 21
4.282012004558104
 31
0.0
  0
LINE
  5
F10725
330
261
100
AcDbEntity
  8
Geo
100
AcDbLine
 10
-24.28683896251005
 20
1.253794353609698
 30
0.0
 11
-24.18683896251004
 21
1.189649164401405
 31
0.0
  0
LINE
  5
F10727
330
261
100
AcDbEntity
  8
Geo
100
AcDbLine
 10
-24.18683896251004
 20
4.282012004558104
 30
0.0
 11
-24.08683896251004
 21
4.261608855690401
 31
0.0
  0
LINE
  5
F10729
330
261
100
AcDbEntity
  8
Geo
100
AcDbLine
 10
-24.18683896251004
 20
1.189649164401405
 30
0.0
 11
-24.08683896251004
 21
1.126031238743305
 31
0.0
  0
LINE
  5
F1072B
330
261
100
AcDbEntity
  8
Geo
100
AcDbLine
 10
-24.08683896251004
 20
4.261608855690401
 30
0.0
 11
-23.98683896251005
 21
4.239496907422203
 31
0.0
  0
LINE
  5
F1072D
330
261
100
AcDbEntity
  8
Geo
100
AcDbLine
 10
-24.08683896251004
 20
1.126031238743305
 30
0.0
 11
-23.98683896251005
 21
1.062986883781501
 31
0.0
  0
LINE
  5
F1072F
330
261
100
AcDbEntity
  8
Geo
100
AcDbLine
 10
-23.98683896251005
 20
4.239496907422203
 30
0.0
 11
-23.88683896251004
 21
4.215692254921801
 31
0.0
  0
LINE
  5
F10731
330
261
100
AcDbEntity
  8
Geo
100
AcDbLine
 10
-23.98683896251005
 20
1.062986883781501
 30
0.0
 11
-23.88683896251004
 21
1.000561989163301
 31
0.0
  0
LINE
  5
F10733
330
261
100
AcDbEntity
  8
Geo
100
AcDbLine
 10
-23.88683896251004
 20
4.215692254921801
 30
0.0
 11
-23.78683896251005
 21
4.190212225467803
 31
0.0
  0
LINE
  5
F10735
330
261
100
AcDbEntity
  8
Geo
100
AcDbLine
 10
-23.88683896251004
 20
1.000561989163301
 30
0.0
 11
-23.78683896251005
 21
0.938801993634005
 31
0.0
  0
LINE
  5
F10737
330
261
100
AcDbEntity
  8
Geo
100
AcDbLine
 10
-23.78683896251005
 20
4.190212225467803
 30
0.0
 11
-23.68683896251004
 21
4.1630753658368
 31
0.0
  0
LINE
  5
F10739
330
261
100
AcDbEntity
  8
Geo
100
AcDbLine
 10
-23.78683896251005
 20
0.938801993634005
 30
0.0
 11
-23.68683896251004
 21
0.8777518519623015
 31
0.0
  0
LINE
  5
F1073B
330
261
100
AcDbEntity
  8
Geo
100
AcDbLine
 10
-23.68683896251004
 20
4.1630753658368
 30
0.0
 11
-23.58683896251005
 21
4.134301428803002
 31
0.0
  0
LINE
  5
F1073D
330
261
100
AcDbEntity
  8
Geo
100
AcDbLine
 10
-23.68683896251004
 20
0.8777518519623015
 30
0.0
 11
-23.58683896251005
 21
0.8174560022185026
 31
0.0
  0
LINE
  5
F1073F
330
261
100
AcDbEntity
  8
Geo
100
AcDbLine
 10
-23.58683896251005
 20
4.134301428803002
 30
0.0
 11
-23.48683896251005
 21
4.103911358760502
 31
0.0
  0
LINE
  5
F10741
330
261
100
AcDbEntity
  8
Geo
100
AcDbLine
 10
-23.58683896251005
 20
0.8174560022185026
 30
0.0
 11
-23.48683896251005
 21
0.7579583334274034
 31
0.0
  0
LINE
  5
F10743
330
261
100
AcDbEntity
  8
Geo
100
AcDbLine
 10
-23.48683896251005
 20
4.103911358760502
 30
0.0
 11
-23.38683896251004
 21
4.071927276478103
 31
0.0
  0
LINE
  5
F10745
330
261
100
AcDbEntity
  8
Geo
100
AcDbLine
 10
-23.48683896251005
 20
0.7579583334274034
 30
0.0
 11
-23.38683896251004
 21
0.6993021536224014
 31
0.0
  0
LINE
  5
F10747
330
261
100
AcDbEntity
  8
Geo
100
AcDbLine
 10
-23.38683896251004
 20
4.071927276478103
 30
0.0
 11
-23.28683896251005
 21
4.038372462997301
 31
0.0
  0
LINE
  5
F10749
330
261
100
AcDbEntity
  8
Geo
100
AcDbLine
 10
-23.38683896251004
 20
0.6993021536224014
 30
0.0
 11
-23.28683896251005
 21
0.6415301583217002
 31
0.0
  0
LINE
  5
F1074B
330
261
100
AcDbEntity
  8
Geo
100
AcDbLine
 10
-23.28683896251005
 20
4.038372462997301
 30
0.0
 11
-23.18683896251004
 21
4.003271342686602
 31
0.0
  0
LINE
  5
F1074D
330
261
100
AcDbEntity
  8
Geo
100
AcDbLine
 10
-23.28683896251005
 20
0.6415301583217002
 30
0.0
 11
-23.18683896251004
 21
0.5846843994500013
 31
0.0
  0
LINE
  5
F1074F
330
261
100
AcDbEntity
  8
Geo
100
AcDbLine
 10
-23.18683896251004
 20
4.003271342686602
 30
0.0
 11
-23.08683896251004
 21
3.966649465462801
 31
0.0
  0
LINE
  5
F10751
330
261
100
AcDbEntity
  8
Geo
100
AcDbLine
 10
-23.18683896251004
 20
0.5846843994500013
 30
0.0
 11
-23.08683896251004
 21
0.5288062547299042
 31
0.0
  0
LINE
  5
F10753
330
261
100
AcDbEntity
  8
Geo
100
AcDbLine
 10
-23.08683896251004
 20
3.966649465462801
 30
0.0
 11
-22.98683896251005
 21
3.928533488193501
 31
0.0
  0
LINE
  5
F10755
330
261
100
AcDbEntity
  8
Geo
100
AcDbLine
 10
-23.08683896251004
 20
0.5288062547299042
 30
0.0
 11
-22.98683896251005
 21
0.473936397562504
 31
0.0
  0
LINE
  5
F10757
330
261
100
AcDbEntity
  8
Geo
100
AcDbLine
 10
-22.98683896251005
 20
3.928533488193501
 30
0.0
 11
-22.88683896251004
 21
3.888951155293803
 31
0.0
  0
LINE
  5
F10759
330
261
100
AcDbEntity
  8
Geo
100
AcDbLine
 10
-22.98683896251005
 20
0.473936397562504
 30
0.0
 11
-22.88683896251004
 21
0.4201147674221027
 31
0.0
  0
LINE
  5
F1075B
330
261
100
AcDbEntity
  8
Geo
100
AcDbLine
 10
-22.88683896251004
 20
3.888951155293803
 30
0.0
 11
-22.78683896251004
 21
3.847931278531
 31
0.0
  0
LINE
  5
F1075D
330
261
100
AcDbEntity
  8
Geo
100
AcDbLine
 10
-22.88683896251004
 20
0.4201147674221027
 30
0.0
 11
-22.78683896251004
 21
0.3673805407839055
 31
0.0
  0
LINE
  5
F1075F
330
261
100
AcDbEntity
  8
Geo
100
AcDbLine
 10
-22.78683896251004
 20
3.847931278531
 30
0.0
 11
-22.68683896251004
 21
3.805503716053003
 31
0.0
  0
LINE
  5
F10761
330
261
100
AcDbEntity
  8
Geo
100
AcDbLine
 10
-22.78683896251004
 20
0.3673805407839055
 30
0.0
 11
-22.68683896251004
 21
0.3157721026082036
 31
0.0
  0
LINE
  5
F10763
330
261
100
AcDbEntity
  8
Geo
100
AcDbLine
 10
-22.68683896251004
 20
3.805503716053003
 30
0.0
 11
-22.58683896251004
 21
3.761699350654499
 31
0.0
  0
LINE
  5
F10765
330
261
100
AcDbEntity
  8
Geo
100
AcDbLine
 10
-22.68683896251004
 20
0.3157721026082036
 30
0.0
 11
-22.58683896251004
 21
0.2653270183996987
 31
0.0
  0
LINE
  5
F10767
330
261
100
AcDbEntity
  8
Geo
100
AcDbLine
 10
-22.58683896251004
 20
3.761699350654499
 30
0.0
 11
-22.48683896251005
 21
3.716550067297799
 31
0.0
  0
LINE
  5
F10769
330
261
100
AcDbEntity
  8
Geo
100
AcDbLine
 10
-22.58683896251004
 20
0.2653270183996987
 30
0.0
 11
-22.48683896251005
 21
0.2160820068642018
 31
0.0
  0
LINE
  5
F1076B
330
261
100
AcDbEntity
  8
Geo
100
AcDbLine
 10
-22.48683896251005
 20
3.716550067297799
 30
0.0
 11
-22.38683896251004
 21
3.6700887299035
 31
0.0
  0
LINE
  5
F1076D
330
261
100
AcDbEntity
  8
Geo
100
AcDbLine
 10
-22.48683896251005
 20
0.2160820068642018
 30
0.0
 11
-22.38683896251004
 21
0.1680729131809038
 31
0.0
  0
LINE
  5
F1076F
330
261
100
AcDbEntity
  8
Geo
100
AcDbLine
 10
-22.38683896251004
 20
3.6700887299035
 30
0.0
 11
-22.28683896251005
 21
3.622349157429301
 31
0.0
  0
LINE
  5
F10771
330
261
100
AcDbEntity
  8
Geo
100
AcDbLine
 10
-22.38683896251004
 20
0.1680729131809038
 30
0.0
 11
-22.28683896251005
 21
0.1213346829112005
 31
0.0
  0
LINE
  5
F10773
330
261
100
AcDbEntity
  8
Geo
100
AcDbLine
 10
-22.28683896251005
 20
3.622349157429301
 30
0.0
 11
-22.18683896251004
 21
3.5733660992537
 31
0.0
  0
LINE
  5
F10775
330
261
100
AcDbEntity
  8
Geo
100
AcDbLine
 10
-22.28683896251005
 20
0.1213346829112005
 30
0.0
 11
-22.18683896251004
 21
0.0759013365615005
 31
0.0
  0
LINE
  5
F10777
330
261
100
AcDbEntity
  8
Geo
100
AcDbLine
 10
-22.18683896251004
 20
3.5733660992537
 30
0.0
 11
-22.08683896251004
 21
3.523175209881404
 31
0.0
  0
LINE
  5
F10779
330
261
100
AcDbEntity
  8
Geo
100
AcDbLine
 10
-22.18683896251004
 20
0.0759013365615005
 30
0.0
 11
-22.08683896251004
 21
0.0318059448207038
 31
0.0
  0
LINE
  5
F1077B
330
261
100
AcDbEntity
  8
Geo
100
AcDbLine
 10
-22.08683896251004
 20
3.523175209881404
 30
0.0
 11
-21.98683896251005
 21
3.471813022991003
 31
0.0
  0
LINE
  5
F1077D
330
261
100
AcDbEntity
  8
Geo
100
AcDbLine
 10
-22.08683896251004
 20
0.0318059448207038
 30
0.0
 11
-21.98683896251005
 21
-0.0109193955125981
 31
0.0
  0
LINE
  5
F1077F
330
261
100
AcDbEntity
  8
Geo
100
AcDbLine
 10
-21.98683896251005
 20
3.471813022991003
 30
0.0
 11
-21.88683896251004
 21
3.419316924842405
 31
0.0
  0
LINE
  5
F10781
330
261
100
AcDbEntity
  8
Geo
100
AcDbLine
 10
-21.98683896251005
 20
-0.0109193955125981
 30
0.0
 11
-21.88683896251004
 21
-0.0522435848927998
 31
0.0
  0
LINE
  5
F10783
330
261
100
AcDbEntity
  8
Geo
100
AcDbLine
 10
-21.88683896251004
 20
3.419316924842405
 30
0.0
 11
-21.78683896251005
 21
3.365725127063303
 31
0.0
  0
LINE
  5
F10785
330
261
100
AcDbEntity
  8
Geo
100
AcDbLine
 10
-21.88683896251004
 20
-0.0522435848927998
 30
0.0
 11
-21.78683896251005
 21
-0.0921365436644983
 31
0.0
  0
LINE
  5
F10787
330
261
100
AcDbEntity
  8
Geo
100
AcDbLine
 10
-21.78683896251005
 20
3.365725127063303
 30
0.0
 11
-21.68683896251004
 21
3.311076638835299
 31
0.0
  0
LINE
  5
F10789
330
261
100
AcDbEntity
  8
Geo
100
AcDbLine
 10
-21.78683896251005
 20
-0.0921365436644983
 30
0.0
 11
-21.68683896251004
 21
-0.1305692339574982
 31
0.0
  0
LINE
  5
F1078B
330
261
100
AcDbEntity
  8
Geo
100
AcDbLine
 10
-21.68683896251004
 20
3.311076638835299
 30
0.0
 11
-21.58683896251004
 21
3.255411238499302
 31
0.0
  0
LINE
  5
F1078D
330
261
100
AcDbEntity
  8
Geo
100
AcDbLine
 10
-21.68683896251004
 20
-0.1305692339574982
 30
0.0
 11
-21.58683896251004
 21
-0.1675136808228999
 31
0.0
  0
LINE
  5
F1078F
330
261
100
AcDbEntity
  8
Geo
100
AcDbLine
 10
-21.58683896251004
 20
3.255411238499302
 30
0.0
 11
-21.48683896251005
 21
3.198769444601001
 31
0.0
  0
LINE
  5
F10791
330
261
100
AcDbEntity
  8
Geo
100
AcDbLine
 10
-21.58683896251004
 20
-0.1675136808228999
 30
0.0
 11
-21.48683896251005
 21
-0.2029429925964976
 31
0.0
  0
LINE
  5
F10793
330
261
100
AcDbEntity
  8
Geo
100
AcDbLine
 10
-21.48683896251005
 20
3.198769444601001
 30
0.0
 11
-21.38683896251004
 21
3.141192486397905
 31
0.0
  0
LINE
  5
F10795
330
261
100
AcDbEntity
  8
Geo
100
AcDbLine
 10
-21.48683896251005
 20
-0.2029429925964976
 30
0.0
 11
-21.38683896251004
 21
-0.2368313804724984
 31
0.0
  0
LINE
  5
F10797
330
261
100
AcDbEntity
  8
Geo
100
AcDbLine
 10
-21.38683896251004
 20
3.141192486397905
 30
0.0
 11
-21.28683896251005
 21
3.082722273848403
 31
0.0
  0
LINE
  5
F10799
330
261
100
AcDbEntity
  8
Geo
100
AcDbLine
 10
-21.38683896251004
 20
-0.2368313804724984
 30
0.0
 11
-21.28683896251005
 21
-0.2691541772756985
 31
0.0
  0
LINE
  5
F1079B
330
261
100
AcDbEntity
  8
Geo
100
AcDbLine
 10
-21.28683896251005
 20
3.082722273848403
 30
0.0
 11
-21.18683896251004
 21
3.023401367106004
 31
0.0
  0
LINE
  5
F1079D
330
261
100
AcDbEntity
  8
Geo
100
AcDbLine
 10
-21.28683896251005
 20
-0.2691541772756985
 30
0.0
 11
-21.18683896251004
 21
-0.2998878554157969
 31
0.0
  0
LINE
  5
F1079F
330
261
100
AcDbEntity
  8
Geo
100
AcDbLine
 10
-21.18683896251004
 20
3.023401367106004
 30
0.0
 11
-21.08683896251005
 21
2.963272945540001
 31
0.0
  0
LINE
  5
F107A1
330
261
100
AcDbEntity
  8
Geo
100
AcDbLine
 10
-21.18683896251004
 20
-0.2998878554157969
 30
0.0
 11
-21.08683896251005
 21
-0.3290100440137955
 31
0.0
  0
LINE
  5
F107A3
330
261
100
AcDbEntity
  8
Geo
100
AcDbLine
 10
-21.08683896251005
 20
2.963272945540001
 30
0.0
 11
-20.98683896251005
 21
2.9023807763052
 31
0.0
  0
LINE
  5
F107A5
330
261
100
AcDbEntity
  8
Geo
100
AcDbLine
 10
-21.08683896251005
 20
-0.3290100440137955
 30
0.0
 11
-20.98683896251005
 21
-0.3564995451849988
 31
0.0
  0
LINE
  5
F107A7
330
261
100
AcDbEntity
  8
Geo
100
AcDbLine
 10
-20.98683896251005
 20
2.9023807763052
 30
0.0
 11
-20.88683896251004
 21
2.840769182484407
 31
0.0
  0
LINE
  5
F107A9
330
261
100
AcDbEntity
  8
Geo
100
AcDbLine
 10
-20.98683896251005
 20
-0.3564995451849988
 30
0.0
 11
-20.88683896251004
 21
-0.3823363494693019
 31
0.0
  0
LINE
  5
F107AB
330
261
100
AcDbEntity
  8
Geo
100
AcDbLine
 10
-20.88683896251004
 20
2.840769182484407
 30
0.0
 11
-20.78683896251005
 21
2.778483010825699
 31
0.0
  0
LINE
  5
F107AD
330
261
100
AcDbEntity
  8
Geo
100
AcDbLine
 10
-20.88683896251004
 20
-0.3823363494693019
 30
0.0
 11
-20.78683896251005
 21
-0.4065016503957004
 31
0.0
  0
LINE
  5
F107AF
330
261
100
AcDbEntity
  8
Geo
100
AcDbLine
 10
-20.78683896251005
 20
2.778483010825699
 30
0.0
 11
-20.68683896251004
 21
2.715567599098701
 31
0.0
  0
LINE
  5
F107B1
330
261
100
AcDbEntity
  8
Geo
100
AcDbLine
 10
-20.78683896251005
 20
-0.4065016503957004
 30
0.0
 11
-20.68683896251004
 21
-0.4289778581714963
 31
0.0
  0
LINE
  5
F107B3
330
261
100
AcDbEntity
  8
Geo
100
AcDbLine
 10
-20.68683896251004
 20
2.715567599098701
 30
0.0
 11
-20.58683896251004
 21
2.652068743093504
 31
0.0
  0
LINE
  5
F107B5
330
261
100
AcDbEntity
  8
Geo
100
AcDbLine
 10
-20.68683896251004
 20
-0.4289778581714963
 30
0.0
 11
-20.58683896251004
 21
-0.4497486124858022
 31
0.0
  0
LINE
  5
F107B7
330
261
100
AcDbEntity
  8
Geo
100
AcDbLine
 10
-20.58683896251004
 20
2.652068743093504
 30
0.0
 11
-20.58683896251004
 21
2.932383011419201
 31
0.0
  0
LINE
  5
F107B9
330
261
100
AcDbEntity
  8
Geo
100
AcDbLine
 10
-20.58683896251004
 20
2.652068743093504
 30
0.0
 11
-20.58683896251004
 21
2.176437148307204
 31
0.0
  0
LINE
  5
F107BB
330
261
100
AcDbEntity
  8
Geo
100
AcDbLine
 10
-20.58683896251004
 20
-0.4497486124858022
 30
0.0
 11
-20.58683896251004
 21
-0.3691672534907973
 31
0.0
  0
LINE
  5
F107BD
330
261
100
AcDbEntity
  8
Geo
100
AcDbLine
 10
-20.58683896251004
 20
-0.4497486124858022
 30
0.0
 11
-20.58683896251004
 21
-0.5721718671432967
 31
0.0
  0
LINE
  5
F107BF
330
261
100
AcDbEntity
  8
Geo
100
AcDbLine
 10
-33.58683896251005
 20
1.9140171310062
 30
0.0
 11
-33.58683896251005
 21
1.9140171310062
 31
0.0
  0
LINE
  5
F107C1
330
261
100
AcDbEntity
  8
Geo
100
AcDbLine
 10
-33.58683896251005
 20
1.9140171310062
 30
0.0
 11
-33.58683896251005
 21
1.9140171310062
 31
0.0
  0
LINE
  5
F107C3
330
261
100
AcDbEntity
  8
Geo
100
AcDbLine
 10
23.41316103748995
 20
4.4140171310062
 30
0.0
 11
23.41316103748995
 21
1.9140171310062
 31
0.0
  0
LINE
  5
F107C5
330
261
100
AcDbEntity
  8
Geo
100
AcDbLine
 10
-33.58683896251005
 20
1.9140171310062
 30
0.0
 11
-33.58683896251005
 21
-0.5109828689937999
 31
0.0
  0
LINE
  5
F107C7
330
261
100
AcDbEntity
  8
Geo
100
AcDbLine
 10
-33.58683896251005
 20
-0.5109828689937999
 30
0.0
 11
-33.51183896251004
 21
-0.5859828689937992
 31
0.0
  0
LINE
  5
F107C9
330
261
100
AcDbEntity
  8
Geo
100
AcDbLine
 10
-33.51183896251004
 20
-0.5859828689937992
 30
0.0
 11
-20.58683896251004
 21
-0.5859828689937992
 31
0.0
  0
LINE
  5
F107CB
330
261
100
AcDbEntity
  8
Geo
100
AcDbLine
 10
-20.58683896251004
 20
-0.5859828689937992
 30
0.0
 11
-20.58683896251004
 21
-0.4859828689937978
 31
0.0
  0
LINE
  5
F107CD
330
261
100
AcDbEntity
  8
Geo
100
AcDbLine
 10
-20.58683896251004
 20
-0.4859828689937978
 30
0.0
 11
-13.58683896251004
 21
-0.4859828689937978
 31
0.0
  0
LINE
  5
F107CF
330
261
100
AcDbEntity
  8
Geo
100
AcDbLine
 10
-13.58683896251004
 20
-0.4859828689937978
 30
0.0
 11
-12.58683896251004
 21
-1.085982868993799
 31
0.0
  0
LINE
  5
F107D1
330
261
100
AcDbEntity
  8
Geo
100
AcDbLine
 10
-12.58683896251004
 20
-1.085982868993799
 30
0.0
 11
22.91316103748995
 21
-1.085982868993799
 31
0.0
  0
LINE
  5
F107D3
330
261
100
AcDbEntity
  8
Geo
100
AcDbLine
 10
22.91316103748995
 20
-1.085982868993799
 30
0.0
 11
23.41316103748995
 21
-0.5859828689937992
 31
0.0
  0
LINE
  5
F107D5
330
261
100
AcDbEntity
  8
Geo
100
AcDbLine
 10
-33.58683896251005
 20
4.339017131006201
 30
0.0
 11
-33.58683896251005
 21
-0.5109828689937999
 31
0.0
  0
LINE
  5
F107D7
330
261
100
AcDbEntity
  8
Geo
100
AcDbLine
 10
-33.51183896251004
 20
4.4140171310062
 30
0.0
 11
-33.51183896251004
 21
-0.5859828689937992
 31
0.0
  0
LINE
  5
F107D9
330
261
100
AcDbEntity
  8
Geo
100
AcDbLine
 10
-20.58683896251004
 20
4.4140171310062
 30
0.0
 11
-20.58683896251004
 21
-0.5859828689937992
 31
0.0
  0
LINE
  5
F107DB
330
261
100
AcDbEntity
  8
Geo
100
AcDbLine
 10
-20.58683896251004
 20
4.314017131006202
 30
0.0
 11
-20.58683896251004
 21
-0.4859828689937978
 31
0.0
  0
LINE
  5
F107DD
330
261
100
AcDbEntity
  8
Geo
100
AcDbLine
 10
-13.58683896251004
 20
4.314017131006202
 30
0.0
 11
-13.58683896251004
 21
-0.4859828689937978
 31
0.0
  0
LINE
  5
F107DF
330
261
100
AcDbEntity
  8
Geo
100
AcDbLine
 10
-12.58683896251004
 20
4.9140171310062
 30
0.0
 11
-12.58683896251004
 21
-1.085982868993799
 31
0.0
  0
LINE
  5
F107E1
330
261
100
AcDbEntity
  8
Geo
100
AcDbLine
 10
22.91316103748995
 20
4.9140171310062
 30
0.0
 11
22.91316103748995
 21
-1.085982868993799
 31
0.0
  0
LINE
  5
F107E3
330
261
100
AcDbEntity
  8
Geo
100
AcDbLine
 10
23.41316103748995
 20
4.4140171310062
 30
0.0
 11
23.41316103748995
 21
-0.5859828689937992
 31
0.0
  0
TEXT
  5
F1089F
330
261
100
AcDbEntity
  8
Text
100
AcDbText
 10
-59.8445595854922
 20
-86.7210708117444
 30
0.0
 40
2.0
  1

100
AcDbText
  0
TEXT
  5
F108A3
330
261
100
AcDbEntity
  8
Text
100
AcDbText
 10
-44.6113989637306
 20
-86.7210708117444
 30
0.0
 40
2.0
  1

100
AcDbText
  0
TEXT
  5
F108A7
330
261
100
AcDbEntity
  8
Text
100
AcDbText
 10
30.1943005181347
 20
-86.7210708117444
 30
0.0
 40
2.0
  1

100
AcDbText
  0
TEXT
  5
F108AB
330
261
100
AcDbEntity
  8
Text
100
AcDbText
 10
50.32383419689121
 20
-86.7210708117444
 30
0.0
 40
2.0
  1

100
AcDbText
  0
TEXT
  5
F108AF
330
261
100
AcDbEntity
  8
Text
100
AcDbText
 10
-59.8445595854922
 20
-90.80138169257342
 30
0.0
 40
2.0
  1

100
AcDbText
  0
TEXT
  5
F108B3
330
261
100
AcDbEntity
  8
Text
100
AcDbText
 10
-44.6113989637306
 20
-90.80138169257342
 30
0.0
 40
2.0
  1

100
AcDbText
  0
TEXT
  5
F108B7
330
261
100
AcDbEntity
  8
Text
100
AcDbText
 10
30.1943005181347
 20
-90.80138169257342
 30
0.0
 40
2.0
  1

100
AcDbText
  0
TEXT
  5
F108BB
330
261
100
AcDbEntity
  8
Text
100
AcDbText
 10
50.32383419689121
 20
-90.80138169257342
 30
0.0
 40
2.0
  1

100
AcDbText
  0
LWPOLYLINE
  5
F108E5
330
261
100
AcDbEntity
  8
Rahmen
100
AcDbPolyline
 90
        4
 70
     1
 43
0.0
 10
-134.650259067358
 20
99.8316062176166
 10
143.354922279793
 20
99.8316062176166
 10
143.354922279793
 20
-100.103626943005
 10
-134.650259067358
 20
-100.103626943005
  0
LWPOLYLINE
  5
F108E9
330
261
100
AcDbEntity
  8
Rahmen
100
AcDbPolyline
 90
        4
 70
     1
 43
0.0
 10
103.367875647668
 20
-97.11139896373062
 10
143.354922279793
 20
-97.11139896373062
 10
143.354922279793
 20
-100.103626943005
 10
103.367875647668
 20
-100.103626943005
  0
TEXT
  5
F108EB
330
261
100
AcDbEntity
  8
Text
100
AcDbText
 10
104.455958549223
 20
-98.11139896373061
 30
0.0
 40
0.75
  1
Ers. durch:
100
AcDbText
  0
LWPOLYLINE
  5
F108EF
330
261
100
AcDbEntity
  8
Rahmen
100
AcDbPolyline
 90
        4
 70
     1
 43
0.0
 10
63.380829015544
 20
-97.11139896373062
 10
103.367875647668
 20
-97.11139896373062
 10
103.367875647668
 20
-100.103626943005
 10
63.380829015544
 20
-100.103626943005
  0
TEXT
  5
F108F1
330
261
100
AcDbEntity
  8
Text
100
AcDbText
 10
64.46891191709839
 20
-98.11139896373061
 30
0.0
 40
0.75
  1
Ers. für:
100
AcDbText
  0
TEXT
  5
F108F3
330
261
100
AcDbEntity
  8
Text
100
AcDbText
 10
91.39896373056991
 20
-99.4715025906736
 30
0.0
 40
0.75
  1

100
AcDbText
  0
LWPOLYLINE
  5
F108F5
330
261
100
AcDbEntity
  8
Rahmen
100
AcDbPolyline
 90
        4
 70
     1
 43
0.0
 10
130.025906735751
 20
-94.119170984456
 10
143.354922279793
 20
-94.119170984456
 10
143.354922279793
 20
-97.11139896373062
 10
130.025906735751
 20
-97.11139896373062
  0
TEXT
  5
F108F7
330
261
100
AcDbEntity
  8
Text
100
AcDbText
 10
131.113989637306
 20
-95.119170984456
 30
0.0
 40
0.75
  1
Blätter
100
AcDbText
  0
TEXT
  5
F108F9
330
261
100
AcDbEntity
  8
Text
100
AcDbText
 10
141.178756476684
 20
-96.479274611399
 30
0.0
 40
0.75
  1

100
AcDbText
  0
LWPOLYLINE
  5
F108FB
330
261
100
AcDbEntity
  8
Rahmen
100
AcDbPolyline
 90
        4
 70
     1
 43
0.0
 10
130.025906735751
 20
-91.12694300518128
 10
143.354922279793
 20
-91.12694300518128
 10
143.354922279793
 20
-94.119170984456
 10
130.025906735751
 20
-94.119170984456
  0
TEXT
  5
F108FD
330
261
100
AcDbEntity
  8
Text
100
AcDbText
 10
131.113989637306
 20
-92.12694300518128
 30
0.0
 40
0.75
  1
Blatt
100
AcDbText
  0
TEXT
  5
F108FF
330
261
100
AcDbEntity
  8
Text
100
AcDbText
 10
141.178756476684
 20
-93.48704663212428
 30
0.0
 40
0.75
  1

100
AcDbText
  0
LWPOLYLINE
  5
F10901
330
261
100
AcDbEntity
  8
Rahmen
100
AcDbPolyline
 90
        4
 70
     1
 43
0.0
 10
63.380829015544
 20
-91.12694300518128
 10
130.025906735751
 20
-91.12694300518128
 10
130.025906735751
 20
-97.11139896373062
 10
63.380829015544
 20
-97.11139896373062
  0
TEXT
  5
F10903
330
261
100
AcDbEntity
  8
Text
100
AcDbText
 10
64.46891191709839
 20
-92.12694300518128
 30
0.0
 40
0.75
  1
Datum:
100
AcDbText
  0
TEXT
  5
F10905
330
261
100
AcDbEntity
  8
Text
100
AcDbText
 10
91.67098445595859
 20
-95.119170984456
 30
0.0
 40
0.75
  1
10.12.2014
100
AcDbText
  0
LWPOLYLINE
  5
F10907
330
261
100
AcDbEntity
  8
Rahmen
100
AcDbPolyline
 90
        4
 70
     1
 43
0.0
 10
63.380829015544
 20
-85.14248704663208
 10
143.354922279793
 20
-85.14248704663208
 10
143.354922279793
 20
-91.12694300518128
 10
63.380829015544
 20
-91.12694300518128
  0
TEXT
  5
F10909
330
261
100
AcDbEntity
  8
Text
100
AcDbText
 10
-208.09585492228
 20
103.0
 30
0.0
 40
1.5
  1

100
AcDbText
  0
TEXT
  5
F1090B
330
261
100
AcDbEntity
  8
Text
100
AcDbText
 10
80.24611398963729
 20
-89.01986183074269
 30
0.0
 40
2.5
  1
3000-050
100
AcDbText
  0
LWPOLYLINE
  5
F1090D
330
261
100
AcDbEntity
  8
Rahmen
100
AcDbPolyline
 90
        4
 70
     1
 43
0.0
 10
103.367875647668
 20
-79.1580310880829
 10
143.354922279793
 20
-79.1580310880829
 10
143.354922279793
 20
-85.14248704663208
 10
103.367875647668
 20
-85.14248704663208
  0
TEXT
  5
F1090F
330
261
100
AcDbEntity
  8
Text
100
AcDbText
 10
104.455958549223
 20
-80.1580310880829
 30
0.0
 40
0.75
  1
Zu bearb. Material:
100
AcDbText
  0
TEXT
  5
F10911
330
261
100
AcDbEntity
  8
Text
100
AcDbText
 10
123.225388601036
 20
-84.5103626943005
 30
0.0
 40
0.75
  1

100
AcDbText
  0
LWPOLYLINE
  5
F10913
330
261
100
AcDbEntity
  8
Rahmen
100
AcDbPolyline
 90
        4
 70
     1
 43
0.0
 10
63.380829015544
 20
-79.1580310880829
 10
103.367875647668
 20
-79.1580310880829
 10
103.367875647668
 20
-85.14248704663208
 10
63.380829015544
 20
-85.14248704663208
  0
TEXT
  5
F10915
330
261
100
AcDbEntity
  8
Text
100
AcDbText
 10
64.46891191709839
 20
-80.1580310880829
 30
0.0
 40
0.75
  1
Werkstoff:
100
AcDbText
  0
LWPOLYLINE
  5
F10919
330
261
100
AcDbEntity
  8
Rahmen
100
AcDbPolyline
 90
        4
 70
     1
 43
0.0
 10
103.367875647668
 20
-76.16580310880831
 10
143.354922279793
 20
-76.16580310880831
 10
143.354922279793
 20
-79.1580310880829
 10
103.367875647668
 20
-79.1580310880829
  0
TEXT
  5
F1091B
330
261
100
AcDbEntity
  8
Text
100
AcDbText
 10
-208.09585492228
 20
103.0
 30
0.0
 40
1.5
  1

100
AcDbText
  0
LWPOLYLINE
  5
F1091F
330
261
100
AcDbEntity
  8
Rahmen
100
AcDbPolyline
 90
        4
 70
     1
 43
0.0
 10
63.380829015544
 20
-76.16580310880831
 10
103.367875647668
 20
-76.16580310880831
 10
103.367875647668
 20
-79.1580310880829
 10
63.380829015544
 20
-79.1580310880829
  0
TEXT
  5
F10921
330
261
100
AcDbEntity
  8
Text
100
AcDbText
 10
64.46891191709839
 20
-77.1658031088083
 30
0.0
 40
0.75
  1
Maßstab:
100
AcDbText
  0
TEXT
  5
F10923
330
261
100
AcDbEntity
  8
Text
100
AcDbText
 10
89.49481865284978
 20
-77.1658031088083
 30
0.0
 40
0.75
  1
1 : 1
100
AcDbText
  0
VIEWPORT
  5
294
102
{ACAD_XDICTIONARY
360
F10AB7
102
}
330
25D
100
AcDbEntity
 67
     1
  8
0
 60
     1
100
AcDbViewport
 10
0.0
 20
0.0
 30
0.0
 40
10.0
 41
10.0
 68
    -1
 69
     1
 12
0.0
 22
0.0
 13
0.0
 23
0.0
 14
1.0
 24
1.0
 15
0.0
 25
0.0
 16
0.0
 26
0.0
 36
1.0
 17
0.0
 27
0.0
 37
0.0
 42
0.0
 43
0.0
 44
0.0
 45
10.0
 50
0.0
 51
0.0000000000007958
 72
   100
 90
    32800
  1

281
     0
 71
     0
 74
     0
110
0.0
120
0.0
130
0.0
111
1.0
121
0.0
131
0.0
112
0.0
122
1.0
132
0.0
 79
     0
146
0.0
1001
VD_INVISIBLE_NOT_FOR_READ
1000
VD_INVISIBLE_NOT_FOR_READ
1001
GENIUS_GENSCREG_15
1000
PF
1040
1.0
1000
DF
1040
1.0
1000
MIN
1011
-5.0
1021
-5.0
1031
0.0
1000
MAX
1011
5.0
1021
5.0
1031
0.0
1000
FLAGS
1070
     4
1001
GENIUS_GENOBJ-N-SDF_13
1002
{
1000
OWNER
1000
GEN
1002
}
1001
GENIUS_GENODEF_13
1002
{
1000
HIER
1070
     0
1002
}
1002
{
1000
MANEDIT
1070
     0
1002
}
1002
{
1000
NOSEL
1070
     0
1002
}
1002
{
1000
BEHIND
1070
     0
1002
}
1002
{
1000
OTHER
1070
     0
1002
}
1002
{
1000
REACTOR
1002
}
  0
VIEWPORT
  5
295
102
{ACAD_XDICTIONARY
360
F10AB9
102
}
330
25D
100
AcDbEntity
 67
     1
  8
0
 60
     1
100
AcDbViewport
 10
0.0
 20
0.0
 30
0.0
 40
10.0
 41
10.0
 68
     0
 69
     2
 12
0.0
 22
0.0
 13
0.0
 23
0.0
 14
1.0
 24
1.0
 15
0.0
 25
0.0
 16
0.0
 26
0.0
 36
1.0
 17
0.0
 27
0.0
 37
0.0
 42
0.0
 43
0.0
 44
0.0
 45
10.0
 50
0.0
 51
0.0000000000007958
 72
   100
 90
   163872
  1

281
     0
 71
     0
 74
     0
110
0.0
120
0.0
130
0.0
111
1.0
121
0.0
131
0.0
112
0.0
122
1.0
132
0.0
 79
     0
146
0.0
1001
VD_INVISIBLE_NOT_FOR_READ
1000
VD_INVISIBLE_NOT_FOR_READ
1001
GENIUS_GENSCREG_15
1000
PF
1040
1.0
1000
DF
1040
1.0
1000
MIN
1011
-5.0
1021
-5.0
1031
0.0
1000
MAX
1011
5.0
1021
5.0
1031
0.0
1000
FLAGS
1070
     4
1001
GENIUS_GENOBJ-N-SDF_13
1002
{
1000
OWNER
1000
GEN
1002
}
1001
GENIUS_GENODEF_13
1002
{
1000
HIER
1070
     0
1002
}
1002
{
1000
MANEDIT
1070
     0
1002
}
1002
{
1000
NOSEL
1070
     0
1002
}
1002
{
1000
BEHIND
1070
     0
1002
}
1002
{
1000
OTHER
1070
     0
1002
}
1002
{
1000
REACTOR
1002
}
  0
ENDSEC
  0
SECTION
  2
OBJECTS
  0
DICTIONARY
  5
13
330
0
100
AcDbDictionary
281
     1
  3
ACAD_COLOR
350
FA7
  3
ACAD_GROUP
350
14
  3
ACAD_LAYOUT
350
FCF
  3
ACAD_MATERIAL
350
F7A
  3
ACAD_MLEADERSTYLE
350
FCD
  3
ACAD_MLINESTYLE
350
16
  3
ACAD_PLOTSETTINGS
350
17
  3
ACAD_PLOTSTYLENAME
350
18
  3
ACAD_SCALELIST
350
FAB
  3
ACAD_TABLESTYLE
350
FA8
  3
ACAD_VISUALSTYLE
350
F93
  3
ACDB_RECOMPOSE_DATA
350
F10AB5
  3
AcDbVariableDictionary
350
F10AAC
  3
AcmDictionary
350
F1097A
  3
AMG
350
F1092E
  3
AMGSNAPSETTINGS
350
F109BB
  3
DWGPROPS
350
F10AB6
  0
DICTIONARY
  5
F10AA2
330
252
100
AcDbDictionary
280
     1
281
     1
  3
ADSK_XREC_LAYER_RECONCILED
360
F10AA3
  0
DICTIONARY
  5
F10AA4
330
23F
100
AcDbDictionary
280
     1
281
     1
  3
ADSK_XREC_LAYER_RECONCILED
360
F10AA5
  0
DICTIONARY
  5
F10AA6
330
240
100
AcDbDictionary
280
     1
281
     1
  3
ADSK_XREC_LAYER_RECONCILED
360
F10AA7
  0
DICTIONARY
  5
F10AA8
330
241
100
AcDbDictionary
280
     1
281
     1
  3
ADSK_XREC_LAYER_RECONCILED
360
F10AA9
  0
DICTIONARY
  5
F10AAA
330
57E
100
AcDbDictionary
280
     1
281
     1
  3
ADSK_XREC_LAYER_RECONCILED
360
F10AAB
  0
DICTIONARY
  5
F10ABB
330
296
100
AcDbDictionary
280
     1
281
     1
  3
ACAD_XREC_ROUNDTRIP
360
F10ABC
  0
DICTIONARY
  5
F10ABD
330
297
100
AcDbDictionary
280
     1
281
     1
  3
ACAD_XREC_ROUNDTRIP
360
F10ABE
  0
DICTIONARY
  5
F10005
330
F10035
100
AcDbDictionary
280
     1
281
     1
  3
ACAD_MTEXT_2008_RT
360
F10006
  3
ACAD_MTEXT_RT
360
F10AEA
  0
DICTIONARY
  5
F10014
330
F10067
100
AcDbDictionary
280
     1
281
     1
  3
ACAD_MTEXT_2008_RT
360
F10015
  3
ACAD_MTEXT_RT
360
F10AEB
  0
DICTIONARY
  5
F10AB7
330
294
100
AcDbDictionary
280
     1
281
     1
  3
ACAD_XREC_ROUNDTRIP
360
F10AB8
  0
DICTIONARY
  5
F10AB9
330
295
100
AcDbDictionary
280
     1
281
     1
  3
ACAD_XREC_ROUNDTRIP
360
F10ABA
  0
DICTIONARY
  5
FA7
102
{ACAD_REACTORS
330
13
102
}
330
13
100
AcDbDictionary
281
     1
  0
DICTIONARY
  5
14
330
13
100
AcDbDictionary
281
     1
  0
DICTIONARY
  5
FCF
102
{ACAD_REACTORS
330
13
102
}
330
13
100
AcDbDictionary
281
     1
  3
Layout1
350
FD1
  3
Model
350
FD0
  0
DICTIONARY
  5
F7A
102
{ACAD_REACTORS
330
13
102
}
330
13
100
AcDbDictionary
281
     1
  3
ByBlock
350
F83
  3
ByLayer
350
F7B
  3
Global
350
F8B
  0
DICTIONARY
  5
FCD
102
{ACAD_REACTORS
330
13
102
}
330
13
100
AcDbDictionary
281
     1
  3
Standard
350
FCE
  0
DICTIONARY
  5
16
330
13
100
AcDbDictionary
281
     1
  3
Standard
350
FAA
  0
DICTIONARY
  5
17
102
{ACAD_REACTORS
330
13
102
}
330
13
100
AcDbDictionary
281
     1
  0
ACDBDICTIONARYWDFLT
  5
18
102
{ACAD_REACTORS
330
13
102
}
330
13
100
AcDbDictionary
281
     1
  3
Normal
350
19
100
AcDbDictionaryWithDefault
340
19
  0
DICTIONARY
  5
FAB
102
{ACAD_REACTORS
330
13
102
}
330
13
100
AcDbDictionary
281
     1
  3
A0
350
FAC
  3
A1
350
FAD
  3
A2
350
FAE
  3
A3
350
FAF
  3
A4
350
FB0
  3
A5
350
FB1
  3
A6
350
FB2
  3
A7
350
FB3
  3
A8
350
FB4
  3
A9
350
FB5
  3
B0
350
FB6
  3
B1
350
FB7
  3
B2
350
FB8
  3
B3
350
FB9
  3
B4
350
FBA
  3
B5
350
FBB
  3
B6
350
FBC
  3
B7
350
FBD
  3
B8
350
FBE
  3
B9
350
FBF
  3
C0
350
FC0
  3
C1
350
FC1
  3
C2
350
FC2
  3
C3
350
FC3
  3
C4
350
FC4
  3
C5
350
FC5
  3
C6
350
FC6
  3
C7
350
FC7
  3
C8
350
FC8
  3
C9
350
FC9
  3
D0
350
FCA
  3
D1
350
FCB
  3
D2
350
FCC
  0
DICTIONARY
  5
FA8
102
{ACAD_REACTORS
330
13
102
}
330
13
100
AcDbDictionary
281
     1
  3
Standard
350
FA9
  0
DICTIONARY
  5
F93
102
{ACAD_REACTORS
330
13
102
}
330
13
100
AcDbDictionary
281
     1
  3
2dWireframe
350
F99
  3
3D Hidden
350
F9B
  3
3dWireframe
350
F9A
  3
Basic
350
F98
  3
Brighten
350
F9F
  3
ColorChange
350
FA3
  3
Conceptual
350
F9C
  3
Dim
350
F9E
  3
EdgeColorOff
350
FA6
  3
Facepattern
350
FA2
  3
Flat
350
F94
  3
FlatWithEdges
350
F95
  3
Gouraud
350
F96
  3
GouraudWithEdges
350
F97
  3
Hidden
350
F10926
  3
JitterOff
350
FA4
  3
Linepattern
350
FA1
  3
OverhangOff
350
FA5
  3
Realistic
350
F9D
  3
Shaded
350
F1092B
  3
Shaded with edges
350
F1092A
  3
Shades of Gray
350
F10927
  3
Sketchy
350
F10928
  3
Thicken
350
FA0
  3
Wireframe
350
F10925
  3
X-Ray
350
F10929
  0
XRECORD
  5
F10AB5
102
{ACAD_REACTORS
330
13
102
}
330
13
100
AcDbXrecord
280
     1
 90
        1
330
FA9
  0
DICTIONARY
  5
F10AAC
102
{ACAD_REACTORS
330
13
102
}
330
13
100
AcDbDictionary
281
     1
  3
CANNOSCALE
350
F10AAF
  3
CMLEADERSTYLE
350
F10AAE
  3
CTABLESTYLE
350
F10AAD
  3
DIMASSOC
350
F10AB2
  3
INDEXCTL
350
F10AB1
  3
SORTENTS
350
F10AB0
  3
XCLIPFRAME
350
F10AB3
  0
DICTIONARY
  5
F1097A
102
{ACAD_REACTORS
330
13
102
}
330
13
100
AcDbDictionary
281
     1
  3
AcmStdDictionary
350
F10985
  0
DICTIONARY
  5
F1092E
102
{ACAD_REACTORS
330
13
102
}
330
13
100
AcDbDictionary
281
     1
  0
DICTIONARY
  5
F109BB
102
{ACAD_REACTORS
330
13
102
}
330
13
100
AcDbDictionary
281
     1
  0
XRECORD
  5
F10AB6
102
{ACAD_REACTORS
330
13
102
}
330
13
100
AcDbXrecord
280
     1
  1
DWGPROPS COOKIE
  2

  3

  4

  6

  7

  8
Steigner
  9

300
=
301
=
302
=
303
=
304
=
305
=
306
=
307
=
308
=
309
=
 40
0.0018615046296296
 41
2457002.611266053
 42
2457002.613126562
  1

 90
        0
  0
XRECORD
  5
F10AA3
102
{ACAD_REACTORS
330
F10AA2
102
}
330
F10AA2
100
AcDbXrecord
280
     1
290
     1
  0
XRECORD
  5
F10AA5
102
{ACAD_REACTORS
330
F10AA4
102
}
330
F10AA4
100
AcDbXrecord
280
     1
290
     1
  0
XRECORD
  5
F10AA7
102
{ACAD_REACTORS
330
F10AA6
102
}
330
F10AA6
100
AcDbXrecord
280
     1
290
     1
  0
XRECORD
  5
F10AA9
102
{ACAD_REACTORS
330
F10AA8
102
}
330
F10AA8
100
AcDbXrecord
280
     1
290
     1
  0
XRECORD
  5
F10AAB
102
{ACAD_REACTORS
330
F10AAA
102
}
330
F10AAA
100
AcDbXrecord
280
     1
290
     1
  0
XRECORD
  5
F10ABC
102
{ACAD_REACTORS
330
F10ABB
102
}
330
F10ABB
100
AcDbXrecord
280
     1
102
SHADEPLOT
 70
     0
  0
XRECORD
  5
F10ABE
102
{ACAD_REACTORS
330
F10ABD
102
}
330
F10ABD
100
AcDbXrecord
280
     1
102
SHADEPLOT
 70
     0
  0
XRECORD
  5
F10006
102
{ACAD_REACTORS
330
F10005
102
}
330
F10005
100
AcDbXrecord
280
     1
 40
48458.0
  1
\A1;0.07 x 45°{\H1.25000000000000;\S +0.030^  --0.030;}
  0
XRECORD
  5
F10AEA
102
{ACAD_REACTORS
330
F10005
102
}
330
F10005
100
AcDbXrecord
280
     1
 40
102568.0
  1
\A1;0.07 x 45°{\H1.25000000000000;\S +0.030^  --0.030;}
  0
XRECORD
  5
F10015
102
{ACAD_REACTORS
330
F10014
102
}
330
F10014
100
AcDbXrecord
280
     1
 40
48458.0
  1
\A1;45°{\H1.25000000000000;\S +5.000^  --5.000;}
  0
XRECORD
  5
F10AEB
102
{ACAD_REACTORS
330
F10014
102
}
330
F10014
100
AcDbXrecord
280
     1
 40
80079.0
  1
\A1;45°{\H1.25000000000000;\S +5.000^  --5.000;}
  0
XRECORD
  5
F10AB8
102
{ACAD_REACTORS
330
F10AB7
102
}
330
F10AB7
100
AcDbXrecord
280
     1
102
SHADEPLOT
 70
     0
  0
XRECORD
  5
F10ABA
102
{ACAD_REACTORS
330
F10AB9
102
}
330
F10AB9
100
AcDbXrecord
280
     1
102
SHADEPLOT
 70
     0
  0
LAYOUT
  5
FD1
102
{ACAD_XDICTIONARY
360
F10AE8
102
}
102
{ACAD_REACTORS
330
FCF
102
}
330
FCF
100
AcDbPlotSettings
  1

  2
Microsoft XPS Document Writer
  4

  6

 40
0.0
 41
0.0
 42
0.0
 43
0.0
 44
0.0
 45
0.0
 46
0.0
 47
0.0
 48
0.0
 49
0.0
140
0.0
141
0.0
142
1.0
143
1.0
 70
   688
 72
     0
 73
     0
 74
     5
  7

 75
    16
147
1.0
148
0.0
149
0.0
100
AcDbLayout
  1
Layout1
 70
     1
 71
     1
 10
0.0
 20
0.0
 11
12.0
 21
9.0
 12
0.0
 22
0.0
 32
0.0
 14
1.000000000000000E+20
 24
1.000000000000000E+20
 34
1.000000000000000E+20
 15
-1.000000000000000E+20
 25
-1.000000000000000E+20
 35
-1.000000000000000E+20
146
0.0
 13
0.0
 23
0.0
 33
0.0
 16
1.0
 26
0.0
 36
0.0
 17
0.0
 27
1.0
 37
0.0
 76
     0
330
25D
  0
LAYOUT
  5
FD0
102
{ACAD_XDICTIONARY
360
F10AE6
102
}
102
{ACAD_REACTORS
330
FCF
102
}
330
FCF
100
AcDbPlotSettings
  1

  2
Microsoft XPS Document Writer
  4

  6

 40
0.0
 41
0.0
 42
0.0
 43
0.0
 44
0.0
 45
0.0
 46
0.0
 47
0.0
 48
0.0
 49
0.0
140
0.0
141
0.0
142
1.0
143
1.0
 70
  1712
 72
     0
 73
     0
 74
     0
  7

 75
     0
147
1.0
148
0.0
149
0.0
100
AcDbLayout
  1
Model
 70
     1
 71
     0
 10
0.0
 20
0.0
 11
12.0
 21
9.0
 12
0.0
 22
0.0
 32
0.0
 14
0.0
 24
0.0
 34
0.0
 15
0.0
 25
0.0
 35
0.0
146
0.0
 13
0.0
 23
0.0
 33
0.0
 16
1.0
 26
0.0
 36
0.0
 17
0.0
 27
1.0
 37
0.0
 76
     0
330
261
331
26B
  0
MATERIAL
  5
F83
102
{ACAD_XDICTIONARY
360
F84
102
}
102
{ACAD_REACTORS
330
F7A
102
}
330
F7A
100
AcDbMaterial
  1
ByBlock
 72
     0
 43
0.0208333333333333
 43
0.0
 43
0.0
 43
0.0
 43
0.0
 43
0.0208333333333333
 43
0.0
 43
0.0
 43
0.0
 43
0.0
 43
1.0
 43
0.0
 43
0.0
 43
0.0
 43
0.0
 43
1.0
 77
     0
 47
0.0208333333333333
 47
0.0
 47
0.0
 47
0.0
 47
0.0
 47
0.0208333333333333
 47
0.0
 47
0.0
 47
0.0
 47
0.0
 47
1.0
 47
0.0
 47
0.0
 47
0.0
 47
0.0
 47
1.0
171
     0
 49
0.0208333333333333
 49
0.0
 49
0.0
 49
0.0
 49
0.0
 49
0.0208333333333333
 49
0.0
 49
0.0
 49
0.0
 49
0.0
 49
1.0
 49
0.0
 49
0.0
 49
0.0
 49
0.0
 49
1.0
175
     0
142
0.0208333333333333
142
0.0
142
0.0
142
0.0
142
0.0
142
0.0208333333333333
142
0.0
142
0.0
142
0.0
142
0.0
142
1.0
142
0.0
142
0.0
142
0.0
142
0.0
142
1.0
179
     0
144
0.0208333333333333
144
0.0
144
0.0
144
0.0
144
0.0
144
0.0208333333333333
144
0.0
144
0.0
144
0.0
144
0.0
144
1.0
144
0.0
144
0.0
144
0.0
144
0.0
144
1.0
147
0.0208333333333333
147
0.0
147
0.0
147
0.0
147
0.0
147
0.0208333333333333
147
0.0
147
0.0
147
0.0
147
0.0
147
1.0
147
0.0
147
0.0
147
0.0
147
0.0
147
1.0
  0
MATERIAL
  5
F7B
102
{ACAD_XDICTIONARY
360
F7C
102
}
102
{ACAD_REACTORS
330
F7A
102
}
330
F7A
100
AcDbMaterial
  1
ByLayer
 72
     0
 43
0.0208333333333333
 43
0.0
 43
0.0
 43
0.0
 43
0.0
 43
0.0208333333333333
 43
0.0
 43
0.0
 43
0.0
 43
0.0
 43
1.0
 43
0.0
 43
0.0
 43
0.0
 43
0.0
 43
1.0
 77
     0
 47
0.0208333333333333
 47
0.0
 47
0.0
 47
0.0
 47
0.0
 47
0.0208333333333333
 47
0.0
 47
0.0
 47
0.0
 47
0.0
 47
1.0
 47
0.0
 47
0.0
 47
0.0
 47
0.0
 47
1.0
171
     0
 49
0.0208333333333333
 49
0.0
 49
0.0
 49
0.0
 49
0.0
 49
0.0208333333333333
 49
0.0
 49
0.0
 49
0.0
 49
0.0
 49
1.0
 49
0.0
 49
0.0
 49
0.0
 49
0.0
 49
1.0
175
     0
142
0.0208333333333333
142
0.0
142
0.0
142
0.0
142
0.0
142
0.0208333333333333
142
0.0
142
0.0
142
0.0
142
0.0
142
1.0
142
0.0
142
0.0
142
0.0
142
0.0
142
1.0
179
     0
144
0.0208333333333333
144
0.0
144
0.0
144
0.0
144
0.0
144
0.0208333333333333
144
0.0
144
0.0
144
0.0
144
0.0
144
1.0
144
0.0
144
0.0
144
0.0
144
0.0
144
1.0
147
0.0208333333333333
147
0.0
147
0.0
147
0.0
147
0.0
147
0.0208333333333333
147
0.0
147
0.0
147
0.0
147
0.0
147
1.0
147
0.0
147
0.0
147
0.0
147
0.0
147
1.0
  0
MATERIAL
  5
F8B
102
{ACAD_XDICTIONARY
360
F8C
102
}
102
{ACAD_REACTORS
330
F7A
102
}
330
F7A
100
AcDbMaterial
  1
Global
 72
     0
 43
0.0208333333333333
 43
0.0
 43
0.0
 43
0.0
 43
0.0
 43
0.0208333333333333
 43
0.0
 43
0.0
 43
0.0
 43
0.0
 43
1.0
 43
0.0
 43
0.0
 43
0.0
 43
0.0
 43
1.0
 77
     0
 47
0.0208333333333333
 47
0.0
 47
0.0
 47
0.0
 47
0.0
 47
0.0208333333333333
 47
0.0
 47
0.0
 47
0.0
 47
0.0
 47
1.0
 47
0.0
 47
0.0
 47
0.0
 47
0.0
 47
1.0
171
     0
 49
0.0208333333333333
 49
0.0
 49
0.0
 49
0.0
 49
0.0
 49
0.0208333333333333
 49
0.0
 49
0.0
 49
0.0
 49
0.0
 49
1.0
 49
0.0
 49
0.0
 49
0.0
 49
0.0
 49
1.0
175
     0
142
0.0208333333333333
142
0.0
142
0.0
142
0.0
142
0.0
142
0.0208333333333333
142
0.0
142
0.0
142
0.0
142
0.0
142
1.0
142
0.0
142
0.0
142
0.0
142
0.0
142
1.0
179
     0
144
0.0208333333333333
144
0.0
144
0.0
144
0.0
144
0.0
144
0.0208333333333333
144
0.0
144
0.0
144
0.0
144
0.0
144
1.0
144
0.0
144
0.0
144
0.0
144
0.0
144
1.0
147
0.0208333333333333
147
0.0
147
0.0
147
0.0
147
0.0
147
0.0208333333333333
147
0.0
147
0.0
147
0.0
147
0.0
147
1.0
147
0.0
147
0.0
147
0.0
147
0.0
147
1.0
  0
MLEADERSTYLE
  5
FCE
102
{ACAD_REACTORS
330
FCD
102
}
330
FCD
100
AcDbMLeaderStyle
170
     2
171
     1
172
     0
 90
        2
 40
0.0
 41
0.0
173
     1
 91
-1056964608
340
256
 92
       -2
290
     1
 42
0.09
291
     1
 43
0.36
  3
Standard
 44
0.18
300

342
253
174
     1
178
     6
175
     1
176
     0
 93
-1056964608
 45
0.18
292
     0
297
     0
 46
0.18
 94
-1056964608
 47
1.0
 49
1.0
140
1.0
293
     1
141
0.0
294
     1
177
     0
142
1.0
295
     0
296
     0
143
0.125
1001
ACAD_MLEADERVER
1070
     2
  0
MLINESTYLE
  5
FAA
102
{ACAD_REACTORS
330
16
102
}
330
16
100
AcDbMlineStyle
  2
STANDARD
 70
     0
  3

 62
   256
 51
90.0
 52
90.0
 71
     2
 49
0.5
 62
   256
  6
BYLAYER
 49
-0.5
 62
   256
  6
BYLAYER
  0
ACDBPLACEHOLDER
  5
19
102
{ACAD_REACTORS
330
18
102
}
330
18
  0
SCALE
  5
FAC
102
{ACAD_REACTORS
330
FAB
102
}
330
FAB
100
AcDbScale
 70
     0
300
1:1
140
1.0
141
1.0
290
     1
  0
SCALE
  5
FAD
102
{ACAD_REACTORS
330
FAB
102
}
330
FAB
100
AcDbScale
 70
     0
300
1:2
140
1.0
141
2.0
290
     0
  0
SCALE
  5
FAE
102
{ACAD_REACTORS
330
FAB
102
}
330
FAB
100
AcDbScale
 70
     0
300
1:4
140
1.0
141
4.0
290
     0
  0
SCALE
  5
FAF
102
{ACAD_REACTORS
330
FAB
102
}
330
FAB
100
AcDbScale
 70
     0
300
1:5
140
1.0
141
5.0
290
     0
  0
SCALE
  5
FB0
102
{ACAD_REACTORS
330
FAB
102
}
330
FAB
100
AcDbScale
 70
     0
300
1:8
140
1.0
141
8.0
290
     0
  0
SCALE
  5
FB1
102
{ACAD_REACTORS
330
FAB
102
}
330
FAB
100
AcDbScale
 70
     0
300
1:10
140
1.0
141
10.0
290
     0
  0
SCALE
  5
FB2
102
{ACAD_REACTORS
330
FAB
102
}
330
FAB
100
AcDbScale
 70
     0
300
1:16
140
1.0
141
16.0
290
     0
  0
SCALE
  5
FB3
102
{ACAD_REACTORS
330
FAB
102
}
330
FAB
100
AcDbScale
 70
     0
300
1:20
140
1.0
141
20.0
290
     0
  0
SCALE
  5
FB4
102
{ACAD_REACTORS
330
FAB
102
}
330
FAB
100
AcDbScale
 70
     0
300
1:30
140
1.0
141
30.0
290
     0
  0
SCALE
  5
FB5
102
{ACAD_REACTORS
330
FAB
102
}
330
FAB
100
AcDbScale
 70
     0
300
1:40
140
1.0
141
40.0
290
     0
  0
SCALE
  5
FB6
102
{ACAD_REACTORS
330
FAB
102
}
330
FAB
100
AcDbScale
 70
     0
300
1:50
140
1.0
141
50.0
290
     0
  0
SCALE
  5
FB7
102
{ACAD_REACTORS
330
FAB
102
}
330
FAB
100
AcDbScale
 70
     0
300
1:100
140
1.0
141
100.0
290
     0
  0
SCALE
  5
FB8
102
{ACAD_REACTORS
330
FAB
102
}
330
FAB
100
AcDbScale
 70
     0
300
2:1
140
2.0
141
1.0
290
     0
  0
SCALE
  5
FB9
102
{ACAD_REACTORS
330
FAB
102
}
330
FAB
100
AcDbScale
 70
     0
300
4:1
140
4.0
141
1.0
290
     0
  0
SCALE
  5
FBA
102
{ACAD_REACTORS
330
FAB
102
}
330
FAB
100
AcDbScale
 70
     0
300
8:1
140
8.0
141
1.0
290
     0
  0
SCALE
  5
FBB
102
{ACAD_REACTORS
330
FAB
102
}
330
FAB
100
AcDbScale
 70
     0
300
10:1
140
10.0
141
1.0
290
     0
  0
SCALE
  5
FBC
102
{ACAD_REACTORS
330
FAB
102
}
330
FAB
100
AcDbScale
 70
     0
300
100:1
140
100.0
141
1.0
290
     0
  0
SCALE
  5
FBD
102
{ACAD_REACTORS
330
FAB
102
}
330
FAB
100
AcDbScale
 70
     0
300
1/128" = 1'-0"
140
0.0078125
141
12.0
290
     0
  0
SCALE
  5
FBE
102
{ACAD_REACTORS
330
FAB
102
}
330
FAB
100
AcDbScale
 70
     0
300
1/64" = 1'-0"
140
0.015625
141
12.0
290
     0
  0
SCALE
  5
FBF
102
{ACAD_REACTORS
330
FAB
102
}
330
FAB
100
AcDbScale
 70
     0
300
1/32" = 1'-0"
140
0.03125
141
12.0
290
     0
  0
SCALE
  5
FC0
102
{ACAD_REACTORS
330
FAB
102
}
330
FAB
100
AcDbScale
 70
     0
300
1/16" = 1'-0"
140
0.0625
141
12.0
290
     0
  0
SCALE
  5
FC1
102
{ACAD_REACTORS
330
FAB
102
}
330
FAB
100
AcDbScale
 70
     0
300
3/32" = 1'-0"
140
0.09375
141
12.0
290
     0
  0
SCALE
  5
FC2
102
{ACAD_REACTORS
330
FAB
102
}
330
FAB
100
AcDbScale
 70
     0
300
1/8" = 1'-0"
140
0.125
141
12.0
290
     0
  0
SCALE
  5
FC3
102
{ACAD_REACTORS
330
FAB
102
}
330
FAB
100
AcDbScale
 70
     0
300
3/16" = 1'-0"
140
0.1875
141
12.0
290
     0
  0
SCALE
  5
FC4
102
{ACAD_REACTORS
330
FAB
102
}
330
FAB
100
AcDbScale
 70
     0
300
1/4" = 1'-0"
140
0.25
141
12.0
290
     0
  0
SCALE
  5
FC5
102
{ACAD_REACTORS
330
FAB
102
}
330
FAB
100
AcDbScale
 70
     0
300
3/8" = 1'-0"
140
0.375
141
12.0
290
     0
  0
SCALE
  5
FC6
102
{ACAD_REACTORS
330
FAB
102
}
330
FAB
100
AcDbScale
 70
     0
300
1/2" = 1'-0"
140
0.5
141
12.0
290
     0
  0
SCALE
  5
FC7
102
{ACAD_REACTORS
330
FAB
102
}
330
FAB
100
AcDbScale
 70
     0
300
3/4" = 1'-0"
140
0.75
141
12.0
290
     0
  0
SCALE
  5
FC8
102
{ACAD_REACTORS
330
FAB
102
}
330
FAB
100
AcDbScale
 70
     0
300
1" = 1'-0"
140
1.0
141
12.0
290
     0
  0
SCALE
  5
FC9
102
{ACAD_REACTORS
330
FAB
102
}
330
FAB
100
AcDbScale
 70
     0
300
1-1/2" = 1'-0"
140
1.5
141
12.0
290
     0
  0
SCALE
  5
FCA
102
{ACAD_REACTORS
330
FAB
102
}
330
FAB
100
AcDbScale
 70
     0
300
3" = 1'-0"
140
3.0
141
12.0
290
     0
  0
SCALE
  5
FCB
102
{ACAD_REACTORS
330
FAB
102
}
330
FAB
100
AcDbScale
 70
     0
300
6" = 1'-0"
140
6.0
141
12.0
290
     0
  0
SCALE
  5
FCC
102
{ACAD_REACTORS
330
FAB
102
}
330
FAB
100
AcDbScale
 70
     0
300
1'-0" = 1'-0"
140
12.0
141
12.0
290
     0
  0
TABLESTYLE
  5
FA9
102
{ACAD_XDICTIONARY
360
FF8
102
}
102
{ACAD_REACTORS
330
FA8
102
}
330
FA8
100
AcDbTableStyle
  3
Standard
 70
     0
 71
     0
 40
0.06
 41
0.06
280
     0
281
     0
  7
Standard
140
0.18
170
     2
 62
     0
 63
     7
283
     0
274
    -2
284
     1
 64
     0
275
    -2
285
     1
 65
     0
276
    -2
286
     1
 66
     0
277
    -2
287
     1
 67
     0
278
    -2
288
     1
 68
     0
279
    -2
289
     1
 69
     0
  7
Standard
140
0.25
170
     5
 62
     0
 63
     7
283
     0
274
    -2
284
     1
 64
     0
275
    -2
285
     1
 65
     0
276
    -2
286
     1
 66
     0
277
    -2
287
     1
 67
     0
278
    -2
288
     1
 68
     0
279
    -2
289
     1
 69
     0
  7
Standard
140
0.18
170
     5
 62
     0
 63
     7
283
     0
274
    -2
284
     1
 64
     0
275
    -2
285
     1
 65
     0
276
    -2
286
     1
 66
     0
277
    -2
287
     1
 67
     0
278
    -2
288
     1
 68
     0
279
    -2
289
     1
 69
     0
  0
VISUALSTYLE
  5
F99
102
{ACAD_XDICTIONARY
360
F10AC9
102
}
102
{ACAD_REACTORS
330
F93
102
}
330
F93
100
AcDbVisualStyle
  2

 70
     4
 71
     0
 72
     2
 73
     0
 90
        0
 40
-0.6
 41
-30.0
 62
     5
 63
     7
 74
     1
 91
        4
 64
     7
 65
   257
 75
     1
175
     1
 42
1.0
 92
        0
 66
   257
 43
1.0
 76
     1
 77
     6
 78
     2
 67
     7
 79
     5
170
     0
171
     0
290
     0
174
     0
 93
        1
 44
0.0
173
     0
291
     0
 45
0.0
1001
ACAD
1000
AcDbSavedByObjectVersion
1070
     0
  0
VISUALSTYLE
  5
F9B
102
{ACAD_XDICTIONARY
360
F10ACD
102
}
102
{ACAD_REACTORS
330
F93
102
}
330
F93
100
AcDbVisualStyle
  2

 70
     6
 71
     1
 72
     2
 73
     2
 90
        0
 40
-0.6
 41
-30.0
 62
     5
 63
     7
 74
     2
 91
        2
 64
     7
 65
   257
 75
     2
175
     1
 42
179.0
 92
        0
 66
   257
 43
1.0
 76
     1
 77
     6
 78
     2
 67
     7
 79
     3
170
     0
171
     0
290
     0
174
     0
 93
        1
 44
0.0
173
     0
291
     0
 45
0.0
1001
ACAD
1000
AcDbSavedByObjectVersion
1070
     0
  0
VISUALSTYLE
  5
F9A
102
{ACAD_XDICTIONARY
360
F10ACB
102
}
102
{ACAD_REACTORS
330
F93
102
}
330
F93
100
AcDbVisualStyle
  2

 70
     5
 71
     0
 72
     2
 73
     0
 90
        0
 40
-0.6
 41
-30.0
 62
     5
 63
     7
 74
     1
 91
        4
 64
     7
 65
   257
 75
     1
175
     1
 42
1.0
 92
        0
 66
   257
 43
1.0
 76
     1
 77
     6
 78
     2
 67
     7
 79
     5
170
     0
171
     0
290
     0
174
     0
 93
        1
 44
0.0
173
     0
291
     0
 45
0.0
1001
ACAD
1000
AcDbSavedByObjectVersion
1070
     0
  0
VISUALSTYLE
  5
F98
102
{ACAD_XDICTIONARY
360
F10AC7
102
}
102
{ACAD_REACTORS
330
F93
102
}
330
F93
100
AcDbVisualStyle
  2

 70
     7
 71
     1
 72
     0
 73
     1
 90
        0
 40
-0.6
 41
-30.0
 62
     5
 63
     7
 74
     0
 91
        4
 64
     7
 65
   257
 75
     1
175
     1
 42
1.0
 92
        8
 66
     7
 43
1.0
 76
     1
 77
     6
 78
     2
 67
     7
 79
     5
170
     0
171
     0
290
     0
174
     0
 93
        1
 44
0.0
173
     0
291
     1
 45
0.0
1001
ACAD
1000
AcDbSavedByObjectVersion
1070
     0
  0
VISUALSTYLE
  5
F9F
102
{ACAD_XDICTIONARY
360
F10AD5
102
}
102
{ACAD_REACTORS
330
F93
102
}
330
F93
100
AcDbVisualStyle
  2

 70
    12
 71
     2
 72
     2
 73
     0
 90
        0
 40
-0.6
 41
-30.0
 62
     5
 63
     7
 74
     1
 91
        4
 64
     7
 65
   257
 75
     1
175
     1
 42
1.0
 92
        8
 66
     7
 43
1.0
 76
     1
 77
     6
 78
     2
 67
     7
 79
     5
170
     0
171
     0
290
     0
174
     0
 93
        1
 44
50.0
173
     0
291
     1
 45
0.0
1001
ACAD
1000
AcDbSavedByObjectVersion
1070
     0
  0
VISUALSTYLE
  5
FA3
102
{ACAD_XDICTIONARY
360
F10ADD
102
}
102
{ACAD_REACTORS
330
F93
102
}
330
F93
100
AcDbVisualStyle
  2

 70
    16
 71
     2
 72
     2
 73
     3
 90
        0
 40
-0.6
 41
-30.0
 62
     5
 63
     8
 74
     1
 91
        4
 64
     7
 65
   257
 75
     1
175
     1
 42
1.0
 92
        8
 66
     8
 43
1.0
 76
     1
 77
     6
 78
     2
 67
     7
 79
     5
170
     0
171
     0
290
     0
174
     0
 93
        1
 44
0.0
173
     0
291
     1
 45
0.0
1001
ACAD
1000
AcDbSavedByObjectVersion
1070
     0
  0
VISUALSTYLE
  5
F9C
102
{ACAD_XDICTIONARY
360
F10ACF
102
}
102
{ACAD_REACTORS
330
F93
102
}
330
F93
100
AcDbVisualStyle
  2

 70
     9
 71
     3
 72
     2
 73
     0
 90
        0
 40
-0.6
 41
-30.0
 62
     5
 63
     7
 74
     2
 91
        2
 64
     7
 65
   257
 75
     1
175
     1
 42
179.0
 92
        8
 66
     7
 43
1.0
 76
     1
 77
     6
 78
     2
 67
     7
 79
     3
170
     0
171
     0
290
     0
174
     0
 93
        1
 44
0.0
173
     0
291
     0
 45
0.0
1001
ACAD
1000
AcDbSavedByObjectVersion
1070
     0
  0
VISUALSTYLE
  5
F9E
102
{ACAD_XDICTIONARY
360
F10AD3
102
}
102
{ACAD_REACTORS
330
F93
102
}
330
F93
100
AcDbVisualStyle
  2

 70
    11
 71
     2
 72
     2
 73
     0
 90
        0
 40
-0.6
 41
-30.0
 62
     5
 63
     7
 74
     1
 91
        4
 64
     7
 65
   257
 75
     1
175
     1
 42
1.0
 92
        8
 66
     7
 43
1.0
 76
     1
 77
     6
 78
     2
 67
     7
 79
     5
170
     0
171
     0
290
     0
174
     0
 93
        1
 44
-50.0
173
     0
291
     1
 45
0.0
1001
ACAD
1000
AcDbSavedByObjectVersion
1070
     0
  0
VISUALSTYLE
  5
FA6
102
{ACAD_XDICTIONARY
360
F10AE3
102
}
102
{ACAD_REACTORS
330
F93
102
}
330
F93
100
AcDbVisualStyle
  2

 70
    22
 71
     2
 72
     2
 73
     0
 90
        0
 40
-0.6
 41
-30.0
 62
     5
 63
     7
 74
     1
 91
        4
 64
     7
 65
   257
 75
     1
175
     1
 42
1.0
 92
        8
 66
     7
 43
1.0
 76
     1
 77
     6
 78
     2
 67
     7
 79
     5
170
     0
171
     0
290
     0
174
     0
 93
        1
 44
0.0
173
     0
291
     1
 45
0.0
1001
ACAD
1000
AcDbSavedByObjectVersion
1070
     0
  0
VISUALSTYLE
  5
FA2
102
{ACAD_XDICTIONARY
360
F10ADB
102
}
102
{ACAD_REACTORS
330
F93
102
}
330
F93
100
AcDbVisualStyle
  2

 70
    15
 71
     2
 72
     2
 73
     0
 90
        0
 40
-0.6
 41
-30.0
 62
     5
 63
     7
 74
     1
 91
        4
 64
     7
 65
   257
 75
     1
175
     1
 42
1.0
 92
        8
 66
     7
 43
1.0
 76
     1
 77
     6
 78
     2
 67
     7
 79
     5
170
     0
171
     0
290
     0
174
     0
 93
        1
 44
0.0
173
     0
291
     1
 45
0.0
1001
ACAD
1000
AcDbSavedByObjectVersion
1070
     0
  0
VISUALSTYLE
  5
F94
102
{ACAD_XDICTIONARY
360
F10ABF
102
}
102
{ACAD_REACTORS
330
F93
102
}
330
F93
100
AcDbVisualStyle
  2

 70
     0
 71
     2
 72
     1
 73
     1
 90
        2
 40
-0.6
 41
30.0
 62
     5
 63
     7
 74
     0
 91
        4
 64
     7
 65
   257
 75
     1
175
     1
 42
1.0
 92
        8
 66
     7
 43
1.0
 76
     1
 77
     6
 78
     2
 67
     7
 79
     5
170
     0
171
     0
290
     0
174
     0
 93
       13
 44
0.0
173
     0
291
     1
 45
0.0
1001
ACAD
1000
AcDbSavedByObjectVersion
1070
     0
  0
VISUALSTYLE
  5
F95
102
{ACAD_XDICTIONARY
360
F10AC1
102
}
102
{ACAD_REACTORS
330
F93
102
}
330
F93
100
AcDbVisualStyle
  2

 70
     1
 71
     2
 72
     1
 73
     1
 90
        2
 40
-0.6
 41
30.0
 62
     5
 63
     7
 74
     1
 91
        4
 64
     7
 65
   257
 75
     1
175
     1
 42
1.0
 92
        0
 66
   257
 43
1.0
 76
     1
 77
     6
 78
     2
 67
     7
 79
     5
170
     0
171
     0
290
     0
174
     0
 93
       13
 44
0.0
173
     0
291
     1
 45
0.0
1001
ACAD
1000
AcDbSavedByObjectVersion
1070
     0
  0
VISUALSTYLE
  5
F96
102
{ACAD_XDICTIONARY
360
F10AC3
102
}
102
{ACAD_REACTORS
330
F93
102
}
330
F93
100
AcDbVisualStyle
  2

 70
     2
 71
     2
 72
     2
 73
     1
 90
        2
 40
-0.6
 41
30.0
 62
     5
 63
     7
 74
     0
 91
        4
 64
     7
 65
   257
 75
     1
175
     1
 42
1.0
 92
        0
 66
     7
 43
1.0
 76
     1
 77
     6
 78
     2
 67
     7
 79
     5
170
     0
171
     0
290
     0
174
     0
 93
       13
 44
0.0
173
     0
291
     1
 45
0.0
1001
ACAD
1000
AcDbSavedByObjectVersion
1070
     0
  0
VISUALSTYLE
  5
F97
102
{ACAD_XDICTIONARY
360
F10AC5
102
}
102
{ACAD_REACTORS
330
F93
102
}
330
F93
100
AcDbVisualStyle
  2

 70
     3
 71
     2
 72
     2
 73
     1
 90
        2
 40
-0.6
 41
30.0
 62
     5
 63
     7
 74
     1
 91
        4
 64
     7
 65
   257
 75
     1
175
     1
 42
1.0
 92
        0
 66
   257
 43
1.0
 76
     1
 77
     6
 78
     2
 67
     7
 79
     5
170
     0
171
     0
290
     0
174
     0
 93
       13
 44
0.0
173
     0
291
     1
 45
0.0
1001
ACAD
1000
AcDbSavedByObjectVersion
1070
     0
  0
VISUALSTYLE
  5
F10926
102
{ACAD_XDICTIONARY
360
F10AEE
102
}
102
{ACAD_REACTORS
330
F93
102
}
330
F93
100
AcDbVisualStyle
  2
Hidden
 70
     6
 71
     1
 72
     2
 73
     2
 90
        0
 40
-0.6
 41
-30.0
 62
     5
 63
     7
 74
     2
 91
        2
 64
     7
 65
   257
 75
     2
175
     1
 42
40.0
 92
        0
 66
   257
 43
1.0
 76
     1
 77
     6
 78
     2
 67
     7
 79
     3
170
     0
171
     0
290
     0
174
     0
 93
        1
 44
0.0
173
     0
291
     0
 45
0.0
1001
ACAD
1000
AcDbSavedByObjectVersion
1070
     0
  0
VISUALSTYLE
  5
FA4
102
{ACAD_XDICTIONARY
360
F10ADF
102
}
102
{ACAD_REACTORS
330
F93
102
}
330
F93
100
AcDbVisualStyle
  2

 70
    20
 71
     2
 72
     2
 73
     0
 90
        0
 40
-0.6
 41
-30.0
 62
     5
 63
     7
 74
     1
 91
        4
 64
     7
 65
   257
 75
     1
175
     1
 42
1.0
 92
       10
 66
     7
 43
1.0
 76
     1
 77
     6
 78
     2
 67
     7
 79
     5
170
     0
171
     0
290
     0
174
     0
 93
        1
 44
0.0
173
     0
291
     1
 45
0.0
1001
ACAD
1000
AcDbSavedByObjectVersion
1070
     0
  0
VISUALSTYLE
  5
FA1
102
{ACAD_XDICTIONARY
360
F10AD9
102
}
102
{ACAD_REACTORS
330
F93
102
}
330
F93
100
AcDbVisualStyle
  2

 70
    14
 71
     2
 72
     2
 73
     0
 90
        0
 40
-0.6
 41
-30.0
 62
     5
 63
     7
 74
     1
 91
        4
 64
     7
 65
   257
 75
     7
175
     7
 42
1.0
 92
        8
 66
     7
 43
1.0
 76
     1
 77
     6
 78
     2
 67
     7
 79
     5
170
     0
171
     0
290
     0
174
     0
 93
        1
 44
0.0
173
     0
291
     1
 45
0.0
1001
ACAD
1000
AcDbSavedByObjectVersion
1070
     0
  0
VISUALSTYLE
  5
FA5
102
{ACAD_XDICTIONARY
360
F10AE1
102
}
102
{ACAD_REACTORS
330
F93
102
}
330
F93
100
AcDbVisualStyle
  2

 70
    21
 71
     2
 72
     2
 73
     0
 90
        0
 40
-0.6
 41
-30.0
 62
     5
 63
     7
 74
     1
 91
        4
 64
     7
 65
   257
 75
     1
175
     1
 42
1.0
 92
        9
 66
     7
 43
1.0
 76
     1
 77
     6
 78
     2
 67
     7
 79
     5
170
     0
171
     0
290
     0
174
     0
 93
        1
 44
0.0
173
     0
291
     1
 45
0.0
1001
ACAD
1000
AcDbSavedByObjectVersion
1070
     0
  0
VISUALSTYLE
  5
F9D
102
{ACAD_XDICTIONARY
360
F10AD1
102
}
102
{ACAD_REACTORS
330
F93
102
}
330
F93
100
AcDbVisualStyle
  2

 70
     8
 71
     2
 72
     2
 73
     0
 90
        0
 40
-0.6
 41
-30.0
 62
     5
 63
     7
 74
     1
 91
        0
 64
     7
 65
   257
 75
     1
175
     1
 42
1.0
 92
        8
 66
     8
 43
1.0
 76
     1
 77
     6
 78
     2
 67
     7
 79
     5
170
     0
171
     0
290
     0
174
     0
 93
       13
 44
0.0
173
     0
291
     0
 45
0.0
1001
ACAD
1000
AcDbSavedByObjectVersion
1070
     0
  0
VISUALSTYLE
  5
F1092B
102
{ACAD_XDICTIONARY
360
F10AF8
102
}
102
{ACAD_REACTORS
330
F93
102
}
330
F93
100
AcDbVisualStyle
  2
Shaded
 70
    27
 71
     2
 72
     2
 73
     1
 90
        2
 40
-0.6
 41
30.0
 62
     5
 63
     7
 74
     0
 91
        4
 64
     7
 65
   257
 75
     1
175
     1
 42
1.0
 92
        8
 66
   257
 43
1.0
 76
     1
 77
     6
 78
     2
 67
     8
 79
     3
170
     0
171
     0
290
     0
174
     0
 93
        5
 44
0.0
173
     0
291
     0
 45
0.0
1001
ACAD
1000
AcDbSavedByObjectVersion
1070
     0
  0
VISUALSTYLE
  5
F1092A
102
{ACAD_XDICTIONARY
360
F10AF6
102
}
102
{ACAD_REACTORS
330
F93
102
}
330
F93
100
AcDbVisualStyle
  2
Shaded with edges
 70
    26
 71
     2
 72
     2
 73
     1
 90
        2
 40
-0.6
 41
30.0
 62
     5
 63
     7
 74
     1
 91
       10
 64
     7
 65
   257
 75
     2
175
     1
 42
1.0
 92
        8
 66
   257
 43
1.0
 76
     1
 77
     6
 78
     2
 67
     7
 79
     3
170
     0
171
     0
290
     0
174
     0
 93
        5
 44
0.0
173
     0
291
     0
 45
0.0
1001
ACAD
1000
AcDbSavedByObjectVersion
1070
     0
  0
VISUALSTYLE
  5
F10927
102
{ACAD_XDICTIONARY
360
F10AF0
102
}
102
{ACAD_REACTORS
330
F93
102
}
330
F93
100
AcDbVisualStyle
  2
Shades of Gray
 70
    23
 71
     2
 72
     2
 73
     3
 90
        0
 40
-0.6
 41
-30.0
 62
     5
 63
     7
 74
     2
 91
        2
 64
     7
 65
     7
 75
     1
175
     1
 42
40.0
 92
        8
 66
     7
 43
1.0
 76
     1
 77
     6
 78
     2
 67
     7
 79
     3
170
     0
171
     0
290
     0
174
     0
 93
        1
 44
0.0
173
     0
291
     0
 45
0.0
1001
ACAD
1000
AcDbSavedByObjectVersion
1070
     0
  0
VISUALSTYLE
  5
F10928
102
{ACAD_XDICTIONARY
360
F10AF2
102
}
102
{ACAD_REACTORS
330
F93
102
}
330
F93
100
AcDbVisualStyle
  2
Sketchy
 70
    24
 71
     1
 72
     2
 73
     2
 90
        0
 40
-0.6
 41
-30.0
 62
     5
 63
     7
 74
     2
 91
        2
 64
     7
 65
     7
 75
     1
175
     1
 42
40.0
 92
       11
 66
     7
 43
1.0
 76
     1
 77
     6
 78
     2
 67
     7
 79
     6
170
     0
171
     0
290
     0
174
     0
 93
        1
 44
0.0
173
     0
291
     0
 45
0.0
1001
ACAD
1000
AcDbSavedByObjectVersion
1070
     0
  0
VISUALSTYLE
  5
FA0
102
{ACAD_XDICTIONARY
360
F10AD7
102
}
102
{ACAD_REACTORS
330
F93
102
}
330
F93
100
AcDbVisualStyle
  2

 70
    13
 71
     2
 72
     2
 73
     0
 90
        0
 40
-0.6
 41
-30.0
 62
     5
 63
     7
 74
     1
 91
        4
 64
     7
 65
   257
 75
     1
175
     1
 42
1.0
 92
       12
 66
     7
 43
1.0
 76
     1
 77
     6
 78
     2
 67
     7
 79
     5
170
     0
171
     0
290
     0
174
     0
 93
        1
 44
0.0
173
     0
291
     1
 45
0.0
1001
ACAD
1000
AcDbSavedByObjectVersion
1070
     0
  0
VISUALSTYLE
  5
F10925
102
{ACAD_XDICTIONARY
360
F10AEC
102
}
102
{ACAD_REACTORS
330
F93
102
}
330
F93
100
AcDbVisualStyle
  2
Wireframe
 70
     5
 71
     0
 72
     2
 73
     0
 90
        0
 40
-0.6
 41
-30.0
 62
     5
 63
     7
 74
     1
 91
        4
 64
     7
 65
   257
 75
     1
175
     1
 42
1.0
 92
        0
 66
   257
 43
1.0
 76
     1
 77
     6
 78
     2
 67
     7
 79
     3
170
     0
171
     0
290
     0
174
     0
 93
        1
 44
0.0
173
     0
291
     0
 45
0.0
1001
ACAD
1000
AcDbSavedByObjectVersion
1070
     0
  0
VISUALSTYLE
  5
F10929
102
{ACAD_XDICTIONARY
360
F10AF4
102
}
102
{ACAD_REACTORS
330
F93
102
}
330
F93
100
AcDbVisualStyle
  2
X-Ray
 70
    25
 71
     2
 72
     2
 73
     1
 90
        1
 40
0.5
 41
-30.0
 62
     5
 63
     7
 74
     1
 91
        0
 64
     7
 65
   257
 75
     1
175
     1
 42
1.0
 92
        8
 66
     7
 43
1.0
 76
     1
 77
     6
 78
     2
 67
     7
 79
     3
170
     0
171
     0
290
     0
174
     0
 93
       13
 44
0.0
173
     0
291
     0
 45
0.0
1001
ACAD
1000
AcDbSavedByObjectVersion
1070
     0
  0
DICTIONARYVAR
  5
F10AAF
102
{ACAD_REACTORS
330
F10AAC
102
}
330
F10AAC
100
DictionaryVariables
280
     0
  1
1:1
  0
DICTIONARYVAR
  5
F10AAE
102
{ACAD_REACTORS
330
F10AAC
102
}
330
F10AAC
100
DictionaryVariables
280
     0
  1
STANDARD
  0
DICTIONARYVAR
  5
F10AAD
102
{ACAD_REACTORS
330
F10AAC
102
}
330
F10AAC
100
DictionaryVariables
280
     0
  1
STANDARD
  0
DICTIONARYVAR
  5
F10AB2
102
{ACAD_REACTORS
330
F10AAC
102
}
330
F10AAC
100
DictionaryVariables
280
     0
  1
1
  0
DICTIONARYVAR
  5
F10AB1
102
{ACAD_REACTORS
330
F10AAC
102
}
330
F10AAC
100
DictionaryVariables
280
     0
  1
0
  0
DICTIONARYVAR
  5
F10AB0
102
{ACAD_REACTORS
330
F10AAC
102
}
330
F10AAC
100
DictionaryVariables
280
     0
  1
127
  0
DICTIONARYVAR
  5
F10AB3
102
{ACAD_REACTORS
330
F10AAC
102
}
330
F10AAC
100
DictionaryVariables
280
     0
  1
2
  0
DICTIONARY
  5
F10985
102
{ACAD_REACTORS
330
F1097A
102
}
330
F1097A
100
AcDbDictionary
281
     1
  0
DICTIONARY
  5
F10AE8
330
FD1
100
AcDbDictionary
280
     1
281
     1
  3
ACAD_XREC_ROUNDTRIP
360
F10AE9
  0
DICTIONARY
  5
F10AE6
330
FD0
100
AcDbDictionary
280
     1
281
     1
  3
ACAD_XREC_ROUNDTRIP
360
F10AE7
  0
DICTIONARY
  5
F84
330
F83
100
AcDbDictionary
280
     1
281
     1
  3
ACAD_XREC_ROUNDTRIP
360
FFF
  3
BUMPTILE
360
F86
  3
DIFFUSETILE
360
F85
  3
OPACITYTILE
360
F89
  3
REFLECTIONTILE
360
F88
  3
REFRACTIONTILE
360
F8A
  3
SPECULARTILE
360
F87
  0
DICTIONARY
  5
F7C
330
F7B
100
AcDbDictionary
280
     1
281
     1
  3
ACAD_XREC_ROUNDTRIP
360
FFE
  3
BUMPTILE
360
F7E
  3
DIFFUSETILE
360
F7D
  3
OPACITYTILE
360
F81
  3
REFLECTIONTILE
360
F80
  3
REFRACTIONTILE
360
F82
  3
SPECULARTILE
360
F7F
  0
DICTIONARY
  5
F8C
330
F8B
100
AcDbDictionary
280
     1
281
     1
  3
ACAD_XREC_ROUNDTRIP
360
1000
  3
BUMPTILE
360
F8E
  3
DIFFUSETILE
360
F8D
  3
OPACITYTILE
360
F91
  3
REFLECTIONTILE
360
F90
  3
REFRACTIONTILE
360
F92
  3
SPECULARTILE
360
F8F
  0
DICTIONARY
  5
FF8
330
FA9
100
AcDbDictionary
280
     1
281
     1
  3
ACAD_ROUNDTRIP_2008_TABLESTYLE_CELLSTYLEMAP
360
F10AB4
  3
ACAD_XREC_ROUNDTRIP
360
F10AE5
  0
DICTIONARY
  5
F10AC9
330
F99
100
AcDbDictionary
280
     1
281
     1
  3
ACAD_XREC_ROUNDTRIP
360
F10ACA
  0
DICTIONARY
  5
F10ACD
330
F9B
100
AcDbDictionary
280
     1
281
     1
  3
ACAD_XREC_ROUNDTRIP
360
F10ACE
  0
DICTIONARY
  5
F10ACB
330
F9A
100
AcDbDictionary
280
     1
281
     1
  3
ACAD_XREC_ROUNDTRIP
360
F10ACC
  0
DICTIONARY
  5
F10AC7
330
F98
100
AcDbDictionary
280
     1
281
     1
  3
ACAD_XREC_ROUNDTRIP
360
F10AC8
  0
DICTIONARY
  5
F10AD5
330
F9F
100
AcDbDictionary
280
     1
281
     1
  3
ACAD_XREC_ROUNDTRIP
360
F10AD6
  0
DICTIONARY
  5
F10ADD
330
FA3
100
AcDbDictionary
280
     1
281
     1
  3
ACAD_XREC_ROUNDTRIP
360
F10ADE
  0
DICTIONARY
  5
F10ACF
330
F9C
100
AcDbDictionary
280
     1
281
     1
  3
ACAD_XREC_ROUNDTRIP
360
F10AD0
  0
DICTIONARY
  5
F10AD3
330
F9E
100
AcDbDictionary
280
     1
281
     1
  3
ACAD_XREC_ROUNDTRIP
360
F10AD4
  0
DICTIONARY
  5
F10AE3
330
FA6
100
AcDbDictionary
280
     1
281
     1
  3
ACAD_XREC_ROUNDTRIP
360
F10AE4
  0
DICTIONARY
  5
F10ADB
330
FA2
100
AcDbDictionary
280
     1
281
     1
  3
ACAD_XREC_ROUNDTRIP
360
F10ADC
  0
DICTIONARY
  5
F10ABF
330
F94
100
AcDbDictionary
280
     1
281
     1
  3
ACAD_XREC_ROUNDTRIP
360
F10AC0
  0
DICTIONARY
  5
F10AC1
330
F95
100
AcDbDictionary
280
     1
281
     1
  3
ACAD_XREC_ROUNDTRIP
360
F10AC2
  0
DICTIONARY
  5
F10AC3
330
F96
100
AcDbDictionary
280
     1
281
     1
  3
ACAD_XREC_ROUNDTRIP
360
F10AC4
  0
DICTIONARY
  5
F10AC5
330
F97
100
AcDbDictionary
280
     1
281
     1
  3
ACAD_XREC_ROUNDTRIP
360
F10AC6
  0
DICTIONARY
  5
F10AEE
330
F10926
100
AcDbDictionary
280
     1
281
     1
  3
ACAD_XREC_ROUNDTRIP
360
F10AEF
  0
DICTIONARY
  5
F10ADF
330
FA4
100
AcDbDictionary
280
     1
281
     1
  3
ACAD_XREC_ROUNDTRIP
360
F10AE0
  0
DICTIONARY
  5
F10AD9
330
FA1
100
AcDbDictionary
280
     1
281
     1
  3
ACAD_XREC_ROUNDTRIP
360
F10ADA
  0
DICTIONARY
  5
F10AE1
330
FA5
100
AcDbDictionary
280
     1
281
     1
  3
ACAD_XREC_ROUNDTRIP
360
F10AE2
  0
DICTIONARY
  5
F10AD1
330
F9D
100
AcDbDictionary
280
     1
281
     1
  3
ACAD_XREC_ROUNDTRIP
360
F10AD2
  0
DICTIONARY
  5
F10AF8
330
F1092B
100
AcDbDictionary
280
     1
281
     1
  3
ACAD_XREC_ROUNDTRIP
360
F10AF9
  0
DICTIONARY
  5
F10AF6
330
F1092A
100
AcDbDictionary
280
     1
281
     1
  3
ACAD_XREC_ROUNDTRIP
360
F10AF7
  0
DICTIONARY
  5
F10AF0
330
F10927
100
AcDbDictionary
280
     1
281
     1
  3
ACAD_XREC_ROUNDTRIP
360
F10AF1
  0
DICTIONARY
  5
F10AF2
330
F10928
100
AcDbDictionary
280
     1
281
     1
  3
ACAD_XREC_ROUNDTRIP
360
F10AF3
  0
DICTIONARY
  5
F10AD7
330
FA0
100
AcDbDictionary
280
     1
281
     1
  3
ACAD_XREC_ROUNDTRIP
360
F10AD8
  0
DICTIONARY
  5
F10AEC
330
F10925
100
AcDbDictionary
280
     1
281
     1
  3
ACAD_XREC_ROUNDTRIP
360
F10AED
  0
DICTIONARY
  5
F10AF4
330
F10929
100
AcDbDictionary
280
     1
281
     1
  3
ACAD_XREC_ROUNDTRIP
360
F10AF5
  0
XRECORD
  5
F10AE9
102
{ACAD_REACTORS
330
F10AE8
102
}
330
F10AE8
100
AcDbXrecord
280
     1
102
SHADEPLOT
 70
     0
102
SHADEPLOTRESLEVEL
 70
     2
102
SHADEPLOTCUSTOMDPI
 70
   300
  0
XRECORD
  5
F10AE7
102
{ACAD_REACTORS
330
F10AE6
102
}
330
F10AE6
100
AcDbXrecord
280
     1
102
SHADEPLOT
 70
     0
102
SHADEPLOTRESLEVEL
 70
     2
102
SHADEPLOTCUSTOMDPI
 70
   300
  0
XRECORD
  5
FFF
102
{ACAD_REACTORS
330
F84
102
}
330
F84
100
AcDbXrecord
280
     1
102
MATERIAL
148
0.0
149
0.0
149
0.0
 93
        0
 94
      127
282
     0
 72
     0
 77
     0
171
     0
175
     0
179
     0
273
     0
  0
XRECORD
  5
F86
102
{ACAD_REACTORS
330
F84
102
}
330
F84
100
AcDbXrecord
280
     1
270
     1
271
     1
  0
XRECORD
  5
F85
102
{ACAD_REACTORS
330
F84
102
}
330
F84
100
AcDbXrecord
280
     1
270
     1
271
     1
  0
XRECORD
  5
F89
102
{ACAD_REACTORS
330
F84
102
}
330
F84
100
AcDbXrecord
280
     1
270
     1
271
     1
  0
XRECORD
  5
F88
102
{ACAD_REACTORS
330
F84
102
}
330
F84
100
AcDbXrecord
280
     1
270
     1
271
     1
  0
XRECORD
  5
F8A
102
{ACAD_REACTORS
330
F84
102
}
330
F84
100
AcDbXrecord
280
     1
270
     1
271
     1
  0
XRECORD
  5
F87
102
{ACAD_REACTORS
330
F84
102
}
330
F84
100
AcDbXrecord
280
     1
270
     1
271
     1
  0
XRECORD
  5
FFE
102
{ACAD_REACTORS
330
F7C
102
}
330
F7C
100
AcDbXrecord
280
     1
102
MATERIAL
148
0.0
149
0.0
149
0.0
 93
        0
 94
      127
282
     0
 72
     0
 77
     0
171
     0
175
     0
179
     0
273
     0
  0
XRECORD
  5
F7E
102
{ACAD_REACTORS
330
F7C
102
}
330
F7C
100
AcDbXrecord
280
     1
270
     1
271
     1
  0
XRECORD
  5
F7D
102
{ACAD_REACTORS
330
F7C
102
}
330
F7C
100
AcDbXrecord
280
     1
270
     1
271
     1
  0
XRECORD
  5
F81
102
{ACAD_REACTORS
330
F7C
102
}
330
F7C
100
AcDbXrecord
280
     1
270
     1
271
     1
  0
XRECORD
  5
F80
102
{ACAD_REACTORS
330
F7C
102
}
330
F7C
100
AcDbXrecord
280
     1
270
     1
271
     1
  0
XRECORD
  5
F82
102
{ACAD_REACTORS
330
F7C
102
}
330
F7C
100
AcDbXrecord
280
     1
270
     1
271
     1
  0
XRECORD
  5
F7F
102
{ACAD_REACTORS
330
F7C
102
}
330
F7C
100
AcDbXrecord
280
     1
270
     1
271
     1
  0
XRECORD
  5
1000
102
{ACAD_REACTORS
330
F8C
102
}
330
F8C
100
AcDbXrecord
280
     1
102
MATERIAL
148
0.0
149
0.0
149
0.0
 93
        0
 94
      127
282
     0
 72
     0
 77
     0
171
     0
175
     0
179
     0
273
     0
  0
XRECORD
  5
F8E
102
{ACAD_REACTORS
330
F8C
102
}
330
F8C
100
AcDbXrecord
280
     1
270
     1
271
     1
  0
XRECORD
  5
F8D
102
{ACAD_REACTORS
330
F8C
102
}
330
F8C
100
AcDbXrecord
280
     1
270
     1
271
     1
  0
XRECORD
  5
F91
102
{ACAD_REACTORS
330
F8C
102
}
330
F8C
100
AcDbXrecord
280
     1
270
     1
271
     1
  0
XRECORD
  5
F90
102
{ACAD_REACTORS
330
F8C
102
}
330
F8C
100
AcDbXrecord
280
     1
270
     1
271
     1
  0
XRECORD
  5
F92
102
{ACAD_REACTORS
330
F8C
102
}
330
F8C
100
AcDbXrecord
280
     1
270
     1
271
     1
  0
XRECORD
  5
F8F
102
{ACAD_REACTORS
330
F8C
102
}
330
F8C
100
AcDbXrecord
280
     1
270
     1
271
     1
  0
CELLSTYLEMAP
  5
F10AB4
102
{ACAD_REACTORS
330
FF8
102
}
330
FF8
100
AcDbCellStyleMap
 90
        3
300
CELLSTYLE
  1
TABLEFORMAT_BEGIN
 90
        5
170
     1
 91
        0
 92
    32768
 62
   257
 93
        1
300
CONTENTFORMAT
  1
CONTENTFORMAT_BEGIN
 90
        0
 91
        0
 92
      512
 93
        0
300

 40
0.0
140
1.0
 94
        5
 62
     0
340
253
144
0.25
309
CONTENTFORMAT_END
171
     1
301
MARGIN
  1
CELLMARGIN_BEGIN
 40
0.06
 40
0.06
 40
0.06
 40
0.06
 40
0.18
 40
0.18
309
CELLMARGIN_END
 94
        6
 95
        1
302
GRIDFORMAT
  1
GRIDFORMAT_BEGIN
 90
        0
 91
        1
 62
     0
 92
       -2
340
0
 93
        0
 40
0.045
309
GRIDFORMAT_END
 95
        2
302
GRIDFORMAT
  1
GRIDFORMAT_BEGIN
 90
        0
 91
        1
 62
     0
 92
       -2
340
0
 93
        0
 40
0.045
309
GRIDFORMAT_END
 95
        4
302
GRIDFORMAT
  1
GRIDFORMAT_BEGIN
 90
        0
 91
        1
 62
     0
 92
       -2
340
0
 93
        0
 40
0.045
309
GRIDFORMAT_END
 95
        8
302
GRIDFORMAT
  1
GRIDFORMAT_BEGIN
 90
        0
 91
        1
 62
     0
 92
       -2
340
0
 93
        0
 40
0.045
309
GRIDFORMAT_END
 95
       16
302
GRIDFORMAT
  1
GRIDFORMAT_BEGIN
 90
        0
 91
        1
 62
     0
 92
       -2
340
0
 93
        0
 40
0.045
309
GRIDFORMAT_END
 95
       32
302
GRIDFORMAT
  1
GRIDFORMAT_BEGIN
 90
        0
 91
        1
 62
     0
 92
       -2
340
0
 93
        0
 40
0.045
309
GRIDFORMAT_END
309
TABLEFORMAT_END
  1
CELLSTYLE_BEGIN
 90
        1
 91
        1
300
_TITLE
309
CELLSTYLE_END
300
CELLSTYLE
  1
TABLEFORMAT_BEGIN
 90
        5
170
     1
 91
        0
 92
        0
 62
   257
 93
        1
300
CONTENTFORMAT
  1
CONTENTFORMAT_BEGIN
 90
        0
 91
        0
 92
      512
 93
        0
300

 40
0.0
140
1.0
 94
        5
 62
     0
340
253
144
0.18
309
CONTENTFORMAT_END
171
     1
301
MARGIN
  1
CELLMARGIN_BEGIN
 40
0.06
 40
0.06
 40
0.06
 40
0.06
 40
0.18
 40
0.18
309
CELLMARGIN_END
 94
        6
 95
        1
302
GRIDFORMAT
  1
GRIDFORMAT_BEGIN
 90
        0
 91
        1
 62
     0
 92
       -2
340
0
 93
        0
 40
0.045
309
GRIDFORMAT_END
 95
        2
302
GRIDFORMAT
  1
GRIDFORMAT_BEGIN
 90
        0
 91
        1
 62
     0
 92
       -2
340
0
 93
        0
 40
0.045
309
GRIDFORMAT_END
 95
        4
302
GRIDFORMAT
  1
GRIDFORMAT_BEGIN
 90
        0
 91
        1
 62
     0
 92
       -2
340
0
 93
        0
 40
0.045
309
GRIDFORMAT_END
 95
        8
302
GRIDFORMAT
  1
GRIDFORMAT_BEGIN
 90
        0
 91
        1
 62
     0
 92
       -2
340
0
 93
        0
 40
0.045
309
GRIDFORMAT_END
 95
       16
302
GRIDFORMAT
  1
GRIDFORMAT_BEGIN
 90
        0
 91
        1
 62
     0
 92
       -2
340
0
 93
        0
 40
0.045
309
GRIDFORMAT_END
 95
       32
302
GRIDFORMAT
  1
GRIDFORMAT_BEGIN
 90
        0
 91
        1
 62
     0
 92
       -2
340
0
 93
        0
 40
0.045
309
GRIDFORMAT_END
309
TABLEFORMAT_END
  1
CELLSTYLE_BEGIN
 90
        2
 91
        1
300
_HEADER
309
CELLSTYLE_END
300
CELLSTYLE
  1
TABLEFORMAT_BEGIN
 90
        5
170
     1
 91
        0
 92
        0
 62
   257
 93
        1
300
CONTENTFORMAT
  1
CONTENTFORMAT_BEGIN
 90
        0
 91
        0
 92
      512
 93
        0
300

 40
0.0
140
1.0
 94
        2
 62
     0
340
253
144
0.18
309
CONTENTFORMAT_END
171
     1
301
MARGIN
  1
CELLMARGIN_BEGIN
 40
0.06
 40
0.06
 40
0.06
 40
0.06
 40
0.18
 40
0.18
309
CELLMARGIN_END
 94
        6
 95
        1
302
GRIDFORMAT
  1
GRIDFORMAT_BEGIN
 90
        0
 91
        1
 62
     0
 92
       -2
340
0
 93
        0
 40
0.045
309
GRIDFORMAT_END
 95
        2
302
GRIDFORMAT
  1
GRIDFORMAT_BEGIN
 90
        0
 91
        1
 62
     0
 92
       -2
340
0
 93
        0
 40
0.045
309
GRIDFORMAT_END
 95
        4
302
GRIDFORMAT
  1
GRIDFORMAT_BEGIN
 90
        0
 91
        1
 62
     0
 92
       -2
340
0
 93
        0
 40
0.045
309
GRIDFORMAT_END
 95
        8
302
GRIDFORMAT
  1
GRIDFORMAT_BEGIN
 90
        0
 91
        1
 62
     0
 92
       -2
340
0
 93
        0
 40
0.045
309
GRIDFORMAT_END
 95
       16
302
GRIDFORMAT
  1
GRIDFORMAT_BEGIN
 90
        0
 91
        1
 62
     0
 92
       -2
340
0
 93
        0
 40
0.045
309
GRIDFORMAT_END
 95
       32
302
GRIDFORMAT
  1
GRIDFORMAT_BEGIN
 90
        0
 91
        1
 62
     0
 92
       -2
340
0
 93
        0
 40
0.045
309
GRIDFORMAT_END
309
TABLEFORMAT_END
  1
CELLSTYLE_BEGIN
 90
        3
 91
        2
300
_DATA
309
CELLSTYLE_END
  0
XRECORD
  5
F10AE5
102
{ACAD_REACTORS
330
FF8
102
}
330
FF8
100
AcDbXrecord
280
     1
102
ACAD_ROUNDTRIP_PRE2007_TABLESTYLE
 90
      512
 91
        0
  1

 92
      512
 93
        0
  2

 94
      512
 95
        0
  3

  0
XRECORD
  5
F10ACA
102
{ACAD_REACTORS
330
F10AC9
102
}
330
F10AC9
100
AcDbXrecord
280
     1
102
RTVSPropertyOp0
 70
     1
102
RTVSPropertyOp1
 70
     1
102
RTVSPropertyOp2
 70
     1
102
RTVSPropertyOp3
 70
     1
102
RTVSPropertyOp4
 70
     1
102
RTVSPropertyOp5
 70
     1
102
RTVSPropertyOp6
 70
     1
102
RTVSPropertyOp7
 70
     1
102
RTVSPropertyOp8
 70
     1
102
RTVSPropertyOp9
 70
     1
102
RTVSPropertyOp10
 70
     1
102
RTVSPropertyOp11
 70
     1
102
RTVSPropertyOp12
 70
     1
102
RTVSPropertyOp13
 70
     1
102
RTVSPropertyOp14
 70
     1
102
RTVSPropertyOp15
 70
     1
102
RTVSPropertyOp16
 70
     1
102
RTVSPropertyOp17
 70
     1
102
RTVSPropertyOp18
 70
     1
102
RTVSPropertyOp19
 70
     1
102
RTVSPropertyOp20
 70
     1
102
RTVSPropertyOp21
 70
     1
102
RTVSPropertyOp22
 70
     1
102
RTVSPropertyOp23
 70
     1
102
RTVSPropertyOp24
 70
     1
102
RTVSPropertyOp25
 70
     1
102
RTVSPropertyOp26
 70
     1
102
RTVSPropertyOp27
 70
     1
102
RTVSPropertyOp28
 70
     1
102
RTVSPropertyOp29
 70
     1
102
RTVSPropertyOp30
 70
     1
102
RTVSPropertyOp31
 70
     1
102
RTVSPropertyOp32
 70
     1
  0
XRECORD
  5
F10ACE
102
{ACAD_REACTORS
330
F10ACD
102
}
330
F10ACD
100
AcDbXrecord
280
     1
102
RTVSPropertyOp0
 70
     1
102
RTVSPropertyOp1
 70
     1
102
RTVSPropertyOp2
 70
     1
102
RTVSPropertyOp3
 70
     1
102
RTVSPropertyOp4
 70
     1
102
RTVSPropertyOp5
 70
     1
102
RTVSPropertyOp6
 70
     1
102
RTVSPropertyOp7
 70
     1
102
RTVSPropertyOp8
 70
     1
102
RTVSPropertyOp9
 70
     1
102
RTVSPropertyOp10
 70
     1
102
RTVSPropertyOp11
 70
     1
102
RTVSPropertyOp12
 70
     1
102
RTVSPropertyOp13
 70
     1
102
RTVSPropertyOp14
 70
     1
102
RTVSPropertyOp15
 70
     1
102
RTVSPropertyOp16
 70
     1
102
RTVSPropertyOp17
 70
     1
102
RTVSPropertyOp18
 70
     1
102
RTVSPropertyOp19
 70
     1
102
RTVSPropertyOp20
 70
     1
102
RTVSPropertyOp21
 70
     1
102
RTVSPropertyOp22
 70
     1
102
RTVSPropertyOp23
 70
     1
102
RTVSPropertyOp24
 70
     1
102
RTVSPropertyOp25
 70
     1
102
RTVSPropertyOp26
 70
     1
102
RTVSPropertyOp27
 70
     1
102
RTVSPropertyOp28
 70
     1
102
RTVSPropertyOp29
 70
     1
102
RTVSPropertyOp30
 70
     1
102
RTVSPropertyOp31
 70
     1
102
RTVSPropertyOp32
 70
     1
  0
XRECORD
  5
F10ACC
102
{ACAD_REACTORS
330
F10ACB
102
}
330
F10ACB
100
AcDbXrecord
280
     1
102
RTVSPropertyOp0
 70
     1
102
RTVSPropertyOp1
 70
     1
102
RTVSPropertyOp2
 70
     1
102
RTVSPropertyOp3
 70
     1
102
RTVSPropertyOp4
 70
     1
102
RTVSPropertyOp5
 70
     1
102
RTVSPropertyOp6
 70
     1
102
RTVSPropertyOp7
 70
     1
102
RTVSPropertyOp8
 70
     1
102
RTVSPropertyOp9
 70
     1
102
RTVSPropertyOp10
 70
     1
102
RTVSPropertyOp11
 70
     1
102
RTVSPropertyOp12
 70
     1
102
RTVSPropertyOp13
 70
     1
102
RTVSPropertyOp14
 70
     1
102
RTVSPropertyOp15
 70
     1
102
RTVSPropertyOp16
 70
     1
102
RTVSPropertyOp17
 70
     1
102
RTVSPropertyOp18
 70
     1
102
RTVSPropertyOp19
 70
     1
102
RTVSPropertyOp20
 70
     1
102
RTVSPropertyOp21
 70
     1
102
RTVSPropertyOp22
 70
     1
102
RTVSPropertyOp23
 70
     1
102
RTVSPropertyOp24
 70
     1
102
RTVSPropertyOp25
 70
     1
102
RTVSPropertyOp26
 70
     1
102
RTVSPropertyOp27
 70
     1
102
RTVSPropertyOp28
 70
     1
102
RTVSPropertyOp29
 70
     1
102
RTVSPropertyOp30
 70
     1
102
RTVSPropertyOp31
 70
     1
102
RTVSPropertyOp32
 70
     1
  0
XRECORD
  5
F10AC8
102
{ACAD_REACTORS
330
F10AC7
102
}
330
F10AC7
100
AcDbXrecord
280
     1
102
RTVSPropertyOp0
 70
     1
102
RTVSPropertyOp1
 70
     1
102
RTVSPropertyOp2
 70
     1
102
RTVSPropertyOp3
 70
     1
102
RTVSPropertyOp4
 70
     1
102
RTVSPropertyOp5
 70
     1
102
RTVSPropertyOp6
 70
     1
102
RTVSPropertyOp7
 70
     1
102
RTVSPropertyOp8
 70
     1
102
RTVSPropertyOp9
 70
     1
102
RTVSPropertyOp10
 70
     1
102
RTVSPropertyOp11
 70
     1
102
RTVSPropertyOp12
 70
     1
102
RTVSPropertyOp13
 70
     1
102
RTVSPropertyOp14
 70
     1
102
RTVSPropertyOp15
 70
     1
102
RTVSPropertyOp16
 70
     1
102
RTVSPropertyOp17
 70
     1
102
RTVSPropertyOp18
 70
     1
102
RTVSPropertyOp19
 70
     1
102
RTVSPropertyOp20
 70
     1
102
RTVSPropertyOp21
 70
     1
102
RTVSPropertyOp22
 70
     1
102
RTVSPropertyOp23
 70
     1
102
RTVSPropertyOp24
 70
     1
102
RTVSPropertyOp25
 70
     1
102
RTVSPropertyOp26
 70
     1
102
RTVSPropertyOp27
 70
     1
102
RTVSPropertyOp28
 70
     1
102
RTVSPropertyOp29
 70
     1
102
RTVSPropertyOp30
 70
     1
102
RTVSPropertyOp31
 70
     1
102
RTVSPropertyOp32
 70
     1
  0
XRECORD
  5
F10AD6
102
{ACAD_REACTORS
330
F10AD5
102
}
330
F10AD5
100
AcDbXrecord
280
     1
102
RTVSPropertyOp0
 70
     1
102
RTVSPropertyOp1
 70
     1
102
RTVSPropertyOp2
 70
     1
102
RTVSPropertyOp3
 70
     1
102
RTVSPropertyOp4
 70
     1
102
RTVSPropertyOp5
 70
     1
102
RTVSPropertyOp6
 70
     1
102
RTVSPropertyOp7
 70
     1
102
RTVSPropertyOp8
 70
     1
102
RTVSPropertyOp9
 70
     1
102
RTVSPropertyOp10
 70
     1
102
RTVSPropertyOp11
 70
     1
102
RTVSPropertyOp12
 70
     1
102
RTVSPropertyOp13
 70
     1
102
RTVSPropertyOp14
 70
     1
102
RTVSPropertyOp15
 70
     1
102
RTVSPropertyOp16
 70
     1
102
RTVSPropertyOp17
 70
     1
102
RTVSPropertyOp18
 70
     1
102
RTVSPropertyOp19
 70
     1
102
RTVSPropertyOp20
 70
     1
102
RTVSPropertyOp21
 70
     1
102
RTVSPropertyOp22
 70
     1
102
RTVSPropertyOp23
 70
     1
102
RTVSPropertyOp24
 70
     1
102
RTVSPropertyOp25
 70
     1
102
RTVSPropertyOp26
 70
     1
102
RTVSPropertyOp27
 70
     1
102
RTVSPropertyOp28
 70
     1
102
RTVSPropertyOp29
 70
     1
102
RTVSPropertyOp30
 70
     1
102
RTVSPropertyOp31
 70
     1
102
RTVSPropertyOp32
 70
     1
  0
XRECORD
  5
F10ADE
102
{ACAD_REACTORS
330
F10ADD
102
}
330
F10ADD
100
AcDbXrecord
280
     1
102
RTVSPropertyOp0
 70
     1
102
RTVSPropertyOp1
 70
     1
102
RTVSPropertyOp2
 70
     1
102
RTVSPropertyOp3
 70
     1
102
RTVSPropertyOp4
 70
     1
102
RTVSPropertyOp5
 70
     1
102
RTVSPropertyOp6
 70
     1
102
RTVSPropertyOp7
 70
     1
102
RTVSPropertyOp8
 70
     1
102
RTVSPropertyOp9
 70
     1
102
RTVSPropertyOp10
 70
     1
102
RTVSPropertyOp11
 70
     1
102
RTVSPropertyOp12
 70
     1
102
RTVSPropertyOp13
 70
     1
102
RTVSPropertyOp14
 70
     1
102
RTVSPropertyOp15
 70
     1
102
RTVSPropertyOp16
 70
     1
102
RTVSPropertyOp17
 70
     1
102
RTVSPropertyOp18
 70
     1
102
RTVSPropertyOp19
 70
     1
102
RTVSPropertyOp20
 70
     1
102
RTVSPropertyOp21
 70
     1
102
RTVSPropertyOp22
 70
     1
102
RTVSPropertyOp23
 70
     1
102
RTVSPropertyOp24
 70
     1
102
RTVSPropertyOp25
 70
     1
102
RTVSPropertyOp26
 70
     1
102
RTVSPropertyOp27
 70
     1
102
RTVSPropertyOp28
 70
     1
102
RTVSPropertyOp29
 70
     1
102
RTVSPropertyOp30
 70
     1
102
RTVSPropertyOp31
 70
     1
102
RTVSPropertyOp32
 70
     1
  0
XRECORD
  5
F10AD0
102
{ACAD_REACTORS
330
F10ACF
102
}
330
F10ACF
100
AcDbXrecord
280
     1
102
RTVSPropertyOp0
 70
     1
102
RTVSPropertyOp1
 70
     1
102
RTVSPropertyOp2
 70
     1
102
RTVSPropertyOp3
 70
     1
102
RTVSPropertyOp4
 70
     1
102
RTVSPropertyOp5
 70
     1
102
RTVSPropertyOp6
 70
     1
102
RTVSPropertyOp7
 70
     1
102
RTVSPropertyOp8
 70
     1
102
RTVSPropertyOp9
 70
     1
102
RTVSPropertyOp10
 70
     1
102
RTVSPropertyOp11
 70
     1
102
RTVSPropertyOp12
 70
     1
102
RTVSPropertyOp13
 70
     1
102
RTVSPropertyOp14
 70
     1
102
RTVSPropertyOp15
 70
     1
102
RTVSPropertyOp16
 70
     1
102
RTVSPropertyOp17
 70
     1
102
RTVSPropertyOp18
 70
     1
102
RTVSPropertyOp19
 70
     1
102
RTVSPropertyOp20
 70
     1
102
RTVSPropertyOp21
 70
     1
102
RTVSPropertyOp22
 70
     1
102
RTVSPropertyOp23
 70
     1
102
RTVSPropertyOp24
 70
     1
102
RTVSPropertyOp25
 70
     1
102
RTVSPropertyOp26
 70
     1
102
RTVSPropertyOp27
 70
     1
102
RTVSPropertyOp28
 70
     1
102
RTVSPropertyOp29
 70
     1
102
RTVSPropertyOp30
 70
     1
102
RTVSPropertyOp31
 70
     1
102
RTVSPropertyOp32
 70
     1
  0
XRECORD
  5
F10AD4
102
{ACAD_REACTORS
330
F10AD3
102
}
330
F10AD3
100
AcDbXrecord
280
     1
102
RTVSPropertyOp0
 70
     1
102
RTVSPropertyOp1
 70
     1
102
RTVSPropertyOp2
 70
     1
102
RTVSPropertyOp3
 70
     1
102
RTVSPropertyOp4
 70
     1
102
RTVSPropertyOp5
 70
     1
102
RTVSPropertyOp6
 70
     1
102
RTVSPropertyOp7
 70
     1
102
RTVSPropertyOp8
 70
     1
102
RTVSPropertyOp9
 70
     1
102
RTVSPropertyOp10
 70
     1
102
RTVSPropertyOp11
 70
     1
102
RTVSPropertyOp12
 70
     1
102
RTVSPropertyOp13
 70
     1
102
RTVSPropertyOp14
 70
     1
102
RTVSPropertyOp15
 70
     1
102
RTVSPropertyOp16
 70
     1
102
RTVSPropertyOp17
 70
     1
102
RTVSPropertyOp18
 70
     1
102
RTVSPropertyOp19
 70
     1
102
RTVSPropertyOp20
 70
     1
102
RTVSPropertyOp21
 70
     1
102
RTVSPropertyOp22
 70
     1
102
RTVSPropertyOp23
 70
     1
102
RTVSPropertyOp24
 70
     1
102
RTVSPropertyOp25
 70
     1
102
RTVSPropertyOp26
 70
     1
102
RTVSPropertyOp27
 70
     1
102
RTVSPropertyOp28
 70
     1
102
RTVSPropertyOp29
 70
     1
102
RTVSPropertyOp30
 70
     1
102
RTVSPropertyOp31
 70
     1
102
RTVSPropertyOp32
 70
     1
  0
XRECORD
  5
F10AE4
102
{ACAD_REACTORS
330
F10AE3
102
}
330
F10AE3
100
AcDbXrecord
280
     1
102
RTVSPropertyOp0
 70
     0
102
RTVSPropertyOp1
 70
     0
102
RTVSPropertyOp2
 70
     0
102
RTVSPropertyOp3
 70
     0
102
RTVSPropertyOp4
 70
     0
102
RTVSPropertyOp5
 70
     0
102
RTVSPropertyOp6
 70
     0
102
RTVSPropertyOp7
 70
     0
102
RTVSPropertyOp8
 70
     0
102
RTVSPropertyOp9
 70
     0
102
RTVSPropertyOp10
 70
     0
102
RTVSPropertyOp11
 70
     0
102
RTVSPropertyOp12
 70
     0
102
RTVSPropertyOp13
 70
     0
102
RTVSPropertyOp14
 70
     2
102
RTVSPropertyOp15
 70
     0
102
RTVSPropertyOp16
 70
     0
102
RTVSPropertyOp17
 70
     0
102
RTVSPropertyOp18
 70
     0
102
RTVSPropertyOp19
 70
     0
102
RTVSPropertyOp20
 70
     0
102
RTVSPropertyOp21
 70
     0
102
RTVSPropertyOp22
 70
     0
102
RTVSPropertyOp23
 70
     0
102
RTVSPropertyOp24
 70
     0
102
RTVSPropertyOp25
 70
     0
102
RTVSPropertyOp26
 70
     0
102
RTVSPropertyOp27
 70
     0
102
RTVSPropertyOp28
 70
     1
102
RTVSPropertyOp29
 70
     1
102
RTVSPropertyOp30
 70
     1
102
RTVSPropertyOp31
 70
     1
102
RTVSPropertyOp32
 70
     1
  0
XRECORD
  5
F10ADC
102
{ACAD_REACTORS
330
F10ADB
102
}
330
F10ADB
100
AcDbXrecord
280
     1
102
RTVSPropertyOp0
 70
     1
102
RTVSPropertyOp1
 70
     1
102
RTVSPropertyOp2
 70
     1
102
RTVSPropertyOp3
 70
     1
102
RTVSPropertyOp4
 70
     1
102
RTVSPropertyOp5
 70
     1
102
RTVSPropertyOp6
 70
     1
102
RTVSPropertyOp7
 70
     1
102
RTVSPropertyOp8
 70
     1
102
RTVSPropertyOp9
 70
     1
102
RTVSPropertyOp10
 70
     1
102
RTVSPropertyOp11
 70
     1
102
RTVSPropertyOp12
 70
     1
102
RTVSPropertyOp13
 70
     1
102
RTVSPropertyOp14
 70
     1
102
RTVSPropertyOp15
 70
     1
102
RTVSPropertyOp16
 70
     1
102
RTVSPropertyOp17
 70
     1
102
RTVSPropertyOp18
 70
     1
102
RTVSPropertyOp19
 70
     1
102
RTVSPropertyOp20
 70
     1
102
RTVSPropertyOp21
 70
     1
102
RTVSPropertyOp22
 70
     1
102
RTVSPropertyOp23
 70
     1
102
RTVSPropertyOp24
 70
     1
102
RTVSPropertyOp25
 70
     1
102
RTVSPropertyOp26
 70
     1
102
RTVSPropertyOp27
 70
     1
102
RTVSPropertyOp28
 70
     1
102
RTVSPropertyOp29
 70
     1
102
RTVSPropertyOp30
 70
     1
102
RTVSPropertyOp31
 70
     1
102
RTVSPropertyOp32
 70
     1
  0
XRECORD
  5
F10AC0
102
{ACAD_REACTORS
330
F10ABF
102
}
330
F10ABF
100
AcDbXrecord
280
     1
102
RTVSPropertyOp0
 70
     1
102
RTVSPropertyOp1
 70
     1
102
RTVSPropertyOp2
 70
     1
102
RTVSPropertyOp3
 70
     1
102
RTVSPropertyOp4
 70
     1
102
RTVSPropertyOp5
 70
     1
102
RTVSPropertyOp6
 70
     1
102
RTVSPropertyOp7
 70
     1
102
RTVSPropertyOp8
 70
     1
102
RTVSPropertyOp9
 70
     1
102
RTVSPropertyOp10
 70
     1
102
RTVSPropertyOp11
 70
     1
102
RTVSPropertyOp12
 70
     1
102
RTVSPropertyOp13
 70
     1
102
RTVSPropertyOp14
 70
     1
102
RTVSPropertyOp15
 70
     1
102
RTVSPropertyOp16
 70
     1
102
RTVSPropertyOp17
 70
     1
102
RTVSPropertyOp18
 70
     1
102
RTVSPropertyOp19
 70
     1
102
RTVSPropertyOp20
 70
     1
102
RTVSPropertyOp21
 70
     1
102
RTVSPropertyOp22
 70
     1
102
RTVSPropertyOp23
 70
     1
102
RTVSPropertyOp24
 70
     1
102
RTVSPropertyOp25
 70
     1
102
RTVSPropertyOp26
 70
     1
102
RTVSPropertyOp27
 70
     1
102
RTVSPropertyOp28
 70
     1
102
RTVSPropertyOp29
 70
     1
102
RTVSPropertyOp30
 70
     1
102
RTVSPropertyOp31
 70
     1
102
RTVSPropertyOp32
 70
     1
  0
XRECORD
  5
F10AC2
102
{ACAD_REACTORS
330
F10AC1
102
}
330
F10AC1
100
AcDbXrecord
280
     1
102
RTVSPropertyOp0
 70
     1
102
RTVSPropertyOp1
 70
     1
102
RTVSPropertyOp2
 70
     1
102
RTVSPropertyOp3
 70
     1
102
RTVSPropertyOp4
 70
     1
102
RTVSPropertyOp5
 70
     1
102
RTVSPropertyOp6
 70
     1
102
RTVSPropertyOp7
 70
     1
102
RTVSPropertyOp8
 70
     1
102
RTVSPropertyOp9
 70
     1
102
RTVSPropertyOp10
 70
     1
102
RTVSPropertyOp11
 70
     1
102
RTVSPropertyOp12
 70
     1
102
RTVSPropertyOp13
 70
     1
102
RTVSPropertyOp14
 70
     1
102
RTVSPropertyOp15
 70
     1
102
RTVSPropertyOp16
 70
     1
102
RTVSPropertyOp17
 70
     1
102
RTVSPropertyOp18
 70
     1
102
RTVSPropertyOp19
 70
     1
102
RTVSPropertyOp20
 70
     1
102
RTVSPropertyOp21
 70
     1
102
RTVSPropertyOp22
 70
     1
102
RTVSPropertyOp23
 70
     1
102
RTVSPropertyOp24
 70
     1
102
RTVSPropertyOp25
 70
     1
102
RTVSPropertyOp26
 70
     1
102
RTVSPropertyOp27
 70
     1
102
RTVSPropertyOp28
 70
     1
102
RTVSPropertyOp29
 70
     1
102
RTVSPropertyOp30
 70
     1
102
RTVSPropertyOp31
 70
     1
102
RTVSPropertyOp32
 70
     1
  0
XRECORD
  5
F10AC4
102
{ACAD_REACTORS
330
F10AC3
102
}
330
F10AC3
100
AcDbXrecord
280
     1
102
RTVSPropertyOp0
 70
     1
102
RTVSPropertyOp1
 70
     1
102
RTVSPropertyOp2
 70
     1
102
RTVSPropertyOp3
 70
     1
102
RTVSPropertyOp4
 70
     1
102
RTVSPropertyOp5
 70
     1
102
RTVSPropertyOp6
 70
     1
102
RTVSPropertyOp7
 70
     1
102
RTVSPropertyOp8
 70
     1
102
RTVSPropertyOp9
 70
     1
102
RTVSPropertyOp10
 70
     1
102
RTVSPropertyOp11
 70
     1
102
RTVSPropertyOp12
 70
     1
102
RTVSPropertyOp13
 70
     1
102
RTVSPropertyOp14
 70
     1
102
RTVSPropertyOp15
 70
     1
102
RTVSPropertyOp16
 70
     1
102
RTVSPropertyOp17
 70
     1
102
RTVSPropertyOp18
 70
     1
102
RTVSPropertyOp19
 70
     1
102
RTVSPropertyOp20
 70
     1
102
RTVSPropertyOp21
 70
     1
102
RTVSPropertyOp22
 70
     1
102
RTVSPropertyOp23
 70
     1
102
RTVSPropertyOp24
 70
     1
102
RTVSPropertyOp25
 70
     1
102
RTVSPropertyOp26
 70
     1
102
RTVSPropertyOp27
 70
     1
102
RTVSPropertyOp28
 70
     1
102
RTVSPropertyOp29
 70
     1
102
RTVSPropertyOp30
 70
     1
102
RTVSPropertyOp31
 70
     1
102
RTVSPropertyOp32
 70
     1
  0
XRECORD
  5
F10AC6
102
{ACAD_REACTORS
330
F10AC5
102
}
330
F10AC5
100
AcDbXrecord
280
     1
102
RTVSPropertyOp0
 70
     1
102
RTVSPropertyOp1
 70
     1
102
RTVSPropertyOp2
 70
     1
102
RTVSPropertyOp3
 70
     1
102
RTVSPropertyOp4
 70
     1
102
RTVSPropertyOp5
 70
     1
102
RTVSPropertyOp6
 70
     1
102
RTVSPropertyOp7
 70
     1
102
RTVSPropertyOp8
 70
     1
102
RTVSPropertyOp9
 70
     1
102
RTVSPropertyOp10
 70
     1
102
RTVSPropertyOp11
 70
     1
102
RTVSPropertyOp12
 70
     1
102
RTVSPropertyOp13
 70
     1
102
RTVSPropertyOp14
 70
     1
102
RTVSPropertyOp15
 70
     1
102
RTVSPropertyOp16
 70
     1
102
RTVSPropertyOp17
 70
     1
102
RTVSPropertyOp18
 70
     1
102
RTVSPropertyOp19
 70
     1
102
RTVSPropertyOp20
 70
     1
102
RTVSPropertyOp21
 70
     1
102
RTVSPropertyOp22
 70
     1
102
RTVSPropertyOp23
 70
     1
102
RTVSPropertyOp24
 70
     1
102
RTVSPropertyOp25
 70
     1
102
RTVSPropertyOp26
 70
     1
102
RTVSPropertyOp27
 70
     1
102
RTVSPropertyOp28
 70
     1
102
RTVSPropertyOp29
 70
     1
102
RTVSPropertyOp30
 70
     1
102
RTVSPropertyOp31
 70
     1
102
RTVSPropertyOp32
 70
     1
  0
XRECORD
  5
F10AEF
102
{ACAD_REACTORS
330
F10AEE
102
}
330
F10AEE
100
AcDbXrecord
280
     1
102
RTVSPropertyOp0
 70
     1
102
RTVSPropertyOp1
 70
     1
102
RTVSPropertyOp2
 70
     1
102
RTVSPropertyOp3
 70
     1
102
RTVSPropertyOp4
 70
     1
102
RTVSPropertyOp5
 70
     1
102
RTVSPropertyOp6
 70
     1
102
RTVSPropertyOp7
 70
     1
102
RTVSPropertyOp8
 70
     1
102
RTVSPropertyOp9
 70
     1
102
RTVSPropertyOp10
 70
     1
102
RTVSPropertyOp11
 70
     1
102
RTVSPropertyOp12
 70
     1
102
RTVSPropertyOp13
 70
     1
102
RTVSPropertyOp14
 70
     1
102
RTVSPropertyOp15
 70
     1
102
RTVSPropertyOp16
 70
     1
102
RTVSPropertyOp17
 70
     1
102
RTVSPropertyOp18
 70
     1
102
RTVSPropertyOp19
 70
     1
102
RTVSPropertyOp20
 70
     1
102
RTVSPropertyOp21
 70
     1
102
RTVSPropertyOp22
 70
     1
102
RTVSPropertyOp23
 70
     1
102
RTVSPropertyOp24
 70
     1
102
RTVSPropertyOp25
 70
     1
102
RTVSPropertyOp26
 70
     1
102
RTVSPropertyOp27
 70
     1
102
RTVSPropertyOp28
 70
     1
102
RTVSPropertyOp29
 70
     1
102
RTVSPropertyOp30
 70
     1
102
RTVSPropertyOp31
 70
     1
102
RTVSPropertyOp32
 70
     1
  0
XRECORD
  5
F10AE0
102
{ACAD_REACTORS
330
F10ADF
102
}
330
F10ADF
100
AcDbXrecord
280
     1
102
RTVSPropertyOp0
 70
     0
102
RTVSPropertyOp1
 70
     0
102
RTVSPropertyOp2
 70
     0
102
RTVSPropertyOp3
 70
     0
102
RTVSPropertyOp4
 70
     0
102
RTVSPropertyOp5
 70
     0
102
RTVSPropertyOp6
 70
     0
102
RTVSPropertyOp7
 70
     0
102
RTVSPropertyOp8
 70
     0
102
RTVSPropertyOp9
 70
     0
102
RTVSPropertyOp10
 70
     0
102
RTVSPropertyOp11
 70
     0
102
RTVSPropertyOp12
 70
     0
102
RTVSPropertyOp13
 70
     0
102
RTVSPropertyOp14
 70
     2
102
RTVSPropertyOp15
 70
     0
102
RTVSPropertyOp16
 70
     0
102
RTVSPropertyOp17
 70
     0
102
RTVSPropertyOp18
 70
     0
102
RTVSPropertyOp19
 70
     0
102
RTVSPropertyOp20
 70
     0
102
RTVSPropertyOp21
 70
     0
102
RTVSPropertyOp22
 70
     0
102
RTVSPropertyOp23
 70
     0
102
RTVSPropertyOp24
 70
     0
102
RTVSPropertyOp25
 70
     0
102
RTVSPropertyOp26
 70
     0
102
RTVSPropertyOp27
 70
     0
102
RTVSPropertyOp28
 70
     1
102
RTVSPropertyOp29
 70
     1
102
RTVSPropertyOp30
 70
     1
102
RTVSPropertyOp31
 70
     1
102
RTVSPropertyOp32
 70
     1
  0
XRECORD
  5
F10ADA
102
{ACAD_REACTORS
330
F10AD9
102
}
330
F10AD9
100
AcDbXrecord
280
     1
102
RTVSPropertyOp0
 70
     1
102
RTVSPropertyOp1
 70
     1
102
RTVSPropertyOp2
 70
     1
102
RTVSPropertyOp3
 70
     1
102
RTVSPropertyOp4
 70
     1
102
RTVSPropertyOp5
 70
     1
102
RTVSPropertyOp6
 70
     1
102
RTVSPropertyOp7
 70
     1
102
RTVSPropertyOp8
 70
     1
102
RTVSPropertyOp9
 70
     1
102
RTVSPropertyOp10
 70
     1
102
RTVSPropertyOp11
 70
     1
102
RTVSPropertyOp12
 70
     1
102
RTVSPropertyOp13
 70
     1
102
RTVSPropertyOp14
 70
     1
102
RTVSPropertyOp15
 70
     1
102
RTVSPropertyOp16
 70
     1
102
RTVSPropertyOp17
 70
     1
102
RTVSPropertyOp18
 70
     1
102
RTVSPropertyOp19
 70
     1
102
RTVSPropertyOp20
 70
     1
102
RTVSPropertyOp21
 70
     1
102
RTVSPropertyOp22
 70
     1
102
RTVSPropertyOp23
 70
     1
102
RTVSPropertyOp24
 70
     1
102
RTVSPropertyOp25
 70
     1
102
RTVSPropertyOp26
 70
     1
102
RTVSPropertyOp27
 70
     1
102
RTVSPropertyOp28
 70
     1
102
RTVSPropertyOp29
 70
     1
102
RTVSPropertyOp30
 70
     1
102
RTVSPropertyOp31
 70
     1
102
RTVSPropertyOp32
 70
     1
  0
XRECORD
  5
F10AE2
102
{ACAD_REACTORS
330
F10AE1
102
}
330
F10AE1
100
AcDbXrecord
280
     1
102
RTVSPropertyOp0
 70
     0
102
RTVSPropertyOp1
 70
     0
102
RTVSPropertyOp2
 70
     0
102
RTVSPropertyOp3
 70
     0
102
RTVSPropertyOp4
 70
     0
102
RTVSPropertyOp5
 70
     0
102
RTVSPropertyOp6
 70
     0
102
RTVSPropertyOp7
 70
     0
102
RTVSPropertyOp8
 70
     0
102
RTVSPropertyOp9
 70
     0
102
RTVSPropertyOp10
 70
     0
102
RTVSPropertyOp11
 70
     0
102
RTVSPropertyOp12
 70
     0
102
RTVSPropertyOp13
 70
     0
102
RTVSPropertyOp14
 70
     2
102
RTVSPropertyOp15
 70
     0
102
RTVSPropertyOp16
 70
     0
102
RTVSPropertyOp17
 70
     0
102
RTVSPropertyOp18
 70
     0
102
RTVSPropertyOp19
 70
     0
102
RTVSPropertyOp20
 70
     0
102
RTVSPropertyOp21
 70
     0
102
RTVSPropertyOp22
 70
     0
102
RTVSPropertyOp23
 70
     0
102
RTVSPropertyOp24
 70
     0
102
RTVSPropertyOp25
 70
     0
102
RTVSPropertyOp26
 70
     0
102
RTVSPropertyOp27
 70
     0
102
RTVSPropertyOp28
 70
     1
102
RTVSPropertyOp29
 70
     1
102
RTVSPropertyOp30
 70
     1
102
RTVSPropertyOp31
 70
     1
102
RTVSPropertyOp32
 70
     1
  0
XRECORD
  5
F10AD2
102
{ACAD_REACTORS
330
F10AD1
102
}
330
F10AD1
100
AcDbXrecord
280
     1
102
RTVSPropertyOp0
 70
     1
102
RTVSPropertyOp1
 70
     1
102
RTVSPropertyOp2
 70
     1
102
RTVSPropertyOp3
 70
     1
102
RTVSPropertyOp4
 70
     1
102
RTVSPropertyOp5
 70
     1
102
RTVSPropertyOp6
 70
     1
102
RTVSPropertyOp7
 70
     1
102
RTVSPropertyOp8
 70
     1
102
RTVSPropertyOp9
 70
     1
102
RTVSPropertyOp10
 70
     1
102
RTVSPropertyOp11
 70
     1
102
RTVSPropertyOp12
 70
     1
102
RTVSPropertyOp13
 70
     1
102
RTVSPropertyOp14
 70
     1
102
RTVSPropertyOp15
 70
     1
102
RTVSPropertyOp16
 70
     1
102
RTVSPropertyOp17
 70
     1
102
RTVSPropertyOp18
 70
     1
102
RTVSPropertyOp19
 70
     1
102
RTVSPropertyOp20
 70
     1
102
RTVSPropertyOp21
 70
     1
102
RTVSPropertyOp22
 70
     1
102
RTVSPropertyOp23
 70
     1
102
RTVSPropertyOp24
 70
     1
102
RTVSPropertyOp25
 70
     1
102
RTVSPropertyOp26
 70
     1
102
RTVSPropertyOp27
 70
     1
102
RTVSPropertyOp28
 70
     1
102
RTVSPropertyOp29
 70
     1
102
RTVSPropertyOp30
 70
     1
102
RTVSPropertyOp31
 70
     1
102
RTVSPropertyOp32
 70
     1
  0
XRECORD
  5
F10AF9
102
{ACAD_REACTORS
330
F10AF8
102
}
330
F10AF8
100
AcDbXrecord
280
     1
102
RTVSPropertyOp0
 70
     1
102
RTVSPropertyOp1
 70
     1
102
RTVSPropertyOp2
 70
     1
102
RTVSPropertyOp3
 70
     1
102
RTVSPropertyOp4
 70
     1
102
RTVSPropertyOp5
 70
     1
102
RTVSPropertyOp6
 70
     1
102
RTVSPropertyOp7
 70
     1
102
RTVSPropertyOp8
 70
     1
102
RTVSPropertyOp9
 70
     1
102
RTVSPropertyOp10
 70
     1
102
RTVSPropertyOp11
 70
     1
102
RTVSPropertyOp12
 70
     1
102
RTVSPropertyOp13
 70
     1
102
RTVSPropertyOp14
 70
     1
102
RTVSPropertyOp15
 70
     1
102
RTVSPropertyOp16
 70
     1
102
RTVSPropertyOp17
 70
     1
102
RTVSPropertyOp18
 70
     1
102
RTVSPropertyOp19
 70
     1
102
RTVSPropertyOp20
 70
     1
102
RTVSPropertyOp21
 70
     1
102
RTVSPropertyOp22
 70
     1
102
RTVSPropertyOp23
 70
     1
102
RTVSPropertyOp24
 70
     1
102
RTVSPropertyOp25
 70
     1
102
RTVSPropertyOp26
 70
     1
102
RTVSPropertyOp27
 70
     1
102
RTVSPropertyOp28
 70
     1
102
RTVSPropertyOp29
 70
     1
102
RTVSPropertyOp30
 70
     1
102
RTVSPropertyOp31
 70
     1
102
RTVSPropertyOp32
 70
     1
  0
XRECORD
  5
F10AF7
102
{ACAD_REACTORS
330
F10AF6
102
}
330
F10AF6
100
AcDbXrecord
280
     1
102
RTVSPropertyOp0
 70
     1
102
RTVSPropertyOp1
 70
     1
102
RTVSPropertyOp2
 70
     1
102
RTVSPropertyOp3
 70
     1
102
RTVSPropertyOp4
 70
     1
102
RTVSPropertyOp5
 70
     1
102
RTVSPropertyOp6
 70
     1
102
RTVSPropertyOp7
 70
     1
102
RTVSPropertyOp8
 70
     1
102
RTVSPropertyOp9
 70
     1
102
RTVSPropertyOp10
 70
     1
102
RTVSPropertyOp11
 70
     1
102
RTVSPropertyOp12
 70
     1
102
RTVSPropertyOp13
 70
     1
102
RTVSPropertyOp14
 70
     1
102
RTVSPropertyOp15
 70
     1
102
RTVSPropertyOp16
 70
     1
102
RTVSPropertyOp17
 70
     1
102
RTVSPropertyOp18
 70
     1
102
RTVSPropertyOp19
 70
     1
102
RTVSPropertyOp20
 70
     1
102
RTVSPropertyOp21
 70
     1
102
RTVSPropertyOp22
 70
     1
102
RTVSPropertyOp23
 70
     1
102
RTVSPropertyOp24
 70
     1
102
RTVSPropertyOp25
 70
     1
102
RTVSPropertyOp26
 70
     1
102
RTVSPropertyOp27
 70
     1
102
RTVSPropertyOp28
 70
     1
102
RTVSPropertyOp29
 70
     1
102
RTVSPropertyOp30
 70
     1
102
RTVSPropertyOp31
 70
     1
102
RTVSPropertyOp32
 70
     1
  0
XRECORD
  5
F10AF1
102
{ACAD_REACTORS
330
F10AF0
102
}
330
F10AF0
100
AcDbXrecord
280
     1
102
RTVSPropertyOp0
 70
     1
102
RTVSPropertyOp1
 70
     1
102
RTVSPropertyOp2
 70
     1
102
RTVSPropertyOp3
 70
     1
102
RTVSPropertyOp4
 70
     1
102
RTVSPropertyOp5
 70
     1
102
RTVSPropertyOp6
 70
     1
102
RTVSPropertyOp7
 70
     1
102
RTVSPropertyOp8
 70
     1
102
RTVSPropertyOp9
 70
     1
102
RTVSPropertyOp10
 70
     1
102
RTVSPropertyOp11
 70
     1
102
RTVSPropertyOp12
 70
     1
102
RTVSPropertyOp13
 70
     1
102
RTVSPropertyOp14
 70
     1
102
RTVSPropertyOp15
 70
     1
102
RTVSPropertyOp16
 70
     1
102
RTVSPropertyOp17
 70
     1
102
RTVSPropertyOp18
 70
     1
102
RTVSPropertyOp19
 70
     1
102
RTVSPropertyOp20
 70
     1
102
RTVSPropertyOp21
 70
     1
102
RTVSPropertyOp22
 70
     1
102
RTVSPropertyOp23
 70
     1
102
RTVSPropertyOp24
 70
     1
102
RTVSPropertyOp25
 70
     1
102
RTVSPropertyOp26
 70
     1
102
RTVSPropertyOp27
 70
     1
102
RTVSPropertyOp28
 70
     1
102
RTVSPropertyOp29
 70
     1
102
RTVSPropertyOp30
 70
     1
102
RTVSPropertyOp31
 70
     1
102
RTVSPropertyOp32
 70
     1
  0
XRECORD
  5
F10AF3
102
{ACAD_REACTORS
330
F10AF2
102
}
330
F10AF2
100
AcDbXrecord
280
     1
102
RTVSPropertyOp0
 70
     1
102
RTVSPropertyOp1
 70
     1
102
RTVSPropertyOp2
 70
     1
102
RTVSPropertyOp3
 70
     1
102
RTVSPropertyOp4
 70
     1
102
RTVSPropertyOp5
 70
     1
102
RTVSPropertyOp6
 70
     1
102
RTVSPropertyOp7
 70
     1
102
RTVSPropertyOp8
 70
     1
102
RTVSPropertyOp9
 70
     1
102
RTVSPropertyOp10
 70
     1
102
RTVSPropertyOp11
 70
     1
102
RTVSPropertyOp12
 70
     1
102
RTVSPropertyOp13
 70
     1
102
RTVSPropertyOp14
 70
     1
102
RTVSPropertyOp15
 70
     1
102
RTVSPropertyOp16
 70
     1
102
RTVSPropertyOp17
 70
     1
102
RTVSPropertyOp18
 70
     1
102
RTVSPropertyOp19
 70
     1
102
RTVSPropertyOp20
 70
     1
102
RTVSPropertyOp21
 70
     1
102
RTVSPropertyOp22
 70
     1
102
RTVSPropertyOp23
 70
     1
102
RTVSPropertyOp24
 70
     1
102
RTVSPropertyOp25
 70
     1
102
RTVSPropertyOp26
 70
     1
102
RTVSPropertyOp27
 70
     1
102
RTVSPropertyOp28
 70
     1
102
RTVSPropertyOp29
 70
     1
102
RTVSPropertyOp30
 70
     1
102
RTVSPropertyOp31
 70
     1
102
RTVSPropertyOp32
 70
     1
  0
XRECORD
  5
F10AD8
102
{ACAD_REACTORS
330
F10AD7
102
}
330
F10AD7
100
AcDbXrecord
280
     1
102
RTVSPropertyOp0
 70
     1
102
RTVSPropertyOp1
 70
     1
102
RTVSPropertyOp2
 70
     1
102
RTVSPropertyOp3
 70
     1
102
RTVSPropertyOp4
 70
     1
102
RTVSPropertyOp5
 70
     1
102
RTVSPropertyOp6
 70
     1
102
RTVSPropertyOp7
 70
     1
102
RTVSPropertyOp8
 70
     1
102
RTVSPropertyOp9
 70
     1
102
RTVSPropertyOp10
 70
     1
102
RTVSPropertyOp11
 70
     1
102
RTVSPropertyOp12
 70
     1
102
RTVSPropertyOp13
 70
     1
102
RTVSPropertyOp14
 70
     1
102
RTVSPropertyOp15
 70
     1
102
RTVSPropertyOp16
 70
     1
102
RTVSPropertyOp17
 70
     1
102
RTVSPropertyOp18
 70
     1
102
RTVSPropertyOp19
 70
     1
102
RTVSPropertyOp20
 70
     1
102
RTVSPropertyOp21
 70
     1
102
RTVSPropertyOp22
 70
     1
102
RTVSPropertyOp23
 70
     1
102
RTVSPropertyOp24
 70
     1
102
RTVSPropertyOp25
 70
     1
102
RTVSPropertyOp26
 70
     1
102
RTVSPropertyOp27
 70
     1
102
RTVSPropertyOp28
 70
     1
102
RTVSPropertyOp29
 70
     1
102
RTVSPropertyOp30
 70
     1
102
RTVSPropertyOp31
 70
     1
102
RTVSPropertyOp32
 70
     1
  0
XRECORD
  5
F10AED
102
{ACAD_REACTORS
330
F10AEC
102
}
330
F10AEC
100
AcDbXrecord
280
     1
102
RTVSPropertyOp0
 70
     1
102
RTVSPropertyOp1
 70
     1
102
RTVSPropertyOp2
 70
     1
102
RTVSPropertyOp3
 70
     1
102
RTVSPropertyOp4
 70
     1
102
RTVSPropertyOp5
 70
     1
102
RTVSPropertyOp6
 70
     1
102
RTVSPropertyOp7
 70
     1
102
RTVSPropertyOp8
 70
     1
102
RTVSPropertyOp9
 70
     1
102
RTVSPropertyOp10
 70
     1
102
RTVSPropertyOp11
 70
     1
102
RTVSPropertyOp12
 70
     1
102
RTVSPropertyOp13
 70
     1
102
RTVSPropertyOp14
 70
     1
102
RTVSPropertyOp15
 70
     1
102
RTVSPropertyOp16
 70
     1
102
RTVSPropertyOp17
 70
     1
102
RTVSPropertyOp18
 70
     1
102
RTVSPropertyOp19
 70
     1
102
RTVSPropertyOp20
 70
     1
102
RTVSPropertyOp21
 70
     1
102
RTVSPropertyOp22
 70
     1
102
RTVSPropertyOp23
 70
     1
102
RTVSPropertyOp24
 70
     1
102
RTVSPropertyOp25
 70
     1
102
RTVSPropertyOp26
 70
     1
102
RTVSPropertyOp27
 70
     1
102
RTVSPropertyOp28
 70
     1
102
RTVSPropertyOp29
 70
     1
102
RTVSPropertyOp30
 70
     1
102
RTVSPropertyOp31
 70
     1
102
RTVSPropertyOp32
 70
     1
  0
XRECORD
  5
F10AF5
102
{ACAD_REACTORS
330
F10AF4
102
}
330
F10AF4
100
AcDbXrecord
280
     1
102
RTVSPropertyOp0
 70
     1
102
RTVSPropertyOp1
 70
     1
102
RTVSPropertyOp2
 70
     1
102
RTVSPropertyOp3
 70
     1
102
RTVSPropertyOp4
 70
     1
102
RTVSPropertyOp5
 70
     1
102
RTVSPropertyOp6
 70
     1
102
RTVSPropertyOp7
 70
     1
102
RTVSPropertyOp8
 70
     1
102
RTVSPropertyOp9
 70
     1
102
RTVSPropertyOp10
 70
     1
102
RTVSPropertyOp11
 70
     1
102
RTVSPropertyOp12
 70
     1
102
RTVSPropertyOp13
 70
     1
102
RTVSPropertyOp14
 70
     1
102
RTVSPropertyOp15
 70
     1
102
RTVSPropertyOp16
 70
     1
102
RTVSPropertyOp17
 70
     1
102
RTVSPropertyOp18
 70
     1
102
RTVSPropertyOp19
 70
     1
102
RTVSPropertyOp20
 70
     1
102
RTVSPropertyOp21
 70
     1
102
RTVSPropertyOp22
 70
     1
102
RTVSPropertyOp23
 70
     1
102
RTVSPropertyOp24
 70
     1
102
RTVSPropertyOp25
 70
     1
102
RTVSPropertyOp26
 70
     1
102
RTVSPropertyOp27
 70
     1
102
RTVSPropertyOp28
 70
     1
102
RTVSPropertyOp29
 70
     1
102
RTVSPropertyOp30
 70
     1
102
RTVSPropertyOp31
 70
     1
102
RTVSPropertyOp32
 70
     1
  0
ENDSEC
  0
EOF
