  0
SECTION
  2
HEADER
  9
$ACADVER
  1
AC1015
  9
$ACADMAINTVER
 70
    20
  9
$DWGCODEPAGE
  3
ANSI_1252
  9
$INSBASE
 10
0.0
 20
0.0
 30
0.0
  9
$EXTMIN
 10
-200.924507658643
 20
-100.175054704595
 30
0.0
  9
$EXTMAX
 10
143.484682713348
 20
106.7646657571623
 30
0.0
  9
$LIMMIN
 10
0.0
 20
0.0
  9
$LIMMAX
 10
12.0
 20
9.0
  9
$ORTHOMODE
 70
     0
  9
$REGENMODE
 70
     1
  9
$FILLMODE
 70
     1
  9
$QTEXTMODE
 70
     0
  9
$MIRRTEXT
 70
     1
  9
$LTSCALE
 40
1.0
  9
$ATTMODE
 70
     1
  9
$TEXTSIZE
 40
0.2
  9
$TRACEWID
 40
0.05
  9
$TEXTSTYLE
  7
Standard
  9
$CLAYER
  8
0
  9
$CELTYPE
  6
ByLayer
  9
$CECOLOR
 62
   256
  9
$CELTSCALE
 40
1.0
  9
$DISPSILH
 70
     0
  9
$DIMSCALE
 40
1.0
  9
$DIMASZ
 40
2.5
  9
$DIMEXO
 40
0.625
  9
$DIMDLI
 40
0.38
  9
$DIMRND
 40
0.0
  9
$DIMDLE
 40
0.0
  9
$DIMEXE
 40
1.25
  9
$DIMTP
 40
0.0
  9
$DIMTM
 40
0.000000001
  9
$DIMTXT
 40
2.5
  9
$DIMCEN
 40
0.09
  9
$DIMTSZ
 40
0.0
  9
$DIMTOL
 70
     1
  9
$DIMLIM
 70
     0
  9
$DIMTIH
 70
     0
  9
$DIMTOH
 70
     0
  9
$DIMSE1
 70
     0
  9
$DIMSE2
 70
     0
  9
$DIMTAD
 70
     1
  9
$DIMZIN
 70
     0
  9
$DIMBLK
  1
VDDIM_DEFAULT
  9
$DIMASO
 70
     1
  9
$DIMSHO
 70
     1
  9
$DIMPOST
  1

  9
$DIMAPOST
  1

  9
$DIMALT
 70
     0
  9
$DIMALTD
 70
     2
  9
$DIMALTF
 40
25.4
  9
$DIMLFAC
 40
1.0
  9
$DIMTOFL
 70
     0
  9
$DIMTVP
 40
0.0
  9
$DIMTIX
 70
     0
  9
$DIMSOXD
 70
     0
  9
$DIMSAH
 70
     0
  9
$DIMBLK1
  1

  9
$DIMBLK2
  1

  9
$DIMSTYLE
  2
BEM-ISBE
  9
$DIMCLRD
 70
     0
  9
$DIMCLRE
 70
     0
  9
$DIMCLRT
 70
     0
  9
$DIMTFAC
 40
0.5
  9
$DIMGAP
 40
0.625
  9
$DIMJUST
 70
     0
  9
$DIMSD1
 70
     0
  9
$DIMSD2
 70
     0
  9
$DIMTOLJ
 70
     1
  9
$DIMTZIN
 70
     0
  9
$DIMALTZ
 70
     0
  9
$DIMALTTZ
 70
     0
  9
$DIMUPT
 70
     0
  9
$DIMDEC
 70
     3
  9
$DIMTDEC
 70
     3
  9
$DIMALTU
 70
     2
  9
$DIMALTTD
 70
     2
  9
$DIMTXSTY
  7
Standard
  9
$DIMAUNIT
 70
     0
  9
$DIMADEC
 70
     3
  9
$DIMALTRND
 40
0.0
  9
$DIMAZIN
 70
     0
  9
$DIMDSEP
 70
    46
  9
$DIMATFIT
 70
     3
  9
$DIMFRAC
 70
     0
  9
$DIMLDRBLK
  1

  9
$DIMLUNIT
 70
     2
  9
$DIMLWD
 70
    -2
  9
$DIMLWE
 70
    -2
  9
$DIMTMOVE
 70
     0
  9
$LUNITS
 70
     2
  9
$LUPREC
 70
     4
  9
$SKETCHINC
 40
0.1
  9
$FILLETRAD
 40
0.5
  9
$AUNITS
 70
     0
  9
$AUPREC
 70
     0
  9
$MENU
  1
.
  9
$ELEVATION
 40
0.0
  9
$PELEVATION
 40
0.0
  9
$THICKNESS
 40
0.0
  9
$LIMCHECK
 70
     0
  9
$CHAMFERA
 40
0.5
  9
$CHAMFERB
 40
0.5
  9
$CHAMFERC
 40
1.0
  9
$CHAMFERD
 40
0.0
  9
$SKPOLY
 70
     0
  9
$TDCREATE
 40
2456884.312382350
  9
$TDUCREATE
 40
2456884.229049016
  9
$TDUPDATE
 40
2456884.324469236
  9
$TDUUPDATE
 40
2456884.241135903
  9
$TDINDWG
 40
0.0120877894
  9
$TDUSRTIMER
 40
0.0120877546
  9
$USRTIMER
 70
     1
  9
$ANGBASE
 50
0.0
  9
$ANGDIR
 70
     0
  9
$PDMODE
 70
     0
  9
$PDSIZE
 40
0.0
  9
$PLINEWID
 40
0.0
  9
$SPLFRAME
 70
     0
  9
$SPLINETYPE
 70
     6
  9
$SPLINESEGS
 70
     8
  9
$HANDSEED
  5
F107C6
  9
$SURFTAB1
 70
     6
  9
$SURFTAB2
 70
     6
  9
$SURFTYPE
 70
     6
  9
$SURFU
 70
     6
  9
$SURFV
 70
     6
  9
$UCSBASE
  2

  9
$UCSNAME
  2

  9
$UCSORG
 10
13.25575376770013
 20
-3.293405030204667
 30
0.0
  9
$UCSXDIR
 10
1.0
 20
0.0
 30
0.0
  9
$UCSYDIR
 10
0.0
 20
1.0
 30
0.0
  9
$UCSORTHOREF
  2

  9
$UCSORTHOVIEW
 70
     0
  9
$UCSORGTOP
 10
0.0
 20
0.0
 30
0.0
  9
$UCSORGBOTTOM
 10
0.0
 20
0.0
 30
0.0
  9
$UCSORGLEFT
 10
0.0
 20
0.0
 30
0.0
  9
$UCSORGRIGHT
 10
0.0
 20
0.0
 30
0.0
  9
$UCSORGFRONT
 10
0.0
 20
0.0
 30
0.0
  9
$UCSORGBACK
 10
0.0
 20
0.0
 30
0.0
  9
$PUCSBASE
  2

  9
$PUCSNAME
  2

  9
$PUCSORG
 10
0.0
 20
0.0
 30
0.0
  9
$PUCSXDIR
 10
1.0
 20
0.0
 30
0.0
  9
$PUCSYDIR
 10
0.0
 20
1.0
 30
0.0
  9
$PUCSORTHOREF
  2

  9
$PUCSORTHOVIEW
 70
     0
  9
$PUCSORGTOP
 10
0.0
 20
0.0
 30
0.0
  9
$PUCSORGBOTTOM
 10
0.0
 20
0.0
 30
0.0
  9
$PUCSORGLEFT
 10
0.0
 20
0.0
 30
0.0
  9
$PUCSORGRIGHT
 10
0.0
 20
0.0
 30
0.0
  9
$PUCSORGFRONT
 10
0.0
 20
0.0
 30
0.0
  9
$PUCSORGBACK
 10
0.0
 20
0.0
 30
0.0
  9
$USERI1
 70
     0
  9
$USERI2
 70
     0
  9
$USERI3
 70
     0
  9
$USERI4
 70
     0
  9
$USERI5
 70
     0
  9
$USERR1
 40
0.0
  9
$USERR2
 40
0.0
  9
$USERR3
 40
0.0
  9
$USERR4
 40
0.0
  9
$USERR5
 40
0.0
  9
$WORLDVIEW
 70
     1
  9
$SHADEDGE
 70
     3
  9
$SHADEDIF
 70
    70
  9
$TILEMODE
 70
     1
  9
$MAXACTVP
 70
    64
  9
$PINSBASE
 10
0.0
 20
0.0
 30
0.0
  9
$PLIMCHECK
 70
     0
  9
$PEXTMIN
 10
1.000000000000000E+20
 20
1.000000000000000E+20
 30
1.000000000000000E+20
  9
$PEXTMAX
 10
-1.000000000000000E+20
 20
-1.000000000000000E+20
 30
-1.000000000000000E+20
  9
$PLIMMIN
 10
0.0
 20
0.0
  9
$PLIMMAX
 10
12.0
 20
9.0
  9
$UNITMODE
 70
     0
  9
$VISRETAIN
 70
     1
  9
$PLINEGEN
 70
     0
  9
$PSLTSCALE
 70
     1
  9
$TREEDEPTH
 70
  3020
  9
$CMLSTYLE
  2
Standard
  9
$CMLJUST
 70
     0
  9
$CMLSCALE
 40
1.0
  9
$PROXYGRAPHICS
 70
     1
  9
$MEASUREMENT
 70
     0
  9
$CELWEIGHT
370
    -1
  9
$ENDCAPS
280
     0
  9
$JOINSTYLE
280
     0
  9
$LWDISPLAY
290
     0
  9
$INSUNITS
 70
     4
  9
$HYPERLINKBASE
  1

  9
$STYLESHEET
  1

  9
$XEDIT
290
     1
  9
$CEPSNTYPE
380
     0
  9
$PSTYLEMODE
290
     0
  9
$FINGERPRINTGUID
  2
{FAEB1C30-E019-11D5-929B-00C0DF256EC4}
  9
$VERSIONGUID
  2
{51D7DE8A-D1B6-42F6-A6B5-1CD28B601589}
  9
$EXTNAMES
290
     1
  9
$PSVPSCALE
 40
0.0
  9
$OLESTARTUP
290
     0
  0
ENDSEC
  0
SECTION
  2
CLASSES
  0
CLASS
  1
ACDBDICTIONARYWDFLT
  2
AcDbDictionaryWithDefault
  3
ObjectDBX Classes
 90
        0
280
     0
281
     0
  0
CLASS
  1
MATERIAL
  2
AcDbMaterial
  3
ObjectDBX Classes
 90
     1153
280
     0
281
     0
  0
CLASS
  1
MLEADERSTYLE
  2
AcDbMLeaderStyle
  3
ACDB_MLEADERSTYLE_CLASS
 90
     4095
280
     0
281
     0
  0
CLASS
  1
SCALE
  2
AcDbScale
  3
ObjectDBX Classes
 90
     1153
280
     0
281
     0
  0
CLASS
  1
TABLESTYLE
  2
AcDbTableStyle
  3
ObjectDBX Classes
 90
     4095
280
     0
281
     0
  0
CLASS
  1
VISUALSTYLE
  2
AcDbVisualStyle
  3
ObjectDBX Classes
 90
     4095
280
     0
281
     0
  0
CLASS
  1
DICTIONARYVAR
  2
AcDbDictionaryVar
  3
ObjectDBX Classes
 90
        0
280
     0
281
     0
  0
CLASS
  1
CELLSTYLEMAP
  2
AcDbCellStyleMap
  3
ObjectDBX Classes
 90
     1152
280
     0
281
     0
  0
CLASS
  1
AMGSETTINGSOBJ
  2
AmgSettingsObj
  3
"AcadM|Product Description: AutoCAD Mechanical|Company: Autodesk, Inc."
 90
     1024
280
     0
281
     0
  0
CLASS
  1
ACME_DOCUMENT
  2
AcMeDbDoc
  3
AcMeServices
 90
     1024
280
     0
281
     0
  0
CLASS
  1
ACMESCOPE
  2
AcMeScope
  3
AcMeServices
 90
     1024
280
     0
281
     0
  0
CLASS
  1
ACMECOMMANDHISTORY
  2
AcMeCommandHistory
  3
AcMeServices
 90
     1024
280
     0
281
     0
  0
CLASS
  1
ACIMSYSVARMAN
  2
AcImSysVarManager
  3
AcMeServices
 90
     1024
280
     0
281
     0
  0
CLASS
  1
ACIMINTSYSVAR
  2
AcImIntSysVar
  3
AcMeServices
 90
     1024
280
     0
281
     0
  0
CLASS
  1
ACMESTATEMGR
  2
AcMeStateMgr
  3
AcMeServices
 90
     1024
280
     0
281
     0
  0
CLASS
  1
ACDBENTITYCACHE
  2
AcMeEntityCache
  3
AcMeServices
 90
     1024
280
     0
281
     0
  0
CLASS
  1
ACGREFMASTER
  2
AcGrefMaster
  3
AcAttribServices
 90
     1024
280
     0
281
     0
  0
CLASS
  1
AM_DRAWING_MGR
  2
AcDmDwgMgr
  3
AcMechDwgViewMgmt
 90
     1024
280
     0
281
     0
  0
CLASS
  1
AM_DWG_DOCUMENT
  2
AcDmDwgDocument
  3
AcMechDwgViewMgmt
 90
     1024
280
     0
281
     0
  0
CLASS
  1
AM_DWG_SHEET
  2
AcDmSheet
  3
AcMechDwgViewMgmt
 90
     1024
280
     0
281
     0
  0
CLASS
  1
AM_VIEWDIMPARMAP
  2
AcDmViewDimParMap
  3
AcMechDwgViewMgmt
 90
     1024
280
     0
281
     0
  0
CLASS
  1
AMDTINTERNALREACTOR
  2
AmdtInternalReactor
  3
AcMeServices
 90
     1024
280
     0
281
     0
  0
CLASS
  1
ACIMREALSYSVAR
  2
AcImRealSysVar
  3
AcMeServices
 90
     1024
280
     0
281
     0
  0
CLASS
  1
AM_DWGMGR_NAME
  2
AcDmDwgMgrName
  3
AcMechDwgViewMgmt
 90
     1024
280
     0
281
     0
  0
CLASS
  1
ACME_DATABASE
  2
AcMeDbDatabase
  3
AcMeServices
 90
     1024
280
     0
281
     0
  0
CLASS
  1
ACRFINSADJUSTERMGR
  2
AcRfInsAdjusterMgr
  3
AcMeServices
 90
     1024
280
     0
281
     0
  0
CLASS
  1
ACGREFACADMASTER
  2
AcGrefacadMaster
  3
AcGrefServices
 90
     1024
280
     0
281
     0
  0
CLASS
  1
AMDTMENUSTATEMGR
  2
AmdtMenuStateMgr
  3
McadcomServices
 90
     1024
280
     0
281
     0
  0
CLASS
  1
AMDTMCOMMENUSTATE
  2
AmdtMcomMenuState
  3
McadcomServices
 90
     1024
280
     0
281
     0
  0
CLASS
  1
AMIMASTER
  2
AmiMaster
  3
AmiServices
 90
     1024
280
     0
281
     0
  0
CLASS
  1
MAPIAMMOUDLE
  2
MApiAmModule
  3
MApiAmServices
 90
     1024
280
     0
281
     0
  0
CLASS
  1
ACIMSTRSYSVAR
  2
AcImStrSysVar
  3
AcMeServices
 90
     1024
280
     0
281
     0
  0
CLASS
  1
AMDTDMMENUSTATE
  2
AmdtDmMenuState
  3
AcMechDwgViewMgmt
 90
     1024
280
     0
281
     0
  0
CLASS
  1
AMDTAMMENUSTATE
  2
AmdtAmMenuState
  3
DesignerAssemblies
 90
     1024
280
     0
281
     0
  0
CLASS
  1
ACAMPROJECT
  2
AcAmProject
  3
DesignerAssemblies
 90
     1024
280
     0
281
     0
  0
CLASS
  1
ACAMGRCOMPDEF
  2
AcAmGrCompDef
  3
DesignerAssemblies
 90
     1024
280
     0
281
     0
  0
CLASS
  1
ACAMCOMPDEF
  2
AcAmCompDef
  3
DesignerAssemblies
 90
     1024
280
     0
281
     0
  0
CLASS
  1
ACAMCOMPDEFMGR
  2
AcAmCompDefMgr
  3
DesignerAssemblies
 90
     1024
280
     0
281
     0
  0
CLASS
  1
AMCONTEXTMGR
  2
AcAmContextMgr
  3
DesignerAssemblies
 90
     1024
280
     0
281
     0
  0
CLASS
  1
ACAMCONTEXTMODELER
  2
AcAmContextModeler
  3
DesignerAssemblies
 90
     1024
280
     0
281
     0
  0
CLASS
  1
ACMDATADICTIONARY
  2
AcmDataDictionary
  3
"AcmSymBB|Product Description: AutoCAD Mechanical|Company: Autodesk, Inc."
 90
     1024
280
     0
281
     0
  0
CLASS
  1
ACAMGRCOMPDEFSET
  2
AcAmGrCompDefSet
  3
DesignerAssemblies
 90
     1024
280
     0
281
     0
  0
CLASS
  1
AMDTBROWSERDBTAB
  2
AmdtBrowserDbTab
  3
McadcomServices
 90
     1024
280
     0
281
     0
  0
CLASS
  1
CBROWSERAPPOBJECT
  2
CBrowserAppObject
  3
McadcomServices
 90
     1024
280
     0
281
     0
  0
CLASS
  1
DM_PLACEHOLDER
  2
AcDmSelsetPlaceholder
  3
AcMechDwgViewMgmt
 90
     1024
280
     0
281
     0
  0
CLASS
  1
EXACXREFPANELOBJECT
  2
ExAcXREFPanelObject
  3
EXAC_ESW
 90
     1025
280
     0
281
     0
  0
CLASS
  1
NPOCOLLECTION
  2
AcDbImpNonPersistentObjectsCollection
  3
ObjectDBX Classes
 90
     1153
280
     0
281
     0
  0
CLASS
  1
ACMSTANDARDANSI
  2
AcmStandardANSI
  3
"Amdt_StdImp|Product Description: AutoCAD Mechanical|Company: Autodesk, Inc."
 90
     1024
280
     0
281
     0
  0
CLASS
  1
ACMSURFSTANDARDANSI
  2
AcmSurfTextStdANSI
  3
"Amdt_StdImp|Product Description: AutoCAD Mechanical|Company: Autodesk, Inc."
 90
     1024
280
     0
281
     0
  0
CLASS
  1
ACMFCFSTANDARDANSI
  2
AcmFCFStdANSI
  3
"Amdt_StdImp|Product Description: AutoCAD Mechanical|Company: Autodesk, Inc."
 90
     1024
280
     0
281
     0
  0
CLASS
  1
ACMWELDSTANDARDANSI
  2
AcmWeldingStdANSI
  3
"Amdt_StdImp|Product Description: AutoCAD Mechanical|Company: Autodesk, Inc."
 90
     1024
280
     0
281
     0
  0
CLASS
  1
ACMIDSTANDARDANSI
  2
AcmIdStdANSI
  3
"Amdt_StdImp|Product Description: AutoCAD Mechanical|Company: Autodesk, Inc."
 90
     1024
280
     0
281
     0
  0
CLASS
  1
ACMDATUMSTANDARDANSI
  2
AcmDatumStdANSI
  3
"Amdt_StdImp|Product Description: AutoCAD Mechanical|Company: Autodesk, Inc."
 90
     1024
280
     0
281
     0
  0
CLASS
  1
ACMBOMSTANDARDANSI
  2
AcmBOMStdANSI
  3
"Amdt_StdImp|Product Description: AutoCAD Mechanical|Company: Autodesk, Inc."
 90
     1024
280
     0
281
     0
  0
CLASS
  1
ACMDETAILSTANDARDANSI
  2
AmdtDetailSymStdANSI
  3
"Amdt_StdImp|Product Description: AutoCAD Mechanical|Company: Autodesk, Inc."
 90
     1024
280
     0
281
     0
  0
CLASS
  1
ACMSECTIONSTANDARDANSI
  2
AmdtSectionSymStdANSI
  3
"Amdt_StdImp|Product Description: AutoCAD Mechanical|Company: Autodesk, Inc."
 90
     1024
280
     0
281
     0
  0
CLASS
  1
ACMCENTERLINESTANDARDANSI
  2
AmdtCenterLineStdANSI
  3
"Amdt_StdImp|Product Description: AutoCAD Mechanical|Company: Autodesk, Inc."
 90
     1024
280
     0
281
     0
  0
CLASS
  1
ACMTHREADLINESTANDARDANSI
  2
AmdtThreadLineStdANSI
  3
"Amdt_StdImp|Product Description: AutoCAD Mechanical|Company: Autodesk, Inc."
 90
     1024
280
     0
281
     0
  0
CLASS
  1
ACMNOTESTANDARDANSI
  2
AmdtNoteStdANSI
  3
"Amdt_StdImp|Product Description: AutoCAD Mechanical|Company: Autodesk, Inc."
 90
     1024
280
     0
281
     0
  0
CLASS
  1
ACMTAPERSTANDARDANSI
  2
AcmTaperStdANSI
  3
"Amdt_StdImp|Product Description: AutoCAD Mechanical|Company: Autodesk, Inc."
 90
     1024
280
     0
281
     0
  0
CLASS
  1
ACMANOOTATIONVIEWSTANDARDANSI
  2
AmdtAnViewStdANSI
  3
"Amdt_StdImp|Product Description: AutoCAD Mechanical|Company: Autodesk, Inc."
 90
     1024
280
     0
281
     0
  0
CLASS
  1
ACAMGLAYSTD
  2
AcAmgLayStd
  3
"AmgLay|Product Description: AutoCAD Mechanical|Company: Autodesk, Inc."
 90
     1024
280
     0
281
     0
  0
CLASS
  1
ACAMGDIMSTD
  2
AcAmgDimStd
  3
"AmgDim|Product Description: AutoCAD Mechanical|Company: Autodesk, Inc."
 90
     1024
280
     0
281
     0
  0
CLASS
  1
AMGOBJPROPCFG
  2
AmgObjPropCfg
  3
"AmgLay|Product Description: AutoCAD Mechanical|Company: Autodesk, Inc."
 90
     1025
280
     0
281
     0
  0
CLASS
  1
ACAMGHOLECHARTSTDANSI
  2
AcAmgHoleChartStdANSI
  3
AmgDim|Product Description: AutoCAD Mechanical|Company: Autodesk, Inc.
 90
     1024
280
     0
281
     0
  0
CLASS
  1
ACAMGTITLESTD
  2
AcAmgTitleStd
  3
"AmgTitle|Product Description: AutoCAD Mechanical|Company: Autodesk, Inc."
 90
     4095
280
     0
281
     0
  0
CLASS
  1
AMDTNOTETEMPLATEDB
  2
AmdtNoteTemplateDB
  3
AcmSymBB|Product Description: AutoCAD Mechanical|Company: Autodesk, Inc.
 90
     1024
280
     0
281
     0
  0
CLASS
  1
ACAMGFILTERDAT
  2
AcAmgFilterDat
  3
"AcadM|Product Description: AutoCAD Mechanical|Company: Autodesk, Inc."
 90
     1024
280
     0
281
     0
  0
CLASS
  1
ACDBPLACEHOLDER
  2
AcDbPlaceHolder
  3
ObjectDBX Classes
 90
        0
280
     0
281
     0
  0
CLASS
  1
LAYOUT
  2
AcDbLayout
  3
ObjectDBX Classes
 90
        0
280
     0
281
     0
  0
ENDSEC
  0
SECTION
  2
TABLES
  0
TABLE
  2
VPORT
  5
24A
330
0
100
AcDbSymbolTable
 70
     1
  0
VPORT
  5
26B
330
24A
100
AcDbSymbolTableRecord
100
AcDbViewportTableRecord
  2
*Active
 70
     0
 10
0.0
 20
0.0
 11
1.0
 21
1.0
 12
28.53351892379442
 22
3.194280542148618
 13
0.0
 23
0.0
 14
10.0
 24
10.0
 15
10.0
 25
10.0
 16
0.0
 26
0.0
 36
1.0
 17
0.0
 27
0.0
 37
0.0
 40
231.1308375384069
 41
1.80349932705249
 42
1.0
 43
0.0
 44
0.0
 50
0.0
 51
0.0000000000007958
 71
     0
 72
   100
 73
     1
 74
     3
 75
     0
 76
     0
 77
     0
 78
     1
281
     0
 65
     0
110
0.0
120
0.0
130
0.0
111
1.0
121
0.0
131
0.0
112
0.0
122
1.0
132
0.0
 79
     0
146
0.0
  0
ENDTAB
  0
TABLE
  2
LTYPE
  5
247
330
0
100
AcDbSymbolTable
 70
    36
  0
LTYPE
  5
256
330
247
100
AcDbSymbolTableRecord
100
AcDbLinetypeTableRecord
  2
ByBlock
 70
     0
  3

 72
    65
 73
     0
 40
0.0
  0
LTYPE
  5
257
330
247
100
AcDbSymbolTableRecord
100
AcDbLinetypeTableRecord
  2
ByLayer
 70
     0
  3

 72
    65
 73
     0
 40
0.0
  0
LTYPE
  5
258
330
247
100
AcDbSymbolTableRecord
100
AcDbLinetypeTableRecord
  2
Continuous
 70
     0
  3
Solid line
 72
    65
 73
     0
 40
0.0
  0
LTYPE
  5
273
330
247
100
AcDbSymbolTableRecord
100
AcDbLinetypeTableRecord
  2
CENTER
 70
     0
  3
Center ____ _ ____ _ ____ _ ____ _ ____ _ ____
 72
    65
 73
     4
 40
2.0
 49
1.25
 74
     0
 49
-0.25
 74
     0
 49
0.25
 74
     0
 49
-0.25
 74
     0
  0
LTYPE
  5
274
330
247
100
AcDbSymbolTableRecord
100
AcDbLinetypeTableRecord
  2
DASHDOT
 70
     0
  3
Dashdot __ . __ . __ . __ . __ . __ . __ . __
 72
    65
 73
     4
 40
1.0
 49
0.5
 74
     0
 49
-0.25
 74
     0
 49
0.0
 74
     0
 49
-0.25
 74
     0
  0
LTYPE
  5
275
330
247
100
AcDbSymbolTableRecord
100
AcDbLinetypeTableRecord
  2
DASHED
 70
     0
  3
Dashed __ __ __ __ __ __ __ __ __ __ __ __ __ _
 72
    65
 73
     2
 40
0.75
 49
0.5
 74
     0
 49
-0.25
 74
     0
  0
LTYPE
  5
276
330
247
100
AcDbSymbolTableRecord
100
AcDbLinetypeTableRecord
  2
HIDDEN
 70
     0
  3
Hidden __ __ __ __ __ __ __ __ __ __ __ __ __ __
 72
    65
 73
     2
 40
0.375
 49
0.25
 74
     0
 49
-0.125
 74
     0
  0
LTYPE
  5
277
330
247
100
AcDbSymbolTableRecord
100
AcDbLinetypeTableRecord
  2
HIDDEN2
 70
     0
  3
Hidden2 _ _ _ _ _ _ _ _ _ _ _ _ _ _ _ _ _
 72
    65
 73
     2
 40
0.1875
 49
0.125
 74
     0
 49
-0.0625
 74
     0
  0
LTYPE
  5
278
330
247
100
AcDbSymbolTableRecord
100
AcDbLinetypeTableRecord
  2
BORDER
 70
     0
  3
Border __ __ . __ __ . __ __ . __ __ . __ __ .
 72
    65
 73
     6
 40
1.75
 49
0.5
 74
     0
 49
-0.25
 74
     0
 49
0.5
 74
     0
 49
-0.25
 74
     0
 49
0.0
 74
     0
 49
-0.25
 74
     0
  0
LTYPE
  5
279
330
247
100
AcDbSymbolTableRecord
100
AcDbLinetypeTableRecord
  2
BORDER2
 70
     0
  3
Border2 __.__.__.__.__.__.__.__.__.__.__.
 72
    65
 73
     6
 40
0.875
 49
0.25
 74
     0
 49
-0.125
 74
     0
 49
0.25
 74
     0
 49
-0.125
 74
     0
 49
0.0
 74
     0
 49
-0.125
 74
     0
  0
LTYPE
  5
27A
330
247
100
AcDbSymbolTableRecord
100
AcDbLinetypeTableRecord
  2
BORDERX2
 70
     0
  3
Borderx2  ____  ____  .  ____  ____  .  ___
 72
    65
 73
     6
 40
3.5
 49
1.0
 74
     0
 49
-0.5
 74
     0
 49
1.0
 74
     0
 49
-0.5
 74
     0
 49
0.0
 74
     0
 49
-0.5
 74
     0
  0
LTYPE
  5
27B
330
247
100
AcDbSymbolTableRecord
100
AcDbLinetypeTableRecord
  2
CENTER2
 70
     0
  3
Center2  ___ _ ___ _ ___ _ ___ _ ___ _ ___
 72
    65
 73
     4
 40
1.125
 49
0.75
 74
     0
 49
-0.125
 74
     0
 49
0.125
 74
     0
 49
-0.125
 74
     0
  0
LTYPE
  5
27C
330
247
100
AcDbSymbolTableRecord
100
AcDbLinetypeTableRecord
  2
CENTERX2
 70
     0
  3
Centerx2  ________  __  ________  __  _____
 72
    65
 73
     4
 40
4.0
 49
2.5
 74
     0
 49
-0.5
 74
     0
 49
0.5
 74
     0
 49
-0.5
 74
     0
  0
LTYPE
  5
27D
330
247
100
AcDbSymbolTableRecord
100
AcDbLinetypeTableRecord
  2
DASHDOT2
 70
     0
  3
Dashdot2  _._._._._._._._._._._._._._._.
 72
    65
 73
     4
 40
0.5
 49
0.25
 74
     0
 49
-0.125
 74
     0
 49
0.0
 74
     0
 49
-0.125
 74
     0
  0
LTYPE
  5
27E
330
247
100
AcDbSymbolTableRecord
100
AcDbLinetypeTableRecord
  2
DASHDOTX2
 70
     0
  3
Dashdotx2 ____  .  ____  .  ____  .  ___
 72
    65
 73
     4
 40
2.0
 49
1.0
 74
     0
 49
-0.5
 74
     0
 49
0.0
 74
     0
 49
-0.5
 74
     0
  0
LTYPE
  5
27F
330
247
100
AcDbSymbolTableRecord
100
AcDbLinetypeTableRecord
  2
DASHED2
 70
     0
  3
Dashed2 _ _ _ _ _ _ _ _ _ _ _ _ _ _ _ _ _
 72
    65
 73
     2
 40
0.375
 49
0.25
 74
     0
 49
-0.125
 74
     0
  0
LTYPE
  5
280
330
247
100
AcDbSymbolTableRecord
100
AcDbLinetypeTableRecord
  2
DASHEDX2
 70
     0
  3
Dashedx2 ____  ____  ____  ____  ____  ___
 72
    65
 73
     2
 40
1.5
 49
1.0
 74
     0
 49
-0.5
 74
     0
  0
LTYPE
  5
281
330
247
100
AcDbSymbolTableRecord
100
AcDbLinetypeTableRecord
  2
DIVIDE
 70
     0
  3
Divide ____ . . ____ . . ____ . . ____ . . ____
 72
    65
 73
     6
 40
1.25
 49
0.5
 74
     0
 49
-0.25
 74
     0
 49
0.0
 74
     0
 49
-0.25
 74
     0
 49
0.0
 74
     0
 49
-0.25
 74
     0
  0
LTYPE
  5
282
330
247
100
AcDbSymbolTableRecord
100
AcDbLinetypeTableRecord
  2
DIVIDE2
 70
     0
  3
Divide2 __..__..__..__..__..__..__..__.._
 72
    65
 73
     6
 40
0.625
 49
0.25
 74
     0
 49
-0.125
 74
     0
 49
0.0
 74
     0
 49
-0.125
 74
     0
 49
0.0
 74
     0
 49
-0.125
 74
     0
  0
LTYPE
  5
283
330
247
100
AcDbSymbolTableRecord
100
AcDbLinetypeTableRecord
  2
DIVIDEX2
 70
     0
  3
Dividex2 ________  .  .  ________  .  .  _
 72
    65
 73
     6
 40
2.5
 49
1.0
 74
     0
 49
-0.5
 74
     0
 49
0.0
 74
     0
 49
-0.5
 74
     0
 49
0.0
 74
     0
 49
-0.5
 74
     0
  0
LTYPE
  5
284
330
247
100
AcDbSymbolTableRecord
100
AcDbLinetypeTableRecord
  2
DOT
 70
     0
  3
Dot . . . . . . . . . . . . . . . . . . . . . . . .
 72
    65
 73
     2
 40
0.25
 49
0.0
 74
     0
 49
-0.25
 74
     0
  0
LTYPE
  5
285
330
247
100
AcDbSymbolTableRecord
100
AcDbLinetypeTableRecord
  2
DOT2
 70
     0
  3
Dot2 ........................................
 72
    65
 73
     2
 40
0.125
 49
0.0
 74
     0
 49
-0.125
 74
     0
  0
LTYPE
  5
286
330
247
100
AcDbSymbolTableRecord
100
AcDbLinetypeTableRecord
  2
DOTX2
 70
     0
  3
Dotx2 .  .  .  .  .  .  .  .  .  .  .  .  .  .
 72
    65
 73
     2
 40
0.5
 49
0.0
 74
     0
 49
-0.5
 74
     0
  0
LTYPE
  5
287
330
247
100
AcDbSymbolTableRecord
100
AcDbLinetypeTableRecord
  2
HIDDENX2
 70
     0
  3
Hiddenx2 ____ ____ ____ ____ ____ ____ ____
 72
    65
 73
     2
 40
0.75
 49
0.5
 74
     0
 49
-0.25
 74
     0
  0
LTYPE
  5
288
330
247
100
AcDbSymbolTableRecord
100
AcDbLinetypeTableRecord
  2
PHANTOM
 70
     0
  3
Phantom ______  __  __  ______  __  __  ______
 72
    65
 73
     6
 40
2.5
 49
1.25
 74
     0
 49
-0.25
 74
     0
 49
0.25
 74
     0
 49
-0.25
 74
     0
 49
0.25
 74
     0
 49
-0.25
 74
     0
  0
LTYPE
  5
289
330
247
100
AcDbSymbolTableRecord
100
AcDbLinetypeTableRecord
  2
PHANTOM2
 70
     0
  3
Phantom2 ___ _ _ ___ _ _ ___ _ _ ___ _ _
 72
    65
 73
     6
 40
1.25
 49
0.625
 74
     0
 49
-0.125
 74
     0
 49
0.125
 74
     0
 49
-0.125
 74
     0
 49
0.125
 74
     0
 49
-0.125
 74
     0
  0
LTYPE
  5
28A
330
247
100
AcDbSymbolTableRecord
100
AcDbLinetypeTableRecord
  2
PHANTOMX2
 70
     0
  3
Phantomx2 ____________    ____    ____   _
 72
    65
 73
     6
 40
5.0
 49
2.5
 74
     0
 49
-0.5
 74
     0
 49
0.5
 74
     0
 49
-0.5
 74
     0
 49
0.5
 74
     0
 49
-0.5
 74
     0
  0
LTYPE
  5
F105FD
330
247
100
AcDbSymbolTableRecord
100
AcDbLinetypeTableRecord
  2
AM_ISO02W050
 70
     0
  3
__ __ __ __ __ __ __ __ __ __ __ __ __ __ __
 72
    65
 73
     2
 40
7.5
 49
6.0
 74
     0
 49
-1.5
 74
     0
  0
LTYPE
  5
F105FE
330
247
100
AcDbSymbolTableRecord
100
AcDbLinetypeTableRecord
  2
AM_ISO08W050
 70
     0
  3
____ . ____ . ____ . ____ . ____ . ____ . ____
 72
    65
 73
     4
 40
18.0
 49
12.0
 74
     0
 49
-1.5
 74
     0
 49
3.0
 74
     0
 49
-1.5
 74
     0
  0
LTYPE
  5
F105FF
330
247
100
AcDbSymbolTableRecord
100
AcDbLinetypeTableRecord
  2
AM_ISO09W050
 70
     0
  3
_____ . . _____ . . _____ . . ____ .. ____
 72
    65
 73
     6
 40
22.5
 49
12.0
 74
     0
 49
-1.5
 74
     0
 49
3.0
 74
     0
 49
-1.5
 74
     0
 49
3.0
 74
     0
 49
-1.5
 74
     0
  0
LTYPE
  5
F10600
330
247
100
AcDbSymbolTableRecord
100
AcDbLinetypeTableRecord
  2
Amconstr
 70
     0
  3
_______________________
 72
    65
 73
     2
 40
9999.0
 49
9999.0
 74
     0
 49
0.0
 74
     0
  0
LTYPE
  5
F10601
330
247
100
AcDbSymbolTableRecord
100
AcDbLinetypeTableRecord
  2
AM_ISO08W050x2
 70
     0
  3
__ . __ . __ . __ . __ . __
 72
    65
 73
     4
 40
9.0
 49
6.0
 74
     0
 49
-0.75
 74
     0
 49
1.5
 74
     0
 49
-0.75
 74
     0
  0
LTYPE
  5
F10602
330
247
100
AcDbSymbolTableRecord
100
AcDbLinetypeTableRecord
  2
AM_ISO02W050x2
 70
     0
  3
 _ _ _ _ _ _ _ _ _ _ _ _
 72
    65
 73
     2
 40
3.75
 49
3.0
 74
     0
 49
-0.75
 74
     0
  0
LTYPE
  5
F10605
330
247
100
AcDbSymbolTableRecord
100
AcDbLinetypeTableRecord
  2
Amzigzag
 70
     0
  3
/\/-/\/-/\/-/\/-/\/-/\/
 72
    65
 73
     2
 40
11.0001
 49
0.0001
 74
     4
 75
   136
340
F10604
 46
0.04
 50
0.0
 44
0.0
 45
0.0
 49
-11.0
 74
     0
  0
LTYPE
  5
F10606
330
247
100
AcDbSymbolTableRecord
100
AcDbLinetypeTableRecord
  2
Amzigzag2
 70
     0
  3
/\/-/\/-/\/-/\/-/\/-/\/
 72
    65
 73
     2
 40
0.4401
 49
0.0001
 74
     4
 75
   136
340
F10604
 46
0.0016
 50
0.0
 44
0.0
 45
0.0
 49
-0.4400000000000001
 74
     0
  0
LTYPE
  5
F10614
330
247
100
AcDbSymbolTableRecord
100
AcDbLinetypeTableRecord
  2
ACANSTGB
 70
     0
  3
__ . . __ . .
 72
    65
 73
     6
 40
0.35433070866
 49
0.15748031496
 74
     0
 49
-0.03937007874
 74
     0
 49
0.03937007874
 74
     0
 49
-0.03937007874
 74
     0
 49
0.03937007874
 74
     0
 49
-0.03937007874
 74
     0
  0
LTYPE
  5
F10615
330
247
100
AcDbSymbolTableRecord
100
AcDbLinetypeTableRecord
  2
ACANSTGL
 70
     0
  3
_ _ _ _ _
 72
    65
 73
     2
 40
0.11811023622
 49
0.07874015748
 74
     0
 49
-0.03937007874
 74
     0
  0
ENDTAB
  0
TABLE
  2
LAYER
  5
244
330
0
100
AcDbSymbolTable
 70
     6
  0
LAYER
  5
252
102
{ACAD_XDICTIONARY
360
F1076C
102
}
330
244
100
AcDbSymbolTableRecord
100
AcDbLayerTableRecord
  2
0
 70
     0
 62
     7
  6
Continuous
370
     0
390
19
  0
LAYER
  5
23F
102
{ACAD_XDICTIONARY
360
F1076E
102
}
330
244
100
AcDbSymbolTableRecord
100
AcDbLayerTableRecord
  2
Bemassung
 70
     0
 62
     7
  6
Continuous
370
     0
390
19
  0
LAYER
  5
240
102
{ACAD_XDICTIONARY
360
F10770
102
}
330
244
100
AcDbSymbolTableRecord
100
AcDbLayerTableRecord
  2
Rahmen
 70
     0
 62
     7
  6
Continuous
370
     0
390
19
  0
LAYER
  5
241
102
{ACAD_XDICTIONARY
360
F10772
102
}
330
244
100
AcDbSymbolTableRecord
100
AcDbLayerTableRecord
  2
Geo
 70
     0
 62
     7
  6
Continuous
370
     0
390
19
  0
LAYER
  5
33A
330
244
100
AcDbSymbolTableRecord
100
AcDbLayerTableRecord
  2
Defpoints
 70
     0
 62
     7
  6
Continuous
290
     0
370
    -3
390
19
  0
LAYER
  5
57E
102
{ACAD_XDICTIONARY
360
F10774
102
}
330
244
100
AcDbSymbolTableRecord
100
AcDbLayerTableRecord
  2
Text
 70
     0
 62
     7
  6
Continuous
370
     0
390
19
1001
AcAecLayerStandard
1000

1000

  0
ENDTAB
  0
TABLE
  2
STYLE
  5
245
330
0
100
AcDbSymbolTable
 70
     5
  0
STYLE
  5
253
330
245
100
AcDbSymbolTableRecord
100
AcDbTextStyleTableRecord
  2
Standard
 70
     0
 40
0.0
 41
1.0
 50
0.0
 71
     0
 42
0.2
  3
Arial
  4

1001
ACAD
1000
Arial
1071
        0
  0
STYLE
  5
132
330
245
100
AcDbSymbolTableRecord
100
AcDbTextStyleTableRecord
  2
Beschriftung
 70
     0
 40
0.0
 41
1.0
 50
0.0
 71
     0
 42
0.2
  3
Arial
  4

1001
ACAD
1000
Arial
1071
        0
1001
AcadAnnotative
1000
AnnotativeData
1070
     1
1070
     1
  0
STYLE
  5
F10604
330
245
100
AcDbSymbolTableRecord
100
AcDbTextStyleTableRecord
  2

 70
     1
 40
0.0
 41
1.0
 50
0.0
 71
     0
 42
0.2
  3
genltshp.shx
  4

  0
STYLE
  5
F10612
330
245
100
AcDbSymbolTableRecord
100
AcDbTextStyleTableRecord
  2
ACANSTS
 70
     0
 40
1.0
 41
1.0
 50
0.0
 71
     0
 42
0.2
  3
romans.shx
  4

  0
STYLE
  5
F10613
330
245
100
AcDbSymbolTableRecord
100
AcDbTextStyleTableRecord
  2
ACANSGDT
 70
     0
 40
0.0
 41
1.0
 50
0.0
 71
     0
 42
0.2
  3
amgdt.shx
  4

  0
ENDTAB
  0
TABLE
  2
VIEW
  5
248
330
0
100
AcDbSymbolTable
 70
     0
  0
ENDTAB
  0
TABLE
  2
UCS
  5
249
330
0
100
AcDbSymbolTable
 70
     0
  0
ENDTAB
  0
TABLE
  2
APPID
  5
24B
330
0
100
AcDbSymbolTable
 70
    30
  0
APPID
  5
254
330
24B
100
AcDbSymbolTableRecord
100
AcDbRegAppTableRecord
  2
ACAD
 70
     0
  0
APPID
  5
26C
330
24B
100
AcDbSymbolTableRecord
100
AcDbRegAppTableRecord
  2
VD_INVISIBLE_NOT_FOR_READ
 70
     0
  0
APPID
  5
26D
330
24B
100
AcDbSymbolTableRecord
100
AcDbRegAppTableRecord
  2
VD_TEMPHATCH
 70
     0
  0
APPID
  5
26E
330
24B
100
AcDbSymbolTableRecord
100
AcDbRegAppTableRecord
  2
VDEXTRAPARAM
 70
     0
  0
APPID
  5
26F
330
24B
100
AcDbSymbolTableRecord
100
AcDbRegAppTableRecord
  2
PE_URL
 70
     0
  0
APPID
  5
270
330
24B
100
AcDbSymbolTableRecord
100
AcDbRegAppTableRecord
  2
VD_UNKNOWN
 70
     0
  0
APPID
  5
28F
330
24B
100
AcDbSymbolTableRecord
100
AcDbRegAppTableRecord
  2
AcadAnnotative
 70
     0
  0
APPID
  5
290
330
24B
100
AcDbSymbolTableRecord
100
AcDbRegAppTableRecord
  2
ACAD_DSTYLE_DIMJAG
 70
     0
  0
APPID
  5
291
330
24B
100
AcDbSymbolTableRecord
100
AcDbRegAppTableRecord
  2
ACAD_DSTYLE_DIMTALN
 70
     0
  0
APPID
  5
293
330
24B
100
AcDbSymbolTableRecord
100
AcDbRegAppTableRecord
  2
ACAD_PSEXT
 70
     0
  0
APPID
  5
42A
330
24B
100
AcDbSymbolTableRecord
100
AcDbRegAppTableRecord
  2
ACAD_MLEADERVER
 70
     0
  0
APPID
  5
532
330
24B
100
AcDbSymbolTableRecord
100
AcDbRegAppTableRecord
  2
ACAD_EXEMPT_FROM_CAD_STANDARDS
 70
     0
  0
APPID
  5
57F
330
24B
100
AcDbSymbolTableRecord
100
AcDbRegAppTableRecord
  2
AcAecLayerStandard
 70
     0
  0
APPID
  5
F10597
330
24B
100
AcDbSymbolTableRecord
100
AcDbRegAppTableRecord
  2
MCAD_NO_VIS
 70
     0
  0
APPID
  5
F10598
330
24B
100
AcDbSymbolTableRecord
100
AcDbRegAppTableRecord
  2
ACAD_TEMP_GRAPHIC
 70
     0
  0
APPID
  5
F105C1
330
24B
100
AcDbSymbolTableRecord
100
AcDbRegAppTableRecord
  2
AD_DRAW
 70
     0
  0
APPID
  5
F105C4
330
24B
100
AcDbSymbolTableRecord
100
AcDbRegAppTableRecord
  2
ACATTRIBSERVICES
 70
     0
  0
APPID
  5
F105DD
330
24B
100
AcDbSymbolTableRecord
100
AcDbRegAppTableRecord
  2
DESIGNERASSEMBLIES
 70
     0
  0
APPID
  5
F105E2
330
24B
100
AcDbSymbolTableRecord
100
AcDbRegAppTableRecord
  2
ACADM_DIM_EDIT
 70
     0
  0
APPID
  5
F105E3
330
24B
100
AcDbSymbolTableRecord
100
AcDbRegAppTableRecord
  2
AMDT_DM_ADJ
 70
     0
  0
APPID
  5
F105FB
330
24B
100
AcDbSymbolTableRecord
100
AcDbRegAppTableRecord
  2
ACAD_DSTYLE_DIMBREAK
 70
     0
  0
APPID
  5
F1061C
330
24B
100
AcDbSymbolTableRecord
100
AcDbRegAppTableRecord
  2
GENIUS_GENSCREG_15
 70
     0
  0
APPID
  5
F1061D
330
24B
100
AcDbSymbolTableRecord
100
AcDbRegAppTableRecord
  2
GENIUS_GENODEF_13
 70
     0
  0
APPID
  5
F1061E
330
24B
100
AcDbSymbolTableRecord
100
AcDbRegAppTableRecord
  2
GENIUS_GENOBJ-N-SDF_13
 70
     0
  0
APPID
  5
F10691
330
24B
100
AcDbSymbolTableRecord
100
AcDbRegAppTableRecord
  2
GENIUS_GENDTOL_13
 70
     0
  0
APPID
  5
F106DD
330
24B
100
AcDbSymbolTableRecord
100
AcDbRegAppTableRecord
  2
ACAD_DSTYLE_DIMINSPECT
 70
     0
  0
APPID
  5
F107C2
330
24B
100
AcDbSymbolTableRecord
100
AcDbRegAppTableRecord
  2
ACAD_DSTYLE_DIMARC_LENGTH_SYMBOL
 70
     0
  0
APPID
  5
F107C3
330
24B
100
AcDbSymbolTableRecord
100
AcDbRegAppTableRecord
  2
ACAD_DSTYLE_DIM_LINETYPE
 70
     0
  0
APPID
  5
F107C4
330
24B
100
AcDbSymbolTableRecord
100
AcDbRegAppTableRecord
  2
ACAD_DSTYLE_DIM_EXT1_LINETYPE
 70
     0
  0
APPID
  5
F107C5
330
24B
100
AcDbSymbolTableRecord
100
AcDbRegAppTableRecord
  2
ACAD_DSTYLE_DIM_EXT2_LINETYPE
 70
     0
  0
ENDTAB
  0
TABLE
  2
DIMSTYLE
  5
24C
330
0
100
AcDbSymbolTable
 70
     9
100
AcDbDimStyleTable
 71
     2
340
27
340
269
  0
DIMSTYLE
105
269
330
24C
100
AcDbSymbolTableRecord
100
AcDbDimStyleTableRecord
  2
Standard
 70
     0
172
     1
174
     1
288
     1
340
253
342
23C
  0
DIMSTYLE
105
137
330
24C
100
AcDbSymbolTableRecord
100
AcDbDimStyleTableRecord
  2
Beschriftung
 70
     0
 41
2.5
 42
0.625
 44
1.25
 73
     0
 74
     0
 77
     1
140
2.5
147
0.625
172
     1
174
     1
271
     2
288
     1
340
253
342
23C
1001
AcadAnnotative
1000
AnnotativeData
1070
     1
1070
     1
1001
ACAD_DSTYLE_DIMJAG
1070
   388
1040
1.5
1001
ACAD_DSTYLE_DIMTALN
1070
   392
1070
     0
  0
DIMSTYLE
105
27
102
{ACAD_REACTORS
330
F1000D
330
F10017
330
F1001C
330
F10003
330
F10008
330
F10012
102
}
330
24C
100
AcDbSymbolTableRecord
100
AcDbDimStyleTableRecord
  2
BEM-ISBE
 70
     0
 41
2.5
 42
0.625
 44
1.25
 48
0.000000001
 71
     1
 73
     0
 74
     0
 77
     1
140
2.5
146
0.5
147
0.625
171
     3
172
     1
179
     3
271
     3
272
     3
274
     3
340
253
342
23C
1001
ACAD_DSTYLE_DIMJAG
1070
   388
1040
1.5
1001
ACAD_DSTYLE_DIMTALN
1070
   392
1070
     1
  0
DIMSTYLE
105
F105FA
102
{ACAD_REACTORS
330
F105EA
102
}
330
24C
100
AcDbSymbolTableRecord
100
AcDbDimStyleTableRecord
  2
AM_ANSI
 70
     0
  4
mm
 41
0.12
 42
0.05
 43
0.5
 44
0.1
 47
0.1
 48
0.1
 78
     7
 79
     2
140
0.12
141
0.0
146
0.71
147
0.06
176
   256
177
   256
178
     2
274
     4
284
     7
340
253
371
    -1
372
    -1
1001
ACAD_DSTYLE_DIMJAG
1070
   388
1040
1.5
1001
ACAD_DSTYLE_DIMBREAK
1070
   391
1040
0.125
1001
ACAD_DSTYLE_DIMARC_LENGTH_SYMBOL
1070
   379
1070
     1
1001
ACAD_DSTYLE_DIM_LINETYPE
1070
   380
1005
256
1001
ACAD_DSTYLE_DIM_EXT1_LINETYPE
1070
   381
1005
256
1001
ACAD_DSTYLE_DIM_EXT2_LINETYPE
1070
   382
1005
256
  0
DIMSTYLE
105
F10607
330
24C
100
AcDbSymbolTableRecord
100
AcDbDimStyleTableRecord
  2
AM_ANSI$3
 70
     0
  4
mm
 41
0.12
 42
0.05
 43
0.5
 44
0.1
 47
0.1
 48
0.1
 78
     7
 79
     2
140
0.12
141
0.0
146
0.71
147
0.06
176
   256
177
   256
178
     2
274
     4
284
     7
288
     1
289
     0
340
253
371
    -1
372
    -1
1001
ACAD_DSTYLE_DIMBREAK
1070
   391
1040
0.125
1001
ACAD_DSTYLE_DIMJAG
1070
   388
1040
1.5
1001
ACAD_DSTYLE_DIMARC_LENGTH_SYMBOL
1070
   379
1070
     1
1001
ACAD_DSTYLE_DIM_LINETYPE
1070
   380
1005
256
1001
ACAD_DSTYLE_DIM_EXT1_LINETYPE
1070
   381
1005
256
1001
ACAD_DSTYLE_DIM_EXT2_LINETYPE
1070
   382
1005
256
  0
DIMSTYLE
105
F10608
330
24C
100
AcDbSymbolTableRecord
100
AcDbDimStyleTableRecord
  2
AM_ANSI$4
 70
     0
  4
mm
 41
0.12
 42
0.05
 43
0.5
 44
0.1
 47
0.1
 48
0.1
 78
     7
 79
     2
140
0.12
141
0.0
146
0.71
147
0.06
176
   256
177
   256
178
     2
274
     4
284
     7
288
     1
289
     0
340
253
371
    -1
372
    -1
1001
ACAD_DSTYLE_DIMBREAK
1070
   391
1040
0.125
1001
ACAD_DSTYLE_DIMJAG
1070
   388
1040
1.5
1001
ACAD_DSTYLE_DIMARC_LENGTH_SYMBOL
1070
   379
1070
     1
1001
ACAD_DSTYLE_DIM_LINETYPE
1070
   380
1005
256
1001
ACAD_DSTYLE_DIM_EXT1_LINETYPE
1070
   381
1005
256
1001
ACAD_DSTYLE_DIM_EXT2_LINETYPE
1070
   382
1005
256
  0
DIMSTYLE
105
F10609
330
24C
100
AcDbSymbolTableRecord
100
AcDbDimStyleTableRecord
  2
AM_ANSI$7
 70
     0
  4
mm
 41
0.12
 42
0.05
 43
0.5
 44
0.1
 47
0.1
 48
0.1
 78
     7
 79
     2
140
0.12
141
0.0
146
0.71
147
0.06
176
   256
177
   256
178
     2
274
     4
284
     7
340
253
371
    -1
372
    -1
1001
ACAD_DSTYLE_DIMBREAK
1070
   391
1040
0.125
1001
ACAD_DSTYLE_DIMJAG
1070
   388
1040
1.5
1001
ACAD_DSTYLE_DIMARC_LENGTH_SYMBOL
1070
   379
1070
     1
1001
ACAD_DSTYLE_DIM_LINETYPE
1070
   380
1005
256
1001
ACAD_DSTYLE_DIM_EXT1_LINETYPE
1070
   381
1005
256
1001
ACAD_DSTYLE_DIM_EXT2_LINETYPE
1070
   382
1005
256
  0
DIMSTYLE
105
F1060A
330
24C
100
AcDbSymbolTableRecord
100
AcDbDimStyleTableRecord
  2
AM_ANSI$SF
 70
     0
  4
mm
 41
0.12
 42
0.05
 43
0.5
 44
0.1
 47
0.1
 48
0.1
 75
     1
 76
     1
 78
     7
 79
     2
140
0.12
141
0.0
146
0.71
147
0.06
176
   256
177
   256
178
     2
274
     4
284
     7
340
253
371
    -1
372
    -1
1001
ACAD_DSTYLE_DIMBREAK
1070
   391
1040
0.125
1001
ACAD_DSTYLE_DIMJAG
1070
   388
1040
1.5
1001
ACAD_DSTYLE_DIMARC_LENGTH_SYMBOL
1070
   379
1070
     1
1001
ACAD_DSTYLE_DIM_LINETYPE
1070
   380
1005
256
1001
ACAD_DSTYLE_DIM_EXT1_LINETYPE
1070
   381
1005
256
1001
ACAD_DSTYLE_DIM_EXT2_LINETYPE
1070
   382
1005
256
  0
DIMSTYLE
105
F1060F
330
24C
100
AcDbSymbolTableRecord
100
AcDbDimStyleTableRecord
  2
AM_ANSI$SH
 70
     0
  4
mm
 41
0.12
 42
0.05
 43
0.5
 44
0.1
 47
0.1
 48
0.1
 75
     1
 76
     1
 78
     7
 79
     2
140
0.12
141
0.0
146
0.71
147
0.06
173
     1
176
   256
177
   256
178
     2
274
     4
284
     7
340
253
343
F1060B
371
    -1
372
    -1
1001
ACAD_DSTYLE_DIMBREAK
1070
   391
1040
0.125
1001
ACAD_DSTYLE_DIMJAG
1070
   388
1040
1.5
1001
ACAD_DSTYLE_DIMARC_LENGTH_SYMBOL
1070
   379
1070
     1
1001
ACAD_DSTYLE_DIM_LINETYPE
1070
   380
1005
256
1001
ACAD_DSTYLE_DIM_EXT1_LINETYPE
1070
   381
1005
256
1001
ACAD_DSTYLE_DIM_EXT2_LINETYPE
1070
   382
1005
256
  0
ENDTAB
  0
TABLE
  2
BLOCK_RECORD
  5
243
330
0
100
AcDbSymbolTable
 70
    11
  0
BLOCK_RECORD
  5
261
330
243
100
AcDbSymbolTableRecord
100
AcDbBlockTableRecord
  2
*Model_Space
340
FD0
  0
BLOCK_RECORD
  5
25D
330
243
100
AcDbSymbolTableRecord
100
AcDbBlockTableRecord
  2
*Paper_Space
340
FD1
  0
BLOCK_RECORD
  5
265
330
243
100
AcDbSymbolTableRecord
100
AcDbBlockTableRecord
  2
*Paper_Space0
340
0
  0
BLOCK_RECORD
  5
23C
330
243
100
AcDbSymbolTableRecord
100
AcDbBlockTableRecord
  2
VDDIM_DEFAULT
340
0
102
{BLKREFS
331
F1065F
331
F1069E
331
F1069F
331
F106B0
331
F106B1
331
F106C2
331
F106C3
331
F106D4
331
F106D5
331
F10766
331
F10767
102
}
  0
BLOCK_RECORD
  5
23E
330
243
100
AcDbSymbolTableRecord
100
AcDbBlockTableRecord
  2
VDDIM_NONE
340
0
  0
BLOCK_RECORD
  5
F1000C
330
243
100
AcDbSymbolTableRecord
100
AcDbBlockTableRecord
  2
*D3
340
0
  0
BLOCK_RECORD
  5
F10016
330
243
100
AcDbSymbolTableRecord
100
AcDbBlockTableRecord
  2
*D4
340
0
  0
BLOCK_RECORD
  5
F1001B
330
243
100
AcDbSymbolTableRecord
100
AcDbBlockTableRecord
  2
*D5
340
0
  0
BLOCK_RECORD
  5
F10002
330
243
100
AcDbSymbolTableRecord
100
AcDbBlockTableRecord
  2
*D6
340
0
  0
BLOCK_RECORD
  5
F10007
330
243
100
AcDbSymbolTableRecord
100
AcDbBlockTableRecord
  2
*D7
340
0
  0
BLOCK_RECORD
  5
F10011
330
243
100
AcDbSymbolTableRecord
100
AcDbBlockTableRecord
  2
*D8
340
0
  0
BLOCK_RECORD
  5
F1060B
330
243
100
AcDbSymbolTableRecord
100
AcDbBlockTableRecord
  2
GENAXEH
340
0
  0
ENDTAB
  0
ENDSEC
  0
SECTION
  2
BLOCKS
  0
BLOCK
  5
262
330
261
100
AcDbEntity
  8
0
100
AcDbBlockBegin
  2
*Model_Space
 70
     0
 10
0.0
 20
0.0
 30
0.0
  3
*Model_Space
  1

  0
ENDBLK
  5
263
330
261
100
AcDbEntity
  8
0
100
AcDbBlockEnd
  0
BLOCK
  5
25E
330
25D
100
AcDbEntity
 67
     1
  8
0
100
AcDbBlockBegin
  2
*Paper_Space
 70
     0
 10
0.0
 20
0.0
 30
0.0
  3
*Paper_Space
  1

  0
ENDBLK
  5
25F
330
25D
100
AcDbEntity
 67
     1
  8
0
100
AcDbBlockEnd
  0
BLOCK
  5
266
330
265
100
AcDbEntity
  8
0
100
AcDbBlockBegin
  2
*Paper_Space0
 70
     0
 10
0.0
 20
0.0
 30
0.0
  3
*Paper_Space0
  1

  0
VIEWPORT
  5
296
102
{ACAD_XDICTIONARY
360
F10785
102
}
330
265
100
AcDbEntity
  8
0
 60
     1
100
AcDbViewport
 10
0.0
 20
0.0
 30
0.0
 40
10.0
 41
10.0
 69
     0
 12
0.0
 22
0.0
 13
0.0
 23
0.0
 14
1.0
 24
1.0
 15
0.0
 25
0.0
 16
0.0
 26
0.0
 36
1.0
 17
0.0
 27
0.0
 37
0.0
 42
0.0
 43
0.0
 44
0.0
 45
10.0
 50
0.0
 51
0.0000000000007958
 72
   100
 90
   163872
  1

281
     0
 71
     0
 74
     0
110
0.0
120
0.0
130
0.0
111
1.0
121
0.0
131
0.0
112
0.0
122
1.0
132
0.0
 79
     0
146
0.0
1001
VD_INVISIBLE_NOT_FOR_READ
1000
VD_INVISIBLE_NOT_FOR_READ
  0
VIEWPORT
  5
297
102
{ACAD_XDICTIONARY
360
F10787
102
}
330
265
100
AcDbEntity
  8
0
 60
     1
100
AcDbViewport
 10
0.0
 20
0.0
 30
0.0
 40
10.0
 41
10.0
 69
     0
 12
0.0
 22
0.0
 13
0.0
 23
0.0
 14
1.0
 24
1.0
 15
0.0
 25
0.0
 16
0.0
 26
0.0
 36
1.0
 17
0.0
 27
0.0
 37
0.0
 42
0.0
 43
0.0
 44
0.0
 45
10.0
 50
0.0
 51
0.0000000000007958
 72
   100
 90
   163872
  1

281
     0
 71
     0
 74
     0
110
0.0
120
0.0
130
0.0
111
1.0
121
0.0
131
0.0
112
0.0
122
1.0
132
0.0
 79
     0
146
0.0
1001
VD_INVISIBLE_NOT_FOR_READ
1000
VD_INVISIBLE_NOT_FOR_READ
  0
ENDBLK
  5
267
330
265
100
AcDbEntity
  8
0
100
AcDbBlockEnd
  0
BLOCK
  5
28B
330
23C
100
AcDbEntity
  8
0
100
AcDbBlockBegin
  2
VDDIM_DEFAULT
 70
     0
 10
0.0
 20
0.0
 30
0.0
  3
VDDIM_DEFAULT
  1

  0
LWPOLYLINE
  5
23D
330
23C
100
AcDbEntity
  8
0
  6
Continuous
 62
     0
100
AcDbPolyline
 90
        4
 70
     0
 43
0.0
 10
0.0
 20
0.0
 10
-1.0
 20
-0.1665
 10
-1.0
 20
0.1665
 10
0.0
 20
0.0
1001
VDEXTRAPARAM
1071
        1
1071
        0
1071
        0
1040
1.0
1000

1000

1040
0.0
1040
0.0
  0
HATCH
  5
292
330
23C
100
AcDbEntity
  8
0
  6
Continuous
 62
     0
100
AcDbHatch
 10
0.0
 20
0.0
 30
0.0
210
0.0
220
0.0
230
1.0
  2
SOLID
 70
     1
 71
     0
 91
        1
 92
        2
 72
     0
 73
     1
 93
        3
 10
0.0
 20
0.0
 10
-1.0
 20
-0.1665
 10
-1.0
 20
0.1665
 97
        0
 75
     0
 76
     1
 98
        1
 10
0.0
 20
0.0
1001
VDEXTRAPARAM
1071
        1
1071
        0
1071
        0
1040
1.0
1000

1000

1040
0.0
1040
0.0
1001
VD_TEMPHATCH
1000
VD_TEMPHATCH
  0
ENDBLK
  5
28C
330
23C
100
AcDbEntity
  8
0
100
AcDbBlockEnd
  0
BLOCK
  5
28D
330
23E
100
AcDbEntity
  8
0
100
AcDbBlockBegin
  2
VDDIM_NONE
 70
     0
 10
0.0
 20
0.0
 30
0.0
  3
VDDIM_NONE
  1

  0
ENDBLK
  5
28E
330
23E
100
AcDbEntity
  8
0
100
AcDbBlockEnd
  0
BLOCK
  5
F10020
330
F1000C
100
AcDbEntity
  8
0
100
AcDbBlockBegin
  2
*D3
 70
     1
 10
0.0
 20
0.0
 30
0.0
  3
*D3
  1

  0
LINE
  5
F106D1
330
F1000C
100
AcDbEntity
  8
Bemassung
 62
     0
370
    -2
100
AcDbLine
 10
13.25575376770013
 20
1.331594969795332
 30
0.0
 11
13.25575376770013
 21
16.95659496979533
 31
0.0
  0
LINE
  5
F106D2
330
F1000C
100
AcDbEntity
  8
Bemassung
 62
     0
370
    -2
100
AcDbLine
 10
49.25575376770012
 20
0.8315949697953328
 30
0.0
 11
49.25575376770012
 21
16.95659496979533
 31
0.0
  0
LINE
  5
F106D3
330
F1000C
100
AcDbEntity
  8
Bemassung
 62
     0
370
    -2
100
AcDbLine
 10
15.75575376770013
 20
15.70659496979533
 30
0.0
 11
46.75575376770011
 21
15.70659496979533
 31
0.0
  0
INSERT
  5
F106D4
330
F1000C
100
AcDbEntity
  8
Bemassung
 62
     0
370
    -2
100
AcDbBlockReference
  2
VDDIM_DEFAULT
 10
13.25575376770013
 20
15.70659496979533
 30
0.0
 41
2.5
 42
2.5
 43
2.5
 50
180.0
  0
INSERT
  5
F106D5
330
F1000C
100
AcDbEntity
  8
Bemassung
 62
     0
370
    -2
100
AcDbBlockReference
  2
VDDIM_DEFAULT
 10
49.25575376770012
 20
15.70659496979533
 30
0.0
 41
2.5
 42
2.5
 43
2.5
  0
MTEXT
  5
F106D6
330
F1000C
100
AcDbEntity
  8
Bemassung
 62
     0
100
AcDbMText
 10
31.25575376770012
 20
16.33159496979533
 30
0.0
 40
2.5
 41
0.0
 71
     8
 72
     1
  1
\A1;36
 73
     1
 44
1.0
1001
ACAD
1000
MTEXTBEGIN
1070
    73
1070
     1
1070
    44
1040
1.0
1070
    74
1070
     0
1000
MTEXTEND
  0
POINT
  5
F106D7
330
F1000C
100
AcDbEntity
  8
Defpoints
 62
     0
100
AcDbPoint
 10
13.25575376770013
 20
0.7065949697953329
 30
0.0
  0
POINT
  5
F106D8
330
F1000C
100
AcDbEntity
  8
Defpoints
 62
     0
100
AcDbPoint
 10
49.25575376770012
 20
0.2065949697953329
 30
0.0
  0
POINT
  5
F106D9
330
F1000C
100
AcDbEntity
  8
Defpoints
 62
     0
100
AcDbPoint
 10
49.25575376770012
 20
15.70659496979533
 30
0.0
  0
ENDBLK
  5
F10029
330
F1000C
100
AcDbEntity
  8
0
100
AcDbBlockEnd
  0
BLOCK
  5
F1002A
330
F10016
100
AcDbEntity
  8
0
100
AcDbBlockBegin
  2
*D4
 70
     1
 10
0.0
 20
0.0
 30
0.0
  3
*D4
  1

  0
LINE
  5
F1069B
330
F10016
100
AcDbEntity
  8
Bemassung
 62
     0
370
    -2
100
AcDbLine
 10
2.25575376770012
 20
-7.918405030204667
 30
0.0
 11
2.255753767700119
 21
-23.54340503020468
 31
0.0
  0
LINE
  5
F1069C
330
F10016
100
AcDbEntity
  8
Bemassung
 62
     0
370
    -2
100
AcDbLine
 10
-13.74424623229987
 20
-23.66840503020467
 30
0.0
 11
-13.74424623229987
 21
-21.04340503020468
 31
0.0
  0
LINE
  5
F1069D
330
F10016
100
AcDbEntity
  8
Bemassung
 62
     0
370
    -2
100
AcDbLine
 10
-0.2442462322998802
 20
-22.29340503020468
 30
0.0
 11
-11.24424623229987
 21
-22.29340503020468
 31
0.0
  0
INSERT
  5
F1069E
330
F10016
100
AcDbEntity
  8
Bemassung
 62
     0
370
    -2
100
AcDbBlockReference
  2
VDDIM_DEFAULT
 10
2.255753767700119
 20
-22.29340503020468
 30
0.0
 41
2.5
 42
2.5
 43
2.5
  0
INSERT
  5
F1069F
330
F10016
100
AcDbEntity
  8
Bemassung
 62
     0
370
    -2
100
AcDbBlockReference
  2
VDDIM_DEFAULT
 10
-13.74424623229987
 20
-22.29340503020468
 30
0.0
 41
2.5
 42
2.5
 43
2.5
 50
180.0
  0
MTEXT
  5
F106A0
330
F10016
100
AcDbEntity
  8
Bemassung
 62
     0
100
AcDbMText
 10
-5.744246232299875
 20
-21.66840503020468
 30
0.0
 40
2.5
 41
0.0
 71
     8
 72
     1
  1
\A1;16
 73
     1
 44
1.0
1001
ACAD
1000
MTEXTBEGIN
1070
    73
1070
     1
1070
    44
1040
1.0
1070
    74
1070
     0
1000
MTEXTEND
  0
POINT
  5
F106A1
330
F10016
100
AcDbEntity
  8
Defpoints
 62
     0
100
AcDbPoint
 10
2.25575376770012
 20
-7.293405030204667
 30
0.0
  0
POINT
  5
F106A2
330
F10016
100
AcDbEntity
  8
Defpoints
 62
     0
100
AcDbPoint
 10
-13.74424623229987
 20
-24.29340503020467
 30
0.0
  0
POINT
  5
F106A3
330
F10016
100
AcDbEntity
  8
Defpoints
 62
     0
100
AcDbPoint
 10
-13.74424623229987
 20
-22.29340503020468
 30
0.0
  0
ENDBLK
  5
F10033
330
F10016
100
AcDbEntity
  8
0
100
AcDbBlockEnd
  0
BLOCK
  5
F10034
330
F1001B
100
AcDbEntity
  8
0
100
AcDbBlockBegin
  2
*D5
 70
     1
 10
0.0
 20
0.0
 30
0.0
  3
*D5
  1

  0
LINE
  5
F106BF
330
F1001B
100
AcDbEntity
  8
Bemassung
 62
     0
370
    -2
100
AcDbLine
 10
49.25575376770012
 20
0.8315949697953328
 30
0.0
 11
49.25575376770012
 21
31.95659496979533
 31
0.0
  0
LINE
  5
F106C0
330
F1001B
100
AcDbEntity
  8
Bemassung
 62
     0
370
    -2
100
AcDbLine
 10
-13.74424623229987
 20
-23.66840503020467
 30
0.0
 11
-13.74424623229987
 21
31.95659496979533
 31
0.0
  0
LINE
  5
F106C1
330
F1001B
100
AcDbEntity
  8
Bemassung
 62
     0
370
    -2
100
AcDbLine
 10
46.75575376770011
 20
30.70659496979533
 30
0.0
 11
-11.24424623229987
 21
30.70659496979533
 31
0.0
  0
INSERT
  5
F106C2
330
F1001B
100
AcDbEntity
  8
Bemassung
 62
     0
370
    -2
100
AcDbBlockReference
  2
VDDIM_DEFAULT
 10
49.25575376770012
 20
30.70659496979533
 30
0.0
 41
2.5
 42
2.5
 43
2.5
  0
INSERT
  5
F106C3
330
F1001B
100
AcDbEntity
  8
Bemassung
 62
     0
370
    -2
100
AcDbBlockReference
  2
VDDIM_DEFAULT
 10
-13.74424623229987
 20
30.70659496979533
 30
0.0
 41
2.5
 42
2.5
 43
2.5
 50
180.0
  0
MTEXT
  5
F106C4
330
F1001B
100
AcDbEntity
  8
Bemassung
 62
     0
100
AcDbMText
 10
17.75575376770013
 20
31.33159496979533
 30
0.0
 40
2.5
 41
0.0
 71
     8
 72
     1
  1
\A1;63
 73
     1
 44
1.0
1001
ACAD
1000
MTEXTBEGIN
1070
    73
1070
     1
1070
    44
1040
1.0
1070
    74
1070
     0
1000
MTEXTEND
  0
POINT
  5
F106C5
330
F1001B
100
AcDbEntity
  8
Defpoints
 62
     0
100
AcDbPoint
 10
49.25575376770012
 20
0.2065949697953329
 30
0.0
  0
POINT
  5
F106C6
330
F1001B
100
AcDbEntity
  8
Defpoints
 62
     0
100
AcDbPoint
 10
-13.74424623229987
 20
-24.29340503020467
 30
0.0
  0
POINT
  5
F106C7
330
F1001B
100
AcDbEntity
  8
Defpoints
 62
     0
100
AcDbPoint
 10
-13.74424623229987
 20
30.70659496979533
 30
0.0
  0
ENDBLK
  5
F1003D
330
F1001B
100
AcDbEntity
  8
0
100
AcDbBlockEnd
  0
BLOCK
  5
F1003E
330
F10002
100
AcDbEntity
  8
0
100
AcDbBlockBegin
  2
*D6
 70
     1
 10
0.0
 20
0.0
 30
0.0
  3
*D6
  1

  0
LINE
  5
F1065C
330
F10002
100
AcDbEntity
  8
Bemassung
 62
     0
370
    -2
100
AcDbLine
 10
-23.45612849593713
 20
17.42787002324033
 30
0.0
 11
-13.33124896665261
 21
2.12724173782454
 31
0.0
  0
MTEXT
  5
F1065D
330
F10002
100
AcDbEntity
  8
Bemassung
 62
     0
100
AcDbMText
 10
-21.48048053538909
 20
15.57484948649752
 30
0.0
 40
2.5
 41
0.0
 71
     8
 72
     1
  1
\A1;R4
 11
0.5518465745158085
 21
-0.8339456566198833
 31
0.0
 73
     1
 44
1.0
1001
ACAD
1000
MTEXTBEGIN
1070
    73
1070
     1
1070
    44
1040
1.0
1070
    74
1070
     0
1000
MTEXTEND
  0
LINE
  5
F1065E
330
F10002
100
AcDbEntity
  8
Bemassung
 62
     0
370
    -2
100
AcDbLine
 10
-9.744246232299873
 20
-3.293405030204667
 30
0.0
 11
-11.95163253036309
 21
0.0423775962748314
 31
0.0
  0
INSERT
  5
F1065F
330
F10002
100
AcDbEntity
  8
Bemassung
 62
     0
370
    -2
100
AcDbBlockReference
  2
VDDIM_DEFAULT
 10
-11.95163253036309
 20
0.0423775962748314
 30
0.0
 41
2.5
 42
2.5
 43
2.5
 50
303.4937881529295
  0
POINT
  5
F10660
330
F10002
100
AcDbEntity
  8
Defpoints
 62
     0
100
AcDbPoint
 10
-11.95163253036309
 20
0.0423775962748314
 30
0.0
  0
POINT
  5
F10661
330
F10002
100
AcDbEntity
  8
Defpoints
 62
     0
100
AcDbPoint
 10
-9.744246232299873
 20
-3.293405030204667
 30
0.0
  0
ENDBLK
  5
F10044
330
F10002
100
AcDbEntity
  8
0
100
AcDbBlockEnd
  0
BLOCK
  5
F10045
330
F10007
100
AcDbEntity
  8
0
100
AcDbBlockBegin
  2
*D7
 70
     1
 10
0.0
 20
0.0
 30
0.0
  3
*D7
  1

  0
LINE
  5
F106AD
330
F10007
100
AcDbEntity
  8
Bemassung
 62
     0
370
    -2
100
AcDbLine
 10
-10.36924623229988
 20
-7.293405030204666
 30
0.0
 11
-24.99424623229987
 21
-7.293405030204662
 31
0.0
  0
LINE
  5
F106AE
330
F10007
100
AcDbEntity
  8
Bemassung
 62
     0
370
    -2
100
AcDbLine
 10
-10.36924623229988
 20
0.7065949697953331
 30
0.0
 11
-24.99424623229987
 21
0.7065949697953373
 31
0.0
  0
LINE
  5
F106AF
330
F10007
100
AcDbEntity
  8
Bemassung
 62
     0
370
    -2
100
AcDbLine
 10
-23.74424623229987
 20
-4.793405030204662
 30
0.0
 11
-23.74424623229987
 21
-1.793405030204663
 31
0.0
  0
INSERT
  5
F106B0
330
F10007
100
AcDbEntity
  8
Bemassung
 62
     0
370
    -2
100
AcDbBlockReference
  2
VDDIM_DEFAULT
 10
-23.74424623229987
 20
-7.293405030204662
 30
0.0
 41
2.5
 42
2.5
 43
2.5
 50
270.0
  0
INSERT
  5
F106B1
330
F10007
100
AcDbEntity
  8
Bemassung
 62
     0
370
    -2
100
AcDbBlockReference
  2
VDDIM_DEFAULT
 10
-23.74424623229987
 20
0.7065949697953369
 30
0.0
 41
2.5
 42
2.5
 43
2.5
 50
90.0
  0
MTEXT
  5
F106B2
330
F10007
100
AcDbEntity
  8
Bemassung
 62
     0
100
AcDbMText
 10
-24.36924623229987
 20
-3.293405030204666
 30
0.0
 40
2.5
 41
0.0
 71
     8
 72
     1
  1
\A1;%%c8
 11
0.0000000000000001
 21
1.0
 31
0.0
 73
     1
 44
1.0
1001
ACAD
1000
MTEXTBEGIN
1070
    73
1070
     1
1070
    44
1040
1.0
1070
    74
1070
     0
1000
MTEXTEND
  0
POINT
  5
F106B3
330
F10007
100
AcDbEntity
  8
Defpoints
 62
     0
100
AcDbPoint
 10
-9.744246232299879
 20
-7.293405030204667
 30
0.0
  0
POINT
  5
F106B4
330
F10007
100
AcDbEntity
  8
Defpoints
 62
     0
100
AcDbPoint
 10
-9.744246232299879
 20
0.7065949697953329
 30
0.0
  0
POINT
  5
F106B5
330
F10007
100
AcDbEntity
  8
Defpoints
 62
     0
100
AcDbPoint
 10
-23.74424623229987
 20
0.7065949697953369
 30
0.0
  0
ENDBLK
  5
F1004E
330
F10007
100
AcDbEntity
  8
0
100
AcDbBlockEnd
  0
BLOCK
  5
F1004F
330
F10011
100
AcDbEntity
  8
0
100
AcDbBlockBegin
  2
*D8
 70
     1
 10
0.0
 20
0.0
 30
0.0
  3
*D8
  1

  0
LINE
  5
F10763
330
F10011
100
AcDbEntity
  8
Bemassung
 62
     0
370
    -2
100
AcDbLine
 10
49.38075376770012
 20
-7.293405030204667
 30
0.0
 11
60.50575376770012
 21
-7.29340503020467
 31
0.0
  0
LINE
  5
F10764
330
F10011
100
AcDbEntity
  8
Bemassung
 62
     0
370
    -2
100
AcDbLine
 10
49.38075376770012
 20
0.7065949697953328
 30
0.0
 11
60.50575376770012
 21
0.7065949697953297
 31
0.0
  0
LINE
  5
F10765
330
F10011
100
AcDbEntity
  8
Bemassung
 62
     0
370
    -2
100
AcDbLine
 10
59.25575376770012
 20
-4.79340503020467
 30
0.0
 11
59.25575376770012
 21
-1.793405030204669
 31
0.0
  0
INSERT
  5
F10766
330
F10011
100
AcDbEntity
  8
Bemassung
 62
     0
370
    -2
100
AcDbBlockReference
  2
VDDIM_DEFAULT
 10
59.25575376770012
 20
-7.29340503020467
 30
0.0
 41
2.5
 42
2.5
 43
2.5
 50
270.0
  0
INSERT
  5
F10767
330
F10011
100
AcDbEntity
  8
Bemassung
 62
     0
370
    -2
100
AcDbBlockReference
  2
VDDIM_DEFAULT
 10
59.25575376770012
 20
0.7065949697953299
 30
0.0
 41
2.5
 42
2.5
 43
2.5
 50
90.0
  0
MTEXT
  5
F10768
330
F10011
100
AcDbEntity
  8
Bemassung
 62
     0
100
AcDbMText
 10
58.63075376770012
 20
-3.29340503020466
 30
0.0
 40
2.5
 41
0.0
 71
     8
 72
     1
  1
\A1;%%C8
 11
0.0000000000000001
 21
1.0
 31
0.0
 73
     1
 44
1.0
1001
ACAD
1000
MTEXTBEGIN
1070
    73
1070
     1
1070
    44
1040
1.0
1070
    74
1070
     0
1000
MTEXTEND
  0
POINT
  5
F10769
330
F10011
100
AcDbEntity
  8
Defpoints
 62
     0
100
AcDbPoint
 10
48.75575376770012
 20
-7.293405030204667
 30
0.0
  0
POINT
  5
F1076A
330
F10011
100
AcDbEntity
  8
Defpoints
 62
     0
100
AcDbPoint
 10
48.75575376770012
 20
0.7065949697953329
 30
0.0
  0
POINT
  5
F1076B
330
F10011
100
AcDbEntity
  8
Defpoints
 62
     0
100
AcDbPoint
 10
59.25575376770012
 20
0.7065949697953299
 30
0.0
  0
ENDBLK
  5
F10058
330
F10011
100
AcDbEntity
  8
0
100
AcDbBlockEnd
  0
BLOCK
  5
F1060D
330
F1060B
100
AcDbEntity
  8
0
100
AcDbBlockBegin
  2
GENAXEH
 70
     0
 10
0.0
 20
0.0
 30
0.0
  3
GENAXEH
  1

  0
LINE
  5
F1060C
330
F1060B
100
AcDbEntity
  8
0
100
AcDbLine
 10
-1.0
 20
0.0
 30
0.0
 11
1.0
 21
0.0
 31
0.0
  0
ENDBLK
  5
F1060E
330
F1060B
100
AcDbEntity
  8
0
100
AcDbBlockEnd
  0
ENDSEC
  0
SECTION
  2
ENTITIES
  0
DIMENSION
  5
F1000D
330
261
100
AcDbEntity
  8
Bemassung
100
AcDbDimension
  2
*D3
 10
49.25575376770012
 20
15.70659496979533
 30
0.0
 11
31.25575376770012
 21
17.6088800993997
 31
0.0
 70
    32
  1
<>
 71
     8
 42
36.0
  3
BEM-ISBE
100
AcDbAlignedDimension
 13
13.25575376770013
 23
0.7065949697953329
 33
0.0
 14
49.25575376770012
 24
0.2065949697953329
 34
0.0
100
AcDbRotatedDimension
1001
ACAD
1000
DSTYLE
1002
{
1070
    47
1040
2.0
1070
    48
1040
0.0
1070
    71
1070
     0
1070
    78
1070
     8
1070
   284
1070
     8
1002
}
  0
DIMENSION
  5
F10017
330
261
100
AcDbEntity
  8
Bemassung
100
AcDbDimension
  2
*D4
 10
-13.74424623229987
 20
-22.29340503020468
 30
0.0
 11
-5.744246232299875
 21
-20.39197256090044
 31
0.0
 70
    32
  1
<>
 71
     8
 42
15.99999999999999
  3
BEM-ISBE
100
AcDbAlignedDimension
 13
2.25575376770012
 23
-7.293405030204667
 33
0.0
 14
-13.74424623229987
 24
-24.29340503020467
 34
0.0
100
AcDbRotatedDimension
1001
ACAD
1000
DSTYLE
1002
{
1070
    47
1040
1.5
1070
    48
1040
0.0
1070
    71
1070
     0
1070
    78
1070
     8
1070
   284
1070
     8
1002
}
  0
DIMENSION
  5
F1001C
330
261
100
AcDbEntity
  8
Bemassung
100
AcDbDimension
  2
*D5
 10
-13.74424623229987
 20
30.70659496979533
 30
0.0
 11
17.75575376770013
 21
32.6088800993997
 31
0.0
 70
    32
  1
<>
 71
     8
 42
62.99999999999999
  3
BEM-ISBE
100
AcDbAlignedDimension
 13
49.25575376770012
 23
0.2065949697953329
 33
0.0
 14
-13.74424623229987
 24
-24.29340503020467
 34
0.0
100
AcDbRotatedDimension
1001
ACAD
1000
DSTYLE
1002
{
1070
    47
1040
2.0
1070
    48
1040
0.0
1070
    71
1070
     0
1070
    78
1070
     8
1070
   284
1070
     8
1002
}
  0
DIMENSION
  5
F10003
330
261
100
AcDbEntity
  8
Bemassung
100
AcDbDimension
  2
*D6
 10
-9.744246232299873
 20
-3.293405030204667
 30
0.0
 11
-22.00169657077652
 21
15.22994537742514
 31
0.0
 70
   164
  1
<>
 71
     8
 42
3.999999999999959
  3
BEM-ISBE
100
AcDbRadialDimension
 15
-11.95163253036309
 25
0.0423775962748314
 35
0.0
 40
0.0
1001
ACAD
1000
DSTYLE
1002
{
1070
   284
1070
     8
1070
    78
1070
     8
1070
   144
1040
1.0
1070
   147
1040
0.625
1070
    72
1070
     0
1070
    71
1070
     0
1002
}
  0
DIMENSION
  5
F10008
330
261
100
AcDbEntity
  8
Bemassung
100
AcDbDimension
  2
*D7
 10
-23.74424623229987
 20
0.7065949697953369
 30
0.0
 11
-25.71559684621529
 21
-3.293405030204666
 31
0.0
 70
    32
  1
%%c<>
 71
     8
 42
8.0
  3
BEM-ISBE
100
AcDbAlignedDimension
 13
-9.744246232299879
 23
-7.293405030204667
 33
0.0
 14
-9.744246232299879
 24
0.7065949697953329
 34
0.0
 50
90.0
100
AcDbRotatedDimension
1001
ACAD
1000
DSTYLE
1002
{
1070
    48
1040
-0.058
1070
    71
1070
     0
1070
    78
1070
     8
1070
   284
1070
     8
1002
}
  0
DIMENSION
  5
F10012
330
261
100
AcDbEntity
  8
Bemassung
100
AcDbDimension
  2
*D8
 10
59.25575376770012
 20
0.7065949697953299
 30
0.0
 11
57.2844031537847
 21
-3.29340503020466
 31
0.0
 70
    32
  1
%%C<>
 71
     8
 42
8.0
  3
BEM-ISBE
100
AcDbAlignedDimension
 13
48.75575376770012
 23
-7.293405030204667
 33
0.0
 14
48.75575376770012
 24
0.7065949697953329
 34
0.0
 50
90.0
100
AcDbRotatedDimension
1001
ACAD
1000
DSTYLE
1002
{
1070
    71
1070
     0
1070
    78
1070
     8
1002
}
1001
ACAD_DSTYLE_DIMINSPECT
1070
   396
1000
100%
1070
   395
1000

1070
   394
1070
    33
1070
   393
1070
     0
  0
ARC
  5
F10059
330
261
100
AcDbEntity
  8
Geo
100
AcDbCircle
 10
-9.744246232299879
 20
-3.293405030204667
 30
0.0
 40
4.0
100
AcDbArc
 50
89.99999999999959
 51
180.0
  0
LINE
  5
F1005B
330
261
100
AcDbEntity
  8
Geo
100
AcDbLine
 10
-9.744246232299879
 20
0.7065949697953329
 30
0.0
 11
13.25575376770013
 21
0.7065949697953329
 31
0.0
  0
LINE
  5
F1005D
330
261
100
AcDbEntity
  8
Geo
100
AcDbLine
 10
13.25575376770013
 20
0.7065949697953329
 30
0.0
 11
48.75575376770012
 21
0.7065949697953329
 31
0.0
  0
LINE
  5
F1005F
330
261
100
AcDbEntity
  8
Geo
100
AcDbLine
 10
48.75575376770012
 20
0.7065949697953329
 30
0.0
 11
49.25575376770012
 21
0.2065949697953329
 31
0.0
  0
LINE
  5
F10061
330
261
100
AcDbEntity
  8
Geo
100
AcDbLine
 10
0.055753767700125
 20
0.706385586715836
 30
0.0
 11
0.1557537677001193
 21
0.7065596592021351
 31
0.0
  0
LINE
  5
F10063
330
261
100
AcDbEntity
  8
Geo
100
AcDbLine
 10
0.1557537677001193
 20
0.7065596592021351
 30
0.0
 11
0.2557537677001207
 21
0.705900420178832
 31
0.0
  0
LINE
  5
F10065
330
261
100
AcDbEntity
  8
Geo
100
AcDbLine
 10
0.2557537677001207
 20
0.705900420178832
 30
0.0
 11
0.3557537677001221
 21
0.7044080069850374
 31
0.0
  0
LINE
  5
F10067
330
261
100
AcDbEntity
  8
Geo
100
AcDbLine
 10
0.3557537677001221
 20
0.7044080069850374
 30
0.0
 11
0.4557537677001236
 21
0.7020827305346309
 31
0.0
  0
LINE
  5
F10069
330
261
100
AcDbEntity
  8
Geo
100
AcDbLine
 10
0.4557537677001236
 20
0.7020827305346309
 30
0.0
 11
0.555753767700125
 21
0.6989250752520349
 31
0.0
  0
LINE
  5
F1006B
330
261
100
AcDbEntity
  8
Geo
100
AcDbLine
 10
0.555753767700125
 20
0.6989250752520349
 30
0.0
 11
0.6557537677001193
 21
0.6949356989704363
 31
0.0
  0
LINE
  5
F1006D
330
261
100
AcDbEntity
  8
Geo
100
AcDbLine
 10
0.6557537677001193
 20
0.6949356989704363
 30
0.0
 11
0.7557537677001207
 21
0.6901154327957358
 31
0.0
  0
LINE
  5
F1006F
330
261
100
AcDbEntity
  8
Geo
100
AcDbLine
 10
0.7557537677001207
 20
0.6901154327957358
 30
0.0
 11
0.8557537677001221
 21
0.6844652809323329
 31
0.0
  0
LINE
  5
F10071
330
261
100
AcDbEntity
  8
Geo
100
AcDbLine
 10
0.8557537677001221
 20
0.6844652809323329
 30
0.0
 11
0.9557537677001235
 21
0.6779864204749338
 31
0.0
  0
LINE
  5
F10073
330
261
100
AcDbEntity
  8
Geo
100
AcDbLine
 10
0.9557537677001235
 20
0.6779864204749338
 30
0.0
 11
1.055753767700124
 21
0.6706802011626323
 31
0.0
  0
LINE
  5
F10075
330
261
100
AcDbEntity
  8
Geo
100
AcDbLine
 10
1.055753767700124
 20
0.6706802011626323
 30
0.0
 11
1.155753767700119
 21
0.6625481450981355
 31
0.0
  0
LINE
  5
F10077
330
261
100
AcDbEntity
  8
Geo
100
AcDbLine
 10
1.155753767700119
 20
0.6625481450981355
 30
0.0
 11
1.25575376770012
 21
0.653591946430236
 31
0.0
  0
LINE
  5
F10079
330
261
100
AcDbEntity
  8
Geo
100
AcDbLine
 10
1.25575376770012
 20
0.653591946430236
 30
0.0
 11
1.355753767700122
 21
0.6438134710013337
 31
0.0
  0
LINE
  5
F1007B
330
261
100
AcDbEntity
  8
Geo
100
AcDbLine
 10
1.355753767700122
 20
0.6438134710013337
 30
0.0
 11
1.455753767700123
 21
0.6332147559584343
 31
0.0
  0
LINE
  5
F1007D
330
261
100
AcDbEntity
  8
Geo
100
AcDbLine
 10
1.455753767700123
 20
0.6332147559584343
 30
0.0
 11
1.555753767700124
 21
0.6217980093289342
 31
0.0
  0
LINE
  5
F1007F
330
261
100
AcDbEntity
  8
Geo
100
AcDbLine
 10
1.555753767700124
 20
0.6217980093289342
 30
0.0
 11
1.655753767700119
 21
0.6095656095602351
 31
0.0
  0
LINE
  5
F10081
330
261
100
AcDbEntity
  8
Geo
100
AcDbLine
 10
1.655753767700119
 20
0.6095656095602351
 30
0.0
 11
1.75575376770012
 21
0.5965201050247373
 31
0.0
  0
LINE
  5
F10083
330
261
100
AcDbEntity
  8
Geo
100
AcDbLine
 10
1.75575376770012
 20
0.5965201050247373
 30
0.0
 11
1.855753767700122
 21
0.5826642134888332
 31
0.0
  0
LINE
  5
F10085
330
261
100
AcDbEntity
  8
Geo
100
AcDbLine
 10
1.855753767700122
 20
0.5826642134888332
 30
0.0
 11
1.955753767700123
 21
0.5680008215464341
 31
0.0
  0
LINE
  5
F10087
330
261
100
AcDbEntity
  8
Geo
100
AcDbLine
 10
1.955753767700123
 20
0.5680008215464341
 30
0.0
 11
2.055753767700124
 21
0.5525329840177378
 31
0.0
  0
LINE
  5
F10089
330
261
100
AcDbEntity
  8
Geo
100
AcDbLine
 10
2.055753767700124
 20
0.5525329840177378
 30
0.0
 11
2.155753767700119
 21
0.5362639233130331
 31
0.0
  0
LINE
  5
F1008B
330
261
100
AcDbEntity
  8
Geo
100
AcDbLine
 10
2.155753767700119
 20
0.5362639233130331
 30
0.0
 11
2.25575376770012
 21
0.5191970287611305
 31
0.0
  0
LINE
  5
F1008D
330
261
100
AcDbEntity
  8
Geo
100
AcDbLine
 10
2.25575376770012
 20
0.5191970287611305
 30
0.0
 11
2.25575376770012
 21
0.5191970287611305
 31
0.0
  0
LINE
  5
F1008F
330
261
100
AcDbEntity
  8
Geo
100
AcDbLine
 10
2.25575376770012
 20
0.5191970287611305
 30
0.0
 11
2.25575376770012
 21
0.5191970287611305
 31
0.0
  0
LINE
  5
F10091
330
261
100
AcDbEntity
  8
Geo
100
AcDbLine
 10
2.25575376770012
 20
0.5191970287611305
 30
0.0
 11
2.355753767700122
 21
0.4719994655722353
 31
0.0
  0
LINE
  5
F10093
330
261
100
AcDbEntity
  8
Geo
100
AcDbLine
 10
2.355753767700122
 20
0.4719994655722353
 30
0.0
 11
2.455753767700123
 21
0.4177079712378351
 31
0.0
  0
LINE
  5
F10095
330
261
100
AcDbEntity
  8
Geo
100
AcDbLine
 10
2.455753767700123
 20
0.4177079712378351
 30
0.0
 11
2.555753767700124
 21
0.3558343190728301
 31
0.0
  0
LINE
  5
F10097
330
261
100
AcDbEntity
  8
Geo
100
AcDbLine
 10
2.555753767700124
 20
0.3558343190728301
 30
0.0
 11
2.655753767700119
 21
0.2858971825893342
 31
0.0
  0
LINE
  5
F10099
330
261
100
AcDbEntity
  8
Geo
100
AcDbLine
 10
2.655753767700119
 20
0.2858971825893342
 30
0.0
 11
2.75575376770012
 21
0.2074266284899373
 31
0.0
  0
LINE
  5
F1009B
330
261
100
AcDbEntity
  8
Geo
100
AcDbLine
 10
2.75575376770012
 20
0.2074266284899373
 30
0.0
 11
2.855753767700122
 21
0.1199690312817374
 31
0.0
  0
LINE
  5
F1009D
330
261
100
AcDbEntity
  8
Geo
100
AcDbLine
 10
2.855753767700122
 20
0.1199690312817374
 30
0.0
 11
2.955753767700123
 21
0.0230924127495378
 31
0.0
  0
LINE
  5
F1009F
330
261
100
AcDbEntity
  8
Geo
100
AcDbLine
 10
2.955753767700123
 20
0.0230924127495378
 30
0.0
 11
3.055753767700124
 21
-0.0836077958814627
 31
0.0
  0
LINE
  5
F100A1
330
261
100
AcDbEntity
  8
Geo
100
AcDbLine
 10
3.055753767700124
 20
-0.0836077958814627
 30
0.0
 11
3.155753767700119
 21
-0.2005025774800657
 31
0.0
  0
LINE
  5
F100A3
330
261
100
AcDbEntity
  8
Geo
100
AcDbLine
 10
3.155753767700119
 20
-0.2005025774800657
 30
0.0
 11
3.25575376770012
 21
-0.3279227536708653
 31
0.0
  0
LINE
  5
F100A5
330
261
100
AcDbEntity
  8
Geo
100
AcDbLine
 10
3.25575376770012
 20
-0.3279227536708653
 30
0.0
 11
3.355753767700122
 21
-0.4661520339473669
 31
0.0
  0
LINE
  5
F100A7
330
261
100
AcDbEntity
  8
Geo
100
AcDbLine
 10
3.355753767700122
 20
-0.4661520339473669
 30
0.0
 11
3.455753767700123
 21
-0.6154197213167656
 31
0.0
  0
LINE
  5
F100A9
330
261
100
AcDbEntity
  8
Geo
100
AcDbLine
 10
3.455753767700123
 20
-0.6154197213167656
 30
0.0
 11
3.555753767700124
 21
-0.7758931161581693
 31
0.0
  0
LINE
  5
F100AB
330
261
100
AcDbEntity
  8
Geo
100
AcDbLine
 10
3.555753767700124
 20
-0.7758931161581693
 30
0.0
 11
3.655753767700119
 21
-0.9476696704101676
 31
0.0
  0
LINE
  5
F100AD
330
261
100
AcDbEntity
  8
Geo
100
AcDbLine
 10
3.655753767700119
 20
-0.9476696704101676
 30
0.0
 11
3.75575376770012
 21
-1.13076895541246
 31
0.0
  0
LINE
  5
F100AF
330
261
100
AcDbEntity
  8
Geo
100
AcDbLine
 10
3.75575376770012
 20
-1.13076895541246
 30
0.0
 11
3.855753767700122
 21
-1.325124518652966
 31
0.0
  0
LINE
  5
F100B1
330
261
100
AcDbEntity
  8
Geo
100
AcDbLine
 10
3.855753767700122
 20
-1.325124518652966
 30
0.0
 11
3.955753767700123
 21
-1.530575717218869
 31
0.0
  0
LINE
  5
F100B3
330
261
100
AcDbEntity
  8
Geo
100
AcDbLine
 10
3.955753767700123
 20
-1.530575717218869
 30
0.0
 11
4.055753767700124
 21
-1.746859628787763
 31
0.0
  0
LINE
  5
F100B5
330
261
100
AcDbEntity
  8
Geo
100
AcDbLine
 10
4.055753767700124
 20
-1.746859628787763
 30
0.0
 11
4.155753767700119
 21
-1.973603154386566
 31
0.0
  0
LINE
  5
F100B7
330
261
100
AcDbEntity
  8
Geo
100
AcDbLine
 10
4.155753767700119
 20
-1.973603154386566
 30
0.0
 11
4.25575376770012
 21
-2.210315440684063
 31
0.0
  0
LINE
  5
F100B9
330
261
100
AcDbEntity
  8
Geo
100
AcDbLine
 10
4.25575376770012
 20
-2.210315440684063
 30
0.0
 11
4.355753767700122
 21
-2.456380763063066
 31
0.0
  0
LINE
  5
F100BB
330
261
100
AcDbEntity
  8
Geo
100
AcDbLine
 10
4.355753767700122
 20
-2.456380763063066
 30
0.0
 11
4.455753767700123
 21
-2.711052023864763
 31
0.0
  0
LINE
  5
F100BD
330
261
100
AcDbEntity
  8
Geo
100
AcDbLine
 10
4.455753767700123
 20
-2.711052023864763
 30
0.0
 11
4.555753767700124
 21
-2.973445032725663
 31
0.0
  0
LINE
  5
F100BF
330
261
100
AcDbEntity
  8
Geo
100
AcDbLine
 10
4.555753767700124
 20
-2.973445032725663
 30
0.0
 11
4.655753767700119
 21
-3.242533747483566
 31
0.0
  0
LINE
  5
F100C1
330
261
100
AcDbEntity
  8
Geo
100
AcDbLine
 10
4.655753767700119
 20
-3.242533747483566
 30
0.0
 11
4.75575376770012
 21
-3.517146664354463
 31
0.0
  0
LINE
  5
F100C3
330
261
100
AcDbEntity
  8
Geo
100
AcDbLine
 10
4.75575376770012
 20
-3.517146664354463
 30
0.0
 11
4.855753767700122
 21
-3.795964554546063
 31
0.0
  0
LINE
  5
F100C5
330
261
100
AcDbEntity
  8
Geo
100
AcDbLine
 10
4.855753767700122
 20
-3.795964554546063
 30
0.0
 11
4.955753767700123
 21
-4.077519750744066
 31
0.0
  0
LINE
  5
F100C7
330
261
100
AcDbEntity
  8
Geo
100
AcDbLine
 10
4.955753767700123
 20
-4.077519750744066
 30
0.0
 11
5.055753767700124
 21
-4.360197190492765
 31
0.0
  0
LINE
  5
F100C9
330
261
100
AcDbEntity
  8
Geo
100
AcDbLine
 10
5.055753767700124
 20
-4.360197190492765
 30
0.0
 11
5.155753767700119
 21
-4.642237423902965
 31
0.0
  0
LINE
  5
F100CB
330
261
100
AcDbEntity
  8
Geo
100
AcDbLine
 10
5.155753767700119
 20
-4.642237423902965
 30
0.0
 11
5.25575376770012
 21
-4.921741789828566
 31
0.0
  0
LINE
  5
F100CD
330
261
100
AcDbEntity
  8
Geo
100
AcDbLine
 10
5.25575376770012
 20
-4.921741789828566
 30
0.0
 11
5.355753767700122
 21
-5.196679957131465
 31
0.0
  0
LINE
  5
F100CF
330
261
100
AcDbEntity
  8
Geo
100
AcDbLine
 10
5.355753767700122
 20
-5.196679957131465
 30
0.0
 11
5.455753767700123
 21
-5.464900015388067
 31
0.0
  0
LINE
  5
F100D1
330
261
100
AcDbEntity
  8
Geo
100
AcDbLine
 10
5.455753767700123
 20
-5.464900015388067
 30
0.0
 11
5.555753767700124
 21
-5.724141281853064
 31
0.0
  0
LINE
  5
F100D3
330
261
100
AcDbEntity
  8
Geo
100
AcDbLine
 10
5.555753767700124
 20
-5.724141281853064
 30
0.0
 11
5.655753767700119
 21
-5.972049968230166
 31
0.0
  0
LINE
  5
F100D5
330
261
100
AcDbEntity
  8
Geo
100
AcDbLine
 10
5.655753767700119
 20
-5.972049968230166
 30
0.0
 11
5.75575376770022
 21
-6.206197821354063
 31
0.0
  0
LINE
  5
F100D7
330
261
100
AcDbEntity
  8
Geo
100
AcDbLine
 10
5.75575376770022
 20
-6.206197821354063
 30
0.0
 11
5.855753767700214
 21
-6.424103815921665
 31
0.0
  0
LINE
  5
F100D9
330
261
100
AcDbEntity
  8
Geo
100
AcDbLine
 10
5.855753767700214
 20
-6.424103815921665
 30
0.0
 11
5.955753767700215
 21
-6.623258934630065
 31
0.0
  0
LINE
  5
F100DB
330
261
100
AcDbEntity
  8
Geo
100
AcDbLine
 10
5.955753767700215
 20
-6.623258934630065
 30
0.0
 11
6.055753767700217
 21
-6.801154021337065
 31
0.0
  0
LINE
  5
F100DD
330
261
100
AcDbEntity
  8
Geo
100
AcDbLine
 10
6.055753767700217
 20
-6.801154021337065
 30
0.0
 11
6.155753767700218
 21
-6.955310636114464
 31
0.0
  0
LINE
  5
F100DF
330
261
100
AcDbEntity
  8
Geo
100
AcDbLine
 10
6.155753767700218
 20
-6.955310636114464
 30
0.0
 11
6.25575376770012
 21
-7.083314777458063
 31
0.0
  0
LINE
  5
F100E1
330
261
100
AcDbEntity
  8
Geo
100
AcDbLine
 10
-13.74424623229987
 20
-3.293405030204667
 30
0.0
 11
-13.64424623229988
 21
-2.674051402766068
 31
0.0
  0
LINE
  5
F100E3
330
261
100
AcDbEntity
  8
Geo
100
AcDbLine
 10
-13.64424623229988
 20
-2.674051402766068
 30
0.0
 11
-13.54424623229988
 21
-2.436088464783566
 31
0.0
  0
LINE
  5
F100E5
330
261
100
AcDbEntity
  8
Geo
100
AcDbLine
 10
-13.54424623229988
 20
-2.436088464783566
 30
0.0
 11
-13.44424623229987
 21
-2.266224884659667
 31
0.0
  0
LINE
  5
F100E7
330
261
100
AcDbEntity
  8
Geo
100
AcDbLine
 10
-13.44424623229987
 20
-2.266224884659667
 30
0.0
 11
-13.34424623229988
 21
-2.133717447099062
 31
0.0
  0
LINE
  5
F100E9
330
261
100
AcDbEntity
  8
Geo
100
AcDbLine
 10
-13.34424623229988
 20
-2.133717447099062
 30
0.0
 11
-13.24424623229987
 21
-2.026398408021961
 31
0.0
  0
LINE
  5
F100EB
330
261
100
AcDbEntity
  8
Geo
100
AcDbLine
 10
-13.24424623229987
 20
-2.026398408021961
 30
0.0
 11
-13.14424623229988
 21
-1.937896116434462
 31
0.0
  0
LINE
  5
F100ED
330
261
100
AcDbEntity
  8
Geo
100
AcDbLine
 10
-13.14424623229988
 20
-1.937896116434462
 30
0.0
 11
-13.04424623229988
 21
-1.864345537898767
 31
0.0
  0
LINE
  5
F100EF
330
261
100
AcDbEntity
  8
Geo
100
AcDbLine
 10
-13.04424623229988
 20
-1.864345537898767
 30
0.0
 11
-12.94424623229987
 21
-1.803173903451668
 31
0.0
  0
LINE
  5
F100F1
330
261
100
AcDbEntity
  8
Geo
100
AcDbLine
 10
-12.94424623229987
 20
-1.803173903451668
 30
0.0
 11
-12.84424623229988
 21
-1.752554082203165
 31
0.0
  0
LINE
  5
F100F3
330
261
100
AcDbEntity
  8
Geo
100
AcDbLine
 10
-12.84424623229988
 20
-1.752554082203165
 30
0.0
 11
-12.74424623229987
 21
-1.711124557671563
 31
0.0
  0
LINE
  5
F100F5
330
261
100
AcDbEntity
  8
Geo
100
AcDbLine
 10
-12.74424623229987
 20
-1.711124557671563
 30
0.0
 11
-12.64424623229988
 21
-1.677832148593665
 31
0.0
  0
LINE
  5
F100F7
330
261
100
AcDbEntity
  8
Geo
100
AcDbLine
 10
-12.64424623229988
 20
-1.677832148593665
 30
0.0
 11
-12.54424623229988
 21
-1.651837336943167
 31
0.0
  0
LINE
  5
F100F9
330
261
100
AcDbEntity
  8
Geo
100
AcDbLine
 10
-12.54424623229988
 20
-1.651837336943167
 30
0.0
 11
-12.44424623229987
 21
-1.632454110342166
 31
0.0
  0
LINE
  5
F100FB
330
261
100
AcDbEntity
  8
Geo
100
AcDbLine
 10
-12.44424623229987
 20
-1.632454110342166
 30
0.0
 11
-12.34424623229988
 21
-1.619110032910462
 31
0.0
  0
LINE
  5
F100FD
330
261
100
AcDbEntity
  8
Geo
100
AcDbLine
 10
-12.34424623229988
 20
-1.619110032910462
 30
0.0
 11
-12.24424623229987
 21
-1.611318774319766
 31
0.0
  0
LINE
  5
F100FF
330
261
100
AcDbEntity
  8
Geo
100
AcDbLine
 10
-12.24424623229987
 20
-1.611318774319766
 30
0.0
 11
-12.14424623229988
 21
-1.608660632884767
 31
0.0
  0
LINE
  5
F10101
330
261
100
AcDbEntity
  8
Geo
100
AcDbLine
 10
-12.14424623229988
 20
-1.608660632884767
 30
0.0
 11
-12.04424623229988
 21
-1.610768368452465
 31
0.0
  0
LINE
  5
F10103
330
261
100
AcDbEntity
  8
Geo
100
AcDbLine
 10
-12.04424623229988
 20
-1.610768368452465
 30
0.0
 11
-11.94424623229987
 21
-1.617316667744066
 31
0.0
  0
LINE
  5
F10105
330
261
100
AcDbEntity
  8
Geo
100
AcDbLine
 10
-11.94424623229987
 20
-1.617316667744066
 30
0.0
 11
-11.84424623229988
 21
-1.628014158814266
 31
0.0
  0
LINE
  5
F10107
330
261
100
AcDbEntity
  8
Geo
100
AcDbLine
 10
-11.84424623229988
 20
-1.628014158814266
 30
0.0
 11
-11.74424623229987
 21
-1.642597254610965
 31
0.0
  0
LINE
  5
F10109
330
261
100
AcDbEntity
  8
Geo
100
AcDbLine
 10
-11.74424623229987
 20
-1.642597254610965
 30
0.0
 11
-11.64424623229987
 21
-1.660825334922265
 31
0.0
  0
LINE
  5
F1010B
330
261
100
AcDbEntity
  8
Geo
100
AcDbLine
 10
-11.64424623229987
 20
-1.660825334922265
 30
0.0
 11
-11.54424623229988
 21
-1.682476924770764
 31
0.0
  0
LINE
  5
F1010D
330
261
100
AcDbEntity
  8
Geo
100
AcDbLine
 10
-11.54424623229988
 20
-1.682476924770764
 30
0.0
 11
-11.44424623229987
 21
-1.707346626220164
 31
0.0
  0
LINE
  5
F1010F
330
261
100
AcDbEntity
  8
Geo
100
AcDbLine
 10
-11.44424623229987
 20
-1.707346626220164
 30
0.0
 11
-11.34424623229988
 21
-1.735242627762367
 31
0.0
  0
LINE
  5
F10111
330
261
100
AcDbEntity
  8
Geo
100
AcDbLine
 10
-11.34424623229988
 20
-1.735242627762367
 30
0.0
 11
-11.24424623229987
 21
-1.765984662013664
 31
0.0
  0
LINE
  5
F10113
330
261
100
AcDbEntity
  8
Geo
100
AcDbLine
 10
-11.24424623229987
 20
-1.765984662013664
 30
0.0
 11
-11.14424623229988
 21
-1.799402315283668
 31
0.0
  0
LINE
  5
F10115
330
261
100
AcDbEntity
  8
Geo
100
AcDbLine
 10
-11.14424623229988
 20
-1.799402315283668
 30
0.0
 11
-11.04424623229988
 21
-1.835333616100566
 31
0.0
  0
LINE
  5
F10117
330
261
100
AcDbEntity
  8
Geo
100
AcDbLine
 10
-11.04424623229988
 20
-1.835333616100566
 30
0.0
 11
-10.94424623229987
 21
-1.873623846882463
 31
0.0
  0
LINE
  5
F10119
330
261
100
AcDbEntity
  8
Geo
100
AcDbLine
 10
-10.94424623229987
 20
-1.873623846882463
 30
0.0
 11
-10.84424623229988
 21
-1.914124535535265
 31
0.0
  0
LINE
  5
F1011B
330
261
100
AcDbEntity
  8
Geo
100
AcDbLine
 10
-10.84424623229988
 20
-1.914124535535265
 30
0.0
 11
-10.74424623229987
 21
-1.956692593149565
 31
0.0
  0
LINE
  5
F1011D
330
261
100
AcDbEntity
  8
Geo
100
AcDbLine
 10
-10.74424623229987
 20
-1.956692593149565
 30
0.0
 11
-10.64424623229988
 21
-2.001189571044665
 31
0.0
  0
LINE
  5
F1011F
330
261
100
AcDbEntity
  8
Geo
100
AcDbLine
 10
-10.64424623229988
 20
-2.001189571044665
 30
0.0
 11
-10.54424623229988
 21
-2.047481015790364
 31
0.0
  0
LINE
  5
F10121
330
261
100
AcDbEntity
  8
Geo
100
AcDbLine
 10
-10.54424623229988
 20
-2.047481015790364
 30
0.0
 11
-10.44424623229987
 21
-2.095435904972966
 31
0.0
  0
LINE
  5
F10123
330
261
100
AcDbEntity
  8
Geo
100
AcDbLine
 10
-10.44424623229987
 20
-2.095435904972966
 30
0.0
 11
-10.34424623229988
 21
-2.144926149667565
 31
0.0
  0
LINE
  5
F10125
330
261
100
AcDbEntity
  8
Geo
100
AcDbLine
 10
-10.34424623229988
 20
-2.144926149667565
 30
0.0
 11
-10.24424623229988
 21
-2.195826152067262
 31
0.0
  0
LINE
  5
F10127
330
261
100
AcDbEntity
  8
Geo
100
AcDbLine
 10
-10.24424623229988
 20
-2.195826152067262
 30
0.0
 11
-10.14424623229988
 21
-2.248012408665669
 31
0.0
  0
LINE
  5
F10129
330
261
100
AcDbEntity
  8
Geo
100
AcDbLine
 10
-10.14424623229988
 20
-2.248012408665669
 30
0.0
 11
-10.04424623229987
 21
-2.301363150914767
 31
0.0
  0
LINE
  5
F1012B
330
261
100
AcDbEntity
  8
Geo
100
AcDbLine
 10
-10.04424623229987
 20
-2.301363150914767
 30
0.0
 11
-9.944246232299875
 21
-2.355758016474865
 31
0.0
  0
LINE
  5
F1012D
330
261
100
AcDbEntity
  8
Geo
100
AcDbLine
 10
-9.944246232299875
 20
-2.355758016474865
 30
0.0
 11
-9.84424623229988
 21
-2.411077745108066
 31
0.0
  0
LINE
  5
F1012F
330
261
100
AcDbEntity
  8
Geo
100
AcDbLine
 10
-9.84424623229988
 20
-2.411077745108066
 30
0.0
 11
-9.744246232299879
 21
-2.467203893987065
 31
0.0
  0
LINE
  5
F10131
330
261
100
AcDbEntity
  8
Geo
100
AcDbLine
 10
-9.744246232299879
 20
-2.467203893987065
 30
0.0
 11
-9.644246232299877
 21
-2.523778021705567
 31
0.0
  0
LINE
  5
F10133
330
261
100
AcDbEntity
  8
Geo
100
AcDbLine
 10
-9.644246232299877
 20
-2.523778021705567
 30
0.0
 11
-9.544246232299876
 21
-2.580512485600564
 31
0.0
  0
LINE
  5
F10135
330
261
100
AcDbEntity
  8
Geo
100
AcDbLine
 10
-9.544246232299876
 20
-2.580512485600564
 30
0.0
 11
-9.444246232299875
 21
-2.637395466197265
 31
0.0
  0
LINE
  5
F10137
330
261
100
AcDbEntity
  8
Geo
100
AcDbLine
 10
-9.444246232299875
 20
-2.637395466197265
 30
0.0
 11
-9.34424623229988
 21
-2.694415113080466
 31
0.0
  0
LINE
  5
F10139
330
261
100
AcDbEntity
  8
Geo
100
AcDbLine
 10
-9.34424623229988
 20
-2.694415113080466
 30
0.0
 11
-9.244246232299879
 21
-2.751559547363168
 31
0.0
  0
LINE
  5
F1013B
330
261
100
AcDbEntity
  8
Geo
100
AcDbLine
 10
-9.244246232299879
 20
-2.751559547363168
 30
0.0
 11
-9.144246232299877
 21
-2.808816864161666
 31
0.0
  0
LINE
  5
F1013D
330
261
100
AcDbEntity
  8
Geo
100
AcDbLine
 10
-9.144246232299877
 20
-2.808816864161666
 30
0.0
 11
-9.044246232299876
 21
-2.866175135075462
 31
0.0
  0
LINE
  5
F1013F
330
261
100
AcDbEntity
  8
Geo
100
AcDbLine
 10
-9.044246232299876
 20
-2.866175135075462
 30
0.0
 11
-8.944246232299875
 21
-2.923622410672166
 31
0.0
  0
LINE
  5
F10141
330
261
100
AcDbEntity
  8
Geo
100
AcDbLine
 10
-8.944246232299875
 20
-2.923622410672166
 30
0.0
 11
-8.84424623229988
 21
-2.981146722977168
 31
0.0
  0
LINE
  5
F10143
330
261
100
AcDbEntity
  8
Geo
100
AcDbLine
 10
-8.84424623229988
 20
-2.981146722977168
 30
0.0
 11
-8.744246232299879
 21
-3.038736087966764
 31
0.0
  0
LINE
  5
F10145
330
261
100
AcDbEntity
  8
Geo
100
AcDbLine
 10
-8.744246232299879
 20
-3.038736087966764
 30
0.0
 11
-8.644246232299877
 21
-3.096378508064869
 31
0.0
  0
LINE
  5
F10147
330
261
100
AcDbEntity
  8
Geo
100
AcDbLine
 10
-8.644246232299877
 20
-3.096378508064869
 30
0.0
 11
-8.544246232299876
 21
-3.154061974642463
 31
0.0
  0
LINE
  5
F10149
330
261
100
AcDbEntity
  8
Geo
100
AcDbLine
 10
-8.544246232299876
 20
-3.154061974642463
 30
0.0
 11
-8.444246232299875
 21
-3.211774470519262
 31
0.0
  0
LINE
  5
F1014B
330
261
100
AcDbEntity
  8
Geo
100
AcDbLine
 10
-8.444246232299875
 20
-3.211774470519262
 30
0.0
 11
-8.34424623229988
 21
-3.269503972467461
 31
0.0
  0
LINE
  5
F1014D
330
261
100
AcDbEntity
  8
Geo
100
AcDbLine
 10
-8.34424623229988
 20
-3.269503972467461
 30
0.0
 11
-8.244246232299879
 21
-3.327238453716262
 31
0.0
  0
LINE
  5
F1014F
330
261
100
AcDbEntity
  8
Geo
100
AcDbLine
 10
-8.244246232299879
 20
-3.327238453716262
 30
0.0
 11
-8.144246232299877
 21
-3.384965886457564
 31
0.0
  0
LINE
  5
F10151
330
261
100
AcDbEntity
  8
Geo
100
AcDbLine
 10
-8.144246232299877
 20
-3.384965886457564
 30
0.0
 11
-8.044246232299876
 21
-3.442674244351564
 31
0.0
  0
LINE
  5
F10153
330
261
100
AcDbEntity
  8
Geo
100
AcDbLine
 10
-8.044246232299876
 20
-3.442674244351564
 30
0.0
 11
-7.944246232299875
 21
-3.500351505032565
 31
0.0
  0
LINE
  5
F10155
330
261
100
AcDbEntity
  8
Geo
100
AcDbLine
 10
-7.944246232299875
 20
-3.500351505032565
 30
0.0
 11
-7.84424623229988
 21
-3.557985652613169
 31
0.0
  0
LINE
  5
F10157
330
261
100
AcDbEntity
  8
Geo
100
AcDbLine
 10
-7.84424623229988
 20
-3.557985652613169
 30
0.0
 11
-7.744246232299879
 21
-3.615564680187667
 31
0.0
  0
LINE
  5
F10159
330
261
100
AcDbEntity
  8
Geo
100
AcDbLine
 10
-7.744246232299879
 20
-3.615564680187667
 30
0.0
 11
-7.644246232299877
 21
-3.673076592333668
 31
0.0
  0
LINE
  5
F1015B
330
261
100
AcDbEntity
  8
Geo
100
AcDbLine
 10
-7.644246232299877
 20
-3.673076592333668
 30
0.0
 11
-7.544246232299876
 21
-3.730509407610764
 31
0.0
  0
LINE
  5
F1015D
330
261
100
AcDbEntity
  8
Geo
100
AcDbLine
 10
-7.544246232299876
 20
-3.730509407610764
 30
0.0
 11
-7.444246232299875
 21
-3.787851161056867
 31
0.0
  0
LINE
  5
F1015F
330
261
100
AcDbEntity
  8
Geo
100
AcDbLine
 10
-7.444246232299875
 20
-3.787851161056867
 30
0.0
 11
-7.34424623229988
 21
-3.845089906680666
 31
0.0
  0
LINE
  5
F10161
330
261
100
AcDbEntity
  8
Geo
100
AcDbLine
 10
-7.34424623229988
 20
-3.845089906680666
 30
0.0
 11
-7.244246232299879
 21
-3.902213719950566
 31
0.0
  0
LINE
  5
F10163
330
261
100
AcDbEntity
  8
Geo
100
AcDbLine
 10
-7.244246232299879
 20
-3.902213719950566
 30
0.0
 11
-7.144246232299877
 21
-3.959210700278866
 31
0.0
  0
LINE
  5
F10165
330
261
100
AcDbEntity
  8
Geo
100
AcDbLine
 10
-7.144246232299877
 20
-3.959210700278866
 30
0.0
 11
-7.044246232299876
 21
-4.016068973500566
 31
0.0
  0
LINE
  5
F10167
330
261
100
AcDbEntity
  8
Geo
100
AcDbLine
 10
-7.044246232299876
 20
-4.016068973500566
 30
0.0
 11
-6.944246232299875
 21
-4.072776694347961
 31
0.0
  0
LINE
  5
F10169
330
261
100
AcDbEntity
  8
Geo
100
AcDbLine
 10
-6.944246232299875
 20
-4.072776694347961
 30
0.0
 11
-6.84424623229988
 21
-4.129322048917565
 31
0.0
  0
LINE
  5
F1016B
330
261
100
AcDbEntity
  8
Geo
100
AcDbLine
 10
-6.84424623229988
 20
-4.129322048917565
 30
0.0
 11
-6.744246232299879
 21
-4.185693257131564
 31
0.0
  0
LINE
  5
F1016D
330
261
100
AcDbEntity
  8
Geo
100
AcDbLine
 10
-6.744246232299879
 20
-4.185693257131564
 30
0.0
 11
-6.644246232299877
 21
-4.241878575192366
 31
0.0
  0
LINE
  5
F1016F
330
261
100
AcDbEntity
  8
Geo
100
AcDbLine
 10
-6.644246232299877
 20
-4.241878575192366
 30
0.0
 11
-6.544246232299876
 21
-4.297866298028367
 31
0.0
  0
LINE
  5
F10171
330
261
100
AcDbEntity
  8
Geo
100
AcDbLine
 10
-6.544246232299876
 20
-4.297866298028367
 30
0.0
 11
-6.444246232299875
 21
-4.353644761733264
 31
0.0
  0
LINE
  5
F10173
330
261
100
AcDbEntity
  8
Geo
100
AcDbLine
 10
-6.444246232299875
 20
-4.353644761733264
 30
0.0
 11
-6.34424623229988
 21
-4.409202345995563
 31
0.0
  0
LINE
  5
F10175
330
261
100
AcDbEntity
  8
Geo
100
AcDbLine
 10
-6.34424623229988
 20
-4.409202345995563
 30
0.0
 11
-6.244246232299879
 21
-4.464527476519464
 31
0.0
  0
LINE
  5
F10177
330
261
100
AcDbEntity
  8
Geo
100
AcDbLine
 10
-6.244246232299879
 20
-4.464527476519464
 30
0.0
 11
-6.144246232299877
 21
-4.519608627436166
 31
0.0
  0
LINE
  5
F10179
330
261
100
AcDbEntity
  8
Geo
100
AcDbLine
 10
-6.144246232299877
 20
-4.519608627436166
 30
0.0
 11
-6.044246232299876
 21
-4.574434323705066
 31
0.0
  0
LINE
  5
F1017B
330
261
100
AcDbEntity
  8
Geo
100
AcDbLine
 10
-6.044246232299876
 20
-4.574434323705066
 30
0.0
 11
-5.944246232299875
 21
-4.628993143504462
 31
0.0
  0
LINE
  5
F1017D
330
261
100
AcDbEntity
  8
Geo
100
AcDbLine
 10
-5.944246232299875
 20
-4.628993143504462
 30
0.0
 11
-5.84424623229988
 21
-4.683273720610962
 31
0.0
  0
LINE
  5
F1017F
330
261
100
AcDbEntity
  8
Geo
100
AcDbLine
 10
-5.84424623229988
 20
-4.683273720610962
 30
0.0
 11
-5.744246232299879
 21
-4.737264746767266
 31
0.0
  0
LINE
  5
F10181
330
261
100
AcDbEntity
  8
Geo
100
AcDbLine
 10
-5.744246232299879
 20
-4.737264746767266
 30
0.0
 11
-5.644246232299877
 21
-4.790954974038264
 31
0.0
  0
LINE
  5
F10183
330
261
100
AcDbEntity
  8
Geo
100
AcDbLine
 10
-5.644246232299877
 20
-4.790954974038264
 30
0.0
 11
-5.544246232299876
 21
-4.844333217153963
 31
0.0
  0
LINE
  5
F10185
330
261
100
AcDbEntity
  8
Geo
100
AcDbLine
 10
-5.544246232299876
 20
-4.844333217153963
 30
0.0
 11
-5.444246232299875
 21
-4.897388355840366
 31
0.0
  0
LINE
  5
F10187
330
261
100
AcDbEntity
  8
Geo
100
AcDbLine
 10
-5.444246232299875
 20
-4.897388355840366
 30
0.0
 11
-5.34424623229988
 21
-4.950109337135263
 31
0.0
  0
LINE
  5
F10189
330
261
100
AcDbEntity
  8
Geo
100
AcDbLine
 10
-5.34424623229988
 20
-4.950109337135263
 30
0.0
 11
-5.244246232299879
 21
-5.002485177691564
 31
0.0
  0
LINE
  5
F1018B
330
261
100
AcDbEntity
  8
Geo
100
AcDbLine
 10
-5.244246232299879
 20
-5.002485177691564
 30
0.0
 11
-5.144246232299877
 21
-5.054504966065465
 31
0.0
  0
LINE
  5
F1018D
330
261
100
AcDbEntity
  8
Geo
100
AcDbLine
 10
-5.144246232299877
 20
-5.054504966065465
 30
0.0
 11
-5.044246232299876
 21
-5.106157864988961
 31
0.0
  0
LINE
  5
F1018F
330
261
100
AcDbEntity
  8
Geo
100
AcDbLine
 10
-5.044246232299876
 20
-5.106157864988961
 30
0.0
 11
-4.944246232299875
 21
-5.157433113628364
 31
0.0
  0
LINE
  5
F10191
330
261
100
AcDbEntity
  8
Geo
100
AcDbLine
 10
-4.944246232299875
 20
-5.157433113628364
 30
0.0
 11
-4.84424623229988
 21
-5.208320029825763
 31
0.0
  0
LINE
  5
F10193
330
261
100
AcDbEntity
  8
Geo
100
AcDbLine
 10
-4.84424623229988
 20
-5.208320029825763
 30
0.0
 11
-4.744246232299879
 21
-5.258808012324166
 31
0.0
  0
LINE
  5
F10195
330
261
100
AcDbEntity
  8
Geo
100
AcDbLine
 10
-4.744246232299879
 20
-5.258808012324166
 30
0.0
 11
-4.644246232299877
 21
-5.308886542976669
 31
0.0
  0
LINE
  5
F10197
330
261
100
AcDbEntity
  8
Geo
100
AcDbLine
 10
-4.644246232299877
 20
-5.308886542976669
 30
0.0
 11
-4.544246232299876
 21
-5.358545188937064
 31
0.0
  0
LINE
  5
F10199
330
261
100
AcDbEntity
  8
Geo
100
AcDbLine
 10
-4.544246232299876
 20
-5.358545188937064
 30
0.0
 11
-4.444246232299875
 21
-5.407773604833668
 31
0.0
  0
LINE
  5
F1019B
330
261
100
AcDbEntity
  8
Geo
100
AcDbLine
 10
-4.444246232299875
 20
-5.407773604833668
 30
0.0
 11
-4.34424623229988
 21
-5.456561534924667
 31
0.0
  0
LINE
  5
F1019D
330
261
100
AcDbEntity
  8
Geo
100
AcDbLine
 10
-4.34424623229988
 20
-5.456561534924667
 30
0.0
 11
-4.244246232299879
 21
-5.504898815234366
 31
0.0
  0
LINE
  5
F1019F
330
261
100
AcDbEntity
  8
Geo
100
AcDbLine
 10
-4.244246232299879
 20
-5.504898815234366
 30
0.0
 11
-4.144246232299877
 21
-5.552775375670865
 31
0.0
  0
LINE
  5
F101A1
330
261
100
AcDbEntity
  8
Geo
100
AcDbLine
 10
-4.144246232299877
 20
-5.552775375670865
 30
0.0
 11
-4.044246232299876
 21
-5.600181242123962
 31
0.0
  0
LINE
  5
F101A3
330
261
100
AcDbEntity
  8
Geo
100
AcDbLine
 10
-4.044246232299876
 20
-5.600181242123962
 30
0.0
 11
-3.944246232299875
 21
-5.647106538542868
 31
0.0
  0
LINE
  5
F101A5
330
261
100
AcDbEntity
  8
Geo
100
AcDbLine
 10
-3.944246232299875
 20
-5.647106538542868
 30
0.0
 11
-3.84424623229988
 21
-5.693541488993865
 31
0.0
  0
LINE
  5
F101A7
330
261
100
AcDbEntity
  8
Geo
100
AcDbLine
 10
-3.84424623229988
 20
-5.693541488993865
 30
0.0
 11
-3.744246232299879
 21
-5.739476419696963
 31
0.0
  0
LINE
  5
F101A9
330
261
100
AcDbEntity
  8
Geo
100
AcDbLine
 10
-3.744246232299879
 20
-5.739476419696963
 30
0.0
 11
-3.644246232299877
 21
-5.784901761041066
 31
0.0
  0
LINE
  5
F101AB
330
261
100
AcDbEntity
  8
Geo
100
AcDbLine
 10
-3.644246232299877
 20
-5.784901761041066
 30
0.0
 11
-3.544246232299876
 21
-5.829808049577668
 31
0.0
  0
LINE
  5
F101AD
330
261
100
AcDbEntity
  8
Geo
100
AcDbLine
 10
-3.544246232299876
 20
-5.829808049577668
 30
0.0
 11
-3.444246232299875
 21
-5.874185929992464
 31
0.0
  0
LINE
  5
F101AF
330
261
100
AcDbEntity
  8
Geo
100
AcDbLine
 10
-3.444246232299875
 20
-5.874185929992464
 30
0.0
 11
-3.34424623229988
 21
-5.918026157054065
 31
0.0
  0
LINE
  5
F101B1
330
261
100
AcDbEntity
  8
Geo
100
AcDbLine
 10
-3.34424623229988
 20
-5.918026157054065
 30
0.0
 11
-3.244246232299879
 21
-5.961319597540565
 31
0.0
  0
LINE
  5
F101B3
330
261
100
AcDbEntity
  8
Geo
100
AcDbLine
 10
-3.244246232299879
 20
-5.961319597540565
 30
0.0
 11
-3.144246232299877
 21
-6.004057232141665
 31
0.0
  0
LINE
  5
F101B5
330
261
100
AcDbEntity
  8
Geo
100
AcDbLine
 10
-3.144246232299877
 20
-6.004057232141665
 30
0.0
 11
-3.044246232299876
 21
-6.046230157338165
 31
0.0
  0
LINE
  5
F101B7
330
261
100
AcDbEntity
  8
Geo
100
AcDbLine
 10
-3.044246232299876
 20
-6.046230157338165
 30
0.0
 11
-2.944246232299875
 21
-6.087829587256464
 31
0.0
  0
LINE
  5
F101B9
330
261
100
AcDbEntity
  8
Geo
100
AcDbLine
 10
-2.944246232299875
 20
-6.087829587256464
 30
0.0
 11
-2.84424623229988
 21
-6.128846855499062
 31
0.0
  0
LINE
  5
F101BB
330
261
100
AcDbEntity
  8
Geo
100
AcDbLine
 10
-2.84424623229988
 20
-6.128846855499062
 30
0.0
 11
-2.744246232299879
 21
-6.169273416950165
 31
0.0
  0
LINE
  5
F101BD
330
261
100
AcDbEntity
  8
Geo
100
AcDbLine
 10
-2.744246232299879
 20
-6.169273416950165
 30
0.0
 11
-2.644246232299877
 21
-6.209100849555763
 31
0.0
  0
LINE
  5
F101BF
330
261
100
AcDbEntity
  8
Geo
100
AcDbLine
 10
-2.644246232299877
 20
-6.209100849555763
 30
0.0
 11
-2.544246232299876
 21
-6.248320856077963
 31
0.0
  0
LINE
  5
F101C1
330
261
100
AcDbEntity
  8
Geo
100
AcDbLine
 10
-2.544246232299876
 20
-6.248320856077963
 30
0.0
 11
-2.444246232299875
 21
-6.286925265823963
 31
0.0
  0
LINE
  5
F101C3
330
261
100
AcDbEntity
  8
Geo
100
AcDbLine
 10
-2.444246232299875
 20
-6.286925265823963
 30
0.0
 11
-2.34424623229988
 21
-6.324906036348167
 31
0.0
  0
LINE
  5
F101C5
330
261
100
AcDbEntity
  8
Geo
100
AcDbLine
 10
-2.34424623229988
 20
-6.324906036348167
 30
0.0
 11
-2.244246232299879
 21
-6.362255255127166
 31
0.0
  0
LINE
  5
F101C7
330
261
100
AcDbEntity
  8
Geo
100
AcDbLine
 10
-2.244246232299879
 20
-6.362255255127166
 30
0.0
 11
-2.144246232299877
 21
-6.398965141209064
 31
0.0
  0
LINE
  5
F101C9
330
261
100
AcDbEntity
  8
Geo
100
AcDbLine
 10
-2.144246232299877
 20
-6.398965141209064
 30
0.0
 11
-2.044246232299876
 21
-6.435028046833565
 31
0.0
  0
LINE
  5
F101CB
330
261
100
AcDbEntity
  8
Geo
100
AcDbLine
 10
-2.044246232299876
 20
-6.435028046833565
 30
0.0
 11
-1.944246232299875
 21
-6.470436459025762
 31
0.0
  0
LINE
  5
F101CD
330
261
100
AcDbEntity
  8
Geo
100
AcDbLine
 10
-1.944246232299875
 20
-6.470436459025762
 30
0.0
 11
-1.84424623229988
 21
-6.505183001161167
 31
0.0
  0
LINE
  5
F101CF
330
261
100
AcDbEntity
  8
Geo
100
AcDbLine
 10
-1.84424623229988
 20
-6.505183001161167
 30
0.0
 11
-1.744246232299879
 21
-6.539260434502669
 31
0.0
  0
LINE
  5
F101D1
330
261
100
AcDbEntity
  8
Geo
100
AcDbLine
 10
-1.744246232299879
 20
-6.539260434502669
 30
0.0
 11
-1.644246232299877
 21
-6.572661659707964
 31
0.0
  0
LINE
  5
F101D3
330
261
100
AcDbEntity
  8
Geo
100
AcDbLine
 10
-1.644246232299877
 20
-6.572661659707964
 30
0.0
 11
-1.544246232299876
 21
-6.605379718309563
 31
0.0
  0
LINE
  5
F101D5
330
261
100
AcDbEntity
  8
Geo
100
AcDbLine
 10
-1.544246232299876
 20
-6.605379718309563
 30
0.0
 11
-1.444246232299875
 21
-6.637407794163461
 31
0.0
  0
LINE
  5
F101D7
330
261
100
AcDbEntity
  8
Geo
100
AcDbLine
 10
-1.444246232299875
 20
-6.637407794163461
 30
0.0
 11
-1.34424623229988
 21
-6.668739214869667
 31
0.0
  0
LINE
  5
F101D9
330
261
100
AcDbEntity
  8
Geo
100
AcDbLine
 10
-1.34424623229988
 20
-6.668739214869667
 30
0.0
 11
-1.244246232299879
 21
-6.699367453162167
 31
0.0
  0
LINE
  5
F101DB
330
261
100
AcDbEntity
  8
Geo
100
AcDbLine
 10
-1.244246232299879
 20
-6.699367453162167
 30
0.0
 11
-1.144246232299877
 21
-6.729286128268867
 31
0.0
  0
LINE
  5
F101DD
330
261
100
AcDbEntity
  8
Geo
100
AcDbLine
 10
-1.144246232299877
 20
-6.729286128268867
 30
0.0
 11
-1.044246232299876
 21
-6.758489007240665
 31
0.0
  0
LINE
  5
F101DF
330
261
100
AcDbEntity
  8
Geo
100
AcDbLine
 10
-1.044246232299876
 20
-6.758489007240665
 30
0.0
 11
-0.944246232299875
 21
-6.786970006249962
 31
0.0
  0
LINE
  5
F101E1
330
261
100
AcDbEntity
  8
Geo
100
AcDbLine
 10
-0.944246232299875
 20
-6.786970006249962
 30
0.0
 11
-0.8442462322998807
 21
-6.814723191858366
 31
0.0
  0
LINE
  5
F101E3
330
261
100
AcDbEntity
  8
Geo
100
AcDbLine
 10
-0.8442462322998807
 20
-6.814723191858366
 30
0.0
 11
-0.7442462322998793
 21
-6.841742782252566
 31
0.0
  0
LINE
  5
F101E5
330
261
100
AcDbEntity
  8
Geo
100
AcDbLine
 10
-0.7442462322998793
 20
-6.841742782252566
 30
0.0
 11
-0.6442462322998779
 21
-6.868023148448962
 31
0.0
  0
LINE
  5
F101E7
330
261
100
AcDbEntity
  8
Geo
100
AcDbLine
 10
-0.6442462322998779
 20
-6.868023148448962
 30
0.0
 11
-0.5442462322998765
 21
-6.893558815466366
 31
0.0
  0
LINE
  5
F101E9
330
261
100
AcDbEntity
  8
Geo
100
AcDbLine
 10
-0.5442462322998765
 20
-6.893558815466366
 30
0.0
 11
-0.4442462322998751
 21
-6.918344463466464
 31
0.0
  0
LINE
  5
F101EB
330
261
100
AcDbEntity
  8
Geo
100
AcDbLine
 10
-0.4442462322998751
 20
-6.918344463466464
 30
0.0
 11
-0.3442462322998807
 21
-6.942374928862264
 31
0.0
  0
LINE
  5
F101ED
330
261
100
AcDbEntity
  8
Geo
100
AcDbLine
 10
-0.3442462322998807
 20
-6.942374928862264
 30
0.0
 11
-0.2442462322998793
 21
-6.965645205393766
 31
0.0
  0
LINE
  5
F101EF
330
261
100
AcDbEntity
  8
Geo
100
AcDbLine
 10
-0.2442462322998793
 20
-6.965645205393766
 30
0.0
 11
-0.1442462322998779
 21
-6.988150445170667
 31
0.0
  0
LINE
  5
F101F1
330
261
100
AcDbEntity
  8
Geo
100
AcDbLine
 10
-0.1442462322998779
 20
-6.988150445170667
 30
0.0
 11
-0.0442462322998765
 21
-7.009885959682961
 31
0.0
  0
LINE
  5
F101F3
330
261
100
AcDbEntity
  8
Geo
100
AcDbLine
 10
-0.0442462322998765
 20
-7.009885959682961
 30
0.0
 11
0.055753767700125
 21
-7.030847220776962
 31
0.0
  0
LINE
  5
F101F5
330
261
100
AcDbEntity
  8
Geo
100
AcDbLine
 10
0.055753767700125
 20
-7.030847220776962
 30
0.0
 11
0.1557537677001193
 21
-7.051029861599165
 31
0.0
  0
LINE
  5
F101F7
330
261
100
AcDbEntity
  8
Geo
100
AcDbLine
 10
0.1557537677001193
 20
-7.051029861599165
 30
0.0
 11
0.2557537677001207
 21
-7.070429677505565
 31
0.0
  0
LINE
  5
F101F9
330
261
100
AcDbEntity
  8
Geo
100
AcDbLine
 10
0.2557537677001207
 20
-7.070429677505565
 30
0.0
 11
0.3557537677001221
 21
-7.089042626938265
 31
0.0
  0
LINE
  5
F101FB
330
261
100
AcDbEntity
  8
Geo
100
AcDbLine
 10
0.3557537677001221
 20
-7.089042626938265
 30
0.0
 11
0.4557537677001236
 21
-7.106864832266566
 31
0.0
  0
LINE
  5
F101FD
330
261
100
AcDbEntity
  8
Geo
100
AcDbLine
 10
0.4557537677001236
 20
-7.106864832266566
 30
0.0
 11
0.555753767700125
 21
-7.123892580595565
 31
0.0
  0
LINE
  5
F101FF
330
261
100
AcDbEntity
  8
Geo
100
AcDbLine
 10
0.555753767700125
 20
-7.123892580595565
 30
0.0
 11
0.6557537677001193
 21
-7.140122324539266
 31
0.0
  0
LINE
  5
F10201
330
261
100
AcDbEntity
  8
Geo
100
AcDbLine
 10
0.6557537677001193
 20
-7.140122324539266
 30
0.0
 11
0.7557537677001207
 21
-7.155550682959763
 31
0.0
  0
LINE
  5
F10203
330
261
100
AcDbEntity
  8
Geo
100
AcDbLine
 10
0.7557537677001207
 20
-7.155550682959763
 30
0.0
 11
0.8557537677001221
 21
-7.170174441671562
 31
0.0
  0
LINE
  5
F10205
330
261
100
AcDbEntity
  8
Geo
100
AcDbLine
 10
0.8557537677001221
 20
-7.170174441671562
 30
0.0
 11
0.9557537677001235
 21
-7.183990554110966
 31
0.0
  0
LINE
  5
F10207
330
261
100
AcDbEntity
  8
Geo
100
AcDbLine
 10
0.9557537677001235
 20
-7.183990554110966
 30
0.0
 11
1.055753767700124
 21
-7.196996141971467
 31
0.0
  0
LINE
  5
F10209
330
261
100
AcDbEntity
  8
Geo
100
AcDbLine
 10
1.055753767700124
 20
-7.196996141971467
 30
0.0
 11
1.155753767700119
 21
-7.209188495802365
 31
0.0
  0
LINE
  5
F1020B
330
261
100
AcDbEntity
  8
Geo
100
AcDbLine
 10
1.155753767700119
 20
-7.209188495802365
 30
0.0
 11
1.25575376770012
 21
-7.220565075574164
 31
0.0
  0
LINE
  5
F1020D
330
261
100
AcDbEntity
  8
Geo
100
AcDbLine
 10
1.25575376770012
 20
-7.220565075574164
 30
0.0
 11
1.355753767700122
 21
-7.231123511207165
 31
0.0
  0
LINE
  5
F1020F
330
261
100
AcDbEntity
  8
Geo
100
AcDbLine
 10
1.355753767700122
 20
-7.231123511207165
 30
0.0
 11
1.455753767700123
 21
-7.240861603065663
 31
0.0
  0
LINE
  5
F10211
330
261
100
AcDbEntity
  8
Geo
100
AcDbLine
 10
1.455753767700123
 20
-7.240861603065663
 30
0.0
 11
1.555753767700124
 21
-7.249777322415464
 31
0.0
  0
LINE
  5
F10213
330
261
100
AcDbEntity
  8
Geo
100
AcDbLine
 10
1.555753767700124
 20
-7.249777322415464
 30
0.0
 11
1.655753767700119
 21
-7.257868811847465
 31
0.0
  0
LINE
  5
F10215
330
261
100
AcDbEntity
  8
Geo
100
AcDbLine
 10
1.655753767700119
 20
-7.257868811847465
 30
0.0
 11
1.75575376770012
 21
-7.265134385663966
 31
0.0
  0
LINE
  5
F10217
330
261
100
AcDbEntity
  8
Geo
100
AcDbLine
 10
1.75575376770012
 20
-7.265134385663966
 30
0.0
 11
1.855753767700122
 21
-7.271572530229967
 31
0.0
  0
LINE
  5
F10219
330
261
100
AcDbEntity
  8
Geo
100
AcDbLine
 10
1.855753767700122
 20
-7.271572530229967
 30
0.0
 11
1.955753767700123
 21
-7.277181904288564
 31
0.0
  0
LINE
  5
F1021B
330
261
100
AcDbEntity
  8
Geo
100
AcDbLine
 10
1.955753767700123
 20
-7.277181904288564
 30
0.0
 11
2.055753767700124
 21
-7.281961339240666
 31
0.0
  0
LINE
  5
F1021D
330
261
100
AcDbEntity
  8
Geo
100
AcDbLine
 10
2.055753767700124
 20
-7.281961339240666
 30
0.0
 11
2.155753767700119
 21
-7.285909839387763
 31
0.0
  0
LINE
  5
F1021F
330
261
100
AcDbEntity
  8
Geo
100
AcDbLine
 10
2.155753767700119
 20
-7.285909839387763
 30
0.0
 11
2.25575376770012
 21
-7.289026582139968
 31
0.0
  0
LINE
  5
F10221
330
261
100
AcDbEntity
  8
Geo
100
AcDbLine
 10
2.25575376770012
 20
-7.289026582139968
 30
0.0
 11
2.25575376770012
 21
-7.289026582139968
 31
0.0
  0
LINE
  5
F10223
330
261
100
AcDbEntity
  8
Geo
100
AcDbLine
 10
2.25575376770012
 20
-7.289026582139968
 30
0.0
 11
2.25575376770012
 21
-7.289026582139968
 31
0.0
  0
LINE
  5
F10225
330
261
100
AcDbEntity
  8
Geo
100
AcDbLine
 10
2.25575376770012
 20
-7.289026582139968
 30
0.0
 11
2.355753767700122
 21
-7.288226474265165
 31
0.0
  0
LINE
  5
F10227
330
261
100
AcDbEntity
  8
Geo
100
AcDbLine
 10
2.355753767700122
 20
-7.288226474265165
 30
0.0
 11
2.455753767700123
 21
-7.287326892695265
 31
0.0
  0
LINE
  5
F10229
330
261
100
AcDbEntity
  8
Geo
100
AcDbLine
 10
2.455753767700123
 20
-7.287326892695265
 30
0.0
 11
2.555753767700124
 21
-7.286320363751066
 31
0.0
  0
LINE
  5
F1022B
330
261
100
AcDbEntity
  8
Geo
100
AcDbLine
 10
2.555753767700124
 20
-7.286320363751066
 30
0.0
 11
2.655753767700119
 21
-7.285199158933966
 31
0.0
  0
LINE
  5
F1022D
330
261
100
AcDbEntity
  8
Geo
100
AcDbLine
 10
2.655753767700119
 20
-7.285199158933966
 30
0.0
 11
2.75575376770012
 21
-7.283955295751464
 31
0.0
  0
LINE
  5
F1022F
330
261
100
AcDbEntity
  8
Geo
100
AcDbLine
 10
2.75575376770012
 20
-7.283955295751464
 30
0.0
 11
2.855753767700122
 21
-7.282580538633066
 31
0.0
  0
LINE
  5
F10231
330
261
100
AcDbEntity
  8
Geo
100
AcDbLine
 10
2.855753767700122
 20
-7.282580538633066
 30
0.0
 11
2.955753767700123
 21
-7.281066399939966
 31
0.0
  0
LINE
  5
F10233
330
261
100
AcDbEntity
  8
Geo
100
AcDbLine
 10
2.955753767700123
 20
-7.281066399939966
 30
0.0
 11
3.055753767700124
 21
-7.279404141076163
 31
0.0
  0
LINE
  5
F10235
330
261
100
AcDbEntity
  8
Geo
100
AcDbLine
 10
3.055753767700124
 20
-7.279404141076163
 30
0.0
 11
3.155753767700119
 21
-7.277584773707264
 31
0.0
  0
LINE
  5
F10237
330
261
100
AcDbEntity
  8
Geo
100
AcDbLine
 10
3.155753767700119
 20
-7.277584773707264
 30
0.0
 11
3.25575376770012
 21
-7.275599061092666
 31
0.0
  0
LINE
  5
F10239
330
261
100
AcDbEntity
  8
Geo
100
AcDbLine
 10
3.25575376770012
 20
-7.275599061092666
 30
0.0
 11
3.355753767700122
 21
-7.273437519539264
 31
0.0
  0
LINE
  5
F1023B
330
261
100
AcDbEntity
  8
Geo
100
AcDbLine
 10
3.355753767700122
 20
-7.273437519539264
 30
0.0
 11
3.455753767700123
 21
-7.271090419981966
 31
0.0
  0
LINE
  5
F1023D
330
261
100
AcDbEntity
  8
Geo
100
AcDbLine
 10
3.455753767700123
 20
-7.271090419981966
 30
0.0
 11
3.555753767700124
 21
-7.268547789699166
 31
0.0
  0
LINE
  5
F1023F
330
261
100
AcDbEntity
  8
Geo
100
AcDbLine
 10
3.555753767700124
 20
-7.268547789699166
 30
0.0
 11
3.655753767700119
 21
-7.265799414170263
 31
0.0
  0
LINE
  5
F10241
330
261
100
AcDbEntity
  8
Geo
100
AcDbLine
 10
3.655753767700119
 20
-7.265799414170263
 30
0.0
 11
3.75575376770012
 21
-7.262834839081865
 31
0.0
  0
LINE
  5
F10243
330
261
100
AcDbEntity
  8
Geo
100
AcDbLine
 10
3.75575376770012
 20
-7.262834839081865
 30
0.0
 11
3.855753767700122
 21
-7.259643372491165
 31
0.0
  0
LINE
  5
F10245
330
261
100
AcDbEntity
  8
Geo
100
AcDbLine
 10
3.855753767700122
 20
-7.259643372491165
 30
0.0
 11
3.955753767700123
 21
-7.256214087153967
 31
0.0
  0
LINE
  5
F10247
330
261
100
AcDbEntity
  8
Geo
100
AcDbLine
 10
3.955753767700123
 20
-7.256214087153967
 30
0.0
 11
4.055753767700124
 21
-7.252535823024164
 31
0.0
  0
LINE
  5
F10249
330
261
100
AcDbEntity
  8
Geo
100
AcDbLine
 10
4.055753767700124
 20
-7.252535823024164
 30
0.0
 11
4.155753767700119
 21
-7.248597189934265
 31
0.0
  0
LINE
  5
F1024B
330
261
100
AcDbEntity
  8
Geo
100
AcDbLine
 10
4.155753767700119
 20
-7.248597189934265
 30
0.0
 11
4.25575376770012
 21
-7.244386570463966
 31
0.0
  0
LINE
  5
F1024D
330
261
100
AcDbEntity
  8
Geo
100
AcDbLine
 10
4.25575376770012
 20
-7.244386570463966
 30
0.0
 11
4.355753767700122
 21
-7.239892123005567
 31
0.0
  0
LINE
  5
F1024F
330
261
100
AcDbEntity
  8
Geo
100
AcDbLine
 10
4.355753767700122
 20
-7.239892123005567
 30
0.0
 11
4.455753767700123
 21
-7.235101785033663
 31
0.0
  0
LINE
  5
F10251
330
261
100
AcDbEntity
  8
Geo
100
AcDbLine
 10
4.455753767700123
 20
-7.235101785033663
 30
0.0
 11
4.555753767700124
 21
-7.230003276589666
 31
0.0
  0
LINE
  5
F10253
330
261
100
AcDbEntity
  8
Geo
100
AcDbLine
 10
4.555753767700124
 20
-7.230003276589666
 30
0.0
 11
4.655753767700119
 21
-7.224584103986664
 31
0.0
  0
LINE
  5
F10255
330
261
100
AcDbEntity
  8
Geo
100
AcDbLine
 10
4.655753767700119
 20
-7.224584103986664
 30
0.0
 11
4.75575376770012
 21
-7.218831563746867
 31
0.0
  0
LINE
  5
F10257
330
261
100
AcDbEntity
  8
Geo
100
AcDbLine
 10
4.75575376770012
 20
-7.218831563746867
 30
0.0
 11
4.855753767700122
 21
-7.212732746777263
 31
0.0
  0
LINE
  5
F10259
330
261
100
AcDbEntity
  8
Geo
100
AcDbLine
 10
4.855753767700122
 20
-7.212732746777263
 30
0.0
 11
4.955753767700123
 21
-7.206274542794762
 31
0.0
  0
LINE
  5
F1025B
330
261
100
AcDbEntity
  8
Geo
100
AcDbLine
 10
4.955753767700123
 20
-7.206274542794762
 30
0.0
 11
5.055753767700124
 21
-7.199443645007864
 31
0.0
  0
LINE
  5
F1025D
330
261
100
AcDbEntity
  8
Geo
100
AcDbLine
 10
5.055753767700124
 20
-7.199443645007864
 30
0.0
 11
5.155753767700119
 21
-7.192226555065964
 31
0.0
  0
LINE
  5
F1025F
330
261
100
AcDbEntity
  8
Geo
100
AcDbLine
 10
5.155753767700119
 20
-7.192226555065964
 30
0.0
 11
5.25575376770012
 21
-7.184609588282967
 31
0.0
  0
LINE
  5
F10261
330
261
100
AcDbEntity
  8
Geo
100
AcDbLine
 10
5.25575376770012
 20
-7.184609588282967
 30
0.0
 11
5.355753767700122
 21
-7.176578879147367
 31
0.0
  0
LINE
  5
F10263
330
261
100
AcDbEntity
  8
Geo
100
AcDbLine
 10
5.355753767700122
 20
-7.176578879147367
 30
0.0
 11
5.455753767700123
 21
-7.168120387124265
 31
0.0
  0
LINE
  5
F10265
330
261
100
AcDbEntity
  8
Geo
100
AcDbLine
 10
5.455753767700123
 20
-7.168120387124265
 30
0.0
 11
5.555753767700124
 21
-7.159219902762565
 31
0.0
  0
LINE
  5
F10267
330
261
100
AcDbEntity
  8
Geo
100
AcDbLine
 10
5.555753767700124
 20
-7.159219902762565
 30
0.0
 11
5.655753767700119
 21
-7.149863054113065
 31
0.0
  0
LINE
  5
F10269
330
261
100
AcDbEntity
  8
Geo
100
AcDbLine
 10
5.655753767700119
 20
-7.149863054113065
 30
0.0
 11
5.75575376770022
 21
-7.140035313469162
 31
0.0
  0
LINE
  5
F1026B
330
261
100
AcDbEntity
  8
Geo
100
AcDbLine
 10
5.75575376770022
 20
-7.140035313469162
 30
0.0
 11
5.855753767700214
 21
-7.129722004438065
 31
0.0
  0
LINE
  5
F1026D
330
261
100
AcDbEntity
  8
Geo
100
AcDbLine
 10
5.855753767700214
 20
-7.129722004438065
 30
0.0
 11
5.955753767700215
 21
-7.118908309352264
 31
0.0
  0
LINE
  5
F1026F
330
261
100
AcDbEntity
  8
Geo
100
AcDbLine
 10
5.955753767700215
 20
-7.118908309352264
 30
0.0
 11
6.055753767700217
 21
-7.107579277029763
 31
0.0
  0
LINE
  5
F10271
330
261
100
AcDbEntity
  8
Geo
100
AcDbLine
 10
6.055753767700217
 20
-7.107579277029763
 30
0.0
 11
6.155753767700218
 21
-7.095719830893663
 31
0.0
  0
LINE
  5
F10273
330
261
100
AcDbEntity
  8
Geo
100
AcDbLine
 10
6.155753767700218
 20
-7.095719830893663
 30
0.0
 11
6.25575376770012
 21
-7.083314777458063
 31
0.0
  0
LINE
  5
F10275
330
261
100
AcDbEntity
  8
Geo
100
AcDbLine
 10
-13.74424623229987
 20
-3.293405030204667
 30
0.0
 11
-13.64424623229988
 21
-2.933529501940867
 31
0.0
  0
LINE
  5
F10277
330
261
100
AcDbEntity
  8
Geo
100
AcDbLine
 10
-13.64424623229988
 20
-2.933529501940867
 30
0.0
 11
-13.54424623229988
 21
-2.804231629240764
 31
0.0
  0
LINE
  5
F10279
330
261
100
AcDbEntity
  8
Geo
100
AcDbLine
 10
-13.54424623229988
 20
-2.804231629240764
 30
0.0
 11
-13.44424623229987
 21
-2.718391479372364
 31
0.0
  0
LINE
  5
F1027B
330
261
100
AcDbEntity
  8
Geo
100
AcDbLine
 10
-13.44424623229987
 20
-2.718391479372364
 30
0.0
 11
-13.34424623229988
 21
-2.657125575296564
 31
0.0
  0
LINE
  5
F1027D
330
261
100
AcDbEntity
  8
Geo
100
AcDbLine
 10
-13.34424623229988
 20
-2.657125575296564
 30
0.0
 11
-13.24424623229987
 21
-2.612814528075862
 31
0.0
  0
LINE
  5
F1027F
330
261
100
AcDbEntity
  8
Geo
100
AcDbLine
 10
-13.24424623229987
 20
-2.612814528075862
 30
0.0
 11
-13.14424623229988
 21
-2.581392202507863
 31
0.0
  0
LINE
  5
F10281
330
261
100
AcDbEntity
  8
Geo
100
AcDbLine
 10
-13.14424623229988
 20
-2.581392202507863
 30
0.0
 11
-13.04424623229988
 21
-2.560344585083463
 31
0.0
  0
LINE
  5
F10283
330
261
100
AcDbEntity
  8
Geo
100
AcDbLine
 10
-13.04424623229988
 20
-2.560344585083463
 30
0.0
 11
-12.94424623229987
 21
-2.547965500141664
 31
0.0
  0
LINE
  5
F10285
330
261
100
AcDbEntity
  8
Geo
100
AcDbLine
 10
-12.94424623229987
 20
-2.547965500141664
 30
0.0
 11
-12.84424623229988
 21
-2.543019184614465
 31
0.0
  0
LINE
  5
F10287
330
261
100
AcDbEntity
  8
Geo
100
AcDbLine
 10
-12.84424623229988
 20
-2.543019184614465
 30
0.0
 11
-12.74424623229987
 21
-2.544566239371064
 31
0.0
  0
LINE
  5
F10289
330
261
100
AcDbEntity
  8
Geo
100
AcDbLine
 10
-12.74424623229987
 20
-2.544566239371064
 30
0.0
 11
-12.64424623229988
 21
-2.551865215022466
 31
0.0
  0
LINE
  5
F1028B
330
261
100
AcDbEntity
  8
Geo
100
AcDbLine
 10
-12.64424623229988
 20
-2.551865215022466
 30
0.0
 11
-12.54424623229988
 21
-2.564312983718668
 31
0.0
  0
LINE
  5
F1028D
330
261
100
AcDbEntity
  8
Geo
100
AcDbLine
 10
-12.54424623229988
 20
-2.564312983718668
 30
0.0
 11
-12.44424623229987
 21
-2.581406605741168
 31
0.0
  0
LINE
  5
F1028F
330
261
100
AcDbEntity
  8
Geo
100
AcDbLine
 10
-12.44424623229987
 20
-2.581406605741168
 30
0.0
 11
-12.34424623229988
 21
-2.602717858994065
 31
0.0
  0
LINE
  5
F10291
330
261
100
AcDbEntity
  8
Geo
100
AcDbLine
 10
-12.34424623229988
 20
-2.602717858994065
 30
0.0
 11
-12.24424623229987
 21
-2.627875606795367
 31
0.0
  0
LINE
  5
F10293
330
261
100
AcDbEntity
  8
Geo
100
AcDbLine
 10
-12.24424623229987
 20
-2.627875606795367
 30
0.0
 11
-12.14424623229988
 21
-2.656553220263464
 31
0.0
  0
LINE
  5
F10295
330
261
100
AcDbEntity
  8
Geo
100
AcDbLine
 10
-12.14424623229988
 20
-2.656553220263464
 30
0.0
 11
-12.04424623229988
 21
-2.688459374422766
 31
0.0
  0
LINE
  5
F10297
330
261
100
AcDbEntity
  8
Geo
100
AcDbLine
 10
-12.04424623229988
 20
-2.688459374422766
 30
0.0
 11
-11.94424623229987
 21
-2.723331163276363
 31
0.0
  0
LINE
  5
F10299
330
261
100
AcDbEntity
  8
Geo
100
AcDbLine
 10
-11.94424623229987
 20
-2.723331163276363
 30
0.0
 11
-11.84424623229988
 21
-2.760928849798865
 31
0.0
  0
LINE
  5
F1029B
330
261
100
AcDbEntity
  8
Geo
100
AcDbLine
 10
-11.84424623229988
 20
-2.760928849798865
 30
0.0
 11
-11.74424623229987
 21
-2.801031794334868
 31
0.0
  0
LINE
  5
F1029D
330
261
100
AcDbEntity
  8
Geo
100
AcDbLine
 10
-11.74424623229987
 20
-2.801031794334868
 30
0.0
 11
-11.64424623229987
 21
-2.843435249000066
 31
0.0
  0
LINE
  5
F1029F
330
261
100
AcDbEntity
  8
Geo
100
AcDbLine
 10
-11.64424623229987
 20
-2.843435249000066
 30
0.0
 11
-11.54424623229988
 21
-2.887947799498565
 31
0.0
  0
LINE
  5
F102A1
330
261
100
AcDbEntity
  8
Geo
100
AcDbLine
 10
-11.54424623229988
 20
-2.887947799498565
 30
0.0
 11
-11.44424623229987
 21
-2.934389298352563
 31
0.0
  0
LINE
  5
F102A3
330
261
100
AcDbEntity
  8
Geo
100
AcDbLine
 10
-11.44424623229987
 20
-2.934389298352563
 30
0.0
 11
-11.34424623229988
 21
-2.98258917620296
 31
0.0
  0
LINE
  5
F102A5
330
261
100
AcDbEntity
  8
Geo
100
AcDbLine
 10
-11.34424623229988
 20
-2.98258917620296
 30
0.0
 11
-11.24424623229987
 21
-3.032385047496667
 31
0.0
  0
LINE
  5
F102A7
330
261
100
AcDbEntity
  8
Geo
100
AcDbLine
 10
-11.24424623229987
 20
-3.032385047496667
 30
0.0
 11
-11.14424623229988
 21
-3.083621547845766
 31
0.0
  0
LINE
  5
F102A9
330
261
100
AcDbEntity
  8
Geo
100
AcDbLine
 10
-11.14424623229988
 20
-3.083621547845766
 30
0.0
 11
-11.04424623229988
 21
-3.136149355423867
 31
0.0
  0
LINE
  5
F102AB
330
261
100
AcDbEntity
  8
Geo
100
AcDbLine
 10
-11.04424623229988
 20
-3.136149355423867
 30
0.0
 11
-10.94424623229987
 21
-3.189824359745763
 31
0.0
  0
LINE
  5
F102AD
330
261
100
AcDbEntity
  8
Geo
100
AcDbLine
 10
-10.94424623229987
 20
-3.189824359745763
 30
0.0
 11
-10.84424623229988
 21
-3.244506949291668
 31
0.0
  0
LINE
  5
F102AF
330
261
100
AcDbEntity
  8
Geo
100
AcDbLine
 10
-10.84424623229988
 20
-3.244506949291668
 30
0.0
 11
-10.74424623229987
 21
-3.300061395493067
 31
0.0
  0
LINE
  5
F102B1
330
261
100
AcDbEntity
  8
Geo
100
AcDbLine
 10
-10.74424623229987
 20
-3.300061395493067
 30
0.0
 11
-10.64424623229988
 21
-3.356355315171867
 31
0.0
  0
LINE
  5
F102B3
330
261
100
AcDbEntity
  8
Geo
100
AcDbLine
 10
-10.64424623229988
 20
-3.356355315171867
 30
0.0
 11
-10.54424623229988
 21
-3.413259197000066
 31
0.0
  0
LINE
  5
F102B5
330
261
100
AcDbEntity
  8
Geo
100
AcDbLine
 10
-10.54424623229988
 20
-3.413259197000066
 30
0.0
 11
-10.44424623229987
 21
-3.470645980217963
 31
0.0
  0
LINE
  5
F102B7
330
261
100
AcDbEntity
  8
Geo
100
AcDbLine
 10
-10.44424623229987
 20
-3.470645980217963
 30
0.0
 11
-10.34424623229988
 21
-3.528390675905264
 31
0.0
  0
LINE
  5
F102B9
330
261
100
AcDbEntity
  8
Geo
100
AcDbLine
 10
-10.34424623229988
 20
-3.528390675905264
 30
0.0
 11
-10.24424623229988
 21
-3.586370022688566
 31
0.0
  0
LINE
  5
F102BB
330
261
100
AcDbEntity
  8
Geo
100
AcDbLine
 10
-10.24424623229988
 20
-3.586370022688566
 30
0.0
 11
-10.14424623229988
 21
-3.644462170000466
 31
0.0
  0
LINE
  5
F102BD
330
261
100
AcDbEntity
  8
Geo
100
AcDbLine
 10
-10.14424623229988
 20
-3.644462170000466
 30
0.0
 11
-10.04424623229987
 21
-3.702546382950266
 31
0.0
  0
LINE
  5
F102BF
330
261
100
AcDbEntity
  8
Geo
100
AcDbLine
 10
-10.04424623229987
 20
-3.702546382950266
 30
0.0
 11
-9.944246232299875
 21
-3.760502763588167
 31
0.0
  0
LINE
  5
F102C1
330
261
100
AcDbEntity
  8
Geo
100
AcDbLine
 10
-9.944246232299875
 20
-3.760502763588167
 30
0.0
 11
-9.84424623229988
 21
-3.818211983876867
 31
0.0
  0
LINE
  5
F102C3
330
261
100
AcDbEntity
  8
Geo
100
AcDbLine
 10
-9.84424623229988
 20
-3.818211983876867
 30
0.0
 11
-9.744246232299879
 21
-3.875555026064464
 31
0.0
  0
LINE
  5
F102C5
330
261
100
AcDbEntity
  8
Geo
100
AcDbLine
 10
-9.744246232299879
 20
-3.875555026064464
 30
0.0
 11
-9.644246232299877
 21
-3.932612710019462
 31
0.0
  0
LINE
  5
F102C7
330
261
100
AcDbEntity
  8
Geo
100
AcDbLine
 10
-9.644246232299877
 20
-3.932612710019462
 30
0.0
 11
-9.544246232299876
 21
-3.989537228019763
 31
0.0
  0
LINE
  5
F102C9
330
261
100
AcDbEntity
  8
Geo
100
AcDbLine
 10
-9.544246232299876
 20
-3.989537228019763
 30
0.0
 11
-9.444246232299875
 21
-4.046316720996667
 31
0.0
  0
LINE
  5
F102CB
330
261
100
AcDbEntity
  8
Geo
100
AcDbLine
 10
-9.444246232299875
 20
-4.046316720996667
 30
0.0
 11
-9.34424623229988
 21
-4.102939360094566
 31
0.0
  0
LINE
  5
F102CD
330
261
100
AcDbEntity
  8
Geo
100
AcDbLine
 10
-9.34424623229988
 20
-4.102939360094566
 30
0.0
 11
-9.244246232299879
 21
-4.159393349134965
 31
0.0
  0
LINE
  5
F102CF
330
261
100
AcDbEntity
  8
Geo
100
AcDbLine
 10
-9.244246232299879
 20
-4.159393349134965
 30
0.0
 11
-9.144246232299877
 21
-4.215666927074462
 31
0.0
  0
LINE
  5
F102D1
330
261
100
AcDbEntity
  8
Geo
100
AcDbLine
 10
-9.144246232299877
 20
-4.215666927074462
 30
0.0
 11
-9.044246232299876
 21
-4.271748370454464
 31
0.0
  0
LINE
  5
F102D3
330
261
100
AcDbEntity
  8
Geo
100
AcDbLine
 10
-9.044246232299876
 20
-4.271748370454464
 30
0.0
 11
-8.944246232299875
 21
-4.327625995843764
 31
0.0
  0
LINE
  5
F102D5
330
261
100
AcDbEntity
  8
Geo
100
AcDbLine
 10
-8.944246232299875
 20
-4.327625995843764
 30
0.0
 11
-8.84424623229988
 21
-4.383288162272563
 31
0.0
  0
LINE
  5
F102D7
330
261
100
AcDbEntity
  8
Geo
100
AcDbLine
 10
-8.84424623229988
 20
-4.383288162272563
 30
0.0
 11
-8.744246232299879
 21
-4.438723273657565
 31
0.0
  0
LINE
  5
F102D9
330
261
100
AcDbEntity
  8
Geo
100
AcDbLine
 10
-8.744246232299879
 20
-4.438723273657565
 30
0.0
 11
-8.644246232299877
 21
-4.493919781217563
 31
0.0
  0
LINE
  5
F102DB
330
261
100
AcDbEntity
  8
Geo
100
AcDbLine
 10
-8.644246232299877
 20
-4.493919781217563
 30
0.0
 11
-8.544246232299876
 21
-4.548866185879866
 31
0.0
  0
LINE
  5
F102DD
330
261
100
AcDbEntity
  8
Geo
100
AcDbLine
 10
-8.544246232299876
 20
-4.548866185879866
 30
0.0
 11
-8.444246232299875
 21
-4.603551040675665
 31
0.0
  0
LINE
  5
F102DF
330
261
100
AcDbEntity
  8
Geo
100
AcDbLine
 10
-8.444246232299875
 20
-4.603551040675665
 30
0.0
 11
-8.34424623229988
 21
-4.657962953124464
 31
0.0
  0
LINE
  5
F102E1
330
261
100
AcDbEntity
  8
Geo
100
AcDbLine
 10
-8.34424623229988
 20
-4.657962953124464
 30
0.0
 11
-8.244246232299879
 21
-4.712090587608166
 31
0.0
  0
LINE
  5
F102E3
330
261
100
AcDbEntity
  8
Geo
100
AcDbLine
 10
-8.244246232299879
 20
-4.712090587608166
 30
0.0
 11
-8.144246232299877
 21
-4.765922667731963
 31
0.0
  0
LINE
  5
F102E5
330
261
100
AcDbEntity
  8
Geo
100
AcDbLine
 10
-8.144246232299877
 20
-4.765922667731963
 30
0.0
 11
-8.044246232299876
 21
-4.819447978673764
 31
0.0
  0
LINE
  5
F102E7
330
261
100
AcDbEntity
  8
Geo
100
AcDbLine
 10
-8.044246232299876
 20
-4.819447978673764
 30
0.0
 11
-7.944246232299875
 21
-4.872655369520867
 31
0.0
  0
LINE
  5
F102E9
330
261
100
AcDbEntity
  8
Geo
100
AcDbLine
 10
-7.944246232299875
 20
-4.872655369520867
 30
0.0
 11
-7.84424623229988
 21
-4.925533755592564
 31
0.0
  0
LINE
  5
F102EB
330
261
100
AcDbEntity
  8
Geo
100
AcDbLine
 10
-7.84424623229988
 20
-4.925533755592564
 30
0.0
 11
-7.744246232299879
 21
-4.978072120749665
 31
0.0
  0
LINE
  5
F102ED
330
261
100
AcDbEntity
  8
Geo
100
AcDbLine
 10
-7.744246232299879
 20
-4.978072120749665
 30
0.0
 11
-7.644246232299877
 21
-5.030259519689465
 31
0.0
  0
LINE
  5
F102EF
330
261
100
AcDbEntity
  8
Geo
100
AcDbLine
 10
-7.644246232299877
 20
-5.030259519689465
 30
0.0
 11
-7.544246232299876
 21
-5.082085080225866
 31
0.0
  0
LINE
  5
F102F1
330
261
100
AcDbEntity
  8
Geo
100
AcDbLine
 10
-7.544246232299876
 20
-5.082085080225866
 30
0.0
 11
-7.444246232299875
 21
-5.133538005554765
 31
0.0
  0
LINE
  5
F102F3
330
261
100
AcDbEntity
  8
Geo
100
AcDbLine
 10
-7.444246232299875
 20
-5.133538005554765
 30
0.0
 11
-7.34424623229988
 21
-5.184607576502564
 31
0.0
  0
LINE
  5
F102F5
330
261
100
AcDbEntity
  8
Geo
100
AcDbLine
 10
-7.34424623229988
 20
-5.184607576502564
 30
0.0
 11
-7.244246232299879
 21
-5.235283153760065
 31
0.0
  0
LINE
  5
F102F7
330
261
100
AcDbEntity
  8
Geo
100
AcDbLine
 10
-7.244246232299879
 20
-5.235283153760065
 30
0.0
 11
-7.144246232299877
 21
-5.285554180098763
 31
0.0
  0
LINE
  5
F102F9
330
261
100
AcDbEntity
  8
Geo
100
AcDbLine
 10
-7.144246232299877
 20
-5.285554180098763
 30
0.0
 11
-7.044246232299876
 21
-5.335410182569866
 31
0.0
  0
LINE
  5
F102FB
330
261
100
AcDbEntity
  8
Geo
100
AcDbLine
 10
-7.044246232299876
 20
-5.335410182569866
 30
0.0
 11
-6.944246232299875
 21
-5.384840774686669
 31
0.0
  0
LINE
  5
F102FD
330
261
100
AcDbEntity
  8
Geo
100
AcDbLine
 10
-6.944246232299875
 20
-5.384840774686669
 30
0.0
 11
-6.84424623229988
 21
-5.433835658587764
 31
0.0
  0
LINE
  5
F102FF
330
261
100
AcDbEntity
  8
Geo
100
AcDbLine
 10
-6.84424623229988
 20
-5.433835658587764
 30
0.0
 11
-6.744246232299879
 21
-5.482384627182963
 31
0.0
  0
LINE
  5
F10301
330
261
100
AcDbEntity
  8
Geo
100
AcDbLine
 10
-6.744246232299879
 20
-5.482384627182963
 30
0.0
 11
-6.644246232299877
 21
-5.530477566279365
 31
0.0
  0
LINE
  5
F10303
330
261
100
AcDbEntity
  8
Geo
100
AcDbLine
 10
-6.644246232299877
 20
-5.530477566279365
 30
0.0
 11
-6.544246232299876
 21
-5.578104456688567
 31
0.0
  0
LINE
  5
F10305
330
261
100
AcDbEntity
  8
Geo
100
AcDbLine
 10
-6.544246232299876
 20
-5.578104456688567
 30
0.0
 11
-6.444246232299875
 21
-5.625255376314168
 31
0.0
  0
LINE
  5
F10307
330
261
100
AcDbEntity
  8
Geo
100
AcDbLine
 10
-6.444246232299875
 20
-5.625255376314168
 30
0.0
 11
-6.34424623229988
 21
-5.671920502218267
 31
0.0
  0
LINE
  5
F10309
330
261
100
AcDbEntity
  8
Geo
100
AcDbLine
 10
-6.34424623229988
 20
-5.671920502218267
 30
0.0
 11
-6.244246232299879
 21
-5.718090112668463
 31
0.0
  0
LINE
  5
F1030B
330
261
100
AcDbEntity
  8
Geo
100
AcDbLine
 10
-6.244246232299879
 20
-5.718090112668463
 30
0.0
 11
-6.144246232299877
 21
-5.763754589162964
 31
0.0
  0
LINE
  5
F1030D
330
261
100
AcDbEntity
  8
Geo
100
AcDbLine
 10
-6.144246232299877
 20
-5.763754589162964
 30
0.0
 11
-6.044246232299876
 21
-5.808904418434263
 31
0.0
  0
LINE
  5
F1030F
330
261
100
AcDbEntity
  8
Geo
100
AcDbLine
 10
-6.044246232299876
 20
-5.808904418434263
 30
0.0
 11
-5.944246232299875
 21
-5.853530194431264
 31
0.0
  0
LINE
  5
F10311
330
261
100
AcDbEntity
  8
Geo
100
AcDbLine
 10
-5.944246232299875
 20
-5.853530194431264
 30
0.0
 11
-5.84424623229988
 21
-5.897622620278763
 31
0.0
  0
LINE
  5
F10313
330
261
100
AcDbEntity
  8
Geo
100
AcDbLine
 10
-5.84424623229988
 20
-5.897622620278763
 30
0.0
 11
-5.744246232299879
 21
-5.941172510214066
 31
0.0
  0
LINE
  5
F10315
330
261
100
AcDbEntity
  8
Geo
100
AcDbLine
 10
-5.744246232299879
 20
-5.941172510214066
 30
0.0
 11
-5.644246232299877
 21
-5.984170791500964
 31
0.0
  0
LINE
  5
F10317
330
261
100
AcDbEntity
  8
Geo
100
AcDbLine
 10
-5.644246232299877
 20
-5.984170791500964
 30
0.0
 11
-5.544246232299876
 21
-6.026608506319867
 31
0.0
  0
LINE
  5
F10319
330
261
100
AcDbEntity
  8
Geo
100
AcDbLine
 10
-5.544246232299876
 20
-6.026608506319867
 30
0.0
 11
-5.444246232299875
 21
-6.068476813633463
 31
0.0
  0
LINE
  5
F1031B
330
261
100
AcDbEntity
  8
Geo
100
AcDbLine
 10
-5.444246232299875
 20
-6.068476813633463
 30
0.0
 11
-5.34424623229988
 21
-6.109766991029264
 31
0.0
  0
LINE
  5
F1031D
330
261
100
AcDbEntity
  8
Geo
100
AcDbLine
 10
-5.34424623229988
 20
-6.109766991029264
 30
0.0
 11
-5.244246232299879
 21
-6.150470436536366
 31
0.0
  0
LINE
  5
F1031F
330
261
100
AcDbEntity
  8
Geo
100
AcDbLine
 10
-5.244246232299879
 20
-6.150470436536366
 30
0.0
 11
-5.144246232299877
 21
-6.190578670417462
 31
0.0
  0
LINE
  5
F10321
330
261
100
AcDbEntity
  8
Geo
100
AcDbLine
 10
-5.144246232299877
 20
-6.190578670417462
 30
0.0
 11
-5.044246232299876
 21
-6.230083336935461
 31
0.0
  0
LINE
  5
F10323
330
261
100
AcDbEntity
  8
Geo
100
AcDbLine
 10
-5.044246232299876
 20
-6.230083336935461
 30
0.0
 11
-4.944246232299875
 21
-6.268976206094563
 31
0.0
  0
LINE
  5
F10325
330
261
100
AcDbEntity
  8
Geo
100
AcDbLine
 10
-4.944246232299875
 20
-6.268976206094563
 30
0.0
 11
-4.84424623229988
 21
-6.307249175354264
 31
0.0
  0
LINE
  5
F10327
330
261
100
AcDbEntity
  8
Geo
100
AcDbLine
 10
-4.84424623229988
 20
-6.307249175354264
 30
0.0
 11
-4.744246232299879
 21
-6.344894271317766
 31
0.0
  0
LINE
  5
F10329
330
261
100
AcDbEntity
  8
Geo
100
AcDbLine
 10
-4.744246232299879
 20
-6.344894271317766
 30
0.0
 11
-4.644246232299877
 21
-6.381903651392963
 31
0.0
  0
LINE
  5
F1032B
330
261
100
AcDbEntity
  8
Geo
100
AcDbLine
 10
-4.644246232299877
 20
-6.381903651392963
 30
0.0
 11
-4.544246232299876
 21
-6.418269605425962
 31
0.0
  0
LINE
  5
F1032D
330
261
100
AcDbEntity
  8
Geo
100
AcDbLine
 10
-4.544246232299876
 20
-6.418269605425962
 30
0.0
 11
-4.444246232299875
 21
-6.453984557308164
 31
0.0
  0
LINE
  5
F1032F
330
261
100
AcDbEntity
  8
Geo
100
AcDbLine
 10
-4.444246232299875
 20
-6.453984557308164
 30
0.0
 11
-4.34424623229988
 21
-6.489041066553564
 31
0.0
  0
LINE
  5
F10331
330
261
100
AcDbEntity
  8
Geo
100
AcDbLine
 10
-4.34424623229988
 20
-6.489041066553564
 30
0.0
 11
-4.244246232299879
 21
-6.523431829849563
 31
0.0
  0
LINE
  5
F10333
330
261
100
AcDbEntity
  8
Geo
100
AcDbLine
 10
-4.244246232299879
 20
-6.523431829849563
 30
0.0
 11
-4.144246232299877
 21
-6.557149682578266
 31
0.0
  0
LINE
  5
F10335
330
261
100
AcDbEntity
  8
Geo
100
AcDbLine
 10
-4.144246232299877
 20
-6.557149682578266
 30
0.0
 11
-4.044246232299876
 21
-6.590187600308965
 31
0.0
  0
LINE
  5
F10337
330
261
100
AcDbEntity
  8
Geo
100
AcDbLine
 10
-4.044246232299876
 20
-6.590187600308965
 30
0.0
 11
-3.944246232299875
 21
-6.622538700261667
 31
0.0
  0
LINE
  5
F10339
330
261
100
AcDbEntity
  8
Geo
100
AcDbLine
 10
-3.944246232299875
 20
-6.622538700261667
 30
0.0
 11
-3.84424623229988
 21
-6.654196242740667
 31
0.0
  0
LINE
  5
F1033B
330
261
100
AcDbEntity
  8
Geo
100
AcDbLine
 10
-3.84424623229988
 20
-6.654196242740667
 30
0.0
 11
-3.744246232299879
 21
-6.685153632539364
 31
0.0
  0
LINE
  5
F1033D
330
261
100
AcDbEntity
  8
Geo
100
AcDbLine
 10
-3.744246232299879
 20
-6.685153632539364
 30
0.0
 11
-3.644246232299877
 21
-6.715404420313461
 31
0.0
  0
LINE
  5
F1033F
330
261
100
AcDbEntity
  8
Geo
100
AcDbLine
 10
-3.644246232299877
 20
-6.715404420313461
 30
0.0
 11
-3.544246232299876
 21
-6.744942303924865
 31
0.0
  0
LINE
  5
F10341
330
261
100
AcDbEntity
  8
Geo
100
AcDbLine
 10
-3.544246232299876
 20
-6.744942303924865
 30
0.0
 11
-3.444246232299875
 21
-6.773761129754667
 31
0.0
  0
LINE
  5
F10343
330
261
100
AcDbEntity
  8
Geo
100
AcDbLine
 10
-3.444246232299875
 20
-6.773761129754667
 30
0.0
 11
-3.34424623229988
 21
-6.801854893985066
 31
0.0
  0
LINE
  5
F10345
330
261
100
AcDbEntity
  8
Geo
100
AcDbLine
 10
-3.34424623229988
 20
-6.801854893985066
 30
0.0
 11
-3.244246232299879
 21
-6.829217743850165
 31
0.0
  0
LINE
  5
F10347
330
261
100
AcDbEntity
  8
Geo
100
AcDbLine
 10
-3.244246232299879
 20
-6.829217743850165
 30
0.0
 11
-3.144246232299877
 21
-6.855843978855165
 31
0.0
  0
LINE
  5
F10349
330
261
100
AcDbEntity
  8
Geo
100
AcDbLine
 10
-3.144246232299877
 20
-6.855843978855165
 30
0.0
 11
-3.044246232299876
 21
-6.881728051964067
 31
0.0
  0
LINE
  5
F1034B
330
261
100
AcDbEntity
  8
Geo
100
AcDbLine
 10
-3.044246232299876
 20
-6.881728051964067
 30
0.0
 11
-2.944246232299875
 21
-6.906864570755264
 31
0.0
  0
LINE
  5
F1034D
330
261
100
AcDbEntity
  8
Geo
100
AcDbLine
 10
-2.944246232299875
 20
-6.906864570755264
 30
0.0
 11
-2.84424623229988
 21
-6.931248298544964
 31
0.0
  0
LINE
  5
F1034F
330
261
100
AcDbEntity
  8
Geo
100
AcDbLine
 10
-2.84424623229988
 20
-6.931248298544964
 30
0.0
 11
-2.744246232299879
 21
-6.954874155478066
 31
0.0
  0
LINE
  5
F10351
330
261
100
AcDbEntity
  8
Geo
100
AcDbLine
 10
-2.744246232299879
 20
-6.954874155478066
 30
0.0
 11
-2.644246232299877
 21
-6.977737219586366
 31
0.0
  0
LINE
  5
F10353
330
261
100
AcDbEntity
  8
Geo
100
AcDbLine
 10
-2.644246232299877
 20
-6.977737219586366
 30
0.0
 11
-2.544246232299876
 21
-6.999832727814464
 31
0.0
  0
LINE
  5
F10355
330
261
100
AcDbEntity
  8
Geo
100
AcDbLine
 10
-2.544246232299876
 20
-6.999832727814464
 30
0.0
 11
-2.444246232299875
 21
-7.021156077011063
 31
0.0
  0
LINE
  5
F10357
330
261
100
AcDbEntity
  8
Geo
100
AcDbLine
 10
-2.444246232299875
 20
-7.021156077011063
 30
0.0
 11
-2.34424623229988
 21
-7.041702824889167
 31
0.0
  0
LINE
  5
F10359
330
261
100
AcDbEntity
  8
Geo
100
AcDbLine
 10
-2.34424623229988
 20
-7.041702824889167
 30
0.0
 11
-2.244246232299879
 21
-7.061468690950466
 31
0.0
  0
LINE
  5
F1035B
330
261
100
AcDbEntity
  8
Geo
100
AcDbLine
 10
-2.244246232299879
 20
-7.061468690950466
 30
0.0
 11
-2.144246232299877
 21
-7.080449557377765
 31
0.0
  0
LINE
  5
F1035D
330
261
100
AcDbEntity
  8
Geo
100
AcDbLine
 10
-2.144246232299877
 20
-7.080449557377765
 30
0.0
 11
-2.044246232299876
 21
-7.098641469892466
 31
0.0
  0
LINE
  5
F1035F
330
261
100
AcDbEntity
  8
Geo
100
AcDbLine
 10
-2.044246232299876
 20
-7.098641469892466
 30
0.0
 11
-1.944246232299875
 21
-7.116040638578564
 31
0.0
  0
LINE
  5
F10361
330
261
100
AcDbEntity
  8
Geo
100
AcDbLine
 10
-1.944246232299875
 20
-7.116040638578564
 30
0.0
 11
-1.84424623229988
 21
-7.132643438672264
 31
0.0
  0
LINE
  5
F10363
330
261
100
AcDbEntity
  8
Geo
100
AcDbLine
 10
-1.84424623229988
 20
-7.132643438672264
 30
0.0
 11
-1.744246232299879
 21
-7.148446411316967
 31
0.0
  0
LINE
  5
F10365
330
261
100
AcDbEntity
  8
Geo
100
AcDbLine
 10
-1.744246232299879
 20
-7.148446411316967
 30
0.0
 11
-1.644246232299877
 21
-7.163446264283663
 31
0.0
  0
LINE
  5
F10367
330
261
100
AcDbEntity
  8
Geo
100
AcDbLine
 10
-1.644246232299877
 20
-7.163446264283663
 30
0.0
 11
-1.544246232299876
 21
-7.177639872657465
 31
0.0
  0
LINE
  5
F10369
330
261
100
AcDbEntity
  8
Geo
100
AcDbLine
 10
-1.544246232299876
 20
-7.177639872657465
 30
0.0
 11
-1.444246232299875
 21
-7.191024279487965
 31
0.0
  0
LINE
  5
F1036B
330
261
100
AcDbEntity
  8
Geo
100
AcDbLine
 10
-1.444246232299875
 20
-7.191024279487965
 30
0.0
 11
-1.34424623229988
 21
-7.203596696405263
 31
0.0
  0
LINE
  5
F1036D
330
261
100
AcDbEntity
  8
Geo
100
AcDbLine
 10
-1.34424623229988
 20
-7.203596696405263
 30
0.0
 11
-1.244246232299879
 21
-7.215354504201467
 31
0.0
  0
LINE
  5
F1036F
330
261
100
AcDbEntity
  8
Geo
100
AcDbLine
 10
-1.244246232299879
 20
-7.215354504201467
 30
0.0
 11
-1.144246232299877
 21
-7.226295253375763
 31
0.0
  0
LINE
  5
F10371
330
261
100
AcDbEntity
  8
Geo
100
AcDbLine
 10
-1.144246232299877
 20
-7.226295253375763
 30
0.0
 11
-1.044246232299876
 21
-7.236416664645066
 31
0.0
  0
LINE
  5
F10373
330
261
100
AcDbEntity
  8
Geo
100
AcDbLine
 10
-1.044246232299876
 20
-7.236416664645066
 30
0.0
 11
-0.944246232299875
 21
-7.245716629418467
 31
0.0
  0
LINE
  5
F10375
330
261
100
AcDbEntity
  8
Geo
100
AcDbLine
 10
-0.944246232299875
 20
-7.245716629418467
 30
0.0
 11
-0.8442462322998807
 21
-7.254193210237165
 31
0.0
  0
LINE
  5
F10377
330
261
100
AcDbEntity
  8
Geo
100
AcDbLine
 10
-0.8442462322998807
 20
-7.254193210237165
 30
0.0
 11
-0.7442462322998793
 21
-7.261844641177265
 31
0.0
  0
LINE
  5
F10379
330
261
100
AcDbEntity
  8
Geo
100
AcDbLine
 10
-0.7442462322998793
 20
-7.261844641177265
 30
0.0
 11
-0.6442462322998779
 21
-7.268669328218464
 31
0.0
  0
LINE
  5
F1037B
330
261
100
AcDbEntity
  8
Geo
100
AcDbLine
 10
-0.6442462322998779
 20
-7.268669328218464
 30
0.0
 11
-0.5442462322998765
 21
-7.274665849575566
 31
0.0
  0
LINE
  5
F1037D
330
261
100
AcDbEntity
  8
Geo
100
AcDbLine
 10
-0.5442462322998765
 20
-7.274665849575566
 30
0.0
 11
-0.4442462322998751
 21
-7.279832955994965
 31
0.0
  0
LINE
  5
F1037F
330
261
100
AcDbEntity
  8
Geo
100
AcDbLine
 10
-0.4442462322998751
 20
-7.279832955994965
 30
0.0
 11
-0.3442462322998807
 21
-7.284169571014967
 31
0.0
  0
LINE
  5
F10381
330
261
100
AcDbEntity
  8
Geo
100
AcDbLine
 10
-0.3442462322998807
 20
-7.284169571014967
 30
0.0
 11
-0.2442462322998793
 21
-7.287674791189765
 31
0.0
  0
LINE
  5
F10383
330
261
100
AcDbEntity
  8
Geo
100
AcDbLine
 10
-0.2442462322998793
 20
-7.287674791189765
 30
0.0
 11
-0.1442462322998779
 21
-7.290347886277764
 31
0.0
  0
LINE
  5
F10385
330
261
100
AcDbEntity
  8
Geo
100
AcDbLine
 10
-0.1442462322998779
 20
-7.290347886277764
 30
0.0
 11
-0.0442462322998765
 21
-7.292188299393764
 31
0.0
  0
LINE
  5
F10387
330
261
100
AcDbEntity
  8
Geo
100
AcDbLine
 10
-0.0442462322998765
 20
-7.292188299393764
 30
0.0
 11
0.055753767700125
 21
-7.293195647125166
 31
0.0
  0
LINE
  5
F10389
330
261
100
AcDbEntity
  8
Geo
100
AcDbLine
 10
-13.74424623229987
 20
-3.293405030204667
 30
0.0
 11
-13.64424623229988
 21
-2.774499897281263
 31
0.0
  0
LINE
  5
F1038B
330
261
100
AcDbEntity
  8
Geo
100
AcDbLine
 10
-13.64424623229988
 20
-2.774499897281263
 30
0.0
 11
-13.54424623229988
 21
-2.578717045109666
 31
0.0
  0
LINE
  5
F1038D
330
261
100
AcDbEntity
  8
Geo
100
AcDbLine
 10
-13.54424623229988
 20
-2.578717045109666
 30
0.0
 11
-13.44424623229987
 21
-2.441543737785163
 31
0.0
  0
LINE
  5
F1038F
330
261
100
AcDbEntity
  8
Geo
100
AcDbLine
 10
-13.44424623229987
 20
-2.441543737785163
 30
0.0
 11
-13.34424623229988
 21
-2.336814913573167
 31
0.0
  0
LINE
  5
F10391
330
261
100
AcDbEntity
  8
Geo
100
AcDbLine
 10
-13.34424623229988
 20
-2.336814913573167
 30
0.0
 11
-13.24424623229987
 21
-2.254116598398166
 31
0.0
  0
LINE
  5
F10393
330
261
100
AcDbEntity
  8
Geo
100
AcDbLine
 10
-13.24424623229987
 20
-2.254116598398166
 30
0.0
 11
-13.14424623229988
 21
-2.187965024466965
 31
0.0
  0
LINE
  5
F10395
330
261
100
AcDbEntity
  8
Geo
100
AcDbLine
 10
-13.14424623229988
 20
-2.187965024466965
 30
0.0
 11
-13.04424623229988
 21
-2.135014753929866
 31
0.0
  0
LINE
  5
F10397
330
261
100
AcDbEntity
  8
Geo
100
AcDbLine
 10
-13.04424623229988
 20
-2.135014753929866
 30
0.0
 11
-12.94424623229987
 21
-2.093025807635761
 31
0.0
  0
LINE
  5
F10399
330
261
100
AcDbEntity
  8
Geo
100
AcDbLine
 10
-12.94424623229987
 20
-2.093025807635761
 30
0.0
 11
-12.84424623229988
 21
-2.060397771932365
 31
0.0
  0
LINE
  5
F1039B
330
261
100
AcDbEntity
  8
Geo
100
AcDbLine
 10
-12.84424623229988
 20
-2.060397771932365
 30
0.0
 11
-12.74424623229987
 21
-2.035930655720566
 31
0.0
  0
LINE
  5
F1039D
330
261
100
AcDbEntity
  8
Geo
100
AcDbLine
 10
-12.74424623229987
 20
-2.035930655720566
 30
0.0
 11
-12.64424623229988
 21
-2.018690309671065
 31
0.0
  0
LINE
  5
F1039F
330
261
100
AcDbEntity
  8
Geo
100
AcDbLine
 10
-12.64424623229988
 20
-2.018690309671065
 30
0.0
 11
-12.54424623229988
 21
-2.007927261627866
 31
0.0
  0
LINE
  5
F103A1
330
261
100
AcDbEntity
  8
Geo
100
AcDbLine
 10
-12.54424623229988
 20
-2.007927261627866
 30
0.0
 11
-12.44424623229987
 21
-2.003025044586564
 31
0.0
  0
LINE
  5
F103A3
330
261
100
AcDbEntity
  8
Geo
100
AcDbLine
 10
-12.44424623229987
 20
-2.003025044586564
 30
0.0
 11
-12.34424623229988
 21
-2.003465835906364
 31
0.0
  0
LINE
  5
F103A5
330
261
100
AcDbEntity
  8
Geo
100
AcDbLine
 10
-12.34424623229988
 20
-2.003465835906364
 30
0.0
 11
-12.24424623229987
 21
-2.008806773894864
 31
0.0
  0
LINE
  5
F103A7
330
261
100
AcDbEntity
  8
Geo
100
AcDbLine
 10
-12.24424623229987
 20
-2.008806773894864
 30
0.0
 11
-12.14424623229988
 21
-2.018663135725763
 31
0.0
  0
LINE
  5
F103A9
330
261
100
AcDbEntity
  8
Geo
100
AcDbLine
 10
-12.14424623229988
 20
-2.018663135725763
 30
0.0
 11
-12.04424623229988
 21
-2.032696079327266
 31
0.0
  0
LINE
  5
F103AB
330
261
100
AcDbEntity
  8
Geo
100
AcDbLine
 10
-12.04424623229988
 20
-2.032696079327266
 30
0.0
 11
-11.94424623229987
 21
-2.050603511897364
 31
0.0
  0
LINE
  5
F103AD
330
261
100
AcDbEntity
  8
Geo
100
AcDbLine
 10
-11.94424623229987
 20
-2.050603511897364
 30
0.0
 11
-11.84424623229988
 21
-2.072113155587366
 31
0.0
  0
LINE
  5
F103AF
330
261
100
AcDbEntity
  8
Geo
100
AcDbLine
 10
-11.84424623229988
 20
-2.072113155587366
 30
0.0
 11
-11.74424623229987
 21
-2.096977191858965
 31
0.0
  0
LINE
  5
F103B1
330
261
100
AcDbEntity
  8
Geo
100
AcDbLine
 10
-11.74424623229987
 20
-2.096977191858965
 30
0.0
 11
-11.64424623229987
 21
-2.124968062482668
 31
0.0
  0
LINE
  5
F103B3
330
261
100
AcDbEntity
  8
Geo
100
AcDbLine
 10
-11.64424623229987
 20
-2.124968062482668
 30
0.0
 11
-11.54424623229988
 21
-2.155875132735864
 31
0.0
  0
LINE
  5
F103B5
330
261
100
AcDbEntity
  8
Geo
100
AcDbLine
 10
-11.54424623229988
 20
-2.155875132735864
 30
0.0
 11
-11.44424623229987
 21
-2.189502007271062
 31
0.0
  0
LINE
  5
F103B7
330
261
100
AcDbEntity
  8
Geo
100
AcDbLine
 10
-11.44424623229987
 20
-2.189502007271062
 30
0.0
 11
-11.34424623229988
 21
-2.225664346869066
 31
0.0
  0
LINE
  5
F103B9
330
261
100
AcDbEntity
  8
Geo
100
AcDbLine
 10
-11.34424623229988
 20
-2.225664346869066
 30
0.0
 11
-11.24424623229987
 21
-2.264188074347167
 31
0.0
  0
LINE
  5
F103BB
330
261
100
AcDbEntity
  8
Geo
100
AcDbLine
 10
-11.24424623229987
 20
-2.264188074347167
 30
0.0
 11
-11.14424623229988
 21
-2.304907886152665
 31
0.0
  0
LINE
  5
F103BD
330
261
100
AcDbEntity
  8
Geo
100
AcDbLine
 10
-11.14424623229988
 20
-2.304907886152665
 30
0.0
 11
-11.04424623229988
 21
-2.347666006447266
 31
0.0
  0
LINE
  5
F103BF
330
261
100
AcDbEntity
  8
Geo
100
AcDbLine
 10
-11.04424623229988
 20
-2.347666006447266
 30
0.0
 11
-10.94424623229987
 21
-2.392311135234066
 31
0.0
  0
LINE
  5
F103C1
330
261
100
AcDbEntity
  8
Geo
100
AcDbLine
 10
-10.94424623229987
 20
-2.392311135234066
 30
0.0
 11
-10.84424623229988
 21
-2.438697552945264
 31
0.0
  0
LINE
  5
F103C3
330
261
100
AcDbEntity
  8
Geo
100
AcDbLine
 10
-10.84424623229988
 20
-2.438697552945264
 30
0.0
 11
-10.74424623229987
 21
-2.486684352022667
 31
0.0
  0
LINE
  5
F103C5
330
261
100
AcDbEntity
  8
Geo
100
AcDbLine
 10
-10.74424623229987
 20
-2.486684352022667
 30
0.0
 11
-10.64424623229988
 21
-2.536134772127965
 31
0.0
  0
LINE
  5
F103C7
330
261
100
AcDbEntity
  8
Geo
100
AcDbLine
 10
-10.64424623229988
 20
-2.536134772127965
 30
0.0
 11
-10.54424623229988
 21
-2.586915620277064
 31
0.0
  0
LINE
  5
F103C9
330
261
100
AcDbEntity
  8
Geo
100
AcDbLine
 10
-10.54424623229988
 20
-2.586915620277064
 30
0.0
 11
-10.44424623229987
 21
-2.638896760758264
 31
0.0
  0
LINE
  5
F103CB
330
261
100
AcDbEntity
  8
Geo
100
AcDbLine
 10
-10.44424623229987
 20
-2.638896760758264
 30
0.0
 11
-10.34424623229988
 21
-2.691950662455063
 31
0.0
  0
LINE
  5
F103CD
330
261
100
AcDbEntity
  8
Geo
100
AcDbLine
 10
-10.34424623229988
 20
-2.691950662455063
 30
0.0
 11
-10.24424623229988
 21
-2.745951993335062
 31
0.0
  0
LINE
  5
F103CF
330
261
100
AcDbEntity
  8
Geo
100
AcDbLine
 10
-10.24424623229988
 20
-2.745951993335062
 30
0.0
 11
-10.14424623229988
 21
-2.800777253536764
 31
0.0
  0
LINE
  5
F103D1
330
261
100
AcDbEntity
  8
Geo
100
AcDbLine
 10
-10.14424623229988
 20
-2.800777253536764
 30
0.0
 11
-10.04424623229987
 21
-2.856304439788761
 31
0.0
  0
LINE
  5
F103D3
330
261
100
AcDbEntity
  8
Geo
100
AcDbLine
 10
-10.04424623229987
 20
-2.856304439788761
 30
0.0
 11
-9.944246232299875
 21
-2.912412734907167
 31
0.0
  0
LINE
  5
F103D5
330
261
100
AcDbEntity
  8
Geo
100
AcDbLine
 10
-9.944246232299875
 20
-2.912412734907167
 30
0.0
 11
-9.84424623229988
 21
-2.968982216894762
 31
0.0
  0
LINE
  5
F103D7
330
261
100
AcDbEntity
  8
Geo
100
AcDbLine
 10
-9.84424623229988
 20
-2.968982216894762
 30
0.0
 11
-9.744246232299879
 21
-3.025893582756562
 31
0.0
  0
LINE
  5
F103D9
330
261
100
AcDbEntity
  8
Geo
100
AcDbLine
 10
-9.744246232299879
 20
-3.025893582756562
 30
0.0
 11
-9.644246232299877
 21
-3.082962108879065
 31
0.0
  0
LINE
  5
F103DB
330
261
100
AcDbEntity
  8
Geo
100
AcDbLine
 10
-9.644246232299877
 20
-3.082962108879065
 30
0.0
 11
-9.544246232299876
 21
-3.140074476515763
 31
0.0
  0
LINE
  5
F103DD
330
261
100
AcDbEntity
  8
Geo
100
AcDbLine
 10
-9.544246232299876
 20
-3.140074476515763
 30
0.0
 11
-9.444246232299875
 21
-3.197218787463263
 31
0.0
  0
LINE
  5
F103DF
330
261
100
AcDbEntity
  8
Geo
100
AcDbLine
 10
-9.444246232299875
 20
-3.197218787463263
 30
0.0
 11
-9.34424623229988
 21
-3.254383136863367
 31
0.0
  0
LINE
  5
F103E1
330
261
100
AcDbEntity
  8
Geo
100
AcDbLine
 10
-9.34424623229988
 20
-3.254383136863367
 30
0.0
 11
-9.244246232299879
 21
-3.311555615683463
 31
0.0
  0
LINE
  5
F103E3
330
261
100
AcDbEntity
  8
Geo
100
AcDbLine
 10
-9.244246232299879
 20
-3.311555615683463
 30
0.0
 11
-9.144246232299877
 21
-3.368724313197265
 31
0.0
  0
LINE
  5
F103E5
330
261
100
AcDbEntity
  8
Geo
100
AcDbLine
 10
-9.144246232299877
 20
-3.368724313197265
 30
0.0
 11
-9.044246232299876
 21
-3.425877319466167
 31
0.0
  0
LINE
  5
F103E7
330
261
100
AcDbEntity
  8
Geo
100
AcDbLine
 10
-9.044246232299876
 20
-3.425877319466167
 30
0.0
 11
-8.944246232299875
 21
-3.483002727820565
 31
0.0
  0
LINE
  5
F103E9
330
261
100
AcDbEntity
  8
Geo
100
AcDbLine
 10
-8.944246232299875
 20
-3.483002727820565
 30
0.0
 11
-8.84424623229988
 21
-3.540088637340463
 31
0.0
  0
LINE
  5
F103EB
330
261
100
AcDbEntity
  8
Geo
100
AcDbLine
 10
-8.84424623229988
 20
-3.540088637340463
 30
0.0
 11
-8.744246232299879
 21
-3.597123155334365
 31
0.0
  0
LINE
  5
F103ED
330
261
100
AcDbEntity
  8
Geo
100
AcDbLine
 10
-8.744246232299879
 20
-3.597123155334365
 30
0.0
 11
-8.644246232299877
 21
-3.654094399817367
 31
0.0
  0
LINE
  5
F103EF
330
261
100
AcDbEntity
  8
Geo
100
AcDbLine
 10
-8.644246232299877
 20
-3.654094399817367
 30
0.0
 11
-8.544246232299876
 21
-3.710990501986366
 31
0.0
  0
LINE
  5
F103F1
330
261
100
AcDbEntity
  8
Geo
100
AcDbLine
 10
-8.544246232299876
 20
-3.710990501986366
 30
0.0
 11
-8.444246232299875
 21
-3.767799608692367
 31
0.0
  0
LINE
  5
F103F3
330
261
100
AcDbEntity
  8
Geo
100
AcDbLine
 10
-8.444246232299875
 20
-3.767799608692367
 30
0.0
 11
-8.34424623229988
 21
-3.824509884910366
 31
0.0
  0
LINE
  5
F103F5
330
261
100
AcDbEntity
  8
Geo
100
AcDbLine
 10
-8.34424623229988
 20
-3.824509884910366
 30
0.0
 11
-8.244246232299879
 21
-3.881109516204464
 31
0.0
  0
LINE
  5
F103F7
330
261
100
AcDbEntity
  8
Geo
100
AcDbLine
 10
-8.244246232299879
 20
-3.881109516204464
 30
0.0
 11
-8.144246232299877
 21
-3.937586711189766
 31
0.0
  0
LINE
  5
F103F9
330
261
100
AcDbEntity
  8
Geo
100
AcDbLine
 10
-8.144246232299877
 20
-3.937586711189766
 30
0.0
 11
-8.044246232299876
 21
-3.993929703988065
 31
0.0
  0
LINE
  5
F103FB
330
261
100
AcDbEntity
  8
Geo
100
AcDbLine
 10
-8.044246232299876
 20
-3.993929703988065
 30
0.0
 11
-7.944246232299875
 21
-4.050126756679667
 31
0.0
  0
LINE
  5
F103FD
330
261
100
AcDbEntity
  8
Geo
100
AcDbLine
 10
-7.944246232299875
 20
-4.050126756679667
 30
0.0
 11
-7.84424623229988
 21
-4.106166161748667
 31
0.0
  0
LINE
  5
F103FF
330
261
100
AcDbEntity
  8
Geo
100
AcDbLine
 10
-7.84424623229988
 20
-4.106166161748667
 30
0.0
 11
-7.744246232299879
 21
-4.162036244521463
 31
0.0
  0
LINE
  5
F10401
330
261
100
AcDbEntity
  8
Geo
100
AcDbLine
 10
-7.744246232299879
 20
-4.162036244521463
 30
0.0
 11
-7.644246232299877
 21
-4.217725365599765
 31
0.0
  0
LINE
  5
F10403
330
261
100
AcDbEntity
  8
Geo
100
AcDbLine
 10
-7.644246232299877
 20
-4.217725365599765
 30
0.0
 11
-7.544246232299876
 21
-4.273221923284566
 31
0.0
  0
LINE
  5
F10405
330
261
100
AcDbEntity
  8
Geo
100
AcDbLine
 10
-7.544246232299876
 20
-4.273221923284566
 30
0.0
 11
-7.444246232299875
 21
-4.328514355993963
 31
0.0
  0
LINE
  5
F10407
330
261
100
AcDbEntity
  8
Geo
100
AcDbLine
 10
-7.444246232299875
 20
-4.328514355993963
 30
0.0
 11
-7.34424623229988
 21
-4.383591144670962
 31
0.0
  0
LINE
  5
F10409
330
261
100
AcDbEntity
  8
Geo
100
AcDbLine
 10
-7.34424623229988
 20
-4.383591144670962
 30
0.0
 11
-7.244246232299879
 21
-4.438440815183763
 31
0.0
  0
LINE
  5
F1040B
330
261
100
AcDbEntity
  8
Geo
100
AcDbLine
 10
-7.244246232299879
 20
-4.438440815183763
 30
0.0
 11
-7.144246232299877
 21
-4.493051940716263
 31
0.0
  0
LINE
  5
F1040D
330
261
100
AcDbEntity
  8
Geo
100
AcDbLine
 10
-7.144246232299877
 20
-4.493051940716263
 30
0.0
 11
-7.044246232299876
 21
-4.547413144147963
 31
0.0
  0
LINE
  5
F1040F
330
261
100
AcDbEntity
  8
Geo
100
AcDbLine
 10
-7.044246232299876
 20
-4.547413144147963
 30
0.0
 11
-6.944246232299875
 21
-4.601513100424963
 31
0.0
  0
LINE
  5
F10411
330
261
100
AcDbEntity
  8
Geo
100
AcDbLine
 10
-6.944246232299875
 20
-4.601513100424963
 30
0.0
 11
-6.84424623229988
 21
-4.655340538918462
 31
0.0
  0
LINE
  5
F10413
330
261
100
AcDbEntity
  8
Geo
100
AcDbLine
 10
-6.84424623229988
 20
-4.655340538918462
 30
0.0
 11
-6.744246232299879
 21
-4.708884245773667
 31
0.0
  0
LINE
  5
F10415
330
261
100
AcDbEntity
  8
Geo
100
AcDbLine
 10
-6.744246232299879
 20
-4.708884245773667
 30
0.0
 11
-6.644246232299877
 21
-4.762133066245265
 31
0.0
  0
LINE
  5
F10417
330
261
100
AcDbEntity
  8
Geo
100
AcDbLine
 10
-6.644246232299877
 20
-4.762133066245265
 30
0.0
 11
-6.544246232299876
 21
-4.815075907021462
 31
0.0
  0
LINE
  5
F10419
330
261
100
AcDbEntity
  8
Geo
100
AcDbLine
 10
-6.544246232299876
 20
-4.815075907021462
 30
0.0
 11
-6.444246232299875
 21
-4.867701738535366
 31
0.0
  0
LINE
  5
F1041B
330
261
100
AcDbEntity
  8
Geo
100
AcDbLine
 10
-6.444246232299875
 20
-4.867701738535366
 30
0.0
 11
-6.34424623229988
 21
-4.919999597262464
 31
0.0
  0
LINE
  5
F1041D
330
261
100
AcDbEntity
  8
Geo
100
AcDbLine
 10
-6.34424623229988
 20
-4.919999597262464
 30
0.0
 11
-6.244246232299879
 21
-4.971958588004564
 31
0.0
  0
LINE
  5
F1041F
330
261
100
AcDbEntity
  8
Geo
100
AcDbLine
 10
-6.244246232299879
 20
-4.971958588004564
 30
0.0
 11
-6.144246232299877
 21
-5.023567886159963
 31
0.0
  0
LINE
  5
F10421
330
261
100
AcDbEntity
  8
Geo
100
AcDbLine
 10
-6.144246232299877
 20
-5.023567886159963
 30
0.0
 11
-6.044246232299876
 21
-5.074816739978064
 31
0.0
  0
LINE
  5
F10423
330
261
100
AcDbEntity
  8
Geo
100
AcDbLine
 10
-6.044246232299876
 20
-5.074816739978064
 30
0.0
 11
-5.944246232299875
 21
-5.125694472799864
 31
0.0
  0
LINE
  5
F10425
330
261
100
AcDbEntity
  8
Geo
100
AcDbLine
 10
-5.944246232299875
 20
-5.125694472799864
 30
0.0
 11
-5.84424623229988
 21
-5.176190485281566
 31
0.0
  0
LINE
  5
F10427
330
261
100
AcDbEntity
  8
Geo
100
AcDbLine
 10
-5.84424623229988
 20
-5.176190485281566
 30
0.0
 11
-5.744246232299879
 21
-5.226294257603164
 31
0.0
  0
LINE
  5
F10429
330
261
100
AcDbEntity
  8
Geo
100
AcDbLine
 10
-5.744246232299879
 20
-5.226294257603164
 30
0.0
 11
-5.644246232299877
 21
-5.275995351660167
 31
0.0
  0
LINE
  5
F1042B
330
261
100
AcDbEntity
  8
Geo
100
AcDbLine
 10
-5.644246232299877
 20
-5.275995351660167
 30
0.0
 11
-5.544246232299876
 21
-5.325283413237666
 31
0.0
  0
LINE
  5
F1042D
330
261
100
AcDbEntity
  8
Geo
100
AcDbLine
 10
-5.544246232299876
 20
-5.325283413237666
 30
0.0
 11
-5.444246232299875
 21
-5.374148174167665
 31
0.0
  0
LINE
  5
F1042F
330
261
100
AcDbEntity
  8
Geo
100
AcDbLine
 10
-5.444246232299875
 20
-5.374148174167665
 30
0.0
 11
-5.34424623229988
 21
-5.422579454468564
 31
0.0
  0
LINE
  5
F10431
330
261
100
AcDbEntity
  8
Geo
100
AcDbLine
 10
-5.34424623229988
 20
-5.422579454468564
 30
0.0
 11
-5.244246232299879
 21
-5.470567164465265
 31
0.0
  0
LINE
  5
F10433
330
261
100
AcDbEntity
  8
Geo
100
AcDbLine
 10
-5.244246232299879
 20
-5.470567164465265
 30
0.0
 11
-5.144246232299877
 21
-5.518101306891864
 31
0.0
  0
LINE
  5
F10435
330
261
100
AcDbEntity
  8
Geo
100
AcDbLine
 10
-5.144246232299877
 20
-5.518101306891864
 30
0.0
 11
-5.044246232299876
 21
-5.565171978973964
 31
0.0
  0
LINE
  5
F10437
330
261
100
AcDbEntity
  8
Geo
100
AcDbLine
 10
-5.044246232299876
 20
-5.565171978973964
 30
0.0
 11
-4.944246232299875
 21
-5.611769374491764
 31
0.0
  0
LINE
  5
F10439
330
261
100
AcDbEntity
  8
Geo
100
AcDbLine
 10
-4.944246232299875
 20
-5.611769374491764
 30
0.0
 11
-4.84424623229988
 21
-5.657883785823067
 31
0.0
  0
LINE
  5
F1043B
330
261
100
AcDbEntity
  8
Geo
100
AcDbLine
 10
-4.84424623229988
 20
-5.657883785823067
 30
0.0
 11
-4.744246232299879
 21
-5.703505605965567
 31
0.0
  0
LINE
  5
F1043D
330
261
100
AcDbEntity
  8
Geo
100
AcDbLine
 10
-4.744246232299879
 20
-5.703505605965567
 30
0.0
 11
-4.644246232299877
 21
-5.748625330538565
 31
0.0
  0
LINE
  5
F1043F
330
261
100
AcDbEntity
  8
Geo
100
AcDbLine
 10
-4.644246232299877
 20
-5.748625330538565
 30
0.0
 11
-4.544246232299876
 21
-5.793233559762462
 31
0.0
  0
LINE
  5
F10441
330
261
100
AcDbEntity
  8
Geo
100
AcDbLine
 10
-4.544246232299876
 20
-5.793233559762462
 30
0.0
 11
-4.444246232299875
 21
-5.837321000417666
 31
0.0
  0
LINE
  5
F10443
330
261
100
AcDbEntity
  8
Geo
100
AcDbLine
 10
-4.444246232299875
 20
-5.837321000417666
 30
0.0
 11
-4.34424623229988
 21
-5.880878467780064
 31
0.0
  0
LINE
  5
F10445
330
261
100
AcDbEntity
  8
Geo
100
AcDbLine
 10
-4.34424623229988
 20
-5.880878467780064
 30
0.0
 11
-4.244246232299879
 21
-5.923896887534965
 31
0.0
  0
LINE
  5
F10447
330
261
100
AcDbEntity
  8
Geo
100
AcDbLine
 10
-4.244246232299879
 20
-5.923896887534965
 30
0.0
 11
-4.144246232299877
 21
-5.966367297666963
 31
0.0
  0
LINE
  5
F10449
330
261
100
AcDbEntity
  8
Geo
100
AcDbLine
 10
-4.144246232299877
 20
-5.966367297666963
 30
0.0
 11
-4.044246232299876
 21
-6.008280850327668
 31
0.0
  0
LINE
  5
F1044B
330
261
100
AcDbEntity
  8
Geo
100
AcDbLine
 10
-4.044246232299876
 20
-6.008280850327668
 30
0.0
 11
-3.944246232299875
 21
-6.049628813678566
 31
0.0
  0
LINE
  5
F1044D
330
261
100
AcDbEntity
  8
Geo
100
AcDbLine
 10
-3.944246232299875
 20
-6.049628813678566
 30
0.0
 11
-3.84424623229988
 21
-6.090402573710168
 31
0.0
  0
LINE
  5
F1044F
330
261
100
AcDbEntity
  8
Geo
100
AcDbLine
 10
-3.84424623229988
 20
-6.090402573710168
 30
0.0
 11
-3.744246232299879
 21
-6.130593636036564
 31
0.0
  0
LINE
  5
F10451
330
261
100
AcDbEntity
  8
Geo
100
AcDbLine
 10
-3.744246232299879
 20
-6.130593636036564
 30
0.0
 11
-3.644246232299877
 21
-6.170193627665167
 31
0.0
  0
LINE
  5
F10453
330
261
100
AcDbEntity
  8
Geo
100
AcDbLine
 10
-3.644246232299877
 20
-6.170193627665167
 30
0.0
 11
-3.544246232299876
 21
-6.209194298740964
 31
0.0
  0
LINE
  5
F10455
330
261
100
AcDbEntity
  8
Geo
100
AcDbLine
 10
-3.544246232299876
 20
-6.209194298740964
 30
0.0
 11
-3.444246232299875
 21
-6.247587524265167
 31
0.0
  0
LINE
  5
F10457
330
261
100
AcDbEntity
  8
Geo
100
AcDbLine
 10
-3.444246232299875
 20
-6.247587524265167
 30
0.0
 11
-3.34424623229988
 21
-6.285365305788065
 31
0.0
  0
LINE
  5
F10459
330
261
100
AcDbEntity
  8
Geo
100
AcDbLine
 10
-3.34424623229988
 20
-6.285365305788065
 30
0.0
 11
-3.244246232299879
 21
-6.322519773075065
 31
0.0
  0
LINE
  5
F1045B
330
261
100
AcDbEntity
  8
Geo
100
AcDbLine
 10
-3.244246232299879
 20
-6.322519773075065
 30
0.0
 11
-3.144246232299877
 21
-6.359043185746564
 31
0.0
  0
LINE
  5
F1045D
330
261
100
AcDbEntity
  8
Geo
100
AcDbLine
 10
-3.144246232299877
 20
-6.359043185746564
 30
0.0
 11
-3.044246232299876
 21
-6.394927934890265
 31
0.0
  0
LINE
  5
F1045F
330
261
100
AcDbEntity
  8
Geo
100
AcDbLine
 10
-3.044246232299876
 20
-6.394927934890265
 30
0.0
 11
-2.944246232299875
 21
-6.430166544646763
 31
0.0
  0
LINE
  5
F10461
330
261
100
AcDbEntity
  8
Geo
100
AcDbLine
 10
-2.944246232299875
 20
-6.430166544646763
 30
0.0
 11
-2.84424623229988
 21
-6.464751673766265
 31
0.0
  0
LINE
  5
F10463
330
261
100
AcDbEntity
  8
Geo
100
AcDbLine
 10
-2.84424623229988
 20
-6.464751673766265
 30
0.0
 11
-2.744246232299879
 21
-6.498676117138764
 31
0.0
  0
LINE
  5
F10465
330
261
100
AcDbEntity
  8
Geo
100
AcDbLine
 10
-2.744246232299879
 20
-6.498676117138764
 30
0.0
 11
-2.644246232299877
 21
-6.531932807294463
 31
0.0
  0
LINE
  5
F10467
330
261
100
AcDbEntity
  8
Geo
100
AcDbLine
 10
-2.644246232299877
 20
-6.531932807294463
 30
0.0
 11
-2.544246232299876
 21
-6.564514815876666
 31
0.0
  0
LINE
  5
F10469
330
261
100
AcDbEntity
  8
Geo
100
AcDbLine
 10
-2.544246232299876
 20
-6.564514815876666
 30
0.0
 11
-2.444246232299875
 21
-6.596415355084765
 31
0.0
  0
LINE
  5
F1046B
330
261
100
AcDbEntity
  8
Geo
100
AcDbLine
 10
-2.444246232299875
 20
-6.596415355084765
 30
0.0
 11
-2.34424623229988
 21
-6.627627779088367
 31
0.0
  0
LINE
  5
F1046D
330
261
100
AcDbEntity
  8
Geo
100
AcDbLine
 10
-2.34424623229988
 20
-6.627627779088367
 30
0.0
 11
-2.244246232299879
 21
-6.658145585412064
 31
0.0
  0
LINE
  5
F1046F
330
261
100
AcDbEntity
  8
Geo
100
AcDbLine
 10
-2.244246232299879
 20
-6.658145585412064
 30
0.0
 11
-2.144246232299877
 21
-6.687962416289963
 31
0.0
  0
LINE
  5
F10471
330
261
100
AcDbEntity
  8
Geo
100
AcDbLine
 10
-2.144246232299877
 20
-6.687962416289963
 30
0.0
 11
-2.044246232299876
 21
-6.717072059990066
 31
0.0
  0
LINE
  5
F10473
330
261
100
AcDbEntity
  8
Geo
100
AcDbLine
 10
-2.044246232299876
 20
-6.717072059990066
 30
0.0
 11
-1.944246232299875
 21
-6.745468452108667
 31
0.0
  0
LINE
  5
F10475
330
261
100
AcDbEntity
  8
Geo
100
AcDbLine
 10
-1.944246232299875
 20
-6.745468452108667
 30
0.0
 11
-1.84424623229988
 21
-6.773145676833266
 31
0.0
  0
LINE
  5
F10477
330
261
100
AcDbEntity
  8
Geo
100
AcDbLine
 10
-1.84424623229988
 20
-6.773145676833266
 30
0.0
 11
-1.744246232299879
 21
-6.800097968175762
 31
0.0
  0
LINE
  5
F10479
330
261
100
AcDbEntity
  8
Geo
100
AcDbLine
 10
-1.744246232299879
 20
-6.800097968175762
 30
0.0
 11
-1.644246232299877
 21
-6.826319711172665
 31
0.0
  0
LINE
  5
F1047B
330
261
100
AcDbEntity
  8
Geo
100
AcDbLine
 10
-1.644246232299877
 20
-6.826319711172665
 30
0.0
 11
-1.544246232299876
 21
-6.851805443055766
 31
0.0
  0
LINE
  5
F1047D
330
261
100
AcDbEntity
  8
Geo
100
AcDbLine
 10
-1.544246232299876
 20
-6.851805443055766
 30
0.0
 11
-1.444246232299875
 21
-6.876549854389864
 31
0.0
  0
LINE
  5
F1047F
330
261
100
AcDbEntity
  8
Geo
100
AcDbLine
 10
-1.444246232299875
 20
-6.876549854389864
 30
0.0
 11
-1.34424623229988
 21
-6.900547790178762
 31
0.0
  0
LINE
  5
F10481
330
261
100
AcDbEntity
  8
Geo
100
AcDbLine
 10
-1.34424623229988
 20
-6.900547790178762
 30
0.0
 11
-1.244246232299879
 21
-6.923794250939167
 31
0.0
  0
LINE
  5
F10483
330
261
100
AcDbEntity
  8
Geo
100
AcDbLine
 10
-1.244246232299879
 20
-6.923794250939167
 30
0.0
 11
-1.144246232299877
 21
-6.946284393742566
 31
0.0
  0
LINE
  5
F10485
330
261
100
AcDbEntity
  8
Geo
100
AcDbLine
 10
-1.144246232299877
 20
-6.946284393742566
 30
0.0
 11
-1.044246232299876
 21
-6.968013533223963
 31
0.0
  0
LINE
  5
F10487
330
261
100
AcDbEntity
  8
Geo
100
AcDbLine
 10
-1.044246232299876
 20
-6.968013533223963
 30
0.0
 11
-0.944246232299875
 21
-6.988977142557764
 31
0.0
  0
LINE
  5
F10489
330
261
100
AcDbEntity
  8
Geo
100
AcDbLine
 10
-0.944246232299875
 20
-6.988977142557764
 30
0.0
 11
-0.8442462322998807
 21
-7.009170854401265
 31
0.0
  0
LINE
  5
F1048B
330
261
100
AcDbEntity
  8
Geo
100
AcDbLine
 10
-0.8442462322998807
 20
-7.009170854401265
 30
0.0
 11
-0.7442462322998793
 21
-7.028590461804167
 31
0.0
  0
LINE
  5
F1048D
330
261
100
AcDbEntity
  8
Geo
100
AcDbLine
 10
-0.7442462322998793
 20
-7.028590461804167
 30
0.0
 11
-0.6442462322998779
 21
-7.047231919085163
 31
0.0
  0
LINE
  5
F1048F
330
261
100
AcDbEntity
  8
Geo
100
AcDbLine
 10
-0.6442462322998779
 20
-7.047231919085163
 30
0.0
 11
-0.5442462322998765
 21
-7.065091342674765
 31
0.0
  0
LINE
  5
F10491
330
261
100
AcDbEntity
  8
Geo
100
AcDbLine
 10
-0.5442462322998765
 20
-7.065091342674765
 30
0.0
 11
-0.4442462322998751
 21
-7.082165011924367
 31
0.0
  0
LINE
  5
F10493
330
261
100
AcDbEntity
  8
Geo
100
AcDbLine
 10
-0.4442462322998751
 20
-7.082165011924367
 30
0.0
 11
-0.3442462322998807
 21
-7.098449369881166
 31
0.0
  0
LINE
  5
F10495
330
261
100
AcDbEntity
  8
Geo
100
AcDbLine
 10
-0.3442462322998807
 20
-7.098449369881166
 30
0.0
 11
-0.2442462322998793
 21
-7.113941024029664
 31
0.0
  0
LINE
  5
F10497
330
261
100
AcDbEntity
  8
Geo
100
AcDbLine
 10
-0.2442462322998793
 20
-7.113941024029664
 30
0.0
 11
-0.1442462322998779
 21
-7.128636746997763
 31
0.0
  0
LINE
  5
F10499
330
261
100
AcDbEntity
  8
Geo
100
AcDbLine
 10
-0.1442462322998779
 20
-7.128636746997763
 30
0.0
 11
-0.0442462322998765
 21
-7.142533477229765
 31
0.0
  0
LINE
  5
F1049B
330
261
100
AcDbEntity
  8
Geo
100
AcDbLine
 10
-0.0442462322998765
 20
-7.142533477229765
 30
0.0
 11
0.055753767700125
 21
-7.155628319623765
 31
0.0
  0
LINE
  5
F1049D
330
261
100
AcDbEntity
  8
Geo
100
AcDbLine
 10
0.055753767700125
 20
-7.155628319623765
 30
0.0
 11
0.1557537677001193
 21
-7.167918546134966
 31
0.0
  0
LINE
  5
F1049F
330
261
100
AcDbEntity
  8
Geo
100
AcDbLine
 10
0.1557537677001193
 20
-7.167918546134966
 30
0.0
 11
0.2557537677001207
 21
-7.179401596343964
 31
0.0
  0
LINE
  5
F104A1
330
261
100
AcDbEntity
  8
Geo
100
AcDbLine
 10
0.2557537677001207
 20
-7.179401596343964
 30
0.0
 11
0.3557537677001221
 21
-7.190075077990165
 31
0.0
  0
LINE
  5
F104A3
330
261
100
AcDbEntity
  8
Geo
100
AcDbLine
 10
0.3557537677001221
 20
-7.190075077990165
 30
0.0
 11
0.4557537677001236
 21
-7.199936767470163
 31
0.0
  0
LINE
  5
F104A5
330
261
100
AcDbEntity
  8
Geo
100
AcDbLine
 10
0.4557537677001236
 20
-7.199936767470163
 30
0.0
 11
0.555753767700125
 21
-7.208984610301065
 31
0.0
  0
LINE
  5
F104A7
330
261
100
AcDbEntity
  8
Geo
100
AcDbLine
 10
0.555753767700125
 20
-7.208984610301065
 30
0.0
 11
0.6557537677001193
 21
-7.217216721548265
 31
0.0
  0
LINE
  5
F104A9
330
261
100
AcDbEntity
  8
Geo
100
AcDbLine
 10
0.6557537677001193
 20
-7.217216721548265
 30
0.0
 11
0.7557537677001207
 21
-7.224631386218263
 31
0.0
  0
LINE
  5
F104AB
330
261
100
AcDbEntity
  8
Geo
100
AcDbLine
 10
0.7557537677001207
 20
-7.224631386218263
 30
0.0
 11
0.8557537677001221
 21
-7.231227059616266
 31
0.0
  0
LINE
  5
F104AD
330
261
100
AcDbEntity
  8
Geo
100
AcDbLine
 10
0.8557537677001221
 20
-7.231227059616266
 30
0.0
 11
0.9557537677001235
 21
-7.237002367667368
 31
0.0
  0
LINE
  5
F104AF
330
261
100
AcDbEntity
  8
Geo
100
AcDbLine
 10
0.9557537677001235
 20
-7.237002367667368
 30
0.0
 11
1.055753767700124
 21
-7.241956107203368
 31
0.0
  0
LINE
  5
F104B1
330
261
100
AcDbEntity
  8
Geo
100
AcDbLine
 10
1.055753767700124
 20
-7.241956107203368
 30
0.0
 11
1.155753767700119
 21
-7.246087246212965
 31
0.0
  0
LINE
  5
F104B3
330
261
100
AcDbEntity
  8
Geo
100
AcDbLine
 10
1.155753767700119
 20
-7.246087246212965
 30
0.0
 11
1.25575376770012
 21
-7.249394924057366
 31
0.0
  0
LINE
  5
F104B5
330
261
100
AcDbEntity
  8
Geo
100
AcDbLine
 10
1.25575376770012
 20
-7.249394924057366
 30
0.0
 11
1.355753767700122
 21
-7.251878451648764
 31
0.0
  0
LINE
  5
F104B7
330
261
100
AcDbEntity
  8
Geo
100
AcDbLine
 10
1.355753767700122
 20
-7.251878451648764
 30
0.0
 11
1.455753767700123
 21
-7.253537311594765
 31
0.0
  0
LINE
  5
F104B9
330
261
100
AcDbEntity
  8
Geo
100
AcDbLine
 10
1.455753767700123
 20
-7.253537311594765
 30
0.0
 11
1.555753767700124
 21
-7.254371158305364
 31
0.0
  0
LINE
  5
F104BB
330
261
100
AcDbEntity
  8
Geo
100
AcDbLine
 10
1.655753767700119
 20
0.667569757656235
 30
0.0
 11
1.75575376770012
 21
0.6667532286620351
 31
0.0
  0
LINE
  5
F104BD
330
261
100
AcDbEntity
  8
Geo
100
AcDbLine
 10
1.75575376770012
 20
0.6667532286620351
 30
0.0
 11
1.855753767700122
 21
0.6651116810206333
 31
0.0
  0
LINE
  5
F104BF
330
261
100
AcDbEntity
  8
Geo
100
AcDbLine
 10
1.855753767700122
 20
0.6651116810206333
 30
0.0
 11
1.955753767700123
 21
0.6626454567151328
 31
0.0
  0
LINE
  5
F104C1
330
261
100
AcDbEntity
  8
Geo
100
AcDbLine
 10
1.955753767700123
 20
0.6626454567151328
 30
0.0
 11
2.055753767700124
 21
0.6593550695333299
 31
0.0
  0
LINE
  5
F104C3
330
261
100
AcDbEntity
  8
Geo
100
AcDbLine
 10
2.055753767700124
 20
0.6593550695333299
 30
0.0
 11
2.155753767700119
 21
0.6552412049608343
 31
0.0
  0
LINE
  5
F104C5
330
261
100
AcDbEntity
  8
Geo
100
AcDbLine
 10
2.155753767700119
 20
0.6552412049608343
 30
0.0
 11
2.25575376770012
 21
0.6503047200377346
 31
0.0
  0
LINE
  5
F104C7
330
261
100
AcDbEntity
  8
Geo
100
AcDbLine
 10
2.25575376770012
 20
0.6503047200377346
 30
0.0
 11
2.25575376770012
 21
0.7022165217306338
 31
0.0
  0
LINE
  5
F104C9
330
261
100
AcDbEntity
  8
Geo
100
AcDbLine
 10
2.25575376770012
 20
0.6503047200377346
 30
0.0
 11
2.25575376770012
 21
0.5191970287611305
 31
0.0
  0
LINE
  5
F104CB
330
261
100
AcDbEntity
  8
Geo
100
AcDbLine
 10
-13.74424623229987
 20
-3.293405030204667
 30
0.0
 11
-13.74424623229987
 21
-3.293405030204667
 31
0.0
  0
LINE
  5
F104CD
330
261
100
AcDbEntity
  8
Geo
100
AcDbLine
 10
-13.74424623229987
 20
-3.293405030204667
 30
0.0
 11
-13.74424623229987
 21
-3.293405030204667
 31
0.0
  0
LINE
  5
F104CF
330
261
100
AcDbEntity
  8
Geo
100
AcDbLine
 10
49.25575376770012
 20
0.2065949697953329
 30
0.0
 11
49.25575376770012
 21
-3.293405030204667
 31
0.0
  0
ARC
  5
F104D1
330
261
100
AcDbEntity
  8
Geo
100
AcDbCircle
 10
-9.744246232299879
 20
-3.293405030204667
 30
0.0
 40
4.0
100
AcDbArc
 50
180.0
 51
270.0
  0
LINE
  5
F104D3
330
261
100
AcDbEntity
  8
Geo
100
AcDbLine
 10
-9.744246232299879
 20
-7.293405030204667
 30
0.0
 11
13.25575376770013
 21
-7.293405030204667
 31
0.0
  0
LINE
  5
F104D5
330
261
100
AcDbEntity
  8
Geo
100
AcDbLine
 10
13.25575376770013
 20
-7.293405030204667
 30
0.0
 11
48.75575376770012
 21
-7.293405030204667
 31
0.0
  0
LINE
  5
F104D7
330
261
100
AcDbEntity
  8
Geo
100
AcDbLine
 10
48.75575376770012
 20
-7.293405030204667
 30
0.0
 11
49.25575376770012
 21
-6.793405030204667
 31
0.0
  0
LINE
  5
F104D9
330
261
100
AcDbEntity
  8
Geo
100
AcDbLine
 10
-9.744246232299879
 20
0.7065949697953329
 30
0.0
 11
-9.744246232299879
 21
-7.293405030204667
 31
0.0
  0
LINE
  5
F104DB
330
261
100
AcDbEntity
  8
Geo
100
AcDbLine
 10
13.25575376770013
 20
0.7065949697953329
 30
0.0
 11
13.25575376770013
 21
-7.293405030204667
 31
0.0
  0
LINE
  5
F104DD
330
261
100
AcDbEntity
  8
Geo
100
AcDbLine
 10
48.75575376770012
 20
0.7065949697953329
 30
0.0
 11
48.75575376770012
 21
-7.293405030204667
 31
0.0
  0
LINE
  5
F104DF
330
261
100
AcDbEntity
  8
Geo
100
AcDbLine
 10
49.25575376770012
 20
0.2065949697953329
 30
0.0
 11
49.25575376770012
 21
-6.793405030204667
 31
0.0
  0
LWPOLYLINE
  5
F10549
330
261
100
AcDbEntity
  8
Rahmen
100
AcDbPolyline
 90
        4
 70
     1
 43
0.0
 10
-134.524070021882
 20
99.945295404814
 10
143.484682713348
 20
99.945295404814
 10
143.484682713348
 20
-100.175054704595
 10
-134.524070021882
 20
-100.175054704595
  0
TEXT
  5
F1054B
330
261
100
AcDbEntity
  8
Text
100
AcDbText
 10
-133.6050328227569
 20
-99.67505470459521
 30
0.0
 40
1.0
  1
ISBESketcher
100
AcDbText
  0
LWPOLYLINE
  5
F1054D
330
261
100
AcDbEntity
  8
Rahmen
100
AcDbPolyline
 90
        4
 70
     1
 43
0.0
 10
103.276805251641
 20
-97.1881838074398
 10
143.484682713348
 20
-97.1881838074398
 10
143.484682713348
 20
-100.175054704595
 10
103.276805251641
 20
-100.175054704595
  0
TEXT
  5
F1054F
330
261
100
AcDbEntity
  8
Text
100
AcDbText
 10
104.425601750547
 20
-98.1881838074398
 30
0.0
 40
0.75
  1
Ers. durch:
100
AcDbText
  0
LWPOLYLINE
  5
F10553
330
261
100
AcDbEntity
  8
Rahmen
100
AcDbPolyline
 90
        4
 70
     1
 43
0.0
 10
63.2986870897155
 20
-97.1881838074398
 10
103.276805251641
 20
-97.1881838074398
 10
103.276805251641
 20
-100.175054704595
 10
63.2986870897155
 20
-100.175054704595
  0
TEXT
  5
F10555
330
261
100
AcDbEntity
  8
Text
100
AcDbText
 10
64.44748358862139
 20
-98.1881838074398
 30
0.0
 40
0.75
  1
Ers. für:
100
AcDbText
  0
TEXT
  5
F10557
330
261
100
AcDbEntity
  8
Text
100
AcDbText
 10
91.32932166301969
 20
-99.5667396061269
 30
0.0
 40
0.75
  1

100
AcDbText
  0
LWPOLYLINE
  5
F10559
330
261
100
AcDbEntity
  8
Rahmen
100
AcDbPolyline
 90
        4
 70
     1
 43
0.0
 10
130.158643326039
 20
-94.2013129102845
 10
143.484682713348
 20
-94.2013129102845
 10
143.484682713348
 20
-97.1881838074398
 10
130.158643326039
 20
-97.1881838074398
  0
TEXT
  5
F1055B
330
261
100
AcDbEntity
  8
Text
100
AcDbText
 10
131.077680525164
 20
-95.2013129102845
 30
0.0
 40
0.75
  1
Blätter
100
AcDbText
  0
TEXT
  5
F1055D
330
261
100
AcDbEntity
  8
Text
100
AcDbText
 10
141.187089715536
 20
-96.57986870897161
 30
0.0
 40
0.75
  1

100
AcDbText
  0
LWPOLYLINE
  5
F1055F
330
261
100
AcDbEntity
  8
Rahmen
100
AcDbPolyline
 90
        4
 70
     1
 43
0.0
 10
130.158643326039
 20
-91.21444201312909
 10
143.484682713348
 20
-91.21444201312909
 10
143.484682713348
 20
-94.2013129102845
 10
130.158643326039
 20
-94.2013129102845
  0
TEXT
  5
F10561
330
261
100
AcDbEntity
  8
Text
100
AcDbText
 10
131.077680525164
 20
-92.21444201312911
 30
0.0
 40
0.75
  1
Blatt
100
AcDbText
  0
TEXT
  5
F10563
330
261
100
AcDbEntity
  8
Text
100
AcDbText
 10
141.187089715536
 20
-93.59299781181618
 30
0.0
 40
0.75
  1

100
AcDbText
  0
LWPOLYLINE
  5
F10565
330
261
100
AcDbEntity
  8
Rahmen
100
AcDbPolyline
 90
        4
 70
     1
 43
0.0
 10
63.2986870897155
 20
-91.21444201312909
 10
130.158643326039
 20
-91.21444201312909
 10
130.158643326039
 20
-97.1881838074398
 10
63.2986870897155
 20
-97.1881838074398
  0
TEXT
  5
F10567
330
261
100
AcDbEntity
  8
Text
100
AcDbText
 10
64.44748358862139
 20
-92.21444201312911
 30
0.0
 40
0.75
  1
Datum:
100
AcDbText
  0
TEXT
  5
F10569
330
261
100
AcDbEntity
  8
Text
100
AcDbText
 10
90.410284463895
 20
-95.2013129102845
 30
0.0
 40
0.75
  1
18.07.2013
100
AcDbText
  0
LWPOLYLINE
  5
F1056B
330
261
100
AcDbEntity
  8
Rahmen
100
AcDbPolyline
 90
        4
 70
     1
 43
0.0
 10
63.2986870897155
 20
-85.0109409190372
 10
143.484682713348
 20
-85.0109409190372
 10
143.484682713348
 20
-91.21444201312909
 10
63.2986870897155
 20
-91.21444201312909
  0
TEXT
  5
F1056D
330
261
100
AcDbEntity
  8
Text
100
AcDbText
 10
-200.924507658643
 20
103.0
 30
0.0
 40
1.5
  1

100
AcDbText
  0
TEXT
  5
F1056F
330
261
100
AcDbEntity
  8
Text
100
AcDbText
 10
78.0032822757112
 20
-88.8037928519329
 30
0.0
 40
2.5
  1
2135-080
100
AcDbText
  0
LWPOLYLINE
  5
F10571
330
261
100
AcDbEntity
  8
Rahmen
100
AcDbPolyline
 90
        4
 70
     1
 43
0.0
 10
103.276805251641
 20
-79.0371991247265
 10
143.484682713348
 20
-79.0371991247265
 10
143.484682713348
 20
-85.0109409190372
 10
103.276805251641
 20
-85.0109409190372
  0
TEXT
  5
F10573
330
261
100
AcDbEntity
  8
Text
100
AcDbText
 10
104.425601750547
 20
-80.0371991247265
 30
0.0
 40
0.75
  1
Zu bearb. Material:
100
AcDbText
  0
TEXT
  5
F10575
330
261
100
AcDbEntity
  8
Text
100
AcDbText
 10
123.265864332604
 20
-84.4026258205689
 30
0.0
 40
0.75
  1

100
AcDbText
  0
LWPOLYLINE
  5
F10577
330
261
100
AcDbEntity
  8
Rahmen
100
AcDbPolyline
 90
        4
 70
     1
 43
0.0
 10
63.2986870897155
 20
-79.0371991247265
 10
103.276805251641
 20
-79.0371991247265
 10
103.276805251641
 20
-85.0109409190372
 10
63.2986870897155
 20
-85.0109409190372
  0
TEXT
  5
F10579
330
261
100
AcDbEntity
  8
Text
100
AcDbText
 10
64.44748358862139
 20
-80.0371991247265
 30
0.0
 40
0.75
  1
Werkstoff:
100
AcDbText
  0
TEXT
  5
F1057B
330
261
100
AcDbEntity
  8
Text
100
AcDbText
 10
83.28774617067841
 20
-84.4026258205689
 30
0.0
 40
0.75
  1

100
AcDbText
  0
LWPOLYLINE
  5
F1057D
330
261
100
AcDbEntity
  8
Rahmen
100
AcDbPolyline
 90
        4
 70
     1
 43
0.0
 10
103.276805251641
 20
-76.0503282275711
 10
143.484682713348
 20
-76.0503282275711
 10
143.484682713348
 20
-79.0371991247265
 10
103.276805251641
 20
-79.0371991247265
  0
TEXT
  5
F1057F
330
261
100
AcDbEntity
  8
Text
100
AcDbText
 10
-200.924507658643
 20
103.0
 30
0.0
 40
1.5
  1

100
AcDbText
  0
TEXT
  5
F10581
330
261
100
AcDbEntity
  8
Text
100
AcDbText
 10
123.265864332604
 20
-78.4288840262582
 30
0.0
 40
0.75
  1

100
AcDbText
  0
LWPOLYLINE
  5
F10583
330
261
100
AcDbEntity
  8
Rahmen
100
AcDbPolyline
 90
        4
 70
     1
 43
0.0
 10
63.2986870897155
 20
-76.0503282275711
 10
103.276805251641
 20
-76.0503282275711
 10
103.276805251641
 20
-79.0371991247265
 10
63.2986870897155
 20
-79.0371991247265
  0
TEXT
  5
F10585
330
261
100
AcDbEntity
  8
Text
100
AcDbText
 10
64.44748358862139
 20
-77.0503282275711
 30
0.0
 40
0.75
  1
Maßstab:
100
AcDbText
  0
TEXT
  5
F10587
330
261
100
AcDbEntity
  8
Text
100
AcDbText
 10
88.80196936542672
 20
-77.0503282275711
 30
0.0
 40
0.75
  1
1 : 1
100
AcDbText
  0
VIEWPORT
  5
294
102
{ACAD_XDICTIONARY
360
F10781
102
}
330
25D
100
AcDbEntity
 67
     1
  8
0
 60
     1
100
AcDbViewport
 10
0.0
 20
0.0
 30
0.0
 40
10.0
 41
10.0
 68
    -1
 69
     1
 12
0.0
 22
0.0
 13
0.0
 23
0.0
 14
1.0
 24
1.0
 15
0.0
 25
0.0
 16
0.0
 26
0.0
 36
1.0
 17
0.0
 27
0.0
 37
0.0
 42
0.0
 43
0.0
 44
0.0
 45
10.0
 50
0.0
 51
0.0000000000007958
 72
   100
 90
    32800
  1

281
     0
 71
     0
 74
     0
110
0.0
120
0.0
130
0.0
111
1.0
121
0.0
131
0.0
112
0.0
122
1.0
132
0.0
 79
     0
146
0.0
1001
VD_INVISIBLE_NOT_FOR_READ
1000
VD_INVISIBLE_NOT_FOR_READ
1001
GENIUS_GENSCREG_15
1000
PF
1040
1.0
1000
DF
1040
1.0
1000
MIN
1011
-5.0
1021
-5.0
1031
0.0
1000
MAX
1011
5.0
1021
5.0
1031
0.0
1000
FLAGS
1070
     4
1001
GENIUS_GENODEF_13
1002
{
1000
HIER
1070
     0
1002
}
1002
{
1000
MANEDIT
1070
     0
1002
}
1002
{
1000
NOSEL
1070
     0
1002
}
1002
{
1000
BEHIND
1070
     0
1002
}
1002
{
1000
OTHER
1070
     0
1002
}
1002
{
1000
REACTOR
1002
}
1001
GENIUS_GENOBJ-N-SDF_13
1002
{
1000
OWNER
1000
GEN
1002
}
  0
VIEWPORT
  5
295
102
{ACAD_XDICTIONARY
360
F10783
102
}
330
25D
100
AcDbEntity
 67
     1
  8
0
 60
     1
100
AcDbViewport
 10
0.0
 20
0.0
 30
0.0
 40
10.0
 41
10.0
 68
     0
 69
     2
 12
0.0
 22
0.0
 13
0.0
 23
0.0
 14
1.0
 24
1.0
 15
0.0
 25
0.0
 16
0.0
 26
0.0
 36
1.0
 17
0.0
 27
0.0
 37
0.0
 42
0.0
 43
0.0
 44
0.0
 45
10.0
 50
0.0
 51
0.0000000000007958
 72
   100
 90
   163872
  1

281
     0
 71
     0
 74
     0
110
0.0
120
0.0
130
0.0
111
1.0
121
0.0
131
0.0
112
0.0
122
1.0
132
0.0
 79
     0
146
0.0
1001
VD_INVISIBLE_NOT_FOR_READ
1000
VD_INVISIBLE_NOT_FOR_READ
1001
GENIUS_GENSCREG_15
1000
PF
1040
1.0
1000
DF
1040
1.0
1000
MIN
1011
-5.0
1021
-5.0
1031
0.0
1000
MAX
1011
5.0
1021
5.0
1031
0.0
1000
FLAGS
1070
     4
1001
GENIUS_GENODEF_13
1002
{
1000
HIER
1070
     0
1002
}
1002
{
1000
MANEDIT
1070
     0
1002
}
1002
{
1000
NOSEL
1070
     0
1002
}
1002
{
1000
BEHIND
1070
     0
1002
}
1002
{
1000
OTHER
1070
     0
1002
}
1002
{
1000
REACTOR
1002
}
1001
GENIUS_GENOBJ-N-SDF_13
1002
{
1000
OWNER
1000
GEN
1002
}
  0
ENDSEC
  0
SECTION
  2
OBJECTS
  0
DICTIONARY
  5
13
330
0
100
AcDbDictionary
281
     1
  3
ACAD_COLOR
350
FA7
  3
ACAD_GROUP
350
14
  3
ACAD_LAYOUT
350
FCF
  3
ACAD_MATERIAL
350
F7A
  3
ACAD_MLEADERSTYLE
350
FCD
  3
ACAD_MLINESTYLE
350
16
  3
ACAD_PLOTSETTINGS
350
17
  3
ACAD_PLOTSTYLENAME
350
18
  3
ACAD_SCALELIST
350
FAB
  3
ACAD_TABLESTYLE
350
FA8
  3
ACAD_VISUALSTYLE
350
F93
  3
ACDB_RECOMPOSE_DATA
350
F1077F
  3
AcDbVariableDictionary
350
F10776
  3
AcmDictionary
350
F105DE
  3
AMG
350
F10592
  3
AMGSNAPSETTINGS
350
F10655
  3
DWGPROPS
350
F10780
  0
DICTIONARY
  5
F1076C
330
252
100
AcDbDictionary
280
     1
281
     1
  3
ADSK_XREC_LAYER_RECONCILED
360
F1076D
  0
DICTIONARY
  5
F1076E
330
23F
100
AcDbDictionary
280
     1
281
     1
  3
ADSK_XREC_LAYER_RECONCILED
360
F1076F
  0
DICTIONARY
  5
F10770
330
240
100
AcDbDictionary
280
     1
281
     1
  3
ADSK_XREC_LAYER_RECONCILED
360
F10771
  0
DICTIONARY
  5
F10772
330
241
100
AcDbDictionary
280
     1
281
     1
  3
ADSK_XREC_LAYER_RECONCILED
360
F10773
  0
DICTIONARY
  5
F10774
330
57E
100
AcDbDictionary
280
     1
281
     1
  3
ADSK_XREC_LAYER_RECONCILED
360
F10775
  0
DICTIONARY
  5
F10785
330
296
100
AcDbDictionary
280
     1
281
     1
  3
ACAD_XREC_ROUNDTRIP
360
F10786
  0
DICTIONARY
  5
F10787
330
297
100
AcDbDictionary
280
     1
281
     1
  3
ACAD_XREC_ROUNDTRIP
360
F10788
  0
DICTIONARY
  5
F10781
330
294
100
AcDbDictionary
280
     1
281
     1
  3
ACAD_XREC_ROUNDTRIP
360
F10782
  0
DICTIONARY
  5
F10783
330
295
100
AcDbDictionary
280
     1
281
     1
  3
ACAD_XREC_ROUNDTRIP
360
F10784
  0
DICTIONARY
  5
FA7
102
{ACAD_REACTORS
330
13
102
}
330
13
100
AcDbDictionary
281
     1
  0
DICTIONARY
  5
14
330
13
100
AcDbDictionary
281
     1
  0
DICTIONARY
  5
FCF
102
{ACAD_REACTORS
330
13
102
}
330
13
100
AcDbDictionary
281
     1
  3
Layout1
350
FD1
  3
Model
350
FD0
  0
DICTIONARY
  5
F7A
102
{ACAD_REACTORS
330
13
102
}
330
13
100
AcDbDictionary
281
     1
  3
ByBlock
350
F83
  3
ByLayer
350
F7B
  3
Global
350
F8B
  0
DICTIONARY
  5
FCD
102
{ACAD_REACTORS
330
13
102
}
330
13
100
AcDbDictionary
281
     1
  3
Standard
350
FCE
  0
DICTIONARY
  5
16
330
13
100
AcDbDictionary
281
     1
  3
Standard
350
FAA
  0
DICTIONARY
  5
17
102
{ACAD_REACTORS
330
13
102
}
330
13
100
AcDbDictionary
281
     1
  0
ACDBDICTIONARYWDFLT
  5
18
102
{ACAD_REACTORS
330
13
102
}
330
13
100
AcDbDictionary
281
     1
  3
Normal
350
19
100
AcDbDictionaryWithDefault
340
19
  0
DICTIONARY
  5
FAB
102
{ACAD_REACTORS
330
13
102
}
330
13
100
AcDbDictionary
281
     1
  3
A0
350
FAC
  3
A1
350
FAD
  3
A2
350
FAE
  3
A3
350
FAF
  3
A4
350
FB0
  3
A5
350
FB1
  3
A6
350
FB2
  3
A7
350
FB3
  3
A8
350
FB4
  3
A9
350
FB5
  3
B0
350
FB6
  3
B1
350
FB7
  3
B2
350
FB8
  3
B3
350
FB9
  3
B4
350
FBA
  3
B5
350
FBB
  3
B6
350
FBC
  3
B7
350
FBD
  3
B8
350
FBE
  3
B9
350
FBF
  3
C0
350
FC0
  3
C1
350
FC1
  3
C2
350
FC2
  3
C3
350
FC3
  3
C4
350
FC4
  3
C5
350
FC5
  3
C6
350
FC6
  3
C7
350
FC7
  3
C8
350
FC8
  3
C9
350
FC9
  3
D0
350
FCA
  3
D1
350
FCB
  3
D2
350
FCC
  0
DICTIONARY
  5
FA8
102
{ACAD_REACTORS
330
13
102
}
330
13
100
AcDbDictionary
281
     1
  3
Standard
350
FA9
  0
DICTIONARY
  5
F93
102
{ACAD_REACTORS
330
13
102
}
330
13
100
AcDbDictionary
281
     1
  3
2dWireframe
350
F99
  3
3D Hidden
350
F9B
  3
3dWireframe
350
F9A
  3
Basic
350
F98
  3
Brighten
350
F9F
  3
ColorChange
350
FA3
  3
Conceptual
350
F9C
  3
Dim
350
F9E
  3
EdgeColorOff
350
FA6
  3
Facepattern
350
FA2
  3
Flat
350
F94
  3
FlatWithEdges
350
F95
  3
Gouraud
350
F96
  3
GouraudWithEdges
350
F97
  3
Hidden
350
F1058A
  3
JitterOff
350
FA4
  3
Linepattern
350
FA1
  3
OverhangOff
350
FA5
  3
Realistic
350
F9D
  3
Shaded
350
F1058F
  3
Shaded with edges
350
F1058E
  3
Shades of Gray
350
F1058B
  3
Sketchy
350
F1058C
  3
Thicken
350
FA0
  3
Wireframe
350
F10589
  3
X-Ray
350
F1058D
  0
XRECORD
  5
F1077F
102
{ACAD_REACTORS
330
13
102
}
330
13
100
AcDbXrecord
280
     1
 90
        1
330
FA9
  0
DICTIONARY
  5
F10776
102
{ACAD_REACTORS
330
13
102
}
330
13
100
AcDbDictionary
281
     1
  3
CANNOSCALE
350
F10779
  3
CMLEADERSTYLE
350
F10778
  3
CTABLESTYLE
350
F10777
  3
DIMASSOC
350
F1077C
  3
INDEXCTL
350
F1077B
  3
SORTENTS
350
F1077A
  3
XCLIPFRAME
350
F1077D
  0
DICTIONARY
  5
F105DE
102
{ACAD_REACTORS
330
13
102
}
330
13
100
AcDbDictionary
281
     1
  3
AcmStdDictionary
350
F105E9
  0
DICTIONARY
  5
F10592
102
{ACAD_REACTORS
330
13
102
}
330
13
100
AcDbDictionary
281
     1
  0
DICTIONARY
  5
F10655
102
{ACAD_REACTORS
330
13
102
}
330
13
100
AcDbDictionary
281
     1
  0
XRECORD
  5
F10780
102
{ACAD_REACTORS
330
13
102
}
330
13
100
AcDbXrecord
280
     1
  1
DWGPROPS COOKIE
  2

  3

  4

  6

  7

  8
steigner
  9

300
=
301
=
302
=
303
=
304
=
305
=
306
=
307
=
308
=
309
=
 40
0.0120876273148148
 41
2456884.31238235
 42
2456884.324469236
  1

 90
        0
  0
XRECORD
  5
F1076D
102
{ACAD_REACTORS
330
F1076C
102
}
330
F1076C
100
AcDbXrecord
280
     1
290
     1
  0
XRECORD
  5
F1076F
102
{ACAD_REACTORS
330
F1076E
102
}
330
F1076E
100
AcDbXrecord
280
     1
290
     1
  0
XRECORD
  5
F10771
102
{ACAD_REACTORS
330
F10770
102
}
330
F10770
100
AcDbXrecord
280
     1
290
     1
  0
XRECORD
  5
F10773
102
{ACAD_REACTORS
330
F10772
102
}
330
F10772
100
AcDbXrecord
280
     1
290
     1
  0
XRECORD
  5
F10775
102
{ACAD_REACTORS
330
F10774
102
}
330
F10774
100
AcDbXrecord
280
     1
290
     1
  0
XRECORD
  5
F10786
102
{ACAD_REACTORS
330
F10785
102
}
330
F10785
100
AcDbXrecord
280
     1
102
SHADEPLOT
 70
     0
  0
XRECORD
  5
F10788
102
{ACAD_REACTORS
330
F10787
102
}
330
F10787
100
AcDbXrecord
280
     1
102
SHADEPLOT
 70
     0
  0
XRECORD
  5
F10782
102
{ACAD_REACTORS
330
F10781
102
}
330
F10781
100
AcDbXrecord
280
     1
102
SHADEPLOT
 70
     0
  0
XRECORD
  5
F10784
102
{ACAD_REACTORS
330
F10783
102
}
330
F10783
100
AcDbXrecord
280
     1
102
SHADEPLOT
 70
     0
  0
LAYOUT
  5
FD1
102
{ACAD_XDICTIONARY
360
F107B2
102
}
102
{ACAD_REACTORS
330
FCF
102
}
330
FCF
100
AcDbPlotSettings
  1

  2
Microsoft XPS Document Writer
  4

  6

 40
0.0
 41
0.0
 42
0.0
 43
0.0
 44
0.0
 45
0.0
 46
0.0
 47
0.0
 48
0.0
 49
0.0
140
0.0
141
0.0
142
1.0
143
1.0
 70
   688
 72
     0
 73
     0
 74
     5
  7

 75
    16
147
1.0
148
0.0
149
0.0
100
AcDbLayout
  1
Layout1
 70
     1
 71
     1
 10
0.0
 20
0.0
 11
12.0
 21
9.0
 12
0.0
 22
0.0
 32
0.0
 14
1.000000000000000E+20
 24
1.000000000000000E+20
 34
1.000000000000000E+20
 15
-1.000000000000000E+20
 25
-1.000000000000000E+20
 35
-1.000000000000000E+20
146
0.0
 13
0.0
 23
0.0
 33
0.0
 16
1.0
 26
0.0
 36
0.0
 17
0.0
 27
1.0
 37
0.0
 76
     0
330
25D
  0
LAYOUT
  5
FD0
102
{ACAD_XDICTIONARY
360
F107B0
102
}
102
{ACAD_REACTORS
330
FCF
102
}
330
FCF
100
AcDbPlotSettings
  1

  2
Microsoft XPS Document Writer
  4

  6

 40
0.0
 41
0.0
 42
0.0
 43
0.0
 44
0.0
 45
0.0
 46
0.0
 47
0.0
 48
0.0
 49
0.0
140
0.0
141
0.0
142
1.0
143
1.0
 70
  1712
 72
     0
 73
     0
 74
     0
  7

 75
     0
147
1.0
148
0.0
149
0.0
100
AcDbLayout
  1
Model
 70
     1
 71
     0
 10
0.0
 20
0.0
 11
12.0
 21
9.0
 12
0.0
 22
0.0
 32
0.0
 14
0.0
 24
0.0
 34
0.0
 15
0.0
 25
0.0
 35
0.0
146
0.0
 13
0.0
 23
0.0
 33
0.0
 16
1.0
 26
0.0
 36
0.0
 17
0.0
 27
1.0
 37
0.0
 76
     0
330
261
331
26B
  0
MATERIAL
  5
F83
102
{ACAD_XDICTIONARY
360
F84
102
}
102
{ACAD_REACTORS
330
F7A
102
}
330
F7A
100
AcDbMaterial
  1
ByBlock
 72
     0
 43
0.0208333333333333
 43
0.0
 43
0.0
 43
0.0
 43
0.0
 43
0.0208333333333333
 43
0.0
 43
0.0
 43
0.0
 43
0.0
 43
1.0
 43
0.0
 43
0.0
 43
0.0
 43
0.0
 43
1.0
 77
     0
 47
0.0208333333333333
 47
0.0
 47
0.0
 47
0.0
 47
0.0
 47
0.0208333333333333
 47
0.0
 47
0.0
 47
0.0
 47
0.0
 47
1.0
 47
0.0
 47
0.0
 47
0.0
 47
0.0
 47
1.0
171
     0
 49
0.0208333333333333
 49
0.0
 49
0.0
 49
0.0
 49
0.0
 49
0.0208333333333333
 49
0.0
 49
0.0
 49
0.0
 49
0.0
 49
1.0
 49
0.0
 49
0.0
 49
0.0
 49
0.0
 49
1.0
175
     0
142
0.0208333333333333
142
0.0
142
0.0
142
0.0
142
0.0
142
0.0208333333333333
142
0.0
142
0.0
142
0.0
142
0.0
142
1.0
142
0.0
142
0.0
142
0.0
142
0.0
142
1.0
179
     0
144
0.0208333333333333
144
0.0
144
0.0
144
0.0
144
0.0
144
0.0208333333333333
144
0.0
144
0.0
144
0.0
144
0.0
144
1.0
144
0.0
144
0.0
144
0.0
144
0.0
144
1.0
147
0.0208333333333333
147
0.0
147
0.0
147
0.0
147
0.0
147
0.0208333333333333
147
0.0
147
0.0
147
0.0
147
0.0
147
1.0
147
0.0
147
0.0
147
0.0
147
0.0
147
1.0
  0
MATERIAL
  5
F7B
102
{ACAD_XDICTIONARY
360
F7C
102
}
102
{ACAD_REACTORS
330
F7A
102
}
330
F7A
100
AcDbMaterial
  1
ByLayer
 72
     0
 43
0.0208333333333333
 43
0.0
 43
0.0
 43
0.0
 43
0.0
 43
0.0208333333333333
 43
0.0
 43
0.0
 43
0.0
 43
0.0
 43
1.0
 43
0.0
 43
0.0
 43
0.0
 43
0.0
 43
1.0
 77
     0
 47
0.0208333333333333
 47
0.0
 47
0.0
 47
0.0
 47
0.0
 47
0.0208333333333333
 47
0.0
 47
0.0
 47
0.0
 47
0.0
 47
1.0
 47
0.0
 47
0.0
 47
0.0
 47
0.0
 47
1.0
171
     0
 49
0.0208333333333333
 49
0.0
 49
0.0
 49
0.0
 49
0.0
 49
0.0208333333333333
 49
0.0
 49
0.0
 49
0.0
 49
0.0
 49
1.0
 49
0.0
 49
0.0
 49
0.0
 49
0.0
 49
1.0
175
     0
142
0.0208333333333333
142
0.0
142
0.0
142
0.0
142
0.0
142
0.0208333333333333
142
0.0
142
0.0
142
0.0
142
0.0
142
1.0
142
0.0
142
0.0
142
0.0
142
0.0
142
1.0
179
     0
144
0.0208333333333333
144
0.0
144
0.0
144
0.0
144
0.0
144
0.0208333333333333
144
0.0
144
0.0
144
0.0
144
0.0
144
1.0
144
0.0
144
0.0
144
0.0
144
0.0
144
1.0
147
0.0208333333333333
147
0.0
147
0.0
147
0.0
147
0.0
147
0.0208333333333333
147
0.0
147
0.0
147
0.0
147
0.0
147
1.0
147
0.0
147
0.0
147
0.0
147
0.0
147
1.0
  0
MATERIAL
  5
F8B
102
{ACAD_XDICTIONARY
360
F8C
102
}
102
{ACAD_REACTORS
330
F7A
102
}
330
F7A
100
AcDbMaterial
  1
Global
 72
     0
 43
0.0208333333333333
 43
0.0
 43
0.0
 43
0.0
 43
0.0
 43
0.0208333333333333
 43
0.0
 43
0.0
 43
0.0
 43
0.0
 43
1.0
 43
0.0
 43
0.0
 43
0.0
 43
0.0
 43
1.0
 77
     0
 47
0.0208333333333333
 47
0.0
 47
0.0
 47
0.0
 47
0.0
 47
0.0208333333333333
 47
0.0
 47
0.0
 47
0.0
 47
0.0
 47
1.0
 47
0.0
 47
0.0
 47
0.0
 47
0.0
 47
1.0
171
     0
 49
0.0208333333333333
 49
0.0
 49
0.0
 49
0.0
 49
0.0
 49
0.0208333333333333
 49
0.0
 49
0.0
 49
0.0
 49
0.0
 49
1.0
 49
0.0
 49
0.0
 49
0.0
 49
0.0
 49
1.0
175
     0
142
0.0208333333333333
142
0.0
142
0.0
142
0.0
142
0.0
142
0.0208333333333333
142
0.0
142
0.0
142
0.0
142
0.0
142
1.0
142
0.0
142
0.0
142
0.0
142
0.0
142
1.0
179
     0
144
0.0208333333333333
144
0.0
144
0.0
144
0.0
144
0.0
144
0.0208333333333333
144
0.0
144
0.0
144
0.0
144
0.0
144
1.0
144
0.0
144
0.0
144
0.0
144
0.0
144
1.0
147
0.0208333333333333
147
0.0
147
0.0
147
0.0
147
0.0
147
0.0208333333333333
147
0.0
147
0.0
147
0.0
147
0.0
147
1.0
147
0.0
147
0.0
147
0.0
147
0.0
147
1.0
  0
MLEADERSTYLE
  5
FCE
102
{ACAD_REACTORS
330
FCD
102
}
330
FCD
100
AcDbMLeaderStyle
170
     2
171
     1
172
     0
 90
        2
 40
0.0
 41
0.0
173
     1
 91
-1056964608
340
256
 92
       -2
290
     1
 42
0.09
291
     1
 43
0.36
  3
Standard
 44
0.18
300

342
253
174
     1
178
     6
175
     1
176
     0
 93
-1056964608
 45
0.18
292
     0
297
     0
 46
0.18
 94
-1056964608
 47
1.0
 49
1.0
140
1.0
293
     1
141
0.0
294
     1
177
     0
142
1.0
295
     0
296
     0
143
0.125
1001
ACAD_MLEADERVER
1070
     2
  0
MLINESTYLE
  5
FAA
102
{ACAD_REACTORS
330
16
102
}
330
16
100
AcDbMlineStyle
  2
STANDARD
 70
     0
  3

 62
   256
 51
90.0
 52
90.0
 71
     2
 49
0.5
 62
   256
  6
BYLAYER
 49
-0.5
 62
   256
  6
BYLAYER
  0
ACDBPLACEHOLDER
  5
19
102
{ACAD_REACTORS
330
18
102
}
330
18
  0
SCALE
  5
FAC
102
{ACAD_REACTORS
330
FAB
102
}
330
FAB
100
AcDbScale
 70
     0
300
1:1
140
1.0
141
1.0
290
     1
  0
SCALE
  5
FAD
102
{ACAD_REACTORS
330
FAB
102
}
330
FAB
100
AcDbScale
 70
     0
300
1:2
140
1.0
141
2.0
290
     0
  0
SCALE
  5
FAE
102
{ACAD_REACTORS
330
FAB
102
}
330
FAB
100
AcDbScale
 70
     0
300
1:4
140
1.0
141
4.0
290
     0
  0
SCALE
  5
FAF
102
{ACAD_REACTORS
330
FAB
102
}
330
FAB
100
AcDbScale
 70
     0
300
1:5
140
1.0
141
5.0
290
     0
  0
SCALE
  5
FB0
102
{ACAD_REACTORS
330
FAB
102
}
330
FAB
100
AcDbScale
 70
     0
300
1:8
140
1.0
141
8.0
290
     0
  0
SCALE
  5
FB1
102
{ACAD_REACTORS
330
FAB
102
}
330
FAB
100
AcDbScale
 70
     0
300
1:10
140
1.0
141
10.0
290
     0
  0
SCALE
  5
FB2
102
{ACAD_REACTORS
330
FAB
102
}
330
FAB
100
AcDbScale
 70
     0
300
1:16
140
1.0
141
16.0
290
     0
  0
SCALE
  5
FB3
102
{ACAD_REACTORS
330
FAB
102
}
330
FAB
100
AcDbScale
 70
     0
300
1:20
140
1.0
141
20.0
290
     0
  0
SCALE
  5
FB4
102
{ACAD_REACTORS
330
FAB
102
}
330
FAB
100
AcDbScale
 70
     0
300
1:30
140
1.0
141
30.0
290
     0
  0
SCALE
  5
FB5
102
{ACAD_REACTORS
330
FAB
102
}
330
FAB
100
AcDbScale
 70
     0
300
1:40
140
1.0
141
40.0
290
     0
  0
SCALE
  5
FB6
102
{ACAD_REACTORS
330
FAB
102
}
330
FAB
100
AcDbScale
 70
     0
300
1:50
140
1.0
141
50.0
290
     0
  0
SCALE
  5
FB7
102
{ACAD_REACTORS
330
FAB
102
}
330
FAB
100
AcDbScale
 70
     0
300
1:100
140
1.0
141
100.0
290
     0
  0
SCALE
  5
FB8
102
{ACAD_REACTORS
330
FAB
102
}
330
FAB
100
AcDbScale
 70
     0
300
2:1
140
2.0
141
1.0
290
     0
  0
SCALE
  5
FB9
102
{ACAD_REACTORS
330
FAB
102
}
330
FAB
100
AcDbScale
 70
     0
300
4:1
140
4.0
141
1.0
290
     0
  0
SCALE
  5
FBA
102
{ACAD_REACTORS
330
FAB
102
}
330
FAB
100
AcDbScale
 70
     0
300
8:1
140
8.0
141
1.0
290
     0
  0
SCALE
  5
FBB
102
{ACAD_REACTORS
330
FAB
102
}
330
FAB
100
AcDbScale
 70
     0
300
10:1
140
10.0
141
1.0
290
     0
  0
SCALE
  5
FBC
102
{ACAD_REACTORS
330
FAB
102
}
330
FAB
100
AcDbScale
 70
     0
300
100:1
140
100.0
141
1.0
290
     0
  0
SCALE
  5
FBD
102
{ACAD_REACTORS
330
FAB
102
}
330
FAB
100
AcDbScale
 70
     0
300
1/128" = 1'-0"
140
0.0078125
141
12.0
290
     0
  0
SCALE
  5
FBE
102
{ACAD_REACTORS
330
FAB
102
}
330
FAB
100
AcDbScale
 70
     0
300
1/64" = 1'-0"
140
0.015625
141
12.0
290
     0
  0
SCALE
  5
FBF
102
{ACAD_REACTORS
330
FAB
102
}
330
FAB
100
AcDbScale
 70
     0
300
1/32" = 1'-0"
140
0.03125
141
12.0
290
     0
  0
SCALE
  5
FC0
102
{ACAD_REACTORS
330
FAB
102
}
330
FAB
100
AcDbScale
 70
     0
300
1/16" = 1'-0"
140
0.0625
141
12.0
290
     0
  0
SCALE
  5
FC1
102
{ACAD_REACTORS
330
FAB
102
}
330
FAB
100
AcDbScale
 70
     0
300
3/32" = 1'-0"
140
0.09375
141
12.0
290
     0
  0
SCALE
  5
FC2
102
{ACAD_REACTORS
330
FAB
102
}
330
FAB
100
AcDbScale
 70
     0
300
1/8" = 1'-0"
140
0.125
141
12.0
290
     0
  0
SCALE
  5
FC3
102
{ACAD_REACTORS
330
FAB
102
}
330
FAB
100
AcDbScale
 70
     0
300
3/16" = 1'-0"
140
0.1875
141
12.0
290
     0
  0
SCALE
  5
FC4
102
{ACAD_REACTORS
330
FAB
102
}
330
FAB
100
AcDbScale
 70
     0
300
1/4" = 1'-0"
140
0.25
141
12.0
290
     0
  0
SCALE
  5
FC5
102
{ACAD_REACTORS
330
FAB
102
}
330
FAB
100
AcDbScale
 70
     0
300
3/8" = 1'-0"
140
0.375
141
12.0
290
     0
  0
SCALE
  5
FC6
102
{ACAD_REACTORS
330
FAB
102
}
330
FAB
100
AcDbScale
 70
     0
300
1/2" = 1'-0"
140
0.5
141
12.0
290
     0
  0
SCALE
  5
FC7
102
{ACAD_REACTORS
330
FAB
102
}
330
FAB
100
AcDbScale
 70
     0
300
3/4" = 1'-0"
140
0.75
141
12.0
290
     0
  0
SCALE
  5
FC8
102
{ACAD_REACTORS
330
FAB
102
}
330
FAB
100
AcDbScale
 70
     0
300
1" = 1'-0"
140
1.0
141
12.0
290
     0
  0
SCALE
  5
FC9
102
{ACAD_REACTORS
330
FAB
102
}
330
FAB
100
AcDbScale
 70
     0
300
1-1/2" = 1'-0"
140
1.5
141
12.0
290
     0
  0
SCALE
  5
FCA
102
{ACAD_REACTORS
330
FAB
102
}
330
FAB
100
AcDbScale
 70
     0
300
3" = 1'-0"
140
3.0
141
12.0
290
     0
  0
SCALE
  5
FCB
102
{ACAD_REACTORS
330
FAB
102
}
330
FAB
100
AcDbScale
 70
     0
300
6" = 1'-0"
140
6.0
141
12.0
290
     0
  0
SCALE
  5
FCC
102
{ACAD_REACTORS
330
FAB
102
}
330
FAB
100
AcDbScale
 70
     0
300
1'-0" = 1'-0"
140
12.0
141
12.0
290
     0
  0
TABLESTYLE
  5
FA9
102
{ACAD_XDICTIONARY
360
FF8
102
}
102
{ACAD_REACTORS
330
FA8
102
}
330
FA8
100
AcDbTableStyle
  3
Standard
 70
     0
 71
     0
 40
0.06
 41
0.06
280
     0
281
     0
  7
Standard
140
0.18
170
     2
 62
     0
 63
     7
283
     0
274
    -2
284
     1
 64
     0
275
    -2
285
     1
 65
     0
276
    -2
286
     1
 66
     0
277
    -2
287
     1
 67
     0
278
    -2
288
     1
 68
     0
279
    -2
289
     1
 69
     0
  7
Standard
140
0.25
170
     5
 62
     0
 63
     7
283
     0
274
    -2
284
     1
 64
     0
275
    -2
285
     1
 65
     0
276
    -2
286
     1
 66
     0
277
    -2
287
     1
 67
     0
278
    -2
288
     1
 68
     0
279
    -2
289
     1
 69
     0
  7
Standard
140
0.18
170
     5
 62
     0
 63
     7
283
     0
274
    -2
284
     1
 64
     0
275
    -2
285
     1
 65
     0
276
    -2
286
     1
 66
     0
277
    -2
287
     1
 67
     0
278
    -2
288
     1
 68
     0
279
    -2
289
     1
 69
     0
  0
VISUALSTYLE
  5
F99
102
{ACAD_XDICTIONARY
360
F10793
102
}
102
{ACAD_REACTORS
330
F93
102
}
330
F93
100
AcDbVisualStyle
  2

 70
     4
 71
     0
 72
     2
 73
     0
 90
        0
 40
-0.6
 41
-30.0
 62
     5
 63
     7
 74
     1
 91
        4
 64
     7
 65
   257
 75
     1
175
     1
 42
1.0
 92
        0
 66
   257
 43
1.0
 76
     1
 77
     6
 78
     2
 67
     7
 79
     5
170
     0
171
     0
290
     0
174
     0
 93
        1
 44
0.0
173
     0
291
     0
 45
0.0
1001
ACAD
1000
AcDbSavedByObjectVersion
1070
     0
  0
VISUALSTYLE
  5
F9B
102
{ACAD_XDICTIONARY
360
F10797
102
}
102
{ACAD_REACTORS
330
F93
102
}
330
F93
100
AcDbVisualStyle
  2

 70
     6
 71
     1
 72
     2
 73
     2
 90
        0
 40
-0.6
 41
-30.0
 62
     5
 63
     7
 74
     2
 91
        2
 64
     7
 65
   257
 75
     2
175
     1
 42
179.0
 92
        0
 66
   257
 43
1.0
 76
     1
 77
     6
 78
     2
 67
     7
 79
     3
170
     0
171
     0
290
     0
174
     0
 93
        1
 44
0.0
173
     0
291
     0
 45
0.0
1001
ACAD
1000
AcDbSavedByObjectVersion
1070
     0
  0
VISUALSTYLE
  5
F9A
102
{ACAD_XDICTIONARY
360
F10795
102
}
102
{ACAD_REACTORS
330
F93
102
}
330
F93
100
AcDbVisualStyle
  2

 70
     5
 71
     0
 72
     2
 73
     0
 90
        0
 40
-0.6
 41
-30.0
 62
     5
 63
     7
 74
     1
 91
        4
 64
     7
 65
   257
 75
     1
175
     1
 42
1.0
 92
        0
 66
   257
 43
1.0
 76
     1
 77
     6
 78
     2
 67
     7
 79
     5
170
     0
171
     0
290
     0
174
     0
 93
        1
 44
0.0
173
     0
291
     0
 45
0.0
1001
ACAD
1000
AcDbSavedByObjectVersion
1070
     0
  0
VISUALSTYLE
  5
F98
102
{ACAD_XDICTIONARY
360
F10791
102
}
102
{ACAD_REACTORS
330
F93
102
}
330
F93
100
AcDbVisualStyle
  2

 70
     7
 71
     1
 72
     0
 73
     1
 90
        0
 40
-0.6
 41
-30.0
 62
     5
 63
     7
 74
     0
 91
        4
 64
     7
 65
   257
 75
     1
175
     1
 42
1.0
 92
        8
 66
     7
 43
1.0
 76
     1
 77
     6
 78
     2
 67
     7
 79
     5
170
     0
171
     0
290
     0
174
     0
 93
        1
 44
0.0
173
     0
291
     1
 45
0.0
1001
ACAD
1000
AcDbSavedByObjectVersion
1070
     0
  0
VISUALSTYLE
  5
F9F
102
{ACAD_XDICTIONARY
360
F1079F
102
}
102
{ACAD_REACTORS
330
F93
102
}
330
F93
100
AcDbVisualStyle
  2

 70
    12
 71
     2
 72
     2
 73
     0
 90
        0
 40
-0.6
 41
-30.0
 62
     5
 63
     7
 74
     1
 91
        4
 64
     7
 65
   257
 75
     1
175
     1
 42
1.0
 92
        8
 66
     7
 43
1.0
 76
     1
 77
     6
 78
     2
 67
     7
 79
     5
170
     0
171
     0
290
     0
174
     0
 93
        1
 44
50.0
173
     0
291
     1
 45
0.0
1001
ACAD
1000
AcDbSavedByObjectVersion
1070
     0
  0
VISUALSTYLE
  5
FA3
102
{ACAD_XDICTIONARY
360
F107A7
102
}
102
{ACAD_REACTORS
330
F93
102
}
330
F93
100
AcDbVisualStyle
  2

 70
    16
 71
     2
 72
     2
 73
     3
 90
        0
 40
-0.6
 41
-30.0
 62
     5
 63
     8
 74
     1
 91
        4
 64
     7
 65
   257
 75
     1
175
     1
 42
1.0
 92
        8
 66
     8
 43
1.0
 76
     1
 77
     6
 78
     2
 67
     7
 79
     5
170
     0
171
     0
290
     0
174
     0
 93
        1
 44
0.0
173
     0
291
     1
 45
0.0
1001
ACAD
1000
AcDbSavedByObjectVersion
1070
     0
  0
VISUALSTYLE
  5
F9C
102
{ACAD_XDICTIONARY
360
F10799
102
}
102
{ACAD_REACTORS
330
F93
102
}
330
F93
100
AcDbVisualStyle
  2

 70
     9
 71
     3
 72
     2
 73
     0
 90
        0
 40
-0.6
 41
-30.0
 62
     5
 63
     7
 74
     2
 91
        2
 64
     7
 65
   257
 75
     1
175
     1
 42
179.0
 92
        8
 66
     7
 43
1.0
 76
     1
 77
     6
 78
     2
 67
     7
 79
     3
170
     0
171
     0
290
     0
174
     0
 93
        1
 44
0.0
173
     0
291
     0
 45
0.0
1001
ACAD
1000
AcDbSavedByObjectVersion
1070
     0
  0
VISUALSTYLE
  5
F9E
102
{ACAD_XDICTIONARY
360
F1079D
102
}
102
{ACAD_REACTORS
330
F93
102
}
330
F93
100
AcDbVisualStyle
  2

 70
    11
 71
     2
 72
     2
 73
     0
 90
        0
 40
-0.6
 41
-30.0
 62
     5
 63
     7
 74
     1
 91
        4
 64
     7
 65
   257
 75
     1
175
     1
 42
1.0
 92
        8
 66
     7
 43
1.0
 76
     1
 77
     6
 78
     2
 67
     7
 79
     5
170
     0
171
     0
290
     0
174
     0
 93
        1
 44
-50.0
173
     0
291
     1
 45
0.0
1001
ACAD
1000
AcDbSavedByObjectVersion
1070
     0
  0
VISUALSTYLE
  5
FA6
102
{ACAD_XDICTIONARY
360
F107AD
102
}
102
{ACAD_REACTORS
330
F93
102
}
330
F93
100
AcDbVisualStyle
  2

 70
    22
 71
     2
 72
     2
 73
     0
 90
        0
 40
-0.6
 41
-30.0
 62
     5
 63
     7
 74
     1
 91
        4
 64
     7
 65
   257
 75
     1
175
     1
 42
1.0
 92
        8
 66
     7
 43
1.0
 76
     1
 77
     6
 78
     2
 67
     7
 79
     5
170
     0
171
     0
290
     0
174
     0
 93
        1
 44
0.0
173
     0
291
     1
 45
0.0
1001
ACAD
1000
AcDbSavedByObjectVersion
1070
     0
  0
VISUALSTYLE
  5
FA2
102
{ACAD_XDICTIONARY
360
F107A5
102
}
102
{ACAD_REACTORS
330
F93
102
}
330
F93
100
AcDbVisualStyle
  2

 70
    15
 71
     2
 72
     2
 73
     0
 90
        0
 40
-0.6
 41
-30.0
 62
     5
 63
     7
 74
     1
 91
        4
 64
     7
 65
   257
 75
     1
175
     1
 42
1.0
 92
        8
 66
     7
 43
1.0
 76
     1
 77
     6
 78
     2
 67
     7
 79
     5
170
     0
171
     0
290
     0
174
     0
 93
        1
 44
0.0
173
     0
291
     1
 45
0.0
1001
ACAD
1000
AcDbSavedByObjectVersion
1070
     0
  0
VISUALSTYLE
  5
F94
102
{ACAD_XDICTIONARY
360
F10789
102
}
102
{ACAD_REACTORS
330
F93
102
}
330
F93
100
AcDbVisualStyle
  2

 70
     0
 71
     2
 72
     1
 73
     1
 90
        2
 40
-0.6
 41
30.0
 62
     5
 63
     7
 74
     0
 91
        4
 64
     7
 65
   257
 75
     1
175
     1
 42
1.0
 92
        8
 66
     7
 43
1.0
 76
     1
 77
     6
 78
     2
 67
     7
 79
     5
170
     0
171
     0
290
     0
174
     0
 93
       13
 44
0.0
173
     0
291
     1
 45
0.0
1001
ACAD
1000
AcDbSavedByObjectVersion
1070
     0
  0
VISUALSTYLE
  5
F95
102
{ACAD_XDICTIONARY
360
F1078B
102
}
102
{ACAD_REACTORS
330
F93
102
}
330
F93
100
AcDbVisualStyle
  2

 70
     1
 71
     2
 72
     1
 73
     1
 90
        2
 40
-0.6
 41
30.0
 62
     5
 63
     7
 74
     1
 91
        4
 64
     7
 65
   257
 75
     1
175
     1
 42
1.0
 92
        0
 66
   257
 43
1.0
 76
     1
 77
     6
 78
     2
 67
     7
 79
     5
170
     0
171
     0
290
     0
174
     0
 93
       13
 44
0.0
173
     0
291
     1
 45
0.0
1001
ACAD
1000
AcDbSavedByObjectVersion
1070
     0
  0
VISUALSTYLE
  5
F96
102
{ACAD_XDICTIONARY
360
F1078D
102
}
102
{ACAD_REACTORS
330
F93
102
}
330
F93
100
AcDbVisualStyle
  2

 70
     2
 71
     2
 72
     2
 73
     1
 90
        2
 40
-0.6
 41
30.0
 62
     5
 63
     7
 74
     0
 91
        4
 64
     7
 65
   257
 75
     1
175
     1
 42
1.0
 92
        0
 66
     7
 43
1.0
 76
     1
 77
     6
 78
     2
 67
     7
 79
     5
170
     0
171
     0
290
     0
174
     0
 93
       13
 44
0.0
173
     0
291
     1
 45
0.0
1001
ACAD
1000
AcDbSavedByObjectVersion
1070
     0
  0
VISUALSTYLE
  5
F97
102
{ACAD_XDICTIONARY
360
F1078F
102
}
102
{ACAD_REACTORS
330
F93
102
}
330
F93
100
AcDbVisualStyle
  2

 70
     3
 71
     2
 72
     2
 73
     1
 90
        2
 40
-0.6
 41
30.0
 62
     5
 63
     7
 74
     1
 91
        4
 64
     7
 65
   257
 75
     1
175
     1
 42
1.0
 92
        0
 66
   257
 43
1.0
 76
     1
 77
     6
 78
     2
 67
     7
 79
     5
170
     0
171
     0
290
     0
174
     0
 93
       13
 44
0.0
173
     0
291
     1
 45
0.0
1001
ACAD
1000
AcDbSavedByObjectVersion
1070
     0
  0
VISUALSTYLE
  5
F1058A
102
{ACAD_XDICTIONARY
360
F107B6
102
}
102
{ACAD_REACTORS
330
F93
102
}
330
F93
100
AcDbVisualStyle
  2
Hidden
 70
     6
 71
     1
 72
     2
 73
     2
 90
        0
 40
-0.6
 41
-30.0
 62
     5
 63
     7
 74
     2
 91
        2
 64
     7
 65
   257
 75
     2
175
     1
 42
40.0
 92
        0
 66
   257
 43
1.0
 76
     1
 77
     6
 78
     2
 67
     7
 79
     3
170
     0
171
     0
290
     0
174
     0
 93
        1
 44
0.0
173
     0
291
     0
 45
0.0
1001
ACAD
1000
AcDbSavedByObjectVersion
1070
     0
  0
VISUALSTYLE
  5
FA4
102
{ACAD_XDICTIONARY
360
F107A9
102
}
102
{ACAD_REACTORS
330
F93
102
}
330
F93
100
AcDbVisualStyle
  2

 70
    20
 71
     2
 72
     2
 73
     0
 90
        0
 40
-0.6
 41
-30.0
 62
     5
 63
     7
 74
     1
 91
        4
 64
     7
 65
   257
 75
     1
175
     1
 42
1.0
 92
       10
 66
     7
 43
1.0
 76
     1
 77
     6
 78
     2
 67
     7
 79
     5
170
     0
171
     0
290
     0
174
     0
 93
        1
 44
0.0
173
     0
291
     1
 45
0.0
1001
ACAD
1000
AcDbSavedByObjectVersion
1070
     0
  0
VISUALSTYLE
  5
FA1
102
{ACAD_XDICTIONARY
360
F107A3
102
}
102
{ACAD_REACTORS
330
F93
102
}
330
F93
100
AcDbVisualStyle
  2

 70
    14
 71
     2
 72
     2
 73
     0
 90
        0
 40
-0.6
 41
-30.0
 62
     5
 63
     7
 74
     1
 91
        4
 64
     7
 65
   257
 75
     7
175
     7
 42
1.0
 92
        8
 66
     7
 43
1.0
 76
     1
 77
     6
 78
     2
 67
     7
 79
     5
170
     0
171
     0
290
     0
174
     0
 93
        1
 44
0.0
173
     0
291
     1
 45
0.0
1001
ACAD
1000
AcDbSavedByObjectVersion
1070
     0
  0
VISUALSTYLE
  5
FA5
102
{ACAD_XDICTIONARY
360
F107AB
102
}
102
{ACAD_REACTORS
330
F93
102
}
330
F93
100
AcDbVisualStyle
  2

 70
    21
 71
     2
 72
     2
 73
     0
 90
        0
 40
-0.6
 41
-30.0
 62
     5
 63
     7
 74
     1
 91
        4
 64
     7
 65
   257
 75
     1
175
     1
 42
1.0
 92
        9
 66
     7
 43
1.0
 76
     1
 77
     6
 78
     2
 67
     7
 79
     5
170
     0
171
     0
290
     0
174
     0
 93
        1
 44
0.0
173
     0
291
     1
 45
0.0
1001
ACAD
1000
AcDbSavedByObjectVersion
1070
     0
  0
VISUALSTYLE
  5
F9D
102
{ACAD_XDICTIONARY
360
F1079B
102
}
102
{ACAD_REACTORS
330
F93
102
}
330
F93
100
AcDbVisualStyle
  2

 70
     8
 71
     2
 72
     2
 73
     0
 90
        0
 40
-0.6
 41
-30.0
 62
     5
 63
     7
 74
     1
 91
        0
 64
     7
 65
   257
 75
     1
175
     1
 42
1.0
 92
        8
 66
     8
 43
1.0
 76
     1
 77
     6
 78
     2
 67
     7
 79
     5
170
     0
171
     0
290
     0
174
     0
 93
       13
 44
0.0
173
     0
291
     0
 45
0.0
1001
ACAD
1000
AcDbSavedByObjectVersion
1070
     0
  0
VISUALSTYLE
  5
F1058F
102
{ACAD_XDICTIONARY
360
F107C0
102
}
102
{ACAD_REACTORS
330
F93
102
}
330
F93
100
AcDbVisualStyle
  2
Shaded
 70
    27
 71
     2
 72
     2
 73
     1
 90
        2
 40
-0.6
 41
30.0
 62
     5
 63
     7
 74
     0
 91
        4
 64
     7
 65
   257
 75
     1
175
     1
 42
1.0
 92
        8
 66
   257
 43
1.0
 76
     1
 77
     6
 78
     2
 67
     8
 79
     3
170
     0
171
     0
290
     0
174
     0
 93
        5
 44
0.0
173
     0
291
     0
 45
0.0
1001
ACAD
1000
AcDbSavedByObjectVersion
1070
     0
  0
VISUALSTYLE
  5
F1058E
102
{ACAD_XDICTIONARY
360
F107BE
102
}
102
{ACAD_REACTORS
330
F93
102
}
330
F93
100
AcDbVisualStyle
  2
Shaded with edges
 70
    26
 71
     2
 72
     2
 73
     1
 90
        2
 40
-0.6
 41
30.0
 62
     5
 63
     7
 74
     1
 91
       10
 64
     7
 65
   257
 75
     2
175
     1
 42
1.0
 92
        8
 66
   257
 43
1.0
 76
     1
 77
     6
 78
     2
 67
     7
 79
     3
170
     0
171
     0
290
     0
174
     0
 93
        5
 44
0.0
173
     0
291
     0
 45
0.0
1001
ACAD
1000
AcDbSavedByObjectVersion
1070
     0
  0
VISUALSTYLE
  5
F1058B
102
{ACAD_XDICTIONARY
360
F107B8
102
}
102
{ACAD_REACTORS
330
F93
102
}
330
F93
100
AcDbVisualStyle
  2
Shades of Gray
 70
    23
 71
     2
 72
     2
 73
     3
 90
        0
 40
-0.6
 41
-30.0
 62
     5
 63
     7
 74
     2
 91
        2
 64
     7
 65
     7
 75
     1
175
     1
 42
40.0
 92
        8
 66
     7
 43
1.0
 76
     1
 77
     6
 78
     2
 67
     7
 79
     3
170
     0
171
     0
290
     0
174
     0
 93
        1
 44
0.0
173
     0
291
     0
 45
0.0
1001
ACAD
1000
AcDbSavedByObjectVersion
1070
     0
  0
VISUALSTYLE
  5
F1058C
102
{ACAD_XDICTIONARY
360
F107BA
102
}
102
{ACAD_REACTORS
330
F93
102
}
330
F93
100
AcDbVisualStyle
  2
Sketchy
 70
    24
 71
     1
 72
     2
 73
     2
 90
        0
 40
-0.6
 41
-30.0
 62
     5
 63
     7
 74
     2
 91
        2
 64
     7
 65
     7
 75
     1
175
     1
 42
40.0
 92
       11
 66
     7
 43
1.0
 76
     1
 77
     6
 78
     2
 67
     7
 79
     6
170
     0
171
     0
290
     0
174
     0
 93
        1
 44
0.0
173
     0
291
     0
 45
0.0
1001
ACAD
1000
AcDbSavedByObjectVersion
1070
     0
  0
VISUALSTYLE
  5
FA0
102
{ACAD_XDICTIONARY
360
F107A1
102
}
102
{ACAD_REACTORS
330
F93
102
}
330
F93
100
AcDbVisualStyle
  2

 70
    13
 71
     2
 72
     2
 73
     0
 90
        0
 40
-0.6
 41
-30.0
 62
     5
 63
     7
 74
     1
 91
        4
 64
     7
 65
   257
 75
     1
175
     1
 42
1.0
 92
       12
 66
     7
 43
1.0
 76
     1
 77
     6
 78
     2
 67
     7
 79
     5
170
     0
171
     0
290
     0
174
     0
 93
        1
 44
0.0
173
     0
291
     1
 45
0.0
1001
ACAD
1000
AcDbSavedByObjectVersion
1070
     0
  0
VISUALSTYLE
  5
F10589
102
{ACAD_XDICTIONARY
360
F107B4
102
}
102
{ACAD_REACTORS
330
F93
102
}
330
F93
100
AcDbVisualStyle
  2
Wireframe
 70
     5
 71
     0
 72
     2
 73
     0
 90
        0
 40
-0.6
 41
-30.0
 62
     5
 63
     7
 74
     1
 91
        4
 64
     7
 65
   257
 75
     1
175
     1
 42
1.0
 92
        0
 66
   257
 43
1.0
 76
     1
 77
     6
 78
     2
 67
     7
 79
     3
170
     0
171
     0
290
     0
174
     0
 93
        1
 44
0.0
173
     0
291
     0
 45
0.0
1001
ACAD
1000
AcDbSavedByObjectVersion
1070
     0
  0
VISUALSTYLE
  5
F1058D
102
{ACAD_XDICTIONARY
360
F107BC
102
}
102
{ACAD_REACTORS
330
F93
102
}
330
F93
100
AcDbVisualStyle
  2
X-Ray
 70
    25
 71
     2
 72
     2
 73
     1
 90
        1
 40
0.5
 41
-30.0
 62
     5
 63
     7
 74
     1
 91
        0
 64
     7
 65
   257
 75
     1
175
     1
 42
1.0
 92
        8
 66
     7
 43
1.0
 76
     1
 77
     6
 78
     2
 67
     7
 79
     3
170
     0
171
     0
290
     0
174
     0
 93
       13
 44
0.0
173
     0
291
     0
 45
0.0
1001
ACAD
1000
AcDbSavedByObjectVersion
1070
     0
  0
DICTIONARYVAR
  5
F10779
102
{ACAD_REACTORS
330
F10776
102
}
330
F10776
100
DictionaryVariables
280
     0
  1
1:1
  0
DICTIONARYVAR
  5
F10778
102
{ACAD_REACTORS
330
F10776
102
}
330
F10776
100
DictionaryVariables
280
     0
  1
STANDARD
  0
DICTIONARYVAR
  5
F10777
102
{ACAD_REACTORS
330
F10776
102
}
330
F10776
100
DictionaryVariables
280
     0
  1
STANDARD
  0
DICTIONARYVAR
  5
F1077C
102
{ACAD_REACTORS
330
F10776
102
}
330
F10776
100
DictionaryVariables
280
     0
  1
1
  0
DICTIONARYVAR
  5
F1077B
102
{ACAD_REACTORS
330
F10776
102
}
330
F10776
100
DictionaryVariables
280
     0
  1
0
  0
DICTIONARYVAR
  5
F1077A
102
{ACAD_REACTORS
330
F10776
102
}
330
F10776
100
DictionaryVariables
280
     0
  1
127
  0
DICTIONARYVAR
  5
F1077D
102
{ACAD_REACTORS
330
F10776
102
}
330
F10776
100
DictionaryVariables
280
     0
  1
2
  0
DICTIONARY
  5
F105E9
102
{ACAD_REACTORS
330
F105DE
102
}
330
F105DE
100
AcDbDictionary
281
     1
  0
DICTIONARY
  5
F107B2
330
FD1
100
AcDbDictionary
280
     1
281
     1
  3
ACAD_XREC_ROUNDTRIP
360
F107B3
  0
DICTIONARY
  5
F107B0
330
FD0
100
AcDbDictionary
280
     1
281
     1
  3
ACAD_XREC_ROUNDTRIP
360
F107B1
  0
DICTIONARY
  5
F84
330
F83
100
AcDbDictionary
280
     1
281
     1
  3
ACAD_XREC_ROUNDTRIP
360
FFF
  3
BUMPTILE
360
F86
  3
DIFFUSETILE
360
F85
  3
OPACITYTILE
360
F89
  3
REFLECTIONTILE
360
F88
  3
REFRACTIONTILE
360
F8A
  3
SPECULARTILE
360
F87
  0
DICTIONARY
  5
F7C
330
F7B
100
AcDbDictionary
280
     1
281
     1
  3
ACAD_XREC_ROUNDTRIP
360
FFE
  3
BUMPTILE
360
F7E
  3
DIFFUSETILE
360
F7D
  3
OPACITYTILE
360
F81
  3
REFLECTIONTILE
360
F80
  3
REFRACTIONTILE
360
F82
  3
SPECULARTILE
360
F7F
  0
DICTIONARY
  5
F8C
330
F8B
100
AcDbDictionary
280
     1
281
     1
  3
ACAD_XREC_ROUNDTRIP
360
1000
  3
BUMPTILE
360
F8E
  3
DIFFUSETILE
360
F8D
  3
OPACITYTILE
360
F91
  3
REFLECTIONTILE
360
F90
  3
REFRACTIONTILE
360
F92
  3
SPECULARTILE
360
F8F
  0
DICTIONARY
  5
FF8
330
FA9
100
AcDbDictionary
280
     1
281
     1
  3
ACAD_ROUNDTRIP_2008_TABLESTYLE_CELLSTYLEMAP
360
F1077E
  3
ACAD_XREC_ROUNDTRIP
360
F107AF
  0
DICTIONARY
  5
F10793
330
F99
100
AcDbDictionary
280
     1
281
     1
  3
ACAD_XREC_ROUNDTRIP
360
F10794
  0
DICTIONARY
  5
F10797
330
F9B
100
AcDbDictionary
280
     1
281
     1
  3
ACAD_XREC_ROUNDTRIP
360
F10798
  0
DICTIONARY
  5
F10795
330
F9A
100
AcDbDictionary
280
     1
281
     1
  3
ACAD_XREC_ROUNDTRIP
360
F10796
  0
DICTIONARY
  5
F10791
330
F98
100
AcDbDictionary
280
     1
281
     1
  3
ACAD_XREC_ROUNDTRIP
360
F10792
  0
DICTIONARY
  5
F1079F
330
F9F
100
AcDbDictionary
280
     1
281
     1
  3
ACAD_XREC_ROUNDTRIP
360
F107A0
  0
DICTIONARY
  5
F107A7
330
FA3
100
AcDbDictionary
280
     1
281
     1
  3
ACAD_XREC_ROUNDTRIP
360
F107A8
  0
DICTIONARY
  5
F10799
330
F9C
100
AcDbDictionary
280
     1
281
     1
  3
ACAD_XREC_ROUNDTRIP
360
F1079A
  0
DICTIONARY
  5
F1079D
330
F9E
100
AcDbDictionary
280
     1
281
     1
  3
ACAD_XREC_ROUNDTRIP
360
F1079E
  0
DICTIONARY
  5
F107AD
330
FA6
100
AcDbDictionary
280
     1
281
     1
  3
ACAD_XREC_ROUNDTRIP
360
F107AE
  0
DICTIONARY
  5
F107A5
330
FA2
100
AcDbDictionary
280
     1
281
     1
  3
ACAD_XREC_ROUNDTRIP
360
F107A6
  0
DICTIONARY
  5
F10789
330
F94
100
AcDbDictionary
280
     1
281
     1
  3
ACAD_XREC_ROUNDTRIP
360
F1078A
  0
DICTIONARY
  5
F1078B
330
F95
100
AcDbDictionary
280
     1
281
     1
  3
ACAD_XREC_ROUNDTRIP
360
F1078C
  0
DICTIONARY
  5
F1078D
330
F96
100
AcDbDictionary
280
     1
281
     1
  3
ACAD_XREC_ROUNDTRIP
360
F1078E
  0
DICTIONARY
  5
F1078F
330
F97
100
AcDbDictionary
280
     1
281
     1
  3
ACAD_XREC_ROUNDTRIP
360
F10790
  0
DICTIONARY
  5
F107B6
330
F1058A
100
AcDbDictionary
280
     1
281
     1
  3
ACAD_XREC_ROUNDTRIP
360
F107B7
  0
DICTIONARY
  5
F107A9
330
FA4
100
AcDbDictionary
280
     1
281
     1
  3
ACAD_XREC_ROUNDTRIP
360
F107AA
  0
DICTIONARY
  5
F107A3
330
FA1
100
AcDbDictionary
280
     1
281
     1
  3
ACAD_XREC_ROUNDTRIP
360
F107A4
  0
DICTIONARY
  5
F107AB
330
FA5
100
AcDbDictionary
280
     1
281
     1
  3
ACAD_XREC_ROUNDTRIP
360
F107AC
  0
DICTIONARY
  5
F1079B
330
F9D
100
AcDbDictionary
280
     1
281
     1
  3
ACAD_XREC_ROUNDTRIP
360
F1079C
  0
DICTIONARY
  5
F107C0
330
F1058F
100
AcDbDictionary
280
     1
281
     1
  3
ACAD_XREC_ROUNDTRIP
360
F107C1
  0
DICTIONARY
  5
F107BE
330
F1058E
100
AcDbDictionary
280
     1
281
     1
  3
ACAD_XREC_ROUNDTRIP
360
F107BF
  0
DICTIONARY
  5
F107B8
330
F1058B
100
AcDbDictionary
280
     1
281
     1
  3
ACAD_XREC_ROUNDTRIP
360
F107B9
  0
DICTIONARY
  5
F107BA
330
F1058C
100
AcDbDictionary
280
     1
281
     1
  3
ACAD_XREC_ROUNDTRIP
360
F107BB
  0
DICTIONARY
  5
F107A1
330
FA0
100
AcDbDictionary
280
     1
281
     1
  3
ACAD_XREC_ROUNDTRIP
360
F107A2
  0
DICTIONARY
  5
F107B4
330
F10589
100
AcDbDictionary
280
     1
281
     1
  3
ACAD_XREC_ROUNDTRIP
360
F107B5
  0
DICTIONARY
  5
F107BC
330
F1058D
100
AcDbDictionary
280
     1
281
     1
  3
ACAD_XREC_ROUNDTRIP
360
F107BD
  0
XRECORD
  5
F107B3
102
{ACAD_REACTORS
330
F107B2
102
}
330
F107B2
100
AcDbXrecord
280
     1
102
SHADEPLOT
 70
     0
102
SHADEPLOTRESLEVEL
 70
     2
102
SHADEPLOTCUSTOMDPI
 70
   300
  0
XRECORD
  5
F107B1
102
{ACAD_REACTORS
330
F107B0
102
}
330
F107B0
100
AcDbXrecord
280
     1
102
SHADEPLOT
 70
     0
102
SHADEPLOTRESLEVEL
 70
     2
102
SHADEPLOTCUSTOMDPI
 70
   300
  0
XRECORD
  5
FFF
102
{ACAD_REACTORS
330
F84
102
}
330
F84
100
AcDbXrecord
280
     1
102
MATERIAL
148
0.0
149
0.0
149
0.0
 93
        0
 94
      127
282
     0
 72
     0
 77
     0
171
     0
175
     0
179
     0
273
     0
  0
XRECORD
  5
F86
102
{ACAD_REACTORS
330
F84
102
}
330
F84
100
AcDbXrecord
280
     1
270
     1
271
     1
  0
XRECORD
  5
F85
102
{ACAD_REACTORS
330
F84
102
}
330
F84
100
AcDbXrecord
280
     1
270
     1
271
     1
  0
XRECORD
  5
F89
102
{ACAD_REACTORS
330
F84
102
}
330
F84
100
AcDbXrecord
280
     1
270
     1
271
     1
  0
XRECORD
  5
F88
102
{ACAD_REACTORS
330
F84
102
}
330
F84
100
AcDbXrecord
280
     1
270
     1
271
     1
  0
XRECORD
  5
F8A
102
{ACAD_REACTORS
330
F84
102
}
330
F84
100
AcDbXrecord
280
     1
270
     1
271
     1
  0
XRECORD
  5
F87
102
{ACAD_REACTORS
330
F84
102
}
330
F84
100
AcDbXrecord
280
     1
270
     1
271
     1
  0
XRECORD
  5
FFE
102
{ACAD_REACTORS
330
F7C
102
}
330
F7C
100
AcDbXrecord
280
     1
102
MATERIAL
148
0.0
149
0.0
149
0.0
 93
        0
 94
      127
282
     0
 72
     0
 77
     0
171
     0
175
     0
179
     0
273
     0
  0
XRECORD
  5
F7E
102
{ACAD_REACTORS
330
F7C
102
}
330
F7C
100
AcDbXrecord
280
     1
270
     1
271
     1
  0
XRECORD
  5
F7D
102
{ACAD_REACTORS
330
F7C
102
}
330
F7C
100
AcDbXrecord
280
     1
270
     1
271
     1
  0
XRECORD
  5
F81
102
{ACAD_REACTORS
330
F7C
102
}
330
F7C
100
AcDbXrecord
280
     1
270
     1
271
     1
  0
XRECORD
  5
F80
102
{ACAD_REACTORS
330
F7C
102
}
330
F7C
100
AcDbXrecord
280
     1
270
     1
271
     1
  0
XRECORD
  5
F82
102
{ACAD_REACTORS
330
F7C
102
}
330
F7C
100
AcDbXrecord
280
     1
270
     1
271
     1
  0
XRECORD
  5
F7F
102
{ACAD_REACTORS
330
F7C
102
}
330
F7C
100
AcDbXrecord
280
     1
270
     1
271
     1
  0
XRECORD
  5
1000
102
{ACAD_REACTORS
330
F8C
102
}
330
F8C
100
AcDbXrecord
280
     1
102
MATERIAL
148
0.0
149
0.0
149
0.0
 93
        0
 94
      127
282
     0
 72
     0
 77
     0
171
     0
175
     0
179
     0
273
     0
  0
XRECORD
  5
F8E
102
{ACAD_REACTORS
330
F8C
102
}
330
F8C
100
AcDbXrecord
280
     1
270
     1
271
     1
  0
XRECORD
  5
F8D
102
{ACAD_REACTORS
330
F8C
102
}
330
F8C
100
AcDbXrecord
280
     1
270
     1
271
     1
  0
XRECORD
  5
F91
102
{ACAD_REACTORS
330
F8C
102
}
330
F8C
100
AcDbXrecord
280
     1
270
     1
271
     1
  0
XRECORD
  5
F90
102
{ACAD_REACTORS
330
F8C
102
}
330
F8C
100
AcDbXrecord
280
     1
270
     1
271
     1
  0
XRECORD
  5
F92
102
{ACAD_REACTORS
330
F8C
102
}
330
F8C
100
AcDbXrecord
280
     1
270
     1
271
     1
  0
XRECORD
  5
F8F
102
{ACAD_REACTORS
330
F8C
102
}
330
F8C
100
AcDbXrecord
280
     1
270
     1
271
     1
  0
CELLSTYLEMAP
  5
F1077E
102
{ACAD_REACTORS
330
FF8
102
}
330
FF8
100
AcDbCellStyleMap
 90
        3
300
CELLSTYLE
  1
TABLEFORMAT_BEGIN
 90
        5
170
     1
 91
        0
 92
    32768
 62
   257
 93
        1
300
CONTENTFORMAT
  1
CONTENTFORMAT_BEGIN
 90
        0
 91
        0
 92
      512
 93
        0
300

 40
0.0
140
1.0
 94
        5
 62
     0
340
253
144
0.25
309
CONTENTFORMAT_END
171
     1
301
MARGIN
  1
CELLMARGIN_BEGIN
 40
0.06
 40
0.06
 40
0.06
 40
0.06
 40
0.18
 40
0.18
309
CELLMARGIN_END
 94
        6
 95
        1
302
GRIDFORMAT
  1
GRIDFORMAT_BEGIN
 90
        0
 91
        1
 62
     0
 92
       -2
340
0
 93
        0
 40
0.045
309
GRIDFORMAT_END
 95
        2
302
GRIDFORMAT
  1
GRIDFORMAT_BEGIN
 90
        0
 91
        1
 62
     0
 92
       -2
340
0
 93
        0
 40
0.045
309
GRIDFORMAT_END
 95
        4
302
GRIDFORMAT
  1
GRIDFORMAT_BEGIN
 90
        0
 91
        1
 62
     0
 92
       -2
340
0
 93
        0
 40
0.045
309
GRIDFORMAT_END
 95
        8
302
GRIDFORMAT
  1
GRIDFORMAT_BEGIN
 90
        0
 91
        1
 62
     0
 92
       -2
340
0
 93
        0
 40
0.045
309
GRIDFORMAT_END
 95
       16
302
GRIDFORMAT
  1
GRIDFORMAT_BEGIN
 90
        0
 91
        1
 62
     0
 92
       -2
340
0
 93
        0
 40
0.045
309
GRIDFORMAT_END
 95
       32
302
GRIDFORMAT
  1
GRIDFORMAT_BEGIN
 90
        0
 91
        1
 62
     0
 92
       -2
340
0
 93
        0
 40
0.045
309
GRIDFORMAT_END
309
TABLEFORMAT_END
  1
CELLSTYLE_BEGIN
 90
        1
 91
        1
300
_TITLE
309
CELLSTYLE_END
300
CELLSTYLE
  1
TABLEFORMAT_BEGIN
 90
        5
170
     1
 91
        0
 92
        0
 62
   257
 93
        1
300
CONTENTFORMAT
  1
CONTENTFORMAT_BEGIN
 90
        0
 91
        0
 92
      512
 93
        0
300

 40
0.0
140
1.0
 94
        5
 62
     0
340
253
144
0.18
309
CONTENTFORMAT_END
171
     1
301
MARGIN
  1
CELLMARGIN_BEGIN
 40
0.06
 40
0.06
 40
0.06
 40
0.06
 40
0.18
 40
0.18
309
CELLMARGIN_END
 94
        6
 95
        1
302
GRIDFORMAT
  1
GRIDFORMAT_BEGIN
 90
        0
 91
        1
 62
     0
 92
       -2
340
0
 93
        0
 40
0.045
309
GRIDFORMAT_END
 95
        2
302
GRIDFORMAT
  1
GRIDFORMAT_BEGIN
 90
        0
 91
        1
 62
     0
 92
       -2
340
0
 93
        0
 40
0.045
309
GRIDFORMAT_END
 95
        4
302
GRIDFORMAT
  1
GRIDFORMAT_BEGIN
 90
        0
 91
        1
 62
     0
 92
       -2
340
0
 93
        0
 40
0.045
309
GRIDFORMAT_END
 95
        8
302
GRIDFORMAT
  1
GRIDFORMAT_BEGIN
 90
        0
 91
        1
 62
     0
 92
       -2
340
0
 93
        0
 40
0.045
309
GRIDFORMAT_END
 95
       16
302
GRIDFORMAT
  1
GRIDFORMAT_BEGIN
 90
        0
 91
        1
 62
     0
 92
       -2
340
0
 93
        0
 40
0.045
309
GRIDFORMAT_END
 95
       32
302
GRIDFORMAT
  1
GRIDFORMAT_BEGIN
 90
        0
 91
        1
 62
     0
 92
       -2
340
0
 93
        0
 40
0.045
309
GRIDFORMAT_END
309
TABLEFORMAT_END
  1
CELLSTYLE_BEGIN
 90
        2
 91
        1
300
_HEADER
309
CELLSTYLE_END
300
CELLSTYLE
  1
TABLEFORMAT_BEGIN
 90
        5
170
     1
 91
        0
 92
        0
 62
   257
 93
        1
300
CONTENTFORMAT
  1
CONTENTFORMAT_BEGIN
 90
        0
 91
        0
 92
      512
 93
        0
300

 40
0.0
140
1.0
 94
        2
 62
     0
340
253
144
0.18
309
CONTENTFORMAT_END
171
     1
301
MARGIN
  1
CELLMARGIN_BEGIN
 40
0.06
 40
0.06
 40
0.06
 40
0.06
 40
0.18
 40
0.18
309
CELLMARGIN_END
 94
        6
 95
        1
302
GRIDFORMAT
  1
GRIDFORMAT_BEGIN
 90
        0
 91
        1
 62
     0
 92
       -2
340
0
 93
        0
 40
0.045
309
GRIDFORMAT_END
 95
        2
302
GRIDFORMAT
  1
GRIDFORMAT_BEGIN
 90
        0
 91
        1
 62
     0
 92
       -2
340
0
 93
        0
 40
0.045
309
GRIDFORMAT_END
 95
        4
302
GRIDFORMAT
  1
GRIDFORMAT_BEGIN
 90
        0
 91
        1
 62
     0
 92
       -2
340
0
 93
        0
 40
0.045
309
GRIDFORMAT_END
 95
        8
302
GRIDFORMAT
  1
GRIDFORMAT_BEGIN
 90
        0
 91
        1
 62
     0
 92
       -2
340
0
 93
        0
 40
0.045
309
GRIDFORMAT_END
 95
       16
302
GRIDFORMAT
  1
GRIDFORMAT_BEGIN
 90
        0
 91
        1
 62
     0
 92
       -2
340
0
 93
        0
 40
0.045
309
GRIDFORMAT_END
 95
       32
302
GRIDFORMAT
  1
GRIDFORMAT_BEGIN
 90
        0
 91
        1
 62
     0
 92
       -2
340
0
 93
        0
 40
0.045
309
GRIDFORMAT_END
309
TABLEFORMAT_END
  1
CELLSTYLE_BEGIN
 90
        3
 91
        2
300
_DATA
309
CELLSTYLE_END
  0
XRECORD
  5
F107AF
102
{ACAD_REACTORS
330
FF8
102
}
330
FF8
100
AcDbXrecord
280
     1
102
ACAD_ROUNDTRIP_PRE2007_TABLESTYLE
 90
      512
 91
        0
  1

 92
      512
 93
        0
  2

 94
      512
 95
        0
  3

  0
XRECORD
  5
F10794
102
{ACAD_REACTORS
330
F10793
102
}
330
F10793
100
AcDbXrecord
280
     1
102
RTVSPropertyOp0
 70
     1
102
RTVSPropertyOp1
 70
     1
102
RTVSPropertyOp2
 70
     1
102
RTVSPropertyOp3
 70
     1
102
RTVSPropertyOp4
 70
     1
102
RTVSPropertyOp5
 70
     1
102
RTVSPropertyOp6
 70
     1
102
RTVSPropertyOp7
 70
     1
102
RTVSPropertyOp8
 70
     1
102
RTVSPropertyOp9
 70
     1
102
RTVSPropertyOp10
 70
     1
102
RTVSPropertyOp11
 70
     1
102
RTVSPropertyOp12
 70
     1
102
RTVSPropertyOp13
 70
     1
102
RTVSPropertyOp14
 70
     1
102
RTVSPropertyOp15
 70
     1
102
RTVSPropertyOp16
 70
     1
102
RTVSPropertyOp17
 70
     1
102
RTVSPropertyOp18
 70
     1
102
RTVSPropertyOp19
 70
     1
102
RTVSPropertyOp20
 70
     1
102
RTVSPropertyOp21
 70
     1
102
RTVSPropertyOp22
 70
     1
102
RTVSPropertyOp23
 70
     1
102
RTVSPropertyOp24
 70
     1
102
RTVSPropertyOp25
 70
     1
102
RTVSPropertyOp26
 70
     1
102
RTVSPropertyOp27
 70
     1
102
RTVSPropertyOp28
 70
     1
102
RTVSPropertyOp29
 70
     1
102
RTVSPropertyOp30
 70
     1
102
RTVSPropertyOp31
 70
     1
102
RTVSPropertyOp32
 70
     1
  0
XRECORD
  5
F10798
102
{ACAD_REACTORS
330
F10797
102
}
330
F10797
100
AcDbXrecord
280
     1
102
RTVSPropertyOp0
 70
     1
102
RTVSPropertyOp1
 70
     1
102
RTVSPropertyOp2
 70
     1
102
RTVSPropertyOp3
 70
     1
102
RTVSPropertyOp4
 70
     1
102
RTVSPropertyOp5
 70
     1
102
RTVSPropertyOp6
 70
     1
102
RTVSPropertyOp7
 70
     1
102
RTVSPropertyOp8
 70
     1
102
RTVSPropertyOp9
 70
     1
102
RTVSPropertyOp10
 70
     1
102
RTVSPropertyOp11
 70
     1
102
RTVSPropertyOp12
 70
     1
102
RTVSPropertyOp13
 70
     1
102
RTVSPropertyOp14
 70
     1
102
RTVSPropertyOp15
 70
     1
102
RTVSPropertyOp16
 70
     1
102
RTVSPropertyOp17
 70
     1
102
RTVSPropertyOp18
 70
     1
102
RTVSPropertyOp19
 70
     1
102
RTVSPropertyOp20
 70
     1
102
RTVSPropertyOp21
 70
     1
102
RTVSPropertyOp22
 70
     1
102
RTVSPropertyOp23
 70
     1
102
RTVSPropertyOp24
 70
     1
102
RTVSPropertyOp25
 70
     1
102
RTVSPropertyOp26
 70
     1
102
RTVSPropertyOp27
 70
     1
102
RTVSPropertyOp28
 70
     1
102
RTVSPropertyOp29
 70
     1
102
RTVSPropertyOp30
 70
     1
102
RTVSPropertyOp31
 70
     1
102
RTVSPropertyOp32
 70
     1
  0
XRECORD
  5
F10796
102
{ACAD_REACTORS
330
F10795
102
}
330
F10795
100
AcDbXrecord
280
     1
102
RTVSPropertyOp0
 70
     1
102
RTVSPropertyOp1
 70
     1
102
RTVSPropertyOp2
 70
     1
102
RTVSPropertyOp3
 70
     1
102
RTVSPropertyOp4
 70
     1
102
RTVSPropertyOp5
 70
     1
102
RTVSPropertyOp6
 70
     1
102
RTVSPropertyOp7
 70
     1
102
RTVSPropertyOp8
 70
     1
102
RTVSPropertyOp9
 70
     1
102
RTVSPropertyOp10
 70
     1
102
RTVSPropertyOp11
 70
     1
102
RTVSPropertyOp12
 70
     1
102
RTVSPropertyOp13
 70
     1
102
RTVSPropertyOp14
 70
     1
102
RTVSPropertyOp15
 70
     1
102
RTVSPropertyOp16
 70
     1
102
RTVSPropertyOp17
 70
     1
102
RTVSPropertyOp18
 70
     1
102
RTVSPropertyOp19
 70
     1
102
RTVSPropertyOp20
 70
     1
102
RTVSPropertyOp21
 70
     1
102
RTVSPropertyOp22
 70
     1
102
RTVSPropertyOp23
 70
     1
102
RTVSPropertyOp24
 70
     1
102
RTVSPropertyOp25
 70
     1
102
RTVSPropertyOp26
 70
     1
102
RTVSPropertyOp27
 70
     1
102
RTVSPropertyOp28
 70
     1
102
RTVSPropertyOp29
 70
     1
102
RTVSPropertyOp30
 70
     1
102
RTVSPropertyOp31
 70
     1
102
RTVSPropertyOp32
 70
     1
  0
XRECORD
  5
F10792
102
{ACAD_REACTORS
330
F10791
102
}
330
F10791
100
AcDbXrecord
280
     1
102
RTVSPropertyOp0
 70
     1
102
RTVSPropertyOp1
 70
     1
102
RTVSPropertyOp2
 70
     1
102
RTVSPropertyOp3
 70
     1
102
RTVSPropertyOp4
 70
     1
102
RTVSPropertyOp5
 70
     1
102
RTVSPropertyOp6
 70
     1
102
RTVSPropertyOp7
 70
     1
102
RTVSPropertyOp8
 70
     1
102
RTVSPropertyOp9
 70
     1
102
RTVSPropertyOp10
 70
     1
102
RTVSPropertyOp11
 70
     1
102
RTVSPropertyOp12
 70
     1
102
RTVSPropertyOp13
 70
     1
102
RTVSPropertyOp14
 70
     1
102
RTVSPropertyOp15
 70
     1
102
RTVSPropertyOp16
 70
     1
102
RTVSPropertyOp17
 70
     1
102
RTVSPropertyOp18
 70
     1
102
RTVSPropertyOp19
 70
     1
102
RTVSPropertyOp20
 70
     1
102
RTVSPropertyOp21
 70
     1
102
RTVSPropertyOp22
 70
     1
102
RTVSPropertyOp23
 70
     1
102
RTVSPropertyOp24
 70
     1
102
RTVSPropertyOp25
 70
     1
102
RTVSPropertyOp26
 70
     1
102
RTVSPropertyOp27
 70
     1
102
RTVSPropertyOp28
 70
     1
102
RTVSPropertyOp29
 70
     1
102
RTVSPropertyOp30
 70
     1
102
RTVSPropertyOp31
 70
     1
102
RTVSPropertyOp32
 70
     1
  0
XRECORD
  5
F107A0
102
{ACAD_REACTORS
330
F1079F
102
}
330
F1079F
100
AcDbXrecord
280
     1
102
RTVSPropertyOp0
 70
     1
102
RTVSPropertyOp1
 70
     1
102
RTVSPropertyOp2
 70
     1
102
RTVSPropertyOp3
 70
     1
102
RTVSPropertyOp4
 70
     1
102
RTVSPropertyOp5
 70
     1
102
RTVSPropertyOp6
 70
     1
102
RTVSPropertyOp7
 70
     1
102
RTVSPropertyOp8
 70
     1
102
RTVSPropertyOp9
 70
     1
102
RTVSPropertyOp10
 70
     1
102
RTVSPropertyOp11
 70
     1
102
RTVSPropertyOp12
 70
     1
102
RTVSPropertyOp13
 70
     1
102
RTVSPropertyOp14
 70
     1
102
RTVSPropertyOp15
 70
     1
102
RTVSPropertyOp16
 70
     1
102
RTVSPropertyOp17
 70
     1
102
RTVSPropertyOp18
 70
     1
102
RTVSPropertyOp19
 70
     1
102
RTVSPropertyOp20
 70
     1
102
RTVSPropertyOp21
 70
     1
102
RTVSPropertyOp22
 70
     1
102
RTVSPropertyOp23
 70
     1
102
RTVSPropertyOp24
 70
     1
102
RTVSPropertyOp25
 70
     1
102
RTVSPropertyOp26
 70
     1
102
RTVSPropertyOp27
 70
     1
102
RTVSPropertyOp28
 70
     1
102
RTVSPropertyOp29
 70
     1
102
RTVSPropertyOp30
 70
     1
102
RTVSPropertyOp31
 70
     1
102
RTVSPropertyOp32
 70
     1
  0
XRECORD
  5
F107A8
102
{ACAD_REACTORS
330
F107A7
102
}
330
F107A7
100
AcDbXrecord
280
     1
102
RTVSPropertyOp0
 70
     1
102
RTVSPropertyOp1
 70
     1
102
RTVSPropertyOp2
 70
     1
102
RTVSPropertyOp3
 70
     1
102
RTVSPropertyOp4
 70
     1
102
RTVSPropertyOp5
 70
     1
102
RTVSPropertyOp6
 70
     1
102
RTVSPropertyOp7
 70
     1
102
RTVSPropertyOp8
 70
     1
102
RTVSPropertyOp9
 70
     1
102
RTVSPropertyOp10
 70
     1
102
RTVSPropertyOp11
 70
     1
102
RTVSPropertyOp12
 70
     1
102
RTVSPropertyOp13
 70
     1
102
RTVSPropertyOp14
 70
     1
102
RTVSPropertyOp15
 70
     1
102
RTVSPropertyOp16
 70
     1
102
RTVSPropertyOp17
 70
     1
102
RTVSPropertyOp18
 70
     1
102
RTVSPropertyOp19
 70
     1
102
RTVSPropertyOp20
 70
     1
102
RTVSPropertyOp21
 70
     1
102
RTVSPropertyOp22
 70
     1
102
RTVSPropertyOp23
 70
     1
102
RTVSPropertyOp24
 70
     1
102
RTVSPropertyOp25
 70
     1
102
RTVSPropertyOp26
 70
     1
102
RTVSPropertyOp27
 70
     1
102
RTVSPropertyOp28
 70
     1
102
RTVSPropertyOp29
 70
     1
102
RTVSPropertyOp30
 70
     1
102
RTVSPropertyOp31
 70
     1
102
RTVSPropertyOp32
 70
     1
  0
XRECORD
  5
F1079A
102
{ACAD_REACTORS
330
F10799
102
}
330
F10799
100
AcDbXrecord
280
     1
102
RTVSPropertyOp0
 70
     1
102
RTVSPropertyOp1
 70
     1
102
RTVSPropertyOp2
 70
     1
102
RTVSPropertyOp3
 70
     1
102
RTVSPropertyOp4
 70
     1
102
RTVSPropertyOp5
 70
     1
102
RTVSPropertyOp6
 70
     1
102
RTVSPropertyOp7
 70
     1
102
RTVSPropertyOp8
 70
     1
102
RTVSPropertyOp9
 70
     1
102
RTVSPropertyOp10
 70
     1
102
RTVSPropertyOp11
 70
     1
102
RTVSPropertyOp12
 70
     1
102
RTVSPropertyOp13
 70
     1
102
RTVSPropertyOp14
 70
     1
102
RTVSPropertyOp15
 70
     1
102
RTVSPropertyOp16
 70
     1
102
RTVSPropertyOp17
 70
     1
102
RTVSPropertyOp18
 70
     1
102
RTVSPropertyOp19
 70
     1
102
RTVSPropertyOp20
 70
     1
102
RTVSPropertyOp21
 70
     1
102
RTVSPropertyOp22
 70
     1
102
RTVSPropertyOp23
 70
     1
102
RTVSPropertyOp24
 70
     1
102
RTVSPropertyOp25
 70
     1
102
RTVSPropertyOp26
 70
     1
102
RTVSPropertyOp27
 70
     1
102
RTVSPropertyOp28
 70
     1
102
RTVSPropertyOp29
 70
     1
102
RTVSPropertyOp30
 70
     1
102
RTVSPropertyOp31
 70
     1
102
RTVSPropertyOp32
 70
     1
  0
XRECORD
  5
F1079E
102
{ACAD_REACTORS
330
F1079D
102
}
330
F1079D
100
AcDbXrecord
280
     1
102
RTVSPropertyOp0
 70
     1
102
RTVSPropertyOp1
 70
     1
102
RTVSPropertyOp2
 70
     1
102
RTVSPropertyOp3
 70
     1
102
RTVSPropertyOp4
 70
     1
102
RTVSPropertyOp5
 70
     1
102
RTVSPropertyOp6
 70
     1
102
RTVSPropertyOp7
 70
     1
102
RTVSPropertyOp8
 70
     1
102
RTVSPropertyOp9
 70
     1
102
RTVSPropertyOp10
 70
     1
102
RTVSPropertyOp11
 70
     1
102
RTVSPropertyOp12
 70
     1
102
RTVSPropertyOp13
 70
     1
102
RTVSPropertyOp14
 70
     1
102
RTVSPropertyOp15
 70
     1
102
RTVSPropertyOp16
 70
     1
102
RTVSPropertyOp17
 70
     1
102
RTVSPropertyOp18
 70
     1
102
RTVSPropertyOp19
 70
     1
102
RTVSPropertyOp20
 70
     1
102
RTVSPropertyOp21
 70
     1
102
RTVSPropertyOp22
 70
     1
102
RTVSPropertyOp23
 70
     1
102
RTVSPropertyOp24
 70
     1
102
RTVSPropertyOp25
 70
     1
102
RTVSPropertyOp26
 70
     1
102
RTVSPropertyOp27
 70
     1
102
RTVSPropertyOp28
 70
     1
102
RTVSPropertyOp29
 70
     1
102
RTVSPropertyOp30
 70
     1
102
RTVSPropertyOp31
 70
     1
102
RTVSPropertyOp32
 70
     1
  0
XRECORD
  5
F107AE
102
{ACAD_REACTORS
330
F107AD
102
}
330
F107AD
100
AcDbXrecord
280
     1
102
RTVSPropertyOp0
 70
     0
102
RTVSPropertyOp1
 70
     0
102
RTVSPropertyOp2
 70
     0
102
RTVSPropertyOp3
 70
     0
102
RTVSPropertyOp4
 70
     0
102
RTVSPropertyOp5
 70
     0
102
RTVSPropertyOp6
 70
     0
102
RTVSPropertyOp7
 70
     0
102
RTVSPropertyOp8
 70
     0
102
RTVSPropertyOp9
 70
     0
102
RTVSPropertyOp10
 70
     0
102
RTVSPropertyOp11
 70
     0
102
RTVSPropertyOp12
 70
     0
102
RTVSPropertyOp13
 70
     0
102
RTVSPropertyOp14
 70
     2
102
RTVSPropertyOp15
 70
     0
102
RTVSPropertyOp16
 70
     0
102
RTVSPropertyOp17
 70
     0
102
RTVSPropertyOp18
 70
     0
102
RTVSPropertyOp19
 70
     0
102
RTVSPropertyOp20
 70
     0
102
RTVSPropertyOp21
 70
     0
102
RTVSPropertyOp22
 70
     0
102
RTVSPropertyOp23
 70
     0
102
RTVSPropertyOp24
 70
     0
102
RTVSPropertyOp25
 70
     0
102
RTVSPropertyOp26
 70
     0
102
RTVSPropertyOp27
 70
     0
102
RTVSPropertyOp28
 70
     1
102
RTVSPropertyOp29
 70
     1
102
RTVSPropertyOp30
 70
     1
102
RTVSPropertyOp31
 70
     1
102
RTVSPropertyOp32
 70
     1
  0
XRECORD
  5
F107A6
102
{ACAD_REACTORS
330
F107A5
102
}
330
F107A5
100
AcDbXrecord
280
     1
102
RTVSPropertyOp0
 70
     1
102
RTVSPropertyOp1
 70
     1
102
RTVSPropertyOp2
 70
     1
102
RTVSPropertyOp3
 70
     1
102
RTVSPropertyOp4
 70
     1
102
RTVSPropertyOp5
 70
     1
102
RTVSPropertyOp6
 70
     1
102
RTVSPropertyOp7
 70
     1
102
RTVSPropertyOp8
 70
     1
102
RTVSPropertyOp9
 70
     1
102
RTVSPropertyOp10
 70
     1
102
RTVSPropertyOp11
 70
     1
102
RTVSPropertyOp12
 70
     1
102
RTVSPropertyOp13
 70
     1
102
RTVSPropertyOp14
 70
     1
102
RTVSPropertyOp15
 70
     1
102
RTVSPropertyOp16
 70
     1
102
RTVSPropertyOp17
 70
     1
102
RTVSPropertyOp18
 70
     1
102
RTVSPropertyOp19
 70
     1
102
RTVSPropertyOp20
 70
     1
102
RTVSPropertyOp21
 70
     1
102
RTVSPropertyOp22
 70
     1
102
RTVSPropertyOp23
 70
     1
102
RTVSPropertyOp24
 70
     1
102
RTVSPropertyOp25
 70
     1
102
RTVSPropertyOp26
 70
     1
102
RTVSPropertyOp27
 70
     1
102
RTVSPropertyOp28
 70
     1
102
RTVSPropertyOp29
 70
     1
102
RTVSPropertyOp30
 70
     1
102
RTVSPropertyOp31
 70
     1
102
RTVSPropertyOp32
 70
     1
  0
XRECORD
  5
F1078A
102
{ACAD_REACTORS
330
F10789
102
}
330
F10789
100
AcDbXrecord
280
     1
102
RTVSPropertyOp0
 70
     1
102
RTVSPropertyOp1
 70
     1
102
RTVSPropertyOp2
 70
     1
102
RTVSPropertyOp3
 70
     1
102
RTVSPropertyOp4
 70
     1
102
RTVSPropertyOp5
 70
     1
102
RTVSPropertyOp6
 70
     1
102
RTVSPropertyOp7
 70
     1
102
RTVSPropertyOp8
 70
     1
102
RTVSPropertyOp9
 70
     1
102
RTVSPropertyOp10
 70
     1
102
RTVSPropertyOp11
 70
     1
102
RTVSPropertyOp12
 70
     1
102
RTVSPropertyOp13
 70
     1
102
RTVSPropertyOp14
 70
     1
102
RTVSPropertyOp15
 70
     1
102
RTVSPropertyOp16
 70
     1
102
RTVSPropertyOp17
 70
     1
102
RTVSPropertyOp18
 70
     1
102
RTVSPropertyOp19
 70
     1
102
RTVSPropertyOp20
 70
     1
102
RTVSPropertyOp21
 70
     1
102
RTVSPropertyOp22
 70
     1
102
RTVSPropertyOp23
 70
     1
102
RTVSPropertyOp24
 70
     1
102
RTVSPropertyOp25
 70
     1
102
RTVSPropertyOp26
 70
     1
102
RTVSPropertyOp27
 70
     1
102
RTVSPropertyOp28
 70
     1
102
RTVSPropertyOp29
 70
     1
102
RTVSPropertyOp30
 70
     1
102
RTVSPropertyOp31
 70
     1
102
RTVSPropertyOp32
 70
     1
  0
XRECORD
  5
F1078C
102
{ACAD_REACTORS
330
F1078B
102
}
330
F1078B
100
AcDbXrecord
280
     1
102
RTVSPropertyOp0
 70
     1
102
RTVSPropertyOp1
 70
     1
102
RTVSPropertyOp2
 70
     1
102
RTVSPropertyOp3
 70
     1
102
RTVSPropertyOp4
 70
     1
102
RTVSPropertyOp5
 70
     1
102
RTVSPropertyOp6
 70
     1
102
RTVSPropertyOp7
 70
     1
102
RTVSPropertyOp8
 70
     1
102
RTVSPropertyOp9
 70
     1
102
RTVSPropertyOp10
 70
     1
102
RTVSPropertyOp11
 70
     1
102
RTVSPropertyOp12
 70
     1
102
RTVSPropertyOp13
 70
     1
102
RTVSPropertyOp14
 70
     1
102
RTVSPropertyOp15
 70
     1
102
RTVSPropertyOp16
 70
     1
102
RTVSPropertyOp17
 70
     1
102
RTVSPropertyOp18
 70
     1
102
RTVSPropertyOp19
 70
     1
102
RTVSPropertyOp20
 70
     1
102
RTVSPropertyOp21
 70
     1
102
RTVSPropertyOp22
 70
     1
102
RTVSPropertyOp23
 70
     1
102
RTVSPropertyOp24
 70
     1
102
RTVSPropertyOp25
 70
     1
102
RTVSPropertyOp26
 70
     1
102
RTVSPropertyOp27
 70
     1
102
RTVSPropertyOp28
 70
     1
102
RTVSPropertyOp29
 70
     1
102
RTVSPropertyOp30
 70
     1
102
RTVSPropertyOp31
 70
     1
102
RTVSPropertyOp32
 70
     1
  0
XRECORD
  5
F1078E
102
{ACAD_REACTORS
330
F1078D
102
}
330
F1078D
100
AcDbXrecord
280
     1
102
RTVSPropertyOp0
 70
     1
102
RTVSPropertyOp1
 70
     1
102
RTVSPropertyOp2
 70
     1
102
RTVSPropertyOp3
 70
     1
102
RTVSPropertyOp4
 70
     1
102
RTVSPropertyOp5
 70
     1
102
RTVSPropertyOp6
 70
     1
102
RTVSPropertyOp7
 70
     1
102
RTVSPropertyOp8
 70
     1
102
RTVSPropertyOp9
 70
     1
102
RTVSPropertyOp10
 70
     1
102
RTVSPropertyOp11
 70
     1
102
RTVSPropertyOp12
 70
     1
102
RTVSPropertyOp13
 70
     1
102
RTVSPropertyOp14
 70
     1
102
RTVSPropertyOp15
 70
     1
102
RTVSPropertyOp16
 70
     1
102
RTVSPropertyOp17
 70
     1
102
RTVSPropertyOp18
 70
     1
102
RTVSPropertyOp19
 70
     1
102
RTVSPropertyOp20
 70
     1
102
RTVSPropertyOp21
 70
     1
102
RTVSPropertyOp22
 70
     1
102
RTVSPropertyOp23
 70
     1
102
RTVSPropertyOp24
 70
     1
102
RTVSPropertyOp25
 70
     1
102
RTVSPropertyOp26
 70
     1
102
RTVSPropertyOp27
 70
     1
102
RTVSPropertyOp28
 70
     1
102
RTVSPropertyOp29
 70
     1
102
RTVSPropertyOp30
 70
     1
102
RTVSPropertyOp31
 70
     1
102
RTVSPropertyOp32
 70
     1
  0
XRECORD
  5
F10790
102
{ACAD_REACTORS
330
F1078F
102
}
330
F1078F
100
AcDbXrecord
280
     1
102
RTVSPropertyOp0
 70
     1
102
RTVSPropertyOp1
 70
     1
102
RTVSPropertyOp2
 70
     1
102
RTVSPropertyOp3
 70
     1
102
RTVSPropertyOp4
 70
     1
102
RTVSPropertyOp5
 70
     1
102
RTVSPropertyOp6
 70
     1
102
RTVSPropertyOp7
 70
     1
102
RTVSPropertyOp8
 70
     1
102
RTVSPropertyOp9
 70
     1
102
RTVSPropertyOp10
 70
     1
102
RTVSPropertyOp11
 70
     1
102
RTVSPropertyOp12
 70
     1
102
RTVSPropertyOp13
 70
     1
102
RTVSPropertyOp14
 70
     1
102
RTVSPropertyOp15
 70
     1
102
RTVSPropertyOp16
 70
     1
102
RTVSPropertyOp17
 70
     1
102
RTVSPropertyOp18
 70
     1
102
RTVSPropertyOp19
 70
     1
102
RTVSPropertyOp20
 70
     1
102
RTVSPropertyOp21
 70
     1
102
RTVSPropertyOp22
 70
     1
102
RTVSPropertyOp23
 70
     1
102
RTVSPropertyOp24
 70
     1
102
RTVSPropertyOp25
 70
     1
102
RTVSPropertyOp26
 70
     1
102
RTVSPropertyOp27
 70
     1
102
RTVSPropertyOp28
 70
     1
102
RTVSPropertyOp29
 70
     1
102
RTVSPropertyOp30
 70
     1
102
RTVSPropertyOp31
 70
     1
102
RTVSPropertyOp32
 70
     1
  0
XRECORD
  5
F107B7
102
{ACAD_REACTORS
330
F107B6
102
}
330
F107B6
100
AcDbXrecord
280
     1
102
RTVSPropertyOp0
 70
     1
102
RTVSPropertyOp1
 70
     1
102
RTVSPropertyOp2
 70
     1
102
RTVSPropertyOp3
 70
     1
102
RTVSPropertyOp4
 70
     1
102
RTVSPropertyOp5
 70
     1
102
RTVSPropertyOp6
 70
     1
102
RTVSPropertyOp7
 70
     1
102
RTVSPropertyOp8
 70
     1
102
RTVSPropertyOp9
 70
     1
102
RTVSPropertyOp10
 70
     1
102
RTVSPropertyOp11
 70
     1
102
RTVSPropertyOp12
 70
     1
102
RTVSPropertyOp13
 70
     1
102
RTVSPropertyOp14
 70
     1
102
RTVSPropertyOp15
 70
     1
102
RTVSPropertyOp16
 70
     1
102
RTVSPropertyOp17
 70
     1
102
RTVSPropertyOp18
 70
     1
102
RTVSPropertyOp19
 70
     1
102
RTVSPropertyOp20
 70
     1
102
RTVSPropertyOp21
 70
     1
102
RTVSPropertyOp22
 70
     1
102
RTVSPropertyOp23
 70
     1
102
RTVSPropertyOp24
 70
     1
102
RTVSPropertyOp25
 70
     1
102
RTVSPropertyOp26
 70
     1
102
RTVSPropertyOp27
 70
     1
102
RTVSPropertyOp28
 70
     1
102
RTVSPropertyOp29
 70
     1
102
RTVSPropertyOp30
 70
     1
102
RTVSPropertyOp31
 70
     1
102
RTVSPropertyOp32
 70
     1
  0
XRECORD
  5
F107AA
102
{ACAD_REACTORS
330
F107A9
102
}
330
F107A9
100
AcDbXrecord
280
     1
102
RTVSPropertyOp0
 70
     0
102
RTVSPropertyOp1
 70
     0
102
RTVSPropertyOp2
 70
     0
102
RTVSPropertyOp3
 70
     0
102
RTVSPropertyOp4
 70
     0
102
RTVSPropertyOp5
 70
     0
102
RTVSPropertyOp6
 70
     0
102
RTVSPropertyOp7
 70
     0
102
RTVSPropertyOp8
 70
     0
102
RTVSPropertyOp9
 70
     0
102
RTVSPropertyOp10
 70
     0
102
RTVSPropertyOp11
 70
     0
102
RTVSPropertyOp12
 70
     0
102
RTVSPropertyOp13
 70
     0
102
RTVSPropertyOp14
 70
     2
102
RTVSPropertyOp15
 70
     0
102
RTVSPropertyOp16
 70
     0
102
RTVSPropertyOp17
 70
     0
102
RTVSPropertyOp18
 70
     0
102
RTVSPropertyOp19
 70
     0
102
RTVSPropertyOp20
 70
     0
102
RTVSPropertyOp21
 70
     0
102
RTVSPropertyOp22
 70
     0
102
RTVSPropertyOp23
 70
     0
102
RTVSPropertyOp24
 70
     0
102
RTVSPropertyOp25
 70
     0
102
RTVSPropertyOp26
 70
     0
102
RTVSPropertyOp27
 70
     0
102
RTVSPropertyOp28
 70
     1
102
RTVSPropertyOp29
 70
     1
102
RTVSPropertyOp30
 70
     1
102
RTVSPropertyOp31
 70
     1
102
RTVSPropertyOp32
 70
     1
  0
XRECORD
  5
F107A4
102
{ACAD_REACTORS
330
F107A3
102
}
330
F107A3
100
AcDbXrecord
280
     1
102
RTVSPropertyOp0
 70
     1
102
RTVSPropertyOp1
 70
     1
102
RTVSPropertyOp2
 70
     1
102
RTVSPropertyOp3
 70
     1
102
RTVSPropertyOp4
 70
     1
102
RTVSPropertyOp5
 70
     1
102
RTVSPropertyOp6
 70
     1
102
RTVSPropertyOp7
 70
     1
102
RTVSPropertyOp8
 70
     1
102
RTVSPropertyOp9
 70
     1
102
RTVSPropertyOp10
 70
     1
102
RTVSPropertyOp11
 70
     1
102
RTVSPropertyOp12
 70
     1
102
RTVSPropertyOp13
 70
     1
102
RTVSPropertyOp14
 70
     1
102
RTVSPropertyOp15
 70
     1
102
RTVSPropertyOp16
 70
     1
102
RTVSPropertyOp17
 70
     1
102
RTVSPropertyOp18
 70
     1
102
RTVSPropertyOp19
 70
     1
102
RTVSPropertyOp20
 70
     1
102
RTVSPropertyOp21
 70
     1
102
RTVSPropertyOp22
 70
     1
102
RTVSPropertyOp23
 70
     1
102
RTVSPropertyOp24
 70
     1
102
RTVSPropertyOp25
 70
     1
102
RTVSPropertyOp26
 70
     1
102
RTVSPropertyOp27
 70
     1
102
RTVSPropertyOp28
 70
     1
102
RTVSPropertyOp29
 70
     1
102
RTVSPropertyOp30
 70
     1
102
RTVSPropertyOp31
 70
     1
102
RTVSPropertyOp32
 70
     1
  0
XRECORD
  5
F107AC
102
{ACAD_REACTORS
330
F107AB
102
}
330
F107AB
100
AcDbXrecord
280
     1
102
RTVSPropertyOp0
 70
     0
102
RTVSPropertyOp1
 70
     0
102
RTVSPropertyOp2
 70
     0
102
RTVSPropertyOp3
 70
     0
102
RTVSPropertyOp4
 70
     0
102
RTVSPropertyOp5
 70
     0
102
RTVSPropertyOp6
 70
     0
102
RTVSPropertyOp7
 70
     0
102
RTVSPropertyOp8
 70
     0
102
RTVSPropertyOp9
 70
     0
102
RTVSPropertyOp10
 70
     0
102
RTVSPropertyOp11
 70
     0
102
RTVSPropertyOp12
 70
     0
102
RTVSPropertyOp13
 70
     0
102
RTVSPropertyOp14
 70
     2
102
RTVSPropertyOp15
 70
     0
102
RTVSPropertyOp16
 70
     0
102
RTVSPropertyOp17
 70
     0
102
RTVSPropertyOp18
 70
     0
102
RTVSPropertyOp19
 70
     0
102
RTVSPropertyOp20
 70
     0
102
RTVSPropertyOp21
 70
     0
102
RTVSPropertyOp22
 70
     0
102
RTVSPropertyOp23
 70
     0
102
RTVSPropertyOp24
 70
     0
102
RTVSPropertyOp25
 70
     0
102
RTVSPropertyOp26
 70
     0
102
RTVSPropertyOp27
 70
     0
102
RTVSPropertyOp28
 70
     1
102
RTVSPropertyOp29
 70
     1
102
RTVSPropertyOp30
 70
     1
102
RTVSPropertyOp31
 70
     1
102
RTVSPropertyOp32
 70
     1
  0
XRECORD
  5
F1079C
102
{ACAD_REACTORS
330
F1079B
102
}
330
F1079B
100
AcDbXrecord
280
     1
102
RTVSPropertyOp0
 70
     1
102
RTVSPropertyOp1
 70
     1
102
RTVSPropertyOp2
 70
     1
102
RTVSPropertyOp3
 70
     1
102
RTVSPropertyOp4
 70
     1
102
RTVSPropertyOp5
 70
     1
102
RTVSPropertyOp6
 70
     1
102
RTVSPropertyOp7
 70
     1
102
RTVSPropertyOp8
 70
     1
102
RTVSPropertyOp9
 70
     1
102
RTVSPropertyOp10
 70
     1
102
RTVSPropertyOp11
 70
     1
102
RTVSPropertyOp12
 70
     1
102
RTVSPropertyOp13
 70
     1
102
RTVSPropertyOp14
 70
     1
102
RTVSPropertyOp15
 70
     1
102
RTVSPropertyOp16
 70
     1
102
RTVSPropertyOp17
 70
     1
102
RTVSPropertyOp18
 70
     1
102
RTVSPropertyOp19
 70
     1
102
RTVSPropertyOp20
 70
     1
102
RTVSPropertyOp21
 70
     1
102
RTVSPropertyOp22
 70
     1
102
RTVSPropertyOp23
 70
     1
102
RTVSPropertyOp24
 70
     1
102
RTVSPropertyOp25
 70
     1
102
RTVSPropertyOp26
 70
     1
102
RTVSPropertyOp27
 70
     1
102
RTVSPropertyOp28
 70
     1
102
RTVSPropertyOp29
 70
     1
102
RTVSPropertyOp30
 70
     1
102
RTVSPropertyOp31
 70
     1
102
RTVSPropertyOp32
 70
     1
  0
XRECORD
  5
F107C1
102
{ACAD_REACTORS
330
F107C0
102
}
330
F107C0
100
AcDbXrecord
280
     1
102
RTVSPropertyOp0
 70
     1
102
RTVSPropertyOp1
 70
     1
102
RTVSPropertyOp2
 70
     1
102
RTVSPropertyOp3
 70
     1
102
RTVSPropertyOp4
 70
     1
102
RTVSPropertyOp5
 70
     1
102
RTVSPropertyOp6
 70
     1
102
RTVSPropertyOp7
 70
     1
102
RTVSPropertyOp8
 70
     1
102
RTVSPropertyOp9
 70
     1
102
RTVSPropertyOp10
 70
     1
102
RTVSPropertyOp11
 70
     1
102
RTVSPropertyOp12
 70
     1
102
RTVSPropertyOp13
 70
     1
102
RTVSPropertyOp14
 70
     1
102
RTVSPropertyOp15
 70
     1
102
RTVSPropertyOp16
 70
     1
102
RTVSPropertyOp17
 70
     1
102
RTVSPropertyOp18
 70
     1
102
RTVSPropertyOp19
 70
     1
102
RTVSPropertyOp20
 70
     1
102
RTVSPropertyOp21
 70
     1
102
RTVSPropertyOp22
 70
     1
102
RTVSPropertyOp23
 70
     1
102
RTVSPropertyOp24
 70
     1
102
RTVSPropertyOp25
 70
     1
102
RTVSPropertyOp26
 70
     1
102
RTVSPropertyOp27
 70
     1
102
RTVSPropertyOp28
 70
     1
102
RTVSPropertyOp29
 70
     1
102
RTVSPropertyOp30
 70
     1
102
RTVSPropertyOp31
 70
     1
102
RTVSPropertyOp32
 70
     1
  0
XRECORD
  5
F107BF
102
{ACAD_REACTORS
330
F107BE
102
}
330
F107BE
100
AcDbXrecord
280
     1
102
RTVSPropertyOp0
 70
     1
102
RTVSPropertyOp1
 70
     1
102
RTVSPropertyOp2
 70
     1
102
RTVSPropertyOp3
 70
     1
102
RTVSPropertyOp4
 70
     1
102
RTVSPropertyOp5
 70
     1
102
RTVSPropertyOp6
 70
     1
102
RTVSPropertyOp7
 70
     1
102
RTVSPropertyOp8
 70
     1
102
RTVSPropertyOp9
 70
     1
102
RTVSPropertyOp10
 70
     1
102
RTVSPropertyOp11
 70
     1
102
RTVSPropertyOp12
 70
     1
102
RTVSPropertyOp13
 70
     1
102
RTVSPropertyOp14
 70
     1
102
RTVSPropertyOp15
 70
     1
102
RTVSPropertyOp16
 70
     1
102
RTVSPropertyOp17
 70
     1
102
RTVSPropertyOp18
 70
     1
102
RTVSPropertyOp19
 70
     1
102
RTVSPropertyOp20
 70
     1
102
RTVSPropertyOp21
 70
     1
102
RTVSPropertyOp22
 70
     1
102
RTVSPropertyOp23
 70
     1
102
RTVSPropertyOp24
 70
     1
102
RTVSPropertyOp25
 70
     1
102
RTVSPropertyOp26
 70
     1
102
RTVSPropertyOp27
 70
     1
102
RTVSPropertyOp28
 70
     1
102
RTVSPropertyOp29
 70
     1
102
RTVSPropertyOp30
 70
     1
102
RTVSPropertyOp31
 70
     1
102
RTVSPropertyOp32
 70
     1
  0
XRECORD
  5
F107B9
102
{ACAD_REACTORS
330
F107B8
102
}
330
F107B8
100
AcDbXrecord
280
     1
102
RTVSPropertyOp0
 70
     1
102
RTVSPropertyOp1
 70
     1
102
RTVSPropertyOp2
 70
     1
102
RTVSPropertyOp3
 70
     1
102
RTVSPropertyOp4
 70
     1
102
RTVSPropertyOp5
 70
     1
102
RTVSPropertyOp6
 70
     1
102
RTVSPropertyOp7
 70
     1
102
RTVSPropertyOp8
 70
     1
102
RTVSPropertyOp9
 70
     1
102
RTVSPropertyOp10
 70
     1
102
RTVSPropertyOp11
 70
     1
102
RTVSPropertyOp12
 70
     1
102
RTVSPropertyOp13
 70
     1
102
RTVSPropertyOp14
 70
     1
102
RTVSPropertyOp15
 70
     1
102
RTVSPropertyOp16
 70
     1
102
RTVSPropertyOp17
 70
     1
102
RTVSPropertyOp18
 70
     1
102
RTVSPropertyOp19
 70
     1
102
RTVSPropertyOp20
 70
     1
102
RTVSPropertyOp21
 70
     1
102
RTVSPropertyOp22
 70
     1
102
RTVSPropertyOp23
 70
     1
102
RTVSPropertyOp24
 70
     1
102
RTVSPropertyOp25
 70
     1
102
RTVSPropertyOp26
 70
     1
102
RTVSPropertyOp27
 70
     1
102
RTVSPropertyOp28
 70
     1
102
RTVSPropertyOp29
 70
     1
102
RTVSPropertyOp30
 70
     1
102
RTVSPropertyOp31
 70
     1
102
RTVSPropertyOp32
 70
     1
  0
XRECORD
  5
F107BB
102
{ACAD_REACTORS
330
F107BA
102
}
330
F107BA
100
AcDbXrecord
280
     1
102
RTVSPropertyOp0
 70
     1
102
RTVSPropertyOp1
 70
     1
102
RTVSPropertyOp2
 70
     1
102
RTVSPropertyOp3
 70
     1
102
RTVSPropertyOp4
 70
     1
102
RTVSPropertyOp5
 70
     1
102
RTVSPropertyOp6
 70
     1
102
RTVSPropertyOp7
 70
     1
102
RTVSPropertyOp8
 70
     1
102
RTVSPropertyOp9
 70
     1
102
RTVSPropertyOp10
 70
     1
102
RTVSPropertyOp11
 70
     1
102
RTVSPropertyOp12
 70
     1
102
RTVSPropertyOp13
 70
     1
102
RTVSPropertyOp14
 70
     1
102
RTVSPropertyOp15
 70
     1
102
RTVSPropertyOp16
 70
     1
102
RTVSPropertyOp17
 70
     1
102
RTVSPropertyOp18
 70
     1
102
RTVSPropertyOp19
 70
     1
102
RTVSPropertyOp20
 70
     1
102
RTVSPropertyOp21
 70
     1
102
RTVSPropertyOp22
 70
     1
102
RTVSPropertyOp23
 70
     1
102
RTVSPropertyOp24
 70
     1
102
RTVSPropertyOp25
 70
     1
102
RTVSPropertyOp26
 70
     1
102
RTVSPropertyOp27
 70
     1
102
RTVSPropertyOp28
 70
     1
102
RTVSPropertyOp29
 70
     1
102
RTVSPropertyOp30
 70
     1
102
RTVSPropertyOp31
 70
     1
102
RTVSPropertyOp32
 70
     1
  0
XRECORD
  5
F107A2
102
{ACAD_REACTORS
330
F107A1
102
}
330
F107A1
100
AcDbXrecord
280
     1
102
RTVSPropertyOp0
 70
     1
102
RTVSPropertyOp1
 70
     1
102
RTVSPropertyOp2
 70
     1
102
RTVSPropertyOp3
 70
     1
102
RTVSPropertyOp4
 70
     1
102
RTVSPropertyOp5
 70
     1
102
RTVSPropertyOp6
 70
     1
102
RTVSPropertyOp7
 70
     1
102
RTVSPropertyOp8
 70
     1
102
RTVSPropertyOp9
 70
     1
102
RTVSPropertyOp10
 70
     1
102
RTVSPropertyOp11
 70
     1
102
RTVSPropertyOp12
 70
     1
102
RTVSPropertyOp13
 70
     1
102
RTVSPropertyOp14
 70
     1
102
RTVSPropertyOp15
 70
     1
102
RTVSPropertyOp16
 70
     1
102
RTVSPropertyOp17
 70
     1
102
RTVSPropertyOp18
 70
     1
102
RTVSPropertyOp19
 70
     1
102
RTVSPropertyOp20
 70
     1
102
RTVSPropertyOp21
 70
     1
102
RTVSPropertyOp22
 70
     1
102
RTVSPropertyOp23
 70
     1
102
RTVSPropertyOp24
 70
     1
102
RTVSPropertyOp25
 70
     1
102
RTVSPropertyOp26
 70
     1
102
RTVSPropertyOp27
 70
     1
102
RTVSPropertyOp28
 70
     1
102
RTVSPropertyOp29
 70
     1
102
RTVSPropertyOp30
 70
     1
102
RTVSPropertyOp31
 70
     1
102
RTVSPropertyOp32
 70
     1
  0
XRECORD
  5
F107B5
102
{ACAD_REACTORS
330
F107B4
102
}
330
F107B4
100
AcDbXrecord
280
     1
102
RTVSPropertyOp0
 70
     1
102
RTVSPropertyOp1
 70
     1
102
RTVSPropertyOp2
 70
     1
102
RTVSPropertyOp3
 70
     1
102
RTVSPropertyOp4
 70
     1
102
RTVSPropertyOp5
 70
     1
102
RTVSPropertyOp6
 70
     1
102
RTVSPropertyOp7
 70
     1
102
RTVSPropertyOp8
 70
     1
102
RTVSPropertyOp9
 70
     1
102
RTVSPropertyOp10
 70
     1
102
RTVSPropertyOp11
 70
     1
102
RTVSPropertyOp12
 70
     1
102
RTVSPropertyOp13
 70
     1
102
RTVSPropertyOp14
 70
     1
102
RTVSPropertyOp15
 70
     1
102
RTVSPropertyOp16
 70
     1
102
RTVSPropertyOp17
 70
     1
102
RTVSPropertyOp18
 70
     1
102
RTVSPropertyOp19
 70
     1
102
RTVSPropertyOp20
 70
     1
102
RTVSPropertyOp21
 70
     1
102
RTVSPropertyOp22
 70
     1
102
RTVSPropertyOp23
 70
     1
102
RTVSPropertyOp24
 70
     1
102
RTVSPropertyOp25
 70
     1
102
RTVSPropertyOp26
 70
     1
102
RTVSPropertyOp27
 70
     1
102
RTVSPropertyOp28
 70
     1
102
RTVSPropertyOp29
 70
     1
102
RTVSPropertyOp30
 70
     1
102
RTVSPropertyOp31
 70
     1
102
RTVSPropertyOp32
 70
     1
  0
XRECORD
  5
F107BD
102
{ACAD_REACTORS
330
F107BC
102
}
330
F107BC
100
AcDbXrecord
280
     1
102
RTVSPropertyOp0
 70
     1
102
RTVSPropertyOp1
 70
     1
102
RTVSPropertyOp2
 70
     1
102
RTVSPropertyOp3
 70
     1
102
RTVSPropertyOp4
 70
     1
102
RTVSPropertyOp5
 70
     1
102
RTVSPropertyOp6
 70
     1
102
RTVSPropertyOp7
 70
     1
102
RTVSPropertyOp8
 70
     1
102
RTVSPropertyOp9
 70
     1
102
RTVSPropertyOp10
 70
     1
102
RTVSPropertyOp11
 70
     1
102
RTVSPropertyOp12
 70
     1
102
RTVSPropertyOp13
 70
     1
102
RTVSPropertyOp14
 70
     1
102
RTVSPropertyOp15
 70
     1
102
RTVSPropertyOp16
 70
     1
102
RTVSPropertyOp17
 70
     1
102
RTVSPropertyOp18
 70
     1
102
RTVSPropertyOp19
 70
     1
102
RTVSPropertyOp20
 70
     1
102
RTVSPropertyOp21
 70
     1
102
RTVSPropertyOp22
 70
     1
102
RTVSPropertyOp23
 70
     1
102
RTVSPropertyOp24
 70
     1
102
RTVSPropertyOp25
 70
     1
102
RTVSPropertyOp26
 70
     1
102
RTVSPropertyOp27
 70
     1
102
RTVSPropertyOp28
 70
     1
102
RTVSPropertyOp29
 70
     1
102
RTVSPropertyOp30
 70
     1
102
RTVSPropertyOp31
 70
     1
102
RTVSPropertyOp32
 70
     1
  0
ENDSEC
  0
EOF
