  0
SECTION
  2
HEADER
  9
$ACADVER
  1
AC1015
  9
$ACADMAINTVER
 70
    20
  9
$DWGCODEPAGE
  3
ANSI_1252
  9
$INSBASE
 10
0.0
 20
0.0
 30
0.0
  9
$EXTMIN
 10
-134.650259067358
 20
-100.103626943005
 30
0.0
  9
$EXTMAX
 10
143.354922279793
 20
99.8316062176166
 30
0.0
  9
$LIMMIN
 10
0.0
 20
0.0
  9
$LIMMAX
 10
12.0
 20
9.0
  9
$ORTHOMODE
 70
     0
  9
$REGENMODE
 70
     1
  9
$FILLMODE
 70
     1
  9
$QTEXTMODE
 70
     0
  9
$MIRRTEXT
 70
     1
  9
$LTSCALE
 40
1.0
  9
$ATTMODE
 70
     1
  9
$TEXTSIZE
 40
0.2
  9
$TRACEWID
 40
0.05
  9
$TEXTSTYLE
  7
Standard
  9
$CLAYER
  8
0
  9
$CELTYPE
  6
ByLayer
  9
$CECOLOR
 62
   256
  9
$CELTSCALE
 40
1.0
  9
$DISPSILH
 70
     0
  9
$DIMSCALE
 40
1.0
  9
$DIMASZ
 40
2.5
  9
$DIMEXO
 40
0.625
  9
$DIMDLI
 40
0.38
  9
$DIMRND
 40
0.0
  9
$DIMDLE
 40
0.0
  9
$DIMEXE
 40
1.25
  9
$DIMTP
 40
0.0
  9
$DIMTM
 40
0.000000001
  9
$DIMTXT
 40
2.5
  9
$DIMCEN
 40
0.09
  9
$DIMTSZ
 40
0.0
  9
$DIMTOL
 70
     1
  9
$DIMLIM
 70
     0
  9
$DIMTIH
 70
     0
  9
$DIMTOH
 70
     0
  9
$DIMSE1
 70
     0
  9
$DIMSE2
 70
     0
  9
$DIMTAD
 70
     1
  9
$DIMZIN
 70
     0
  9
$DIMBLK
  1
VDDIM_DEFAULT
  9
$DIMASO
 70
     1
  9
$DIMSHO
 70
     1
  9
$DIMPOST
  1

  9
$DIMAPOST
  1

  9
$DIMALT
 70
     0
  9
$DIMALTD
 70
     2
  9
$DIMALTF
 40
25.4
  9
$DIMLFAC
 40
1.0
  9
$DIMTOFL
 70
     0
  9
$DIMTVP
 40
0.0
  9
$DIMTIX
 70
     0
  9
$DIMSOXD
 70
     0
  9
$DIMSAH
 70
     0
  9
$DIMBLK1
  1

  9
$DIMBLK2
  1

  9
$DIMSTYLE
  2
BEM-ISBE
  9
$DIMCLRD
 70
     0
  9
$DIMCLRE
 70
     0
  9
$DIMCLRT
 70
     0
  9
$DIMTFAC
 40
0.5
  9
$DIMGAP
 40
0.625
  9
$DIMJUST
 70
     0
  9
$DIMSD1
 70
     0
  9
$DIMSD2
 70
     0
  9
$DIMTOLJ
 70
     1
  9
$DIMTZIN
 70
     0
  9
$DIMALTZ
 70
     0
  9
$DIMALTTZ
 70
     0
  9
$DIMUPT
 70
     0
  9
$DIMDEC
 70
     3
  9
$DIMTDEC
 70
     3
  9
$DIMALTU
 70
     2
  9
$DIMALTTD
 70
     2
  9
$DIMTXSTY
  7
Standard
  9
$DIMAUNIT
 70
     0
  9
$DIMADEC
 70
     3
  9
$DIMALTRND
 40
0.0
  9
$DIMAZIN
 70
     0
  9
$DIMDSEP
 70
    46
  9
$DIMATFIT
 70
     3
  9
$DIMFRAC
 70
     0
  9
$DIMLDRBLK
  1

  9
$DIMLUNIT
 70
     2
  9
$DIMLWD
 70
    -2
  9
$DIMLWE
 70
    -2
  9
$DIMTMOVE
 70
     0
  9
$LUNITS
 70
     2
  9
$LUPREC
 70
     4
  9
$SKETCHINC
 40
0.1
  9
$FILLETRAD
 40
0.0
  9
$AUNITS
 70
     0
  9
$AUPREC
 70
     0
  9
$MENU
  1
.
  9
$ELEVATION
 40
0.0
  9
$PELEVATION
 40
0.0
  9
$THICKNESS
 40
0.0
  9
$LIMCHECK
 70
     0
  9
$CHAMFERA
 40
0.5
  9
$CHAMFERB
 40
0.5
  9
$CHAMFERC
 40
1.0
  9
$CHAMFERD
 40
0.0
  9
$SKPOLY
 70
     0
  9
$TDCREATE
 40
2457010.644155209
  9
$TDUCREATE
 40
2457010.602488542
  9
$TDUPDATE
 40
2457011.401155266
  9
$TDUUPDATE
 40
2457011.359488600
  9
$TDINDWG
 40
0.0102440625
  9
$TDUSRTIMER
 40
0.0102439468
  9
$USRTIMER
 70
     1
  9
$ANGBASE
 50
0.0
  9
$ANGDIR
 70
     0
  9
$PDMODE
 70
     0
  9
$PDSIZE
 40
0.0
  9
$PLINEWID
 40
0.0
  9
$SPLFRAME
 70
     0
  9
$SPLINETYPE
 70
     6
  9
$SPLINESEGS
 70
     8
  9
$HANDSEED
  5
F10EAC
  9
$SURFTAB1
 70
     6
  9
$SURFTAB2
 70
     6
  9
$SURFTYPE
 70
     6
  9
$SURFU
 70
     6
  9
$SURFV
 70
     6
  9
$UCSBASE
  2

  9
$UCSNAME
  2

  9
$UCSORG
 10
6.767874520608102
 20
11.42409738263899
 30
0.0
  9
$UCSXDIR
 10
1.0
 20
0.0
 30
0.0
  9
$UCSYDIR
 10
0.0
 20
1.0
 30
0.0
  9
$UCSORTHOREF
  2

  9
$UCSORTHOVIEW
 70
     0
  9
$UCSORGTOP
 10
0.0
 20
0.0
 30
0.0
  9
$UCSORGBOTTOM
 10
0.0
 20
0.0
 30
0.0
  9
$UCSORGLEFT
 10
0.0
 20
0.0
 30
0.0
  9
$UCSORGRIGHT
 10
0.0
 20
0.0
 30
0.0
  9
$UCSORGFRONT
 10
0.0
 20
0.0
 30
0.0
  9
$UCSORGBACK
 10
0.0
 20
0.0
 30
0.0
  9
$PUCSBASE
  2

  9
$PUCSNAME
  2

  9
$PUCSORG
 10
0.0
 20
0.0
 30
0.0
  9
$PUCSXDIR
 10
1.0
 20
0.0
 30
0.0
  9
$PUCSYDIR
 10
0.0
 20
1.0
 30
0.0
  9
$PUCSORTHOREF
  2

  9
$PUCSORTHOVIEW
 70
     0
  9
$PUCSORGTOP
 10
0.0
 20
0.0
 30
0.0
  9
$PUCSORGBOTTOM
 10
0.0
 20
0.0
 30
0.0
  9
$PUCSORGLEFT
 10
0.0
 20
0.0
 30
0.0
  9
$PUCSORGRIGHT
 10
0.0
 20
0.0
 30
0.0
  9
$PUCSORGFRONT
 10
0.0
 20
0.0
 30
0.0
  9
$PUCSORGBACK
 10
0.0
 20
0.0
 30
0.0
  9
$USERI1
 70
     0
  9
$USERI2
 70
     0
  9
$USERI3
 70
     0
  9
$USERI4
 70
     0
  9
$USERI5
 70
     0
  9
$USERR1
 40
0.0
  9
$USERR2
 40
0.0
  9
$USERR3
 40
0.0
  9
$USERR4
 40
0.0
  9
$USERR5
 40
0.0
  9
$WORLDVIEW
 70
     1
  9
$SHADEDGE
 70
     3
  9
$SHADEDIF
 70
    70
  9
$TILEMODE
 70
     1
  9
$MAXACTVP
 70
    64
  9
$PINSBASE
 10
0.0
 20
0.0
 30
0.0
  9
$PLIMCHECK
 70
     0
  9
$PEXTMIN
 10
1.000000000000000E+20
 20
1.000000000000000E+20
 30
1.000000000000000E+20
  9
$PEXTMAX
 10
-1.000000000000000E+20
 20
-1.000000000000000E+20
 30
-1.000000000000000E+20
  9
$PLIMMIN
 10
0.0
 20
0.0
  9
$PLIMMAX
 10
12.0
 20
9.0
  9
$UNITMODE
 70
     0
  9
$VISRETAIN
 70
     1
  9
$PLINEGEN
 70
     0
  9
$PSLTSCALE
 70
     1
  9
$TREEDEPTH
 70
  3020
  9
$CMLSTYLE
  2
Standard
  9
$CMLJUST
 70
     0
  9
$CMLSCALE
 40
1.0
  9
$PROXYGRAPHICS
 70
     1
  9
$MEASUREMENT
 70
     0
  9
$CELWEIGHT
370
    -1
  9
$ENDCAPS
280
     0
  9
$JOINSTYLE
280
     0
  9
$LWDISPLAY
290
     0
  9
$INSUNITS
 70
     4
  9
$HYPERLINKBASE
  1

  9
$STYLESHEET
  1

  9
$XEDIT
290
     1
  9
$CEPSNTYPE
380
     0
  9
$PSTYLEMODE
290
     0
  9
$FINGERPRINTGUID
  2
{FAEB1C30-E019-11D5-929B-00C0DF256EC4}
  9
$VERSIONGUID
  2
{72DBFA2A-A36B-44CA-9E55-71A02101FDDD}
  9
$EXTNAMES
290
     1
  9
$PSVPSCALE
 40
0.0
  9
$OLESTARTUP
290
     0
  0
ENDSEC
  0
SECTION
  2
CLASSES
  0
CLASS
  1
ACDBDICTIONARYWDFLT
  2
AcDbDictionaryWithDefault
  3
ObjectDBX Classes
 90
        0
280
     0
281
     0
  0
CLASS
  1
MATERIAL
  2
AcDbMaterial
  3
ObjectDBX Classes
 90
     1153
280
     0
281
     0
  0
CLASS
  1
MLEADERSTYLE
  2
AcDbMLeaderStyle
  3
ACDB_MLEADERSTYLE_CLASS
 90
     4095
280
     0
281
     0
  0
CLASS
  1
SCALE
  2
AcDbScale
  3
ObjectDBX Classes
 90
     1153
280
     0
281
     0
  0
CLASS
  1
TABLESTYLE
  2
AcDbTableStyle
  3
ObjectDBX Classes
 90
     4095
280
     0
281
     0
  0
CLASS
  1
VISUALSTYLE
  2
AcDbVisualStyle
  3
ObjectDBX Classes
 90
     4095
280
     0
281
     0
  0
CLASS
  1
DICTIONARYVAR
  2
AcDbDictionaryVar
  3
ObjectDBX Classes
 90
        0
280
     0
281
     0
  0
CLASS
  1
CELLSTYLEMAP
  2
AcDbCellStyleMap
  3
ObjectDBX Classes
 90
     1152
280
     0
281
     0
  0
CLASS
  1
AMGSETTINGSOBJ
  2
AmgSettingsObj
  3
"AcadM|Product Description: AutoCAD Mechanical|Company: Autodesk, Inc."
 90
     1024
280
     0
281
     0
  0
CLASS
  1
ACME_DOCUMENT
  2
AcMeDbDoc
  3
AcMeServices
 90
     1024
280
     0
281
     0
  0
CLASS
  1
ACMESCOPE
  2
AcMeScope
  3
AcMeServices
 90
     1024
280
     0
281
     0
  0
CLASS
  1
ACMECOMMANDHISTORY
  2
AcMeCommandHistory
  3
AcMeServices
 90
     1024
280
     0
281
     0
  0
CLASS
  1
ACIMSYSVARMAN
  2
AcImSysVarManager
  3
AcMeServices
 90
     1024
280
     0
281
     0
  0
CLASS
  1
ACIMINTSYSVAR
  2
AcImIntSysVar
  3
AcMeServices
 90
     1024
280
     0
281
     0
  0
CLASS
  1
ACMESTATEMGR
  2
AcMeStateMgr
  3
AcMeServices
 90
     1024
280
     0
281
     0
  0
CLASS
  1
ACDBENTITYCACHE
  2
AcMeEntityCache
  3
AcMeServices
 90
     1024
280
     0
281
     0
  0
CLASS
  1
ACGREFMASTER
  2
AcGrefMaster
  3
AcAttribServices
 90
     1024
280
     0
281
     0
  0
CLASS
  1
AM_DRAWING_MGR
  2
AcDmDwgMgr
  3
AcMechDwgViewMgmt
 90
     1024
280
     0
281
     0
  0
CLASS
  1
AM_DWG_DOCUMENT
  2
AcDmDwgDocument
  3
AcMechDwgViewMgmt
 90
     1024
280
     0
281
     0
  0
CLASS
  1
AM_DWG_SHEET
  2
AcDmSheet
  3
AcMechDwgViewMgmt
 90
     1024
280
     0
281
     0
  0
CLASS
  1
AM_VIEWDIMPARMAP
  2
AcDmViewDimParMap
  3
AcMechDwgViewMgmt
 90
     1024
280
     0
281
     0
  0
CLASS
  1
AMDTINTERNALREACTOR
  2
AmdtInternalReactor
  3
AcMeServices
 90
     1024
280
     0
281
     0
  0
CLASS
  1
ACIMREALSYSVAR
  2
AcImRealSysVar
  3
AcMeServices
 90
     1024
280
     0
281
     0
  0
CLASS
  1
AM_DWGMGR_NAME
  2
AcDmDwgMgrName
  3
AcMechDwgViewMgmt
 90
     1024
280
     0
281
     0
  0
CLASS
  1
ACME_DATABASE
  2
AcMeDbDatabase
  3
AcMeServices
 90
     1024
280
     0
281
     0
  0
CLASS
  1
ACRFINSADJUSTERMGR
  2
AcRfInsAdjusterMgr
  3
AcMeServices
 90
     1024
280
     0
281
     0
  0
CLASS
  1
ACGREFACADMASTER
  2
AcGrefacadMaster
  3
AcGrefServices
 90
     1024
280
     0
281
     0
  0
CLASS
  1
AMDTMENUSTATEMGR
  2
AmdtMenuStateMgr
  3
McadcomServices
 90
     1024
280
     0
281
     0
  0
CLASS
  1
AMDTMCOMMENUSTATE
  2
AmdtMcomMenuState
  3
McadcomServices
 90
     1024
280
     0
281
     0
  0
CLASS
  1
AMIMASTER
  2
AmiMaster
  3
AmiServices
 90
     1024
280
     0
281
     0
  0
CLASS
  1
MAPIAMMOUDLE
  2
MApiAmModule
  3
MApiAmServices
 90
     1024
280
     0
281
     0
  0
CLASS
  1
ACIMSTRSYSVAR
  2
AcImStrSysVar
  3
AcMeServices
 90
     1024
280
     0
281
     0
  0
CLASS
  1
AMDTDMMENUSTATE
  2
AmdtDmMenuState
  3
AcMechDwgViewMgmt
 90
     1024
280
     0
281
     0
  0
CLASS
  1
AMDTAMMENUSTATE
  2
AmdtAmMenuState
  3
DesignerAssemblies
 90
     1024
280
     0
281
     0
  0
CLASS
  1
ACAMPROJECT
  2
AcAmProject
  3
DesignerAssemblies
 90
     1024
280
     0
281
     0
  0
CLASS
  1
ACAMGRCOMPDEF
  2
AcAmGrCompDef
  3
DesignerAssemblies
 90
     1024
280
     0
281
     0
  0
CLASS
  1
ACAMCOMPDEF
  2
AcAmCompDef
  3
DesignerAssemblies
 90
     1024
280
     0
281
     0
  0
CLASS
  1
ACAMCOMPDEFMGR
  2
AcAmCompDefMgr
  3
DesignerAssemblies
 90
     1024
280
     0
281
     0
  0
CLASS
  1
AMCONTEXTMGR
  2
AcAmContextMgr
  3
DesignerAssemblies
 90
     1024
280
     0
281
     0
  0
CLASS
  1
ACAMCONTEXTMODELER
  2
AcAmContextModeler
  3
DesignerAssemblies
 90
     1024
280
     0
281
     0
  0
CLASS
  1
ACMDATADICTIONARY
  2
AcmDataDictionary
  3
"AcmSymBB|Product Description: AutoCAD Mechanical|Company: Autodesk, Inc."
 90
     1024
280
     0
281
     0
  0
CLASS
  1
ACAMGRCOMPDEFSET
  2
AcAmGrCompDefSet
  3
DesignerAssemblies
 90
     1024
280
     0
281
     0
  0
CLASS
  1
AMDTBROWSERDBTAB
  2
AmdtBrowserDbTab
  3
McadcomServices
 90
     1024
280
     0
281
     0
  0
CLASS
  1
CBROWSERAPPOBJECT
  2
CBrowserAppObject
  3
McadcomServices
 90
     1024
280
     0
281
     0
  0
CLASS
  1
DM_PLACEHOLDER
  2
AcDmSelsetPlaceholder
  3
AcMechDwgViewMgmt
 90
     1024
280
     0
281
     0
  0
CLASS
  1
EXACXREFPANELOBJECT
  2
ExAcXREFPanelObject
  3
EXAC_ESW
 90
     1025
280
     0
281
     0
  0
CLASS
  1
NPOCOLLECTION
  2
AcDbImpNonPersistentObjectsCollection
  3
ObjectDBX Classes
 90
     1153
280
     0
281
     0
  0
CLASS
  1
ACMSTANDARDANSI
  2
AcmStandardANSI
  3
"Amdt_StdImp|Product Description: AutoCAD Mechanical|Company: Autodesk, Inc."
 90
     1024
280
     0
281
     0
  0
CLASS
  1
ACMSURFSTANDARDANSI
  2
AcmSurfTextStdANSI
  3
"Amdt_StdImp|Product Description: AutoCAD Mechanical|Company: Autodesk, Inc."
 90
     1024
280
     0
281
     0
  0
CLASS
  1
ACMFCFSTANDARDANSI
  2
AcmFCFStdANSI
  3
"Amdt_StdImp|Product Description: AutoCAD Mechanical|Company: Autodesk, Inc."
 90
     1024
280
     0
281
     0
  0
CLASS
  1
ACMWELDSTANDARDANSI
  2
AcmWeldingStdANSI
  3
"Amdt_StdImp|Product Description: AutoCAD Mechanical|Company: Autodesk, Inc."
 90
     1024
280
     0
281
     0
  0
CLASS
  1
ACMIDSTANDARDANSI
  2
AcmIdStdANSI
  3
"Amdt_StdImp|Product Description: AutoCAD Mechanical|Company: Autodesk, Inc."
 90
     1024
280
     0
281
     0
  0
CLASS
  1
ACMDATUMSTANDARDANSI
  2
AcmDatumStdANSI
  3
"Amdt_StdImp|Product Description: AutoCAD Mechanical|Company: Autodesk, Inc."
 90
     1024
280
     0
281
     0
  0
CLASS
  1
ACMBOMSTANDARDANSI
  2
AcmBOMStdANSI
  3
"Amdt_StdImp|Product Description: AutoCAD Mechanical|Company: Autodesk, Inc."
 90
     1024
280
     0
281
     0
  0
CLASS
  1
ACMDETAILSTANDARDANSI
  2
AmdtDetailSymStdANSI
  3
"Amdt_StdImp|Product Description: AutoCAD Mechanical|Company: Autodesk, Inc."
 90
     1024
280
     0
281
     0
  0
CLASS
  1
ACMSECTIONSTANDARDANSI
  2
AmdtSectionSymStdANSI
  3
"Amdt_StdImp|Product Description: AutoCAD Mechanical|Company: Autodesk, Inc."
 90
     1024
280
     0
281
     0
  0
CLASS
  1
ACMCENTERLINESTANDARDANSI
  2
AmdtCenterLineStdANSI
  3
"Amdt_StdImp|Product Description: AutoCAD Mechanical|Company: Autodesk, Inc."
 90
     1024
280
     0
281
     0
  0
CLASS
  1
ACMTHREADLINESTANDARDANSI
  2
AmdtThreadLineStdANSI
  3
"Amdt_StdImp|Product Description: AutoCAD Mechanical|Company: Autodesk, Inc."
 90
     1024
280
     0
281
     0
  0
CLASS
  1
ACMNOTESTANDARDANSI
  2
AmdtNoteStdANSI
  3
"Amdt_StdImp|Product Description: AutoCAD Mechanical|Company: Autodesk, Inc."
 90
     1024
280
     0
281
     0
  0
CLASS
  1
ACMTAPERSTANDARDANSI
  2
AcmTaperStdANSI
  3
"Amdt_StdImp|Product Description: AutoCAD Mechanical|Company: Autodesk, Inc."
 90
     1024
280
     0
281
     0
  0
CLASS
  1
ACMANOOTATIONVIEWSTANDARDANSI
  2
AmdtAnViewStdANSI
  3
"Amdt_StdImp|Product Description: AutoCAD Mechanical|Company: Autodesk, Inc."
 90
     1024
280
     0
281
     0
  0
CLASS
  1
ACAMGLAYSTD
  2
AcAmgLayStd
  3
"AmgLay|Product Description: AutoCAD Mechanical|Company: Autodesk, Inc."
 90
     1024
280
     0
281
     0
  0
CLASS
  1
ACAMGDIMSTD
  2
AcAmgDimStd
  3
"AmgDim|Product Description: AutoCAD Mechanical|Company: Autodesk, Inc."
 90
     1024
280
     0
281
     0
  0
CLASS
  1
AMGOBJPROPCFG
  2
AmgObjPropCfg
  3
"AmgLay|Product Description: AutoCAD Mechanical|Company: Autodesk, Inc."
 90
     1025
280
     0
281
     0
  0
CLASS
  1
ACAMGHOLECHARTSTDANSI
  2
AcAmgHoleChartStdANSI
  3
AmgDim|Product Description: AutoCAD Mechanical|Company: Autodesk, Inc.
 90
     1024
280
     0
281
     0
  0
CLASS
  1
ACAMGTITLESTD
  2
AcAmgTitleStd
  3
"AmgTitle|Product Description: AutoCAD Mechanical|Company: Autodesk, Inc."
 90
     4095
280
     0
281
     0
  0
CLASS
  1
AMDTNOTETEMPLATEDB
  2
AmdtNoteTemplateDB
  3
AcmSymBB|Product Description: AutoCAD Mechanical|Company: Autodesk, Inc.
 90
     1024
280
     0
281
     0
  0
CLASS
  1
ACAMGFILTERDAT
  2
AcAmgFilterDat
  3
"AcadM|Product Description: AutoCAD Mechanical|Company: Autodesk, Inc."
 90
    33792
280
     0
281
     0
  0
CLASS
  1
ACDBPLACEHOLDER
  2
AcDbPlaceHolder
  3
ObjectDBX Classes
 90
        0
280
     0
281
     0
  0
CLASS
  1
LAYOUT
  2
AcDbLayout
  3
ObjectDBX Classes
 90
        0
280
     0
281
     0
  0
ENDSEC
  0
SECTION
  2
TABLES
  0
TABLE
  2
VPORT
  5
24A
330
0
100
AcDbSymbolTable
 70
     1
  0
VPORT
  5
26B
330
24A
100
AcDbSymbolTableRecord
100
AcDbViewportTableRecord
  2
*Active
 70
     0
 10
0.0
 20
0.0
 11
1.0
 21
1.0
 12
2.930227135628825
 22
-3.425110443336336
 13
0.0
 23
0.0
 14
10.0
 24
10.0
 15
10.0
 25
10.0
 16
0.0
 26
0.0
 36
1.0
 17
0.0
 27
0.0
 37
0.0
 40
226.8501623750811
 41
1.492489270386266
 42
1.0
 43
0.0
 44
0.0
 50
0.0
 51
0.0000000000007958
 71
     0
 72
   100
 73
     1
 74
     3
 75
     0
 76
     0
 77
     0
 78
     1
281
     0
 65
     0
110
0.0
120
0.0
130
0.0
111
1.0
121
0.0
131
0.0
112
0.0
122
1.0
132
0.0
 79
     0
146
0.0
  0
ENDTAB
  0
TABLE
  2
LTYPE
  5
247
330
0
100
AcDbSymbolTable
 70
    35
  0
LTYPE
  5
256
330
247
100
AcDbSymbolTableRecord
100
AcDbLinetypeTableRecord
  2
ByBlock
 70
     0
  3

 72
    65
 73
     0
 40
0.0
  0
LTYPE
  5
257
330
247
100
AcDbSymbolTableRecord
100
AcDbLinetypeTableRecord
  2
ByLayer
 70
     0
  3

 72
    65
 73
     0
 40
0.0
  0
LTYPE
  5
258
330
247
100
AcDbSymbolTableRecord
100
AcDbLinetypeTableRecord
  2
Continuous
 70
     0
  3
Solid line
 72
    65
 73
     0
 40
0.0
  0
LTYPE
  5
273
330
247
100
AcDbSymbolTableRecord
100
AcDbLinetypeTableRecord
  2
CENTER
 70
     0
  3
Center ____ _ ____ _ ____ _ ____ _ ____ _ ____
 72
    65
 73
     4
 40
2.0
 49
1.25
 74
     0
 49
-0.25
 74
     0
 49
0.25
 74
     0
 49
-0.25
 74
     0
  0
LTYPE
  5
274
330
247
100
AcDbSymbolTableRecord
100
AcDbLinetypeTableRecord
  2
DASHDOT
 70
     0
  3
Dashdot __ . __ . __ . __ . __ . __ . __ . __
 72
    65
 73
     4
 40
1.0
 49
0.5
 74
     0
 49
-0.25
 74
     0
 49
0.0
 74
     0
 49
-0.25
 74
     0
  0
LTYPE
  5
275
330
247
100
AcDbSymbolTableRecord
100
AcDbLinetypeTableRecord
  2
DASHED
 70
     0
  3
Dashed __ __ __ __ __ __ __ __ __ __ __ __ __ _
 72
    65
 73
     2
 40
0.75
 49
0.5
 74
     0
 49
-0.25
 74
     0
  0
LTYPE
  5
276
330
247
100
AcDbSymbolTableRecord
100
AcDbLinetypeTableRecord
  2
HIDDEN
 70
     0
  3
Hidden __ __ __ __ __ __ __ __ __ __ __ __ __ __
 72
    65
 73
     2
 40
0.375
 49
0.25
 74
     0
 49
-0.125
 74
     0
  0
LTYPE
  5
277
330
247
100
AcDbSymbolTableRecord
100
AcDbLinetypeTableRecord
  2
HIDDEN2
 70
     0
  3
Hidden2 _ _ _ _ _ _ _ _ _ _ _ _ _ _ _ _ _
 72
    65
 73
     2
 40
0.1875
 49
0.125
 74
     0
 49
-0.0625
 74
     0
  0
LTYPE
  5
278
330
247
100
AcDbSymbolTableRecord
100
AcDbLinetypeTableRecord
  2
BORDER
 70
     0
  3
Border __ __ . __ __ . __ __ . __ __ . __ __ .
 72
    65
 73
     6
 40
1.75
 49
0.5
 74
     0
 49
-0.25
 74
     0
 49
0.5
 74
     0
 49
-0.25
 74
     0
 49
0.0
 74
     0
 49
-0.25
 74
     0
  0
LTYPE
  5
279
330
247
100
AcDbSymbolTableRecord
100
AcDbLinetypeTableRecord
  2
BORDER2
 70
     0
  3
Border2 __.__.__.__.__.__.__.__.__.__.__.
 72
    65
 73
     6
 40
0.875
 49
0.25
 74
     0
 49
-0.125
 74
     0
 49
0.25
 74
     0
 49
-0.125
 74
     0
 49
0.0
 74
     0
 49
-0.125
 74
     0
  0
LTYPE
  5
27A
330
247
100
AcDbSymbolTableRecord
100
AcDbLinetypeTableRecord
  2
BORDERX2
 70
     0
  3
Borderx2  ____  ____  .  ____  ____  .  ___
 72
    65
 73
     6
 40
3.5
 49
1.0
 74
     0
 49
-0.5
 74
     0
 49
1.0
 74
     0
 49
-0.5
 74
     0
 49
0.0
 74
     0
 49
-0.5
 74
     0
  0
LTYPE
  5
27B
330
247
100
AcDbSymbolTableRecord
100
AcDbLinetypeTableRecord
  2
CENTER2
 70
     0
  3
Center2  ___ _ ___ _ ___ _ ___ _ ___ _ ___
 72
    65
 73
     4
 40
1.125
 49
0.75
 74
     0
 49
-0.125
 74
     0
 49
0.125
 74
     0
 49
-0.125
 74
     0
  0
LTYPE
  5
27C
330
247
100
AcDbSymbolTableRecord
100
AcDbLinetypeTableRecord
  2
CENTERX2
 70
     0
  3
Centerx2  ________  __  ________  __  _____
 72
    65
 73
     4
 40
4.0
 49
2.5
 74
     0
 49
-0.5
 74
     0
 49
0.5
 74
     0
 49
-0.5
 74
     0
  0
LTYPE
  5
27D
330
247
100
AcDbSymbolTableRecord
100
AcDbLinetypeTableRecord
  2
DASHDOT2
 70
     0
  3
Dashdot2  _._._._._._._._._._._._._._._.
 72
    65
 73
     4
 40
0.5
 49
0.25
 74
     0
 49
-0.125
 74
     0
 49
0.0
 74
     0
 49
-0.125
 74
     0
  0
LTYPE
  5
27E
330
247
100
AcDbSymbolTableRecord
100
AcDbLinetypeTableRecord
  2
DASHDOTX2
 70
     0
  3
Dashdotx2 ____  .  ____  .  ____  .  ___
 72
    65
 73
     4
 40
2.0
 49
1.0
 74
     0
 49
-0.5
 74
     0
 49
0.0
 74
     0
 49
-0.5
 74
     0
  0
LTYPE
  5
27F
330
247
100
AcDbSymbolTableRecord
100
AcDbLinetypeTableRecord
  2
DASHED2
 70
     0
  3
Dashed2 _ _ _ _ _ _ _ _ _ _ _ _ _ _ _ _ _
 72
    65
 73
     2
 40
0.375
 49
0.25
 74
     0
 49
-0.125
 74
     0
  0
LTYPE
  5
280
330
247
100
AcDbSymbolTableRecord
100
AcDbLinetypeTableRecord
  2
DASHEDX2
 70
     0
  3
Dashedx2 ____  ____  ____  ____  ____  ___
 72
    65
 73
     2
 40
1.5
 49
1.0
 74
     0
 49
-0.5
 74
     0
  0
LTYPE
  5
281
330
247
100
AcDbSymbolTableRecord
100
AcDbLinetypeTableRecord
  2
DIVIDE
 70
     0
  3
Divide ____ . . ____ . . ____ . . ____ . . ____
 72
    65
 73
     6
 40
1.25
 49
0.5
 74
     0
 49
-0.25
 74
     0
 49
0.0
 74
     0
 49
-0.25
 74
     0
 49
0.0
 74
     0
 49
-0.25
 74
     0
  0
LTYPE
  5
282
330
247
100
AcDbSymbolTableRecord
100
AcDbLinetypeTableRecord
  2
DIVIDE2
 70
     0
  3
Divide2 __..__..__..__..__..__..__..__.._
 72
    65
 73
     6
 40
0.625
 49
0.25
 74
     0
 49
-0.125
 74
     0
 49
0.0
 74
     0
 49
-0.125
 74
     0
 49
0.0
 74
     0
 49
-0.125
 74
     0
  0
LTYPE
  5
283
330
247
100
AcDbSymbolTableRecord
100
AcDbLinetypeTableRecord
  2
DIVIDEX2
 70
     0
  3
Dividex2 ________  .  .  ________  .  .  _
 72
    65
 73
     6
 40
2.5
 49
1.0
 74
     0
 49
-0.5
 74
     0
 49
0.0
 74
     0
 49
-0.5
 74
     0
 49
0.0
 74
     0
 49
-0.5
 74
     0
  0
LTYPE
  5
284
330
247
100
AcDbSymbolTableRecord
100
AcDbLinetypeTableRecord
  2
DOT
 70
     0
  3
Dot . . . . . . . . . . . . . . . . . . . . . . . .
 72
    65
 73
     2
 40
0.25
 49
0.0
 74
     0
 49
-0.25
 74
     0
  0
LTYPE
  5
285
330
247
100
AcDbSymbolTableRecord
100
AcDbLinetypeTableRecord
  2
DOT2
 70
     0
  3
Dot2 ........................................
 72
    65
 73
     2
 40
0.125
 49
0.0
 74
     0
 49
-0.125
 74
     0
  0
LTYPE
  5
286
330
247
100
AcDbSymbolTableRecord
100
AcDbLinetypeTableRecord
  2
DOTX2
 70
     0
  3
Dotx2 .  .  .  .  .  .  .  .  .  .  .  .  .  .
 72
    65
 73
     2
 40
0.5
 49
0.0
 74
     0
 49
-0.5
 74
     0
  0
LTYPE
  5
287
330
247
100
AcDbSymbolTableRecord
100
AcDbLinetypeTableRecord
  2
HIDDENX2
 70
     0
  3
Hiddenx2 ____ ____ ____ ____ ____ ____ ____
 72
    65
 73
     2
 40
0.75
 49
0.5
 74
     0
 49
-0.25
 74
     0
  0
LTYPE
  5
288
330
247
100
AcDbSymbolTableRecord
100
AcDbLinetypeTableRecord
  2
PHANTOM
 70
     0
  3
Phantom ______  __  __  ______  __  __  ______
 72
    65
 73
     6
 40
2.5
 49
1.25
 74
     0
 49
-0.25
 74
     0
 49
0.25
 74
     0
 49
-0.25
 74
     0
 49
0.25
 74
     0
 49
-0.25
 74
     0
  0
LTYPE
  5
289
330
247
100
AcDbSymbolTableRecord
100
AcDbLinetypeTableRecord
  2
PHANTOM2
 70
     0
  3
Phantom2 ___ _ _ ___ _ _ ___ _ _ ___ _ _
 72
    65
 73
     6
 40
1.25
 49
0.625
 74
     0
 49
-0.125
 74
     0
 49
0.125
 74
     0
 49
-0.125
 74
     0
 49
0.125
 74
     0
 49
-0.125
 74
     0
  0
LTYPE
  5
28A
330
247
100
AcDbSymbolTableRecord
100
AcDbLinetypeTableRecord
  2
PHANTOMX2
 70
     0
  3
Phantomx2 ____________    ____    ____   _
 72
    65
 73
     6
 40
5.0
 49
2.5
 74
     0
 49
-0.5
 74
     0
 49
0.5
 74
     0
 49
-0.5
 74
     0
 49
0.5
 74
     0
 49
-0.5
 74
     0
  0
LTYPE
  5
F10A28
330
247
100
AcDbSymbolTableRecord
100
AcDbLinetypeTableRecord
  2
AM_ISO02W050
 70
     0
  3
__ __ __ __ __ __ __ __ __ __ __ __ __ __ __
 72
    65
 73
     2
 40
7.5
 49
6.0
 74
     0
 49
-1.5
 74
     0
  0
LTYPE
  5
F10A29
330
247
100
AcDbSymbolTableRecord
100
AcDbLinetypeTableRecord
  2
AM_ISO08W050
 70
     0
  3
____ . ____ . ____ . ____ . ____ . ____ . ____
 72
    65
 73
     4
 40
18.0
 49
12.0
 74
     0
 49
-1.5
 74
     0
 49
3.0
 74
     0
 49
-1.5
 74
     0
  0
LTYPE
  5
F10A2A
330
247
100
AcDbSymbolTableRecord
100
AcDbLinetypeTableRecord
  2
AM_ISO09W050
 70
     0
  3
_____ . . _____ . . _____ . . ____ .. ____
 72
    65
 73
     6
 40
22.5
 49
12.0
 74
     0
 49
-1.5
 74
     0
 49
3.0
 74
     0
 49
-1.5
 74
     0
 49
3.0
 74
     0
 49
-1.5
 74
     0
  0
LTYPE
  5
F10A2B
330
247
100
AcDbSymbolTableRecord
100
AcDbLinetypeTableRecord
  2
Amconstr
 70
     0
  3
_______________________
 72
    65
 73
     2
 40
9999.0
 49
9999.0
 74
     0
 49
0.0
 74
     0
  0
LTYPE
  5
F10A2C
330
247
100
AcDbSymbolTableRecord
100
AcDbLinetypeTableRecord
  2
AM_ISO08W050x2
 70
     0
  3
__ . __ . __ . __ . __ . __
 72
    65
 73
     4
 40
9.0
 49
6.0
 74
     0
 49
-0.75
 74
     0
 49
1.5
 74
     0
 49
-0.75
 74
     0
  0
LTYPE
  5
F10A2D
330
247
100
AcDbSymbolTableRecord
100
AcDbLinetypeTableRecord
  2
AM_ISO02W050x2
 70
     0
  3
 _ _ _ _ _ _ _ _ _ _ _ _
 72
    65
 73
     2
 40
3.75
 49
3.0
 74
     0
 49
-0.75
 74
     0
  0
LTYPE
  5
F10A30
330
247
100
AcDbSymbolTableRecord
100
AcDbLinetypeTableRecord
  2
Amzigzag
 70
     0
  3
/\/-/\/-/\/-/\/-/\/-/\/
 72
    65
 73
     2
 40
11.0001
 49
0.0001
 74
     4
 75
   136
340
F10A2F
 46
0.04
 50
0.0
 44
0.0
 45
0.0
 49
-11.0
 74
     0
  0
LTYPE
  5
F10A31
330
247
100
AcDbSymbolTableRecord
100
AcDbLinetypeTableRecord
  2
Amzigzag2
 70
     0
  3
/\/-/\/-/\/-/\/-/\/-/\/
 72
    65
 73
     2
 40
0.4401
 49
0.0001
 74
     4
 75
   136
340
F10A2F
 46
0.0016
 50
0.0
 44
0.0
 45
0.0
 49
-0.4400000000000003
 74
     0
  0
LTYPE
  5
F10A3F
330
247
100
AcDbSymbolTableRecord
100
AcDbLinetypeTableRecord
  2
ACANSTGB
 70
     0
  3
__ . . __ . .
 72
    65
 73
     6
 40
0.35433070866
 49
0.15748031496
 74
     0
 49
-0.03937007874
 74
     0
 49
0.03937007874
 74
     0
 49
-0.03937007874
 74
     0
 49
0.03937007874
 74
     0
 49
-0.03937007874
 74
     0
  0
LTYPE
  5
F10A40
330
247
100
AcDbSymbolTableRecord
100
AcDbLinetypeTableRecord
  2
ACANSTGL
 70
     0
  3
_ _ _ _ _
 72
    65
 73
     2
 40
0.11811023622
 49
0.07874015748
 74
     0
 49
-0.03937007874
 74
     0
  0
ENDTAB
  0
TABLE
  2
LAYER
  5
244
330
0
100
AcDbSymbolTable
 70
     6
  0
LAYER
  5
252
102
{ACAD_XDICTIONARY
360
F10D8C
102
}
330
244
100
AcDbSymbolTableRecord
100
AcDbLayerTableRecord
  2
0
 70
     0
 62
     7
  6
Continuous
370
     0
390
19
  0
LAYER
  5
23F
102
{ACAD_XDICTIONARY
360
F10D8E
102
}
330
244
100
AcDbSymbolTableRecord
100
AcDbLayerTableRecord
  2
Bemassung
 70
     0
 62
     7
  6
Continuous
370
     0
390
19
  0
LAYER
  5
240
102
{ACAD_XDICTIONARY
360
F10D90
102
}
330
244
100
AcDbSymbolTableRecord
100
AcDbLayerTableRecord
  2
Rahmen
 70
     0
 62
     7
  6
Continuous
370
     0
390
19
  0
LAYER
  5
241
102
{ACAD_XDICTIONARY
360
F10D92
102
}
330
244
100
AcDbSymbolTableRecord
100
AcDbLayerTableRecord
  2
Geo
 70
     0
 62
     7
  6
Continuous
370
     0
390
19
  0
LAYER
  5
33A
330
244
100
AcDbSymbolTableRecord
100
AcDbLayerTableRecord
  2
Defpoints
 70
     0
 62
     7
  6
Continuous
290
     0
370
    -3
390
19
  0
LAYER
  5
57E
102
{ACAD_XDICTIONARY
360
F10D94
102
}
330
244
100
AcDbSymbolTableRecord
100
AcDbLayerTableRecord
  2
Text
 70
     0
 62
     7
  6
Continuous
370
     0
390
19
1001
AcAecLayerStandard
1000

1000

  0
ENDTAB
  0
TABLE
  2
STYLE
  5
245
330
0
100
AcDbSymbolTable
 70
     5
  0
STYLE
  5
253
330
245
100
AcDbSymbolTableRecord
100
AcDbTextStyleTableRecord
  2
Standard
 70
     0
 40
0.0
 41
1.0
 50
0.0
 71
     0
 42
0.2
  3
Arial
  4

1001
ACAD
1000
Arial
1071
        0
  0
STYLE
  5
132
330
245
100
AcDbSymbolTableRecord
100
AcDbTextStyleTableRecord
  2
Beschriftung
 70
     0
 40
0.0
 41
1.0
 50
0.0
 71
     0
 42
0.2
  3
Arial
  4

1001
ACAD
1000
Arial
1071
        0
1001
AcadAnnotative
1000
AnnotativeData
1070
     1
1070
     1
  0
STYLE
  5
F10A2F
330
245
100
AcDbSymbolTableRecord
100
AcDbTextStyleTableRecord
  2

 70
     1
 40
0.0
 41
1.0
 50
0.0
 71
     0
 42
0.2
  3
genltshp.shx
  4

  0
STYLE
  5
F10A3D
330
245
100
AcDbSymbolTableRecord
100
AcDbTextStyleTableRecord
  2
ACANSTS
 70
     0
 40
1.0
 41
1.0
 50
0.0
 71
     0
 42
0.2
  3
romans.shx
  4

  0
STYLE
  5
F10A3E
330
245
100
AcDbSymbolTableRecord
100
AcDbTextStyleTableRecord
  2
ACANSGDT
 70
     0
 40
0.0
 41
1.0
 50
0.0
 71
     0
 42
0.2
  3
amgdt.shx
  4

  0
ENDTAB
  0
TABLE
  2
VIEW
  5
248
330
0
100
AcDbSymbolTable
 70
     0
  0
ENDTAB
  0
TABLE
  2
UCS
  5
249
330
0
100
AcDbSymbolTable
 70
     0
  0
ENDTAB
  0
TABLE
  2
APPID
  5
24B
330
0
100
AcDbSymbolTable
 70
    28
  0
APPID
  5
254
330
24B
100
AcDbSymbolTableRecord
100
AcDbRegAppTableRecord
  2
ACAD
 70
     0
  0
APPID
  5
26C
330
24B
100
AcDbSymbolTableRecord
100
AcDbRegAppTableRecord
  2
VD_INVISIBLE_NOT_FOR_READ
 70
     0
  0
APPID
  5
26D
330
24B
100
AcDbSymbolTableRecord
100
AcDbRegAppTableRecord
  2
VD_TEMPHATCH
 70
     0
  0
APPID
  5
26E
330
24B
100
AcDbSymbolTableRecord
100
AcDbRegAppTableRecord
  2
VDEXTRAPARAM
 70
     0
  0
APPID
  5
26F
330
24B
100
AcDbSymbolTableRecord
100
AcDbRegAppTableRecord
  2
PE_URL
 70
     0
  0
APPID
  5
270
330
24B
100
AcDbSymbolTableRecord
100
AcDbRegAppTableRecord
  2
VD_UNKNOWN
 70
     0
  0
APPID
  5
28F
330
24B
100
AcDbSymbolTableRecord
100
AcDbRegAppTableRecord
  2
AcadAnnotative
 70
     0
  0
APPID
  5
290
330
24B
100
AcDbSymbolTableRecord
100
AcDbRegAppTableRecord
  2
ACAD_DSTYLE_DIMJAG
 70
     0
  0
APPID
  5
291
330
24B
100
AcDbSymbolTableRecord
100
AcDbRegAppTableRecord
  2
ACAD_DSTYLE_DIMTALN
 70
     0
  0
APPID
  5
293
330
24B
100
AcDbSymbolTableRecord
100
AcDbRegAppTableRecord
  2
ACAD_PSEXT
 70
     0
  0
APPID
  5
42A
330
24B
100
AcDbSymbolTableRecord
100
AcDbRegAppTableRecord
  2
ACAD_MLEADERVER
 70
     0
  0
APPID
  5
532
330
24B
100
AcDbSymbolTableRecord
100
AcDbRegAppTableRecord
  2
ACAD_EXEMPT_FROM_CAD_STANDARDS
 70
     0
  0
APPID
  5
57F
330
24B
100
AcDbSymbolTableRecord
100
AcDbRegAppTableRecord
  2
AcAecLayerStandard
 70
     0
  0
APPID
  5
F109C2
330
24B
100
AcDbSymbolTableRecord
100
AcDbRegAppTableRecord
  2
MCAD_NO_VIS
 70
     0
  0
APPID
  5
F109C3
330
24B
100
AcDbSymbolTableRecord
100
AcDbRegAppTableRecord
  2
ACAD_TEMP_GRAPHIC
 70
     0
  0
APPID
  5
F109EC
330
24B
100
AcDbSymbolTableRecord
100
AcDbRegAppTableRecord
  2
AD_DRAW
 70
     0
  0
APPID
  5
F109EF
330
24B
100
AcDbSymbolTableRecord
100
AcDbRegAppTableRecord
  2
ACATTRIBSERVICES
 70
     0
  0
APPID
  5
F10A08
330
24B
100
AcDbSymbolTableRecord
100
AcDbRegAppTableRecord
  2
DESIGNERASSEMBLIES
 70
     0
  0
APPID
  5
F10A0D
330
24B
100
AcDbSymbolTableRecord
100
AcDbRegAppTableRecord
  2
ACADM_DIM_EDIT
 70
     0
  0
APPID
  5
F10A0E
330
24B
100
AcDbSymbolTableRecord
100
AcDbRegAppTableRecord
  2
AMDT_DM_ADJ
 70
     0
  0
APPID
  5
F10A26
330
24B
100
AcDbSymbolTableRecord
100
AcDbRegAppTableRecord
  2
ACAD_DSTYLE_DIMBREAK
 70
     0
  0
APPID
  5
F10A47
330
24B
100
AcDbSymbolTableRecord
100
AcDbRegAppTableRecord
  2
GENIUS_GENSCREG_15
 70
     0
  0
APPID
  5
F10A48
330
24B
100
AcDbSymbolTableRecord
100
AcDbRegAppTableRecord
  2
GENIUS_GENODEF_13
 70
     0
  0
APPID
  5
F10A49
330
24B
100
AcDbSymbolTableRecord
100
AcDbRegAppTableRecord
  2
GENIUS_GENOBJ-N-SDF_13
 70
     0
  0
APPID
  5
F10CAB
330
24B
100
AcDbSymbolTableRecord
100
AcDbRegAppTableRecord
  2
ACAD_DSTYLE_DIMARC_LENGTH_SYMBOL
 70
     0
  0
APPID
  5
F10CAC
330
24B
100
AcDbSymbolTableRecord
100
AcDbRegAppTableRecord
  2
ACAD_DSTYLE_DIM_LINETYPE
 70
     0
  0
APPID
  5
F10CAD
330
24B
100
AcDbSymbolTableRecord
100
AcDbRegAppTableRecord
  2
ACAD_DSTYLE_DIM_EXT1_LINETYPE
 70
     0
  0
APPID
  5
F10CAE
330
24B
100
AcDbSymbolTableRecord
100
AcDbRegAppTableRecord
  2
ACAD_DSTYLE_DIM_EXT2_LINETYPE
 70
     0
  0
ENDTAB
  0
TABLE
  2
DIMSTYLE
  5
24C
330
0
100
AcDbSymbolTable
 70
     9
100
AcDbDimStyleTable
 71
     2
340
27
340
269
  0
DIMSTYLE
105
269
330
24C
100
AcDbSymbolTableRecord
100
AcDbDimStyleTableRecord
  2
Standard
 70
     0
172
     1
174
     1
288
     1
340
253
342
23C
  0
DIMSTYLE
105
137
330
24C
100
AcDbSymbolTableRecord
100
AcDbDimStyleTableRecord
  2
Beschriftung
 70
     0
 41
2.5
 42
0.625
 44
1.25
 73
     0
 74
     0
 77
     1
140
2.5
147
0.625
172
     1
174
     1
271
     2
288
     1
340
253
342
23C
1001
AcadAnnotative
1000
AnnotativeData
1070
     1
1070
     1
1001
ACAD_DSTYLE_DIMJAG
1070
   388
1040
1.5
1001
ACAD_DSTYLE_DIMTALN
1070
   392
1070
     0
  0
DIMSTYLE
105
27
102
{ACAD_REACTORS
330
F10017
330
F10021
330
F1002B
330
F10030
330
F10008
330
F1001C
102
}
330
24C
100
AcDbSymbolTableRecord
100
AcDbDimStyleTableRecord
  2
BEM-ISBE
 70
     0
 41
2.5
 42
0.625
 44
1.25
 48
0.000000001
 71
     1
 73
     0
 74
     0
 77
     1
140
2.5
146
0.5
147
0.625
171
     3
172
     1
179
     3
271
     3
272
     3
274
     3
340
253
342
23C
1001
ACAD_DSTYLE_DIMJAG
1070
   388
1040
1.5
1001
ACAD_DSTYLE_DIMTALN
1070
   392
1070
     1
  0
DIMSTYLE
105
F10A25
102
{ACAD_REACTORS
330
F10E3C
102
}
330
24C
100
AcDbSymbolTableRecord
100
AcDbDimStyleTableRecord
  2
AM_ANSI
 70
     0
  4
mm
 41
0.12
 42
0.05
 43
0.5
 44
0.1
 47
0.1
 48
0.1
 78
     7
 79
     2
140
0.12
141
0.0
146
0.71
147
0.06
176
   256
177
   256
178
     2
274
     4
284
     7
340
253
371
    -1
372
    -1
1001
ACAD_DSTYLE_DIMJAG
1070
   388
1040
1.5
1001
ACAD_DSTYLE_DIMBREAK
1070
   391
1040
0.125
1001
ACAD_DSTYLE_DIMARC_LENGTH_SYMBOL
1070
   379
1070
     1
1001
ACAD_DSTYLE_DIM_LINETYPE
1070
   380
1005
256
1001
ACAD_DSTYLE_DIM_EXT1_LINETYPE
1070
   381
1005
256
1001
ACAD_DSTYLE_DIM_EXT2_LINETYPE
1070
   382
1005
256
  0
DIMSTYLE
105
F10A32
330
24C
100
AcDbSymbolTableRecord
100
AcDbDimStyleTableRecord
  2
AM_ANSI$3
 70
     0
  4
mm
 41
0.12
 42
0.05
 43
0.5
 44
0.1
 47
0.1
 48
0.1
 78
     7
 79
     2
140
0.12
141
0.0
146
0.71
147
0.06
176
   256
177
   256
178
     2
274
     4
284
     7
288
     1
289
     0
340
253
371
    -1
372
    -1
1001
ACAD_DSTYLE_DIMBREAK
1070
   391
1040
0.125
1001
ACAD_DSTYLE_DIMJAG
1070
   388
1040
1.5
1001
ACAD_DSTYLE_DIMARC_LENGTH_SYMBOL
1070
   379
1070
     1
1001
ACAD_DSTYLE_DIM_LINETYPE
1070
   380
1005
256
1001
ACAD_DSTYLE_DIM_EXT1_LINETYPE
1070
   381
1005
256
1001
ACAD_DSTYLE_DIM_EXT2_LINETYPE
1070
   382
1005
256
  0
DIMSTYLE
105
F10A33
330
24C
100
AcDbSymbolTableRecord
100
AcDbDimStyleTableRecord
  2
AM_ANSI$4
 70
     0
  4
mm
 41
0.12
 42
0.05
 43
0.5
 44
0.1
 47
0.1
 48
0.1
 78
     7
 79
     2
140
0.12
141
0.0
146
0.71
147
0.06
176
   256
177
   256
178
     2
274
     4
284
     7
288
     1
289
     0
340
253
371
    -1
372
    -1
1001
ACAD_DSTYLE_DIMBREAK
1070
   391
1040
0.125
1001
ACAD_DSTYLE_DIMJAG
1070
   388
1040
1.5
1001
ACAD_DSTYLE_DIMARC_LENGTH_SYMBOL
1070
   379
1070
     1
1001
ACAD_DSTYLE_DIM_LINETYPE
1070
   380
1005
256
1001
ACAD_DSTYLE_DIM_EXT1_LINETYPE
1070
   381
1005
256
1001
ACAD_DSTYLE_DIM_EXT2_LINETYPE
1070
   382
1005
256
  0
DIMSTYLE
105
F10A34
330
24C
100
AcDbSymbolTableRecord
100
AcDbDimStyleTableRecord
  2
AM_ANSI$7
 70
     0
  4
mm
 41
0.12
 42
0.05
 43
0.5
 44
0.1
 47
0.1
 48
0.1
 78
     7
 79
     2
140
0.12
141
0.0
146
0.71
147
0.06
176
   256
177
   256
178
     2
274
     4
284
     7
340
253
371
    -1
372
    -1
1001
ACAD_DSTYLE_DIMBREAK
1070
   391
1040
0.125
1001
ACAD_DSTYLE_DIMJAG
1070
   388
1040
1.5
1001
ACAD_DSTYLE_DIMARC_LENGTH_SYMBOL
1070
   379
1070
     1
1001
ACAD_DSTYLE_DIM_LINETYPE
1070
   380
1005
256
1001
ACAD_DSTYLE_DIM_EXT1_LINETYPE
1070
   381
1005
256
1001
ACAD_DSTYLE_DIM_EXT2_LINETYPE
1070
   382
1005
256
  0
DIMSTYLE
105
F10A35
330
24C
100
AcDbSymbolTableRecord
100
AcDbDimStyleTableRecord
  2
AM_ANSI$SF
 70
     0
  4
mm
 41
0.12
 42
0.05
 43
0.5
 44
0.1
 47
0.1
 48
0.1
 75
     1
 76
     1
 78
     7
 79
     2
140
0.12
141
0.0
146
0.71
147
0.06
176
   256
177
   256
178
     2
274
     4
284
     7
340
253
371
    -1
372
    -1
1001
ACAD_DSTYLE_DIMBREAK
1070
   391
1040
0.125
1001
ACAD_DSTYLE_DIMJAG
1070
   388
1040
1.5
1001
ACAD_DSTYLE_DIMARC_LENGTH_SYMBOL
1070
   379
1070
     1
1001
ACAD_DSTYLE_DIM_LINETYPE
1070
   380
1005
256
1001
ACAD_DSTYLE_DIM_EXT1_LINETYPE
1070
   381
1005
256
1001
ACAD_DSTYLE_DIM_EXT2_LINETYPE
1070
   382
1005
256
  0
DIMSTYLE
105
F10A3A
330
24C
100
AcDbSymbolTableRecord
100
AcDbDimStyleTableRecord
  2
AM_ANSI$SH
 70
     0
  4
mm
 41
0.12
 42
0.05
 43
0.5
 44
0.1
 47
0.1
 48
0.1
 75
     1
 76
     1
 78
     7
 79
     2
140
0.12
141
0.0
146
0.71
147
0.06
173
     1
176
   256
177
   256
178
     2
274
     4
284
     7
340
253
343
F10A36
371
    -1
372
    -1
1001
ACAD_DSTYLE_DIMBREAK
1070
   391
1040
0.125
1001
ACAD_DSTYLE_DIMJAG
1070
   388
1040
1.5
1001
ACAD_DSTYLE_DIMARC_LENGTH_SYMBOL
1070
   379
1070
     1
1001
ACAD_DSTYLE_DIM_LINETYPE
1070
   380
1005
256
1001
ACAD_DSTYLE_DIM_EXT1_LINETYPE
1070
   381
1005
256
1001
ACAD_DSTYLE_DIM_EXT2_LINETYPE
1070
   382
1005
256
  0
ENDTAB
  0
TABLE
  2
BLOCK_RECORD
  5
243
330
0
100
AcDbSymbolTable
 70
    15
  0
BLOCK_RECORD
  5
261
330
243
100
AcDbSymbolTableRecord
100
AcDbBlockTableRecord
  2
*Model_Space
340
FD0
  0
BLOCK_RECORD
  5
25D
330
243
100
AcDbSymbolTableRecord
100
AcDbBlockTableRecord
  2
*Paper_Space
340
FD1
  0
BLOCK_RECORD
  5
265
330
243
100
AcDbSymbolTableRecord
100
AcDbBlockTableRecord
  2
*Paper_Space0
340
0
  0
BLOCK_RECORD
  5
23C
330
243
100
AcDbSymbolTableRecord
100
AcDbBlockTableRecord
  2
VDDIM_DEFAULT
340
0
102
{BLKREFS
331
F10A56
331
F10A57
331
F10A77
331
F10A78
331
F10A9F
331
F10AA0
331
F10B23
331
F10B24
331
F10B2E
331
F10B2F
331
F10B37
331
F10B38
331
F10B42
331
F10B43
331
F10B4B
331
F10B4C
331
F10B54
331
F10B55
331
F10E59
331
F10E5A
102
}
  0
BLOCK_RECORD
  5
23E
330
243
100
AcDbSymbolTableRecord
100
AcDbBlockTableRecord
  2
VDDIM_NONE
340
0
  0
BLOCK_RECORD
  5
F10002
330
243
100
AcDbSymbolTableRecord
100
AcDbBlockTableRecord
  2
*D3
340
0
  0
BLOCK_RECORD
  5
F10016
330
243
100
AcDbSymbolTableRecord
100
AcDbBlockTableRecord
  2
*D4
340
0
  0
BLOCK_RECORD
  5
F10020
330
243
100
AcDbSymbolTableRecord
100
AcDbBlockTableRecord
  2
*D5
340
0
  0
BLOCK_RECORD
  5
F10025
330
243
100
AcDbSymbolTableRecord
100
AcDbBlockTableRecord
  2
*D6
340
0
  0
BLOCK_RECORD
  5
F1002A
330
243
100
AcDbSymbolTableRecord
100
AcDbBlockTableRecord
  2
*D7
340
0
  0
BLOCK_RECORD
  5
F1002F
330
243
100
AcDbSymbolTableRecord
100
AcDbBlockTableRecord
  2
*D8
340
0
  0
BLOCK_RECORD
  5
F10011
330
243
100
AcDbSymbolTableRecord
100
AcDbBlockTableRecord
  2
*D9
340
0
  0
BLOCK_RECORD
  5
F10007
330
243
100
AcDbSymbolTableRecord
100
AcDbBlockTableRecord
  2
*D10
340
0
  0
BLOCK_RECORD
  5
F1000C
330
243
100
AcDbSymbolTableRecord
100
AcDbBlockTableRecord
  2
*D11
340
0
  0
BLOCK_RECORD
  5
F1001B
330
243
100
AcDbSymbolTableRecord
100
AcDbBlockTableRecord
  2
*D12
340
0
  0
BLOCK_RECORD
  5
F10A36
330
243
100
AcDbSymbolTableRecord
100
AcDbBlockTableRecord
  2
GENAXEH
340
0
  0
ENDTAB
  0
ENDSEC
  0
SECTION
  2
BLOCKS
  0
BLOCK
  5
262
330
261
100
AcDbEntity
  8
0
100
AcDbBlockBegin
  2
*Model_Space
 70
     0
 10
0.0
 20
0.0
 30
0.0
  3
*Model_Space
  1

  0
ENDBLK
  5
263
330
261
100
AcDbEntity
  8
0
100
AcDbBlockEnd
  0
BLOCK
  5
25E
330
25D
100
AcDbEntity
 67
     1
  8
0
100
AcDbBlockBegin
  2
*Paper_Space
 70
     0
 10
0.0
 20
0.0
 30
0.0
  3
*Paper_Space
  1

  0
ENDBLK
  5
25F
330
25D
100
AcDbEntity
 67
     1
  8
0
100
AcDbBlockEnd
  0
BLOCK
  5
266
330
265
100
AcDbEntity
  8
0
100
AcDbBlockBegin
  2
*Paper_Space0
 70
     0
 10
0.0
 20
0.0
 30
0.0
  3
*Paper_Space0
  1

  0
VIEWPORT
  5
296
102
{ACAD_XDICTIONARY
360
F10E6E
102
}
330
265
100
AcDbEntity
  8
0
 60
     1
100
AcDbViewport
 10
0.0
 20
0.0
 30
0.0
 40
10.0
 41
10.0
 69
     0
 12
0.0
 22
0.0
 13
0.0
 23
0.0
 14
1.0
 24
1.0
 15
0.0
 25
0.0
 16
0.0
 26
0.0
 36
1.0
 17
0.0
 27
0.0
 37
0.0
 42
0.0
 43
0.0
 44
0.0
 45
10.0
 50
0.0
 51
0.0000000000007958
 72
   100
 90
   163872
  1

281
     0
 71
     0
 74
     0
110
0.0
120
0.0
130
0.0
111
1.0
121
0.0
131
0.0
112
0.0
122
1.0
132
0.0
 79
     0
146
0.0
1001
VD_INVISIBLE_NOT_FOR_READ
1000
VD_INVISIBLE_NOT_FOR_READ
  0
VIEWPORT
  5
297
102
{ACAD_XDICTIONARY
360
F10E70
102
}
330
265
100
AcDbEntity
  8
0
 60
     1
100
AcDbViewport
 10
0.0
 20
0.0
 30
0.0
 40
10.0
 41
10.0
 69
     0
 12
0.0
 22
0.0
 13
0.0
 23
0.0
 14
1.0
 24
1.0
 15
0.0
 25
0.0
 16
0.0
 26
0.0
 36
1.0
 17
0.0
 27
0.0
 37
0.0
 42
0.0
 43
0.0
 44
0.0
 45
10.0
 50
0.0
 51
0.0000000000007958
 72
   100
 90
   163872
  1

281
     0
 71
     0
 74
     0
110
0.0
120
0.0
130
0.0
111
1.0
121
0.0
131
0.0
112
0.0
122
1.0
132
0.0
 79
     0
146
0.0
1001
VD_INVISIBLE_NOT_FOR_READ
1000
VD_INVISIBLE_NOT_FOR_READ
  0
ENDBLK
  5
267
330
265
100
AcDbEntity
  8
0
100
AcDbBlockEnd
  0
BLOCK
  5
28B
330
23C
100
AcDbEntity
  8
0
100
AcDbBlockBegin
  2
VDDIM_DEFAULT
 70
     0
 10
0.0
 20
0.0
 30
0.0
  3
VDDIM_DEFAULT
  1

  0
LWPOLYLINE
  5
23D
330
23C
100
AcDbEntity
  8
0
  6
Continuous
 62
     0
100
AcDbPolyline
 90
        4
 70
     0
 43
0.0
 10
0.0
 20
0.0
 10
-1.0
 20
-0.1665
 10
-1.0
 20
0.1665
 10
0.0
 20
0.0
1001
VDEXTRAPARAM
1071
        1
1071
        0
1071
        0
1040
1.0
1000

1000

1040
0.0
1040
0.0
  0
HATCH
  5
292
330
23C
100
AcDbEntity
  8
0
  6
Continuous
 62
     0
100
AcDbHatch
 10
0.0
 20
0.0
 30
0.0
210
0.0
220
0.0
230
1.0
  2
SOLID
 70
     1
 71
     0
 91
        1
 92
        2
 72
     0
 73
     1
 93
        3
 10
0.0
 20
0.0
 10
-1.0
 20
-0.1665
 10
-1.0
 20
0.1665
 97
        0
 75
     0
 76
     1
 98
        1
 10
0.0
 20
0.0
1001
VDEXTRAPARAM
1071
        1
1071
        0
1071
        0
1040
1.0
1000

1000

1040
0.0
1040
0.0
1001
VD_TEMPHATCH
1000
VD_TEMPHATCH
  0
ENDBLK
  5
28C
330
23C
100
AcDbEntity
  8
0
100
AcDbBlockEnd
  0
BLOCK
  5
28D
330
23E
100
AcDbEntity
  8
0
100
AcDbBlockBegin
  2
VDDIM_NONE
 70
     0
 10
0.0
 20
0.0
 30
0.0
  3
VDDIM_NONE
  1

  0
ENDBLK
  5
28E
330
23E
100
AcDbEntity
  8
0
100
AcDbBlockEnd
  0
BLOCK
  5
F10034
330
F10002
100
AcDbEntity
  8
0
100
AcDbBlockBegin
  2
*D3
 70
     1
 10
0.0
 20
0.0
 30
0.0
  3
*D3
  1

  0
LINE
  5
F10A51
330
F10002
100
AcDbEntity
  8
Bemassung
 62
     0
370
    -2
100
AcDbLine
 10
-96.3825798793152
 20
4.484102449961988
 30
0.0
 11
-96.3825798793152
 21
43.109102449962
 31
0.0
  0
LINE
  5
F10A52
330
F10002
100
AcDbEntity
  8
Bemassung
 62
     0
370
    -2
100
AcDbLine
 10
-96.28257987931521
 20
31.484102449962
 30
0.0
 11
-96.28257987931521
 21
43.109102449962
 31
0.0
  0
LINE
  5
F10A53
330
F10002
100
AcDbEntity
  8
Bemassung
 62
     0
370
    -2
100
AcDbLine
 10
-98.8825798793152
 20
41.859102449962
 30
0.0
 11
-101.3825798793152
 21
41.859102449962
 31
0.0
  0
LINE
  5
F10A54
330
F10002
100
AcDbEntity
  8
Bemassung
 62
     0
370
    -2
100
AcDbLine
 10
-93.78257987931521
 20
41.859102449962
 30
0.0
 11
-85.96368492706416
 21
41.859102449962
 31
0.0
  0
LINE
  5
F10A55
330
F10002
100
AcDbEntity
  8
Bemassung
 62
     0
370
    -2
100
AcDbLine
 10
-96.3825798793152
 20
41.859102449962
 30
0.0
 11
-96.28257987931521
 21
41.859102449962
 31
0.0
  0
INSERT
  5
F10A56
330
F10002
100
AcDbEntity
  8
Bemassung
 62
     0
370
    -2
100
AcDbBlockReference
  2
VDDIM_DEFAULT
 10
-96.3825798793152
 20
41.859102449962
 30
0.0
 41
2.5
 42
2.5
 43
2.5
  0
INSERT
  5
F10A57
330
F10002
100
AcDbEntity
  8
Bemassung
 62
     0
370
    -2
100
AcDbBlockReference
  2
VDDIM_DEFAULT
 10
-96.28257987931521
 20
41.859102449962
 30
0.0
 41
2.5
 42
2.5
 43
2.5
 50
180.0
  0
MTEXT
  5
F10A58
330
F10002
100
AcDbEntity
  8
Bemassung
 62
     0
100
AcDbMText
 10
-88.6231324031897
 20
42.484102449962
 30
0.0
 40
2.5
 41
0.0
 71
     8
 72
     1
  1
\A1;0.1
 73
     1
 44
1.0
1001
ACAD
1000
MTEXTBEGIN
1070
    73
1070
     1
1070
    44
1040
1.0
1070
    74
1070
     0
1000
MTEXTEND
  0
POINT
  5
F10A59
330
F10002
100
AcDbEntity
  8
Defpoints
 62
     0
100
AcDbPoint
 10
-96.3825798793152
 20
3.859102449961989
 30
0.0
  0
POINT
  5
F10A5A
330
F10002
100
AcDbEntity
  8
Defpoints
 62
     0
100
AcDbPoint
 10
-96.28257987931521
 20
30.859102449962
 30
0.0
  0
POINT
  5
F10A5B
330
F10002
100
AcDbEntity
  8
Defpoints
 62
     0
100
AcDbPoint
 10
-96.28257987931521
 20
41.859102449962
 30
0.0
  0
ENDBLK
  5
F1003D
330
F10002
100
AcDbEntity
  8
0
100
AcDbBlockEnd
  0
BLOCK
  5
F1003E
330
F10016
100
AcDbEntity
  8
0
100
AcDbBlockBegin
  2
*D4
 70
     1
 10
0.0
 20
0.0
 30
0.0
  3
*D4
  1

  0
LINE
  5
F10B34
330
F10016
100
AcDbEntity
  8
Bemassung
 62
     0
370
    -2
100
AcDbLine
 10
6.767874520608102
 20
15.04909738263899
 30
0.0
 11
6.767874520608102
 21
35.67409738263899
 31
0.0
  0
LINE
  5
F10B35
330
F10016
100
AcDbEntity
  8
Bemassung
 62
     0
370
    -2
100
AcDbLine
 10
42.7678745206081
 20
14.64909738263899
 30
0.0
 11
42.7678745206081
 21
35.67409738263899
 31
0.0
  0
LINE
  5
F10B36
330
F10016
100
AcDbEntity
  8
Bemassung
 62
     0
370
    -2
100
AcDbLine
 10
9.267874520608103
 20
34.42409738263899
 30
0.0
 11
40.2678745206081
 21
34.42409738263899
 31
0.0
  0
INSERT
  5
F10B37
330
F10016
100
AcDbEntity
  8
Bemassung
 62
     0
370
    -2
100
AcDbBlockReference
  2
VDDIM_DEFAULT
 10
6.767874520608102
 20
34.42409738263899
 30
0.0
 41
2.5
 42
2.5
 43
2.5
 50
180.0
  0
INSERT
  5
F10B38
330
F10016
100
AcDbEntity
  8
Bemassung
 62
     0
370
    -2
100
AcDbBlockReference
  2
VDDIM_DEFAULT
 10
42.7678745206081
 20
34.42409738263899
 30
0.0
 41
2.5
 42
2.5
 43
2.5
  0
MTEXT
  5
F10B39
330
F10016
100
AcDbEntity
  8
Bemassung
 62
     0
100
AcDbMText
 10
24.7678745206081
 20
35.04909738263899
 30
0.0
 40
2.5
 41
0.0
 71
     8
 72
     1
  1
\A1;36
 73
     1
 44
1.0
1001
ACAD
1000
MTEXTBEGIN
1070
    73
1070
     1
1070
    44
1040
1.0
1070
    74
1070
     0
1000
MTEXTEND
  0
POINT
  5
F10B3A
330
F10016
100
AcDbEntity
  8
Defpoints
 62
     0
100
AcDbPoint
 10
6.767874520608102
 20
14.42409738263899
 30
0.0
  0
POINT
  5
F10B3B
330
F10016
100
AcDbEntity
  8
Defpoints
 62
     0
100
AcDbPoint
 10
42.7678745206081
 20
14.02409738263899
 30
0.0
  0
POINT
  5
F10B3C
330
F10016
100
AcDbEntity
  8
Defpoints
 62
     0
100
AcDbPoint
 10
42.7678745206081
 20
34.42409738263899
 30
0.0
  0
ENDBLK
  5
F10047
330
F10016
100
AcDbEntity
  8
0
100
AcDbBlockEnd
  0
BLOCK
  5
F10048
330
F10020
100
AcDbEntity
  8
0
100
AcDbBlockBegin
  2
*D5
 70
     1
 10
0.0
 20
0.0
 30
0.0
  3
*D5
  1

  0
LINE
  5
F10B48
330
F10020
100
AcDbEntity
  8
Bemassung
 62
     0
370
    -2
100
AcDbLine
 10
-3.232125479391896
 20
8.904560231533292
 30
0.0
 11
-3.232125479391896
 21
-2.825902617361006
 31
0.0
  0
LINE
  5
F10B49
330
F10020
100
AcDbEntity
  8
Bemassung
 62
     0
370
    -2
100
AcDbLine
 10
-14.23212547939189
 20
11.19412959519269
 30
0.0
 11
-14.2321254793919
 21
-2.825902617361006
 31
0.0
  0
LINE
  5
F10B4A
330
F10020
100
AcDbEntity
  8
Bemassung
 62
     0
370
    -2
100
AcDbLine
 10
-5.732125479391897
 20
-1.575902617361005
 30
0.0
 11
-11.73212547939189
 21
-1.575902617361005
 31
0.0
  0
INSERT
  5
F10B4B
330
F10020
100
AcDbEntity
  8
Bemassung
 62
     0
370
    -2
100
AcDbBlockReference
  2
VDDIM_DEFAULT
 10
-3.232125479391896
 20
-1.575902617361005
 30
0.0
 41
2.5
 42
2.5
 43
2.5
  0
INSERT
  5
F10B4C
330
F10020
100
AcDbEntity
  8
Bemassung
 62
     0
370
    -2
100
AcDbBlockReference
  2
VDDIM_DEFAULT
 10
-14.23212547939189
 20
-1.575902617361005
 30
0.0
 41
2.5
 42
2.5
 43
2.5
 50
180.0
  0
MTEXT
  5
F10B4D
330
F10020
100
AcDbEntity
  8
Bemassung
 62
     0
100
AcDbMText
 10
-8.732125479391896
 20
-0.9509026173610076
 30
0.0
 40
2.5
 41
0.0
 71
     8
 72
     1
  1
\A1;11
 73
     1
 44
1.0
1001
ACAD
1000
MTEXTBEGIN
1070
    73
1070
     1
1070
    44
1040
1.0
1070
    74
1070
     0
1000
MTEXTEND
  0
POINT
  5
F10B4E
330
F10020
100
AcDbEntity
  8
Defpoints
 62
     0
100
AcDbPoint
 10
-3.232125479391896
 20
9.529560231533292
 30
0.0
  0
POINT
  5
F10B4F
330
F10020
100
AcDbEntity
  8
Defpoints
 62
     0
100
AcDbPoint
 10
-14.23212547939189
 20
11.81912959519269
 30
0.0
  0
POINT
  5
F10B50
330
F10020
100
AcDbEntity
  8
Defpoints
 62
     0
100
AcDbPoint
 10
-14.23212547939189
 20
-1.575902617361005
 30
0.0
  0
ENDBLK
  5
F10051
330
F10020
100
AcDbEntity
  8
0
100
AcDbBlockEnd
  0
BLOCK
  5
F10052
330
F10025
100
AcDbEntity
  8
0
100
AcDbBlockBegin
  2
*D6
 70
     1
 10
0.0
 20
0.0
 30
0.0
  3
*D6
  1

  0
LINE
  5
F10A9C
330
F10025
100
AcDbEntity
  8
Bemassung
 62
     0
370
    -2
100
AcDbLine
 10
-83.3825798793152
 20
26.334102449962
 30
0.0
 11
-83.3825798793152
 21
4.609102449961991
 31
0.0
  0
LINE
  5
F10A9D
330
F10025
100
AcDbEntity
  8
Bemassung
 62
     0
370
    -2
100
AcDbLine
 10
-96.3825798793152
 20
4.484102449961988
 30
0.0
 11
-96.3825798793152
 21
7.10910244996199
 31
0.0
  0
LINE
  5
F10A9E
330
F10025
100
AcDbEntity
  8
Bemassung
 62
     0
370
    -2
100
AcDbLine
 10
-85.8825798793152
 20
5.85910244996199
 30
0.0
 11
-93.8825798793152
 21
5.85910244996199
 31
0.0
  0
INSERT
  5
F10A9F
330
F10025
100
AcDbEntity
  8
Bemassung
 62
     0
370
    -2
100
AcDbBlockReference
  2
VDDIM_DEFAULT
 10
-83.3825798793152
 20
5.85910244996199
 30
0.0
 41
2.5
 42
2.5
 43
2.5
  0
INSERT
  5
F10AA0
330
F10025
100
AcDbEntity
  8
Bemassung
 62
     0
370
    -2
100
AcDbBlockReference
  2
VDDIM_DEFAULT
 10
-96.3825798793152
 20
5.85910244996199
 30
0.0
 41
2.5
 42
2.5
 43
2.5
 50
180.0
  0
MTEXT
  5
F10AA1
330
F10025
100
AcDbEntity
  8
Bemassung
 62
     0
100
AcDbMText
 10
-89.8825798793152
 20
6.48410244996199
 30
0.0
 40
2.5
 41
0.0
 71
     8
 72
     1
  1
\A1;13
 73
     1
 44
1.0
1001
ACAD
1000
MTEXTBEGIN
1070
    73
1070
     1
1070
    44
1040
1.0
1070
    74
1070
     0
1000
MTEXTEND
  0
POINT
  5
F10AA2
330
F10025
100
AcDbEntity
  8
Defpoints
 62
     0
100
AcDbPoint
 10
-83.3825798793152
 20
26.959102449962
 30
0.0
  0
POINT
  5
F10AA3
330
F10025
100
AcDbEntity
  8
Defpoints
 62
     0
100
AcDbPoint
 10
-96.3825798793152
 20
3.859102449961989
 30
0.0
  0
POINT
  5
F10AA4
330
F10025
100
AcDbEntity
  8
Defpoints
 62
     0
100
AcDbPoint
 10
-96.3825798793152
 20
5.85910244996199
 30
0.0
  0
ENDBLK
  5
F1005B
330
F10025
100
AcDbEntity
  8
0
100
AcDbBlockEnd
  0
BLOCK
  5
F1005C
330
F1002A
100
AcDbEntity
  8
0
100
AcDbBlockBegin
  2
*D7
 70
     1
 10
0.0
 20
0.0
 30
0.0
  3
*D7
  1

  0
LINE
  5
F10B51
330
F1002A
100
AcDbEntity
  8
Bemassung
 62
     0
370
    -2
100
AcDbLine
 10
42.7678745206081
 20
14.64909738263899
 30
0.0
 11
42.7678745206081
 21
50.67409738263899
 31
0.0
  0
LINE
  5
F10B52
330
F1002A
100
AcDbEntity
  8
Bemassung
 62
     0
370
    -2
100
AcDbLine
 10
-14.23212547939189
 20
12.44412959519269
 30
0.0
 11
-14.23212547939189
 21
50.67409738263899
 31
0.0
  0
LINE
  5
F10B53
330
F1002A
100
AcDbEntity
  8
Bemassung
 62
     0
370
    -2
100
AcDbLine
 10
40.2678745206081
 20
49.42409738263899
 30
0.0
 11
-11.73212547939189
 21
49.42409738263899
 31
0.0
  0
INSERT
  5
F10B54
330
F1002A
100
AcDbEntity
  8
Bemassung
 62
     0
370
    -2
100
AcDbBlockReference
  2
VDDIM_DEFAULT
 10
42.7678745206081
 20
49.42409738263899
 30
0.0
 41
2.5
 42
2.5
 43
2.5
  0
INSERT
  5
F10B55
330
F1002A
100
AcDbEntity
  8
Bemassung
 62
     0
370
    -2
100
AcDbBlockReference
  2
VDDIM_DEFAULT
 10
-14.23212547939189
 20
49.42409738263899
 30
0.0
 41
2.5
 42
2.5
 43
2.5
 50
180.0
  0
MTEXT
  5
F10B56
330
F1002A
100
AcDbEntity
  8
Bemassung
 62
     0
100
AcDbMText
 10
14.2678745206081
 20
50.04909738263899
 30
0.0
 40
2.5
 41
0.0
 71
     8
 72
     1
  1
\A1;57
 73
     1
 44
1.0
1001
ACAD
1000
MTEXTBEGIN
1070
    73
1070
     1
1070
    44
1040
1.0
1070
    74
1070
     0
1000
MTEXTEND
  0
POINT
  5
F10B57
330
F1002A
100
AcDbEntity
  8
Defpoints
 62
     0
100
AcDbPoint
 10
42.7678745206081
 20
14.02409738263899
 30
0.0
  0
POINT
  5
F10B58
330
F1002A
100
AcDbEntity
  8
Defpoints
 62
     0
100
AcDbPoint
 10
-14.23212547939189
 20
11.81912959519269
 30
0.0
  0
POINT
  5
F10B59
330
F1002A
100
AcDbEntity
  8
Defpoints
 62
     0
100
AcDbPoint
 10
-14.23212547939189
 20
49.42409738263899
 30
0.0
  0
ENDBLK
  5
F10065
330
F1002A
100
AcDbEntity
  8
0
100
AcDbBlockEnd
  0
BLOCK
  5
F10066
330
F1002F
100
AcDbEntity
  8
0
100
AcDbBlockBegin
  2
*D8
 70
     1
 10
0.0
 20
0.0
 30
0.0
  3
*D8
  1

  0
LINE
  5
F10E56
330
F1002F
100
AcDbEntity
  8
Bemassung
 62
     0
370
    -2
100
AcDbLine
 10
-0.2321254793918896
 20
14.04909738263899
 30
0.0
 11
-0.2321254793918883
 21
35.35157521336349
 31
0.0
  0
LINE
  5
F10E57
330
F1002F
100
AcDbEntity
  8
Bemassung
 62
     0
370
    -2
100
AcDbLine
 10
-14.23212547939189
 20
12.04909738263899
 30
0.0
 11
-14.23212547939189
 21
35.35157521336349
 31
0.0
  0
LINE
  5
F10E58
330
F1002F
100
AcDbEntity
  8
Bemassung
 62
     0
370
    -2
100
AcDbLine
 10
-2.732125479391888
 20
34.10157521336349
 30
0.0
 11
-11.73212547939189
 21
34.10157521336349
 31
0.0
  0
INSERT
  5
F10E59
330
F1002F
100
AcDbEntity
  8
Bemassung
 62
     0
370
    -2
100
AcDbBlockReference
  2
VDDIM_DEFAULT
 10
-0.2321254793918884
 20
34.10157521336349
 30
0.0
 41
2.5
 42
2.5
 43
2.5
  0
INSERT
  5
F10E5A
330
F1002F
100
AcDbEntity
  8
Bemassung
 62
     0
370
    -2
100
AcDbBlockReference
  2
VDDIM_DEFAULT
 10
-14.23212547939189
 20
34.10157521336349
 30
0.0
 41
2.5
 42
2.5
 43
2.5
 50
180.0
  0
MTEXT
  5
F10E5B
330
F1002F
100
AcDbEntity
  8
Bemassung
 62
     0
100
AcDbMText
 10
-7.232125479391887
 20
34.72657521336349
 30
0.0
 40
2.5
 41
0.0
 71
     8
 72
     1
  1
\A1;14
 73
     1
 44
1.0
1001
ACAD
1000
MTEXTBEGIN
1070
    73
1070
     1
1070
    44
1040
1.0
1070
    74
1070
     0
1000
MTEXTEND
  0
POINT
  5
F10E5C
330
F1002F
100
AcDbEntity
  8
Defpoints
 62
     0
100
AcDbPoint
 10
-0.2321254793918896
 20
13.42409738263899
 30
0.0
  0
POINT
  5
F10E5D
330
F1002F
100
AcDbEntity
  8
Defpoints
 62
     0
100
AcDbPoint
 10
-14.23212547939189
 20
11.42409738263899
 30
0.0
  0
POINT
  5
F10E5E
330
F1002F
100
AcDbEntity
  8
Defpoints
 62
     0
100
AcDbPoint
 10
-14.23212547939189
 20
34.10157521336349
 30
0.0
  0
ENDBLK
  5
F1006F
330
F1002F
100
AcDbEntity
  8
0
100
AcDbBlockEnd
  0
BLOCK
  5
F10070
330
F10011
100
AcDbEntity
  8
0
100
AcDbBlockBegin
  2
*D9
 70
     1
 10
0.0
 20
0.0
 30
0.0
  3
*D9
  1

  0
ARC
  5
F10A72
330
F10011
100
AcDbEntity
  8
Bemassung
 62
     0
370
    -2
100
AcDbCircle
 10
-75.38257987931517
 20
31.859102449962
 30
0.0
 40
13.99562650080858
100
AcDbArc
 50
339.4203798646014
 51
0.0
  0
LINE
  5
F10A73
330
F10011
100
AcDbEntity
  8
Bemassung
 62
     0
370
    -2
100
AcDbLine
 10
-62.28008953066655
 20
26.93951834013067
 30
0.0
 11
-65.31263110738044
 21
18.86285050526939
 31
0.0
  0
ARC
  5
F10A74
330
F10011
100
AcDbEntity
  8
Bemassung
 62
     0
370
    -2
100
AcDbCircle
 10
-75.38257987931517
 20
31.859102449962
 30
0.0
 40
13.99562650080858
100
AcDbArc
 50
339.5035155292343
 51
349.7517577646171
  0
ARC
  5
F10A75
330
F10011
100
AcDbEntity
  8
Bemassung
 62
     0
370
    -2
100
AcDbCircle
 10
-75.38257987931517
 20
31.859102449962
 30
0.0
 40
13.99562650080858
100
AcDbArc
 50
25.24824223538298
 51
35.49648447076585
  0
ARC
  5
F10A76
330
F10011
100
AcDbEntity
  8
Bemassung
 62
     0
370
    -2
100
AcDbCircle
 10
-75.38257987931517
 20
31.859102449962
 30
0.0
 40
13.99562650080858
100
AcDbArc
 50
0.0
 51
15.00000000000009
  0
INSERT
  5
F10A77
330
F10011
100
AcDbEntity
  8
Bemassung
 62
     0
370
    -2
100
AcDbBlockReference
  2
VDDIM_DEFAULT
 10
-61.3869533785066
 20
31.85910244996199
 30
0.0
 41
2.5
 42
2.5
 43
2.5
 50
84.87587888230855
  0
INSERT
  5
F10A78
330
F10011
100
AcDbEntity
  8
Bemassung
 62
     0
370
    -2
100
AcDbBlockReference
  2
VDDIM_DEFAULT
 10
-61.86384278708848
 20
35.48143713651283
 30
0.0
 41
2.5
 42
2.5
 43
2.5
 50
290.1241211176915
  0
MTEXT
  5
F10A79
102
{ACAD_XDICTIONARY
360
F10E61
102
}
330
F10011
100
AcDbEntity
  8
Bemassung
 62
     0
100
AcDbMText
 10
-63.21124492833825
 20
22.68149150159592
 30
0.0
 40
2.5
 41
0.0
 71
     8
 72
     1
  1
\A1;15\U+00B0{\H0.5x;\S+5°^ +5°;}
 11
-0.3515086737665594
 21
-0.9361846250963933
 31
0.0
 73
     1
 44
1.0
1001
ACAD
1000
MTEXTBEGIN
1070
    73
1070
     1
1070
    44
1040
1.0
1070
    74
1070
     0
1000
MTEXTEND
  0
POINT
  5
F10A7A
330
F10011
100
AcDbEntity
  8
Defpoints
 62
     0
100
AcDbPoint
 10
-61.59957839305577
 20
34.28941748713442
 30
0.0
  0
POINT
  5
F10A7B
330
F10011
100
AcDbEntity
  8
Defpoints
 62
     0
100
AcDbPoint
 10
-59.9319911345103
 20
35.99907522671789
 30
0.0
  0
POINT
  5
F10A7C
330
F10011
100
AcDbEntity
  8
Defpoints
 62
     0
100
AcDbPoint
 10
-75.38257987931517
 20
31.859102449962
 30
0.0
  0
POINT
  5
F10A7D
330
F10011
100
AcDbEntity
  8
Defpoints
 62
     0
100
AcDbPoint
 10
-59.3869533785066
 20
31.859102449962
 30
0.0
  0
POINT
  5
F10A7E
330
F10011
100
AcDbEntity
  8
Defpoints
 62
     0
100
AcDbPoint
 10
-75.38257987931517
 20
31.859102449962
 30
0.0
  0
ENDBLK
  5
F1007B
330
F10011
100
AcDbEntity
  8
0
100
AcDbBlockEnd
  0
BLOCK
  5
F1007C
330
F10007
100
AcDbEntity
  8
0
100
AcDbBlockBegin
  2
*D10
 70
     1
 10
0.0
 20
0.0
 30
0.0
  3
*D10
  1

  0
LINE
  5
F10B1E
330
F10007
100
AcDbEntity
  8
Bemassung
 62
     0
370
    -2
100
AcDbLine
 10
-14.7571254793919
 20
9.424097382638992
 30
0.0
 11
-25.48212547939169
 21
9.424097382638995
 31
0.0
  0
LINE
  5
F10B1F
330
F10007
100
AcDbEntity
  8
Bemassung
 62
     0
370
    -2
100
AcDbLine
 10
-14.7571254793919
 20
13.42409738263899
 30
0.0
 11
-25.48212547939169
 21
13.42409738263899
 31
0.0
  0
LINE
  5
F10B20
330
F10007
100
AcDbEntity
  8
Bemassung
 62
     0
370
    -2
100
AcDbLine
 10
-24.23212547939169
 20
6.924097382638995
 30
0.0
 11
-24.23212547939169
 21
4.424097382638993
 31
0.0
  0
LINE
  5
F10B21
330
F10007
100
AcDbEntity
  8
Bemassung
 62
     0
370
    -2
100
AcDbLine
 10
-24.23212547939169
 20
15.92409738263899
 30
0.0
 11
-24.23212547939168
 21
24.02266491333477
 31
0.0
  0
LINE
  5
F10B22
330
F10007
100
AcDbEntity
  8
Bemassung
 62
     0
370
    -2
100
AcDbLine
 10
-24.23212547939169
 20
9.424097382638995
 30
0.0
 11
-24.23212547939169
 21
13.42409738263899
 31
0.0
  0
INSERT
  5
F10B23
330
F10007
100
AcDbEntity
  8
Bemassung
 62
     0
370
    -2
100
AcDbBlockReference
  2
VDDIM_DEFAULT
 10
-24.23212547939169
 20
9.424097382638995
 30
0.0
 41
2.5
 42
2.5
 43
2.5
 50
90.0
  0
INSERT
  5
F10B24
330
F10007
100
AcDbEntity
  8
Bemassung
 62
     0
370
    -2
100
AcDbBlockReference
  2
VDDIM_DEFAULT
 10
-24.23212547939169
 20
13.42409738263899
 30
0.0
 41
2.5
 42
2.5
 43
2.5
 50
270.0
  0
MTEXT
  5
F10B25
330
F10007
100
AcDbEntity
  8
Bemassung
 62
     0
100
AcDbMText
 10
-24.85712547939169
 20
21.22338114798688
 30
0.0
 40
2.5
 41
0.0
 71
     8
 72
     1
  1
\A1;%%c4
 11
0.0000000000000001
 21
1.0
 31
0.0
 73
     1
 44
1.0
1001
ACAD
1000
MTEXTBEGIN
1070
    73
1070
     1
1070
    44
1040
1.0
1070
    74
1070
     0
1000
MTEXTEND
  0
POINT
  5
F10B26
330
F10007
100
AcDbEntity
  8
Defpoints
 62
     0
100
AcDbPoint
 10
-14.1321254793919
 20
9.424097382638992
 30
0.0
  0
POINT
  5
F10B27
330
F10007
100
AcDbEntity
  8
Defpoints
 62
     0
100
AcDbPoint
 10
-14.1321254793919
 20
13.42409738263899
 30
0.0
  0
POINT
  5
F10B28
330
F10007
100
AcDbEntity
  8
Defpoints
 62
     0
100
AcDbPoint
 10
-24.23212547939169
 20
13.42409738263899
 30
0.0
  0
ENDBLK
  5
F10085
330
F10007
100
AcDbEntity
  8
0
100
AcDbBlockEnd
  0
BLOCK
  5
F10086
330
F1000C
100
AcDbEntity
  8
0
100
AcDbBlockBegin
  2
*D11
 70
     1
 10
0.0
 20
0.0
 30
0.0
  3
*D11
  1

  0
LINE
  5
F10B29
330
F1000C
100
AcDbEntity
  8
Bemassung
 62
     0
370
    -2
100
AcDbLine
 10
-0.5756533925047905
 20
9.524097382638991
 30
0.0
 11
0.3184801421519702
 21
9.524097382638991
 31
0.0
  0
LINE
  5
F10B2A
330
F1000C
100
AcDbEntity
  8
Bemassung
 62
     0
370
    -2
100
AcDbLine
 10
-0.5756533925047905
 20
13.32409738263899
 30
0.0
 11
0.318480142151971
 21
13.32409738263899
 31
0.0
  0
LINE
  5
F10B2B
330
F1000C
100
AcDbEntity
  8
Bemassung
 62
     0
370
    -2
100
AcDbLine
 10
-0.9315198578480304
 20
7.02409738263899
 30
0.0
 11
-0.9315198578480307
 21
4.524097382638991
 31
0.0
  0
LINE
  5
F10B2C
330
F1000C
100
AcDbEntity
  8
Bemassung
 62
     0
370
    -2
100
AcDbLine
 10
-0.9315198578480284
 20
15.82409738263899
 30
0.0
 11
-0.9315198578480259
 21
26.85070038400325
 31
0.0
  0
LINE
  5
F10B2D
330
F1000C
100
AcDbEntity
  8
Bemassung
 62
     0
370
    -2
100
AcDbLine
 10
-0.9315198578480298
 20
9.524097382638991
 30
0.0
 11
-0.9315198578480288
 21
13.32409738263899
 31
0.0
  0
INSERT
  5
F10B2E
330
F1000C
100
AcDbEntity
  8
Bemassung
 62
     0
370
    -2
100
AcDbBlockReference
  2
VDDIM_DEFAULT
 10
-0.9315198578480298
 20
9.524097382638991
 30
0.0
 41
2.5
 42
2.5
 43
2.5
 50
90.0
  0
INSERT
  5
F10B2F
330
F1000C
100
AcDbEntity
  8
Bemassung
 62
     0
370
    -2
100
AcDbBlockReference
  2
VDDIM_DEFAULT
 10
-0.9315198578480288
 20
13.32409738263899
 30
0.0
 41
2.5
 42
2.5
 43
2.5
 50
270.0
  0
MTEXT
  5
F10B30
330
F1000C
100
AcDbEntity
  8
Bemassung
 62
     0
100
AcDbMText
 10
-1.556519857848028
 20
22.58739888332112
 30
0.0
 40
2.5
 41
0.0
 71
     8
 72
     1
  1
\A1;%%c3.8
 11
0.0000000000000001
 21
1.0
 31
0.0
 73
     1
 44
1.0
1001
ACAD
1000
MTEXTBEGIN
1070
    73
1070
     1
1070
    44
1040
1.0
1070
    74
1070
     0
1000
MTEXTEND
  0
POINT
  5
F10B31
330
F1000C
100
AcDbEntity
  8
Defpoints
 62
     0
100
AcDbPoint
 10
-1.200653392504789
 20
9.524097382638991
 30
0.0
  0
POINT
  5
F10B32
330
F1000C
100
AcDbEntity
  8
Defpoints
 62
     0
100
AcDbPoint
 10
-1.200653392504789
 20
13.32409738263899
 30
0.0
  0
POINT
  5
F10B33
330
F1000C
100
AcDbEntity
  8
Defpoints
 62
     0
100
AcDbPoint
 10
-0.9315198578480288
 20
13.32409738263899
 30
0.0
  0
ENDBLK
  5
F1008F
330
F1000C
100
AcDbEntity
  8
0
100
AcDbBlockEnd
  0
BLOCK
  5
F10090
330
F1001B
100
AcDbEntity
  8
0
100
AcDbBlockBegin
  2
*D12
 70
     1
 10
0.0
 20
0.0
 30
0.0
  3
*D12
  1

  0
LINE
  5
F10B3D
330
F1001B
100
AcDbEntity
  8
Bemassung
 62
     0
370
    -2
100
AcDbLine
 10
42.99287452060808
 20
8.424097382638992
 30
0.0
 11
54.0178745206081
 21
8.42409738263899
 31
0.0
  0
LINE
  5
F10B3E
330
F1001B
100
AcDbEntity
  8
Bemassung
 62
     0
370
    -2
100
AcDbLine
 10
42.99287452060808
 20
14.42409738263899
 30
0.0
 11
54.0178745206081
 21
14.42409738263899
 31
0.0
  0
LINE
  5
F10B3F
330
F1001B
100
AcDbEntity
  8
Bemassung
 62
     0
370
    -2
100
AcDbLine
 10
52.7678745206081
 20
5.924097382638989
 30
0.0
 11
52.7678745206081
 21
3.424097382638991
 31
0.0
  0
LINE
  5
F10B40
330
F1001B
100
AcDbEntity
  8
Bemassung
 62
     0
370
    -2
100
AcDbLine
 10
52.76787452060811
 20
16.92409738263899
 30
0.0
 11
52.76787452060811
 21
29.88623926531295
 31
0.0
  0
LINE
  5
F10B41
330
F1001B
100
AcDbEntity
  8
Bemassung
 62
     0
370
    -2
100
AcDbLine
 10
52.7678745206081
 20
8.42409738263899
 30
0.0
 11
52.7678745206081
 21
14.42409738263899
 31
0.0
  0
INSERT
  5
F10B42
330
F1001B
100
AcDbEntity
  8
Bemassung
 62
     0
370
    -2
100
AcDbBlockReference
  2
VDDIM_DEFAULT
 10
52.7678745206081
 20
8.42409738263899
 30
0.0
 41
2.5
 42
2.5
 43
2.5
 50
90.0
  0
INSERT
  5
F10B43
330
F1001B
100
AcDbEntity
  8
Bemassung
 62
     0
370
    -2
100
AcDbBlockReference
  2
VDDIM_DEFAULT
 10
52.7678745206081
 20
14.42409738263899
 30
0.0
 41
2.5
 42
2.5
 43
2.5
 50
270.0
  0
MTEXT
  5
F10B44
330
F1001B
100
AcDbEntity
  8
Bemassung
 62
     0
100
AcDbMText
 10
52.1428745206081
 20
24.65516832397597
 30
0.0
 40
2.5
 41
0.0
 71
     8
 72
     1
  1
\A1;%%c6 h6
 11
0.0000000000000001
 21
1.0
 31
0.0
 73
     1
 44
1.0
1001
ACAD
1000
MTEXTBEGIN
1070
    73
1070
     1
1070
    44
1040
1.0
1070
    74
1070
     0
1000
MTEXTEND
  0
POINT
  5
F10B45
330
F1001B
100
AcDbEntity
  8
Defpoints
 62
     0
100
AcDbPoint
 10
42.36787452060809
 20
8.424097382638992
 30
0.0
  0
POINT
  5
F10B46
330
F1001B
100
AcDbEntity
  8
Defpoints
 62
     0
100
AcDbPoint
 10
42.36787452060809
 20
14.42409738263899
 30
0.0
  0
POINT
  5
F10B47
330
F1001B
100
AcDbEntity
  8
Defpoints
 62
     0
100
AcDbPoint
 10
52.7678745206081
 20
14.42409738263899
 30
0.0
  0
ENDBLK
  5
F10099
330
F1001B
100
AcDbEntity
  8
0
100
AcDbBlockEnd
  0
BLOCK
  5
F10A38
330
F10A36
100
AcDbEntity
  8
0
100
AcDbBlockBegin
  2
GENAXEH
 70
     0
 10
0.0
 20
0.0
 30
0.0
  3
GENAXEH
  1

  0
LINE
  5
F10A37
330
F10A36
100
AcDbEntity
  8
0
100
AcDbLine
 10
-1.0
 20
0.0
 30
0.0
 11
1.0
 21
0.0
 31
0.0
  0
ENDBLK
  5
F10A39
330
F10A36
100
AcDbEntity
  8
0
100
AcDbBlockEnd
  0
ENDSEC
  0
SECTION
  2
ENTITIES
  0
DIMENSION
  5
F10017
330
261
100
AcDbEntity
  8
Bemassung
100
AcDbDimension
  2
*D4
 10
42.7678745206081
 20
34.42409738263899
 30
0.0
 11
24.7678745206081
 21
36.32638251224336
 31
0.0
 70
    32
  1
<>
 71
     8
 42
36.0
  3
BEM-ISBE
100
AcDbAlignedDimension
 13
6.767874520608102
 23
14.42409738263899
 33
0.0
 14
42.7678745206081
 24
14.02409738263899
 34
0.0
100
AcDbRotatedDimension
1001
ACAD
1000
DSTYLE
1002
{
1070
   147
1040
0.625
1070
    72
1070
     0
1070
    71
1070
     0
1070
   284
1070
     8
1070
    78
1070
     8
1070
   144
1040
1.0
1070
    47
1040
2.0
1070
    48
1040
0.0
1002
}
  0
DIMENSION
  5
F10021
330
261
100
AcDbEntity
  8
Bemassung
100
AcDbDimension
  2
*D5
 10
-14.23212547939189
 20
-1.575902617361005
 30
0.0
 11
-8.732125479391896
 21
0.3042133444398107
 31
0.0
 70
    32
  1
<>
 71
     8
 42
11.0
  3
BEM-ISBE
100
AcDbAlignedDimension
 13
-3.232125479391896
 23
9.529560231533292
 33
0.0
 14
-14.23212547939189
 24
11.81912959519269
 34
0.0
100
AcDbRotatedDimension
1001
ACAD
1000
DSTYLE
1002
{
1070
   147
1040
0.625
1070
    72
1070
     0
1070
    71
1070
     0
1070
   284
1070
     8
1070
    78
1070
     8
1070
   144
1040
1.0
1070
    47
1040
1.5
1070
    48
1040
0.0
1002
}
  0
DIMENSION
  5
F1002B
330
261
100
AcDbEntity
  8
Bemassung
100
AcDbDimension
  2
*D7
 10
-14.23212547939189
 20
49.42409738263899
 30
0.0
 11
14.2678745206081
 21
51.3204138901424
 31
0.0
 70
    32
  1
<>
 71
     8
 42
57.0
  3
BEM-ISBE
100
AcDbAlignedDimension
 13
42.7678745206081
 23
14.02409738263899
 33
0.0
 14
-14.23212547939189
 24
11.81912959519269
 34
0.0
100
AcDbRotatedDimension
1001
ACAD
1000
DSTYLE
1002
{
1070
   147
1040
0.625
1070
    72
1070
     0
1070
    71
1070
     0
1070
   284
1070
     8
1070
    78
1070
     8
1070
   144
1040
1.0
1070
    47
1040
2.0
1070
    48
1040
0.0
1002
}
  0
DIMENSION
  5
F10030
330
261
100
AcDbEntity
  8
Bemassung
100
AcDbDimension
  2
*D8
 10
-14.23212547939189
 20
34.10157521336349
 30
0.0
 11
-7.232125479391887
 21
35.98169117516431
 31
0.0
 70
    32
  1
<>
 71
     8
 42
14.0
  3
BEM-ISBE
100
AcDbAlignedDimension
 13
-0.2321254793918896
 23
13.42409738263899
 33
0.0
 14
-14.23212547939189
 24
11.42409738263899
 34
0.0
100
AcDbRotatedDimension
1001
ACAD
1000
DSTYLE
1002
{
1070
   284
1070
     8
1070
    78
1070
     8
1070
   144
1040
1.0
1070
   147
1040
0.625
1070
    72
1070
     0
1070
    71
1070
     0
1002
}
  0
DIMENSION
  5
F10008
330
261
100
AcDbEntity
  8
Bemassung
100
AcDbDimension
  2
*D10
 10
-24.23212547939169
 20
13.42409738263899
 30
0.0
 11
-26.2034760933071
 21
21.22338114798688
 31
0.0
 70
    32
  1
%%c<>
 71
     8
 42
4.0
  3
BEM-ISBE
100
AcDbAlignedDimension
 13
-14.1321254793919
 23
9.424097382638992
 33
0.0
 14
-14.1321254793919
 24
13.42409738263899
 34
0.0
 50
90.0
100
AcDbRotatedDimension
1001
ACAD
1000
DSTYLE
1002
{
1070
   147
1040
0.625
1070
    72
1070
     0
1070
    71
1070
     0
1070
   284
1070
     8
1070
    78
1070
     8
1070
   144
1040
1.0
1070
    47
1040
0.0
1070
    48
1040
-0.048
1002
}
  0
DIMENSION
  5
F1001C
330
261
100
AcDbEntity
  8
Bemassung
100
AcDbDimension
  2
*D12
 10
52.7678745206081
 20
14.42409738263899
 30
0.0
 11
50.79652390669267
 21
24.65516832397597
 31
0.0
 70
    32
  1
%%c<> h6
 71
     8
 42
6.0
  3
BEM-ISBE
100
AcDbAlignedDimension
 13
42.36787452060809
 23
8.424097382638992
 33
0.0
 14
42.36787452060809
 24
14.42409738263899
 34
0.0
 50
90.0
100
AcDbRotatedDimension
1001
ACAD
1000
DSTYLE
1002
{
1070
   284
1070
     8
1070
    78
1070
     8
1070
   144
1040
1.0
1070
   147
1040
0.625
1070
    72
1070
     0
1070
    71
1070
     0
1002
}
  0
LINE
  5
F1009A
330
261
100
AcDbEntity
  8
Geo
100
AcDbLine
 10
-14.23212547939189
 20
11.42409738263899
 30
0.0
 11
-14.23212547939189
 21
13.32409738263899
 31
0.0
  0
LINE
  5
F1009C
330
261
100
AcDbEntity
  8
Geo
100
AcDbLine
 10
-14.23212547939189
 20
13.32409738263899
 30
0.0
 11
-14.1321254793919
 21
13.42409738263899
 31
0.0
  0
LINE
  5
F1009E
330
261
100
AcDbEntity
  8
Geo
100
AcDbLine
 10
-14.1321254793919
 20
13.42409738263899
 30
0.0
 11
-0.2321254793918896
 21
13.42409738263899
 31
0.0
  0
LINE
  5
F100A4
330
261
100
AcDbEntity
  8
Geo
100
AcDbLine
 10
-0.232125479391889
 20
13.42409738263899
 30
0.0
 11
3.499925328176987
 21
14.42409738263899
 31
0.0
  0
LINE
  5
F100A6
330
261
100
AcDbEntity
  8
Geo
100
AcDbLine
 10
3.499925328176987
 20
14.42409738263899
 30
0.0
 11
21.76787452060811
 21
14.42409738263899
 31
0.0
  0
LINE
  5
F100A8
330
261
100
AcDbEntity
  8
Geo
100
AcDbLine
 10
21.76787452060811
 20
14.42409738263899
 30
0.0
 11
22.6678745206081
 21
13.52409738263899
 31
0.0
  0
LINE
  5
F100AA
330
261
100
AcDbEntity
  8
Geo
100
AcDbLine
 10
22.6678745206081
 20
13.52409738263899
 30
0.0
 11
26.8678745206081
 21
13.52409738263899
 31
0.0
  0
LINE
  5
F100AC
330
261
100
AcDbEntity
  8
Geo
100
AcDbLine
 10
26.8678745206081
 20
13.52409738263899
 30
0.0
 11
27.76787452060811
 21
14.42409738263899
 31
0.0
  0
LINE
  5
F100AE
330
261
100
AcDbEntity
  8
Geo
100
AcDbLine
 10
27.76787452060811
 20
14.42409738263899
 30
0.0
 11
42.36787452060809
 21
14.42409738263899
 31
0.0
  0
LINE
  5
F100B0
330
261
100
AcDbEntity
  8
Geo
100
AcDbLine
 10
42.36787452060809
 20
14.42409738263899
 30
0.0
 11
42.7678745206081
 21
14.02409738263899
 31
0.0
  0
LINE
  5
F100B2
330
261
100
AcDbEntity
  8
Geo
100
AcDbLine
 10
-13.73212547939189
 20
13.42383437939419
 30
0.0
 11
-13.6321254793919
 21
13.42359444061019
 31
0.0
  0
LINE
  5
F100B4
330
261
100
AcDbEntity
  8
Geo
100
AcDbLine
 10
-13.6321254793919
 20
13.42359444061019
 30
0.0
 11
-13.53212547939189
 21
13.42036884650789
 31
0.0
  0
LINE
  5
F100B6
330
261
100
AcDbEntity
  8
Geo
100
AcDbLine
 10
-13.53212547939189
 20
13.42036884650789
 30
0.0
 11
-13.4321254793919
 21
13.41416241355479
 31
0.0
  0
LINE
  5
F100B8
330
261
100
AcDbEntity
  8
Geo
100
AcDbLine
 10
-13.4321254793919
 20
13.41416241355479
 30
0.0
 11
-13.3321254793919
 21
13.40498440921599
 31
0.0
  0
LINE
  5
F100BA
330
261
100
AcDbEntity
  8
Geo
100
AcDbLine
 10
-13.3321254793919
 20
13.40498440921599
 30
0.0
 11
-13.2321254793919
 21
13.39284853811669
 31
0.0
  0
LINE
  5
F100BC
330
261
100
AcDbEntity
  8
Geo
100
AcDbLine
 10
-13.2321254793919
 20
13.39284853811669
 30
0.0
 11
-13.1321254793919
 21
13.37777292157779
 31
0.0
  0
LINE
  5
F100BE
330
261
100
AcDbEntity
  8
Geo
100
AcDbLine
 10
-13.1321254793919
 20
13.37777292157779
 30
0.0
 11
-13.03212547939189
 21
13.35978007055759
 31
0.0
  0
LINE
  5
F100C0
330
261
100
AcDbEntity
  8
Geo
100
AcDbLine
 10
-13.03212547939189
 20
13.35978007055759
 30
0.0
 11
-12.9321254793919
 21
13.33889685203799
 31
0.0
  0
LINE
  5
F100C2
330
261
100
AcDbEntity
  8
Geo
100
AcDbLine
 10
-12.9321254793919
 20
13.33889685203799
 30
0.0
 11
-12.8321254793919
 21
13.31515444890679
 31
0.0
  0
LINE
  5
F100C4
330
261
100
AcDbEntity
  8
Geo
100
AcDbLine
 10
-12.8321254793919
 20
13.31515444890679
 30
0.0
 11
-12.7321254793919
 21
13.28858831339529
 31
0.0
  0
LINE
  5
F100C6
330
261
100
AcDbEntity
  8
Geo
100
AcDbLine
 10
-12.7321254793919
 20
13.28858831339529
 30
0.0
 11
-12.6321254793919
 21
13.25923811414089
 31
0.0
  0
LINE
  5
F100C8
330
261
100
AcDbEntity
  8
Geo
100
AcDbLine
 10
-12.6321254793919
 20
13.25923811414089
 30
0.0
 11
-12.53212547939189
 21
13.22714767695379
 31
0.0
  0
LINE
  5
F100CA
330
261
100
AcDbEntity
  8
Geo
100
AcDbLine
 10
-12.53212547939189
 20
13.22714767695379
 30
0.0
 11
-12.4321254793919
 21
13.19236491937599
 31
0.0
  0
LINE
  5
F100CC
330
261
100
AcDbEntity
  8
Geo
100
AcDbLine
 10
-12.4321254793919
 20
13.19236491937599
 30
0.0
 11
-12.3321254793919
 21
13.15494177913099
 31
0.0
  0
LINE
  5
F100CE
330
261
100
AcDbEntity
  8
Geo
100
AcDbLine
 10
-12.3321254793919
 20
13.15494177913099
 30
0.0
 11
-12.23212547939189
 21
13.11493413656999
 31
0.0
  0
LINE
  5
F100D0
330
261
100
AcDbEntity
  8
Geo
100
AcDbLine
 10
-12.23212547939189
 20
13.11493413656999
 30
0.0
 11
-12.1321254793919
 21
13.07240173123089
 31
0.0
  0
LINE
  5
F100D2
330
261
100
AcDbEntity
  8
Geo
100
AcDbLine
 10
-12.1321254793919
 20
13.07240173123089
 30
0.0
 11
-12.03212547939189
 21
13.02740807263589
 31
0.0
  0
LINE
  5
F100D4
330
261
100
AcDbEntity
  8
Geo
100
AcDbLine
 10
-12.03212547939189
 20
13.02740807263589
 30
0.0
 11
-11.9321254793919
 21
12.98002034545779
 31
0.0
  0
LINE
  5
F100D6
330
261
100
AcDbEntity
  8
Geo
100
AcDbLine
 10
-11.9321254793919
 20
12.98002034545779
 30
0.0
 11
-11.8321254793919
 21
12.93030930920059
 31
0.0
  0
LINE
  5
F100D8
330
261
100
AcDbEntity
  8
Geo
100
AcDbLine
 10
-11.8321254793919
 20
12.93030930920059
 30
0.0
 11
-11.73212547939189
 21
12.87834919254039
 31
0.0
  0
LINE
  5
F100DA
330
261
100
AcDbEntity
  8
Geo
100
AcDbLine
 10
-11.73212547939189
 20
12.87834919254039
 30
0.0
 11
-11.6321254793919
 21
12.82421758248739
 31
0.0
  0
LINE
  5
F100DC
330
261
100
AcDbEntity
  8
Geo
100
AcDbLine
 10
-11.6321254793919
 20
12.82421758248739
 30
0.0
 11
-11.53212547939189
 21
12.76799530853259
 31
0.0
  0
LINE
  5
F100DE
330
261
100
AcDbEntity
  8
Geo
100
AcDbLine
 10
-11.53212547939189
 20
12.76799530853259
 30
0.0
 11
-11.4321254793919
 21
12.70976632195309
 31
0.0
  0
LINE
  5
F100E0
330
261
100
AcDbEntity
  8
Geo
100
AcDbLine
 10
-11.4321254793919
 20
12.70976632195309
 30
0.0
 11
-11.3321254793919
 21
12.64961757045519
 31
0.0
  0
LINE
  5
F100E2
330
261
100
AcDbEntity
  8
Geo
100
AcDbLine
 10
-11.3321254793919
 20
12.64961757045519
 30
0.0
 11
-11.23212547939189
 21
12.58763886834469
 31
0.0
  0
LINE
  5
F100E4
330
261
100
AcDbEntity
  8
Geo
100
AcDbLine
 10
-11.23212547939189
 20
12.58763886834469
 30
0.0
 11
-11.1321254793919
 21
12.52392276241509
 31
0.0
  0
LINE
  5
F100E6
330
261
100
AcDbEntity
  8
Geo
100
AcDbLine
 10
-11.1321254793919
 20
12.52392276241509
 30
0.0
 11
-11.03212547939189
 21
12.45856439375689
 31
0.0
  0
LINE
  5
F100E8
330
261
100
AcDbEntity
  8
Geo
100
AcDbLine
 10
-11.03212547939189
 20
12.45856439375689
 30
0.0
 11
-10.9321254793919
 21
12.39166135569249
 31
0.0
  0
LINE
  5
F100EA
330
261
100
AcDbEntity
  8
Geo
100
AcDbLine
 10
-10.9321254793919
 20
12.39166135569249
 30
0.0
 11
-10.8321254793919
 21
12.32331354804959
 31
0.0
  0
LINE
  5
F100EC
330
261
100
AcDbEntity
  8
Geo
100
AcDbLine
 10
-10.8321254793919
 20
12.32331354804959
 30
0.0
 11
-10.73212547939189
 21
12.25362302799009
 31
0.0
  0
LINE
  5
F100EE
330
261
100
AcDbEntity
  8
Geo
100
AcDbLine
 10
-10.73212547939189
 20
12.25362302799009
 30
0.0
 11
-10.6321254793919
 21
12.18269385761869
 31
0.0
  0
LINE
  5
F100F0
330
261
100
AcDbEntity
  8
Geo
100
AcDbLine
 10
-10.6321254793919
 20
12.18269385761869
 30
0.0
 11
-10.53212547939189
 21
12.11063194859639
 31
0.0
  0
LINE
  5
F100F2
330
261
100
AcDbEntity
  8
Geo
100
AcDbLine
 10
-10.53212547939189
 20
12.11063194859639
 30
0.0
 11
-10.4321254793919
 21
12.03754490399319
 31
0.0
  0
LINE
  5
F100F4
330
261
100
AcDbEntity
  8
Geo
100
AcDbLine
 10
-10.4321254793919
 20
12.03754490399319
 30
0.0
 11
-10.3321254793919
 21
11.96354185761489
 31
0.0
  0
LINE
  5
F100F6
330
261
100
AcDbEntity
  8
Geo
100
AcDbLine
 10
-10.3321254793919
 20
11.96354185761489
 30
0.0
 11
-10.2321254793919
 21
11.88873331104379
 31
0.0
  0
LINE
  5
F100F8
330
261
100
AcDbEntity
  8
Geo
100
AcDbLine
 10
-10.2321254793919
 20
11.88873331104379
 30
0.0
 11
-10.1321254793919
 21
11.81323096863789
 31
0.0
  0
LINE
  5
F100FA
330
261
100
AcDbEntity
  8
Geo
100
AcDbLine
 10
-10.1321254793919
 20
11.81323096863789
 30
0.0
 11
-10.03212547939189
 21
11.73714757073299
 31
0.0
  0
LINE
  5
F100FC
330
261
100
AcDbEntity
  8
Geo
100
AcDbLine
 10
-10.03212547939189
 20
11.73714757073299
 30
0.0
 11
-9.932125479391899
 21
11.66059672529919
 31
0.0
  0
LINE
  5
F100FE
330
261
100
AcDbEntity
  8
Geo
100
AcDbLine
 10
-9.932125479391899
 20
11.66059672529919
 30
0.0
 11
-9.832125479391903
 21
11.58369273830049
 31
0.0
  0
LINE
  5
F10100
330
261
100
AcDbEntity
  8
Geo
100
AcDbLine
 10
-9.832125479391903
 20
11.58369273830049
 30
0.0
 11
-9.732125479391896
 21
11.50655044301289
 31
0.0
  0
LINE
  5
F10102
330
261
100
AcDbEntity
  8
Geo
100
AcDbLine
 10
-9.732125479391896
 20
11.50655044301289
 30
0.0
 11
-9.632125479391902
 21
11.42928502855529
 31
0.0
  0
LINE
  5
F10104
330
261
100
AcDbEntity
  8
Geo
100
AcDbLine
 10
-9.632125479391902
 20
11.42928502855529
 30
0.0
 11
-9.532125479391893
 21
11.35201186788849
 31
0.0
  0
LINE
  5
F10106
330
261
100
AcDbEntity
  8
Geo
100
AcDbLine
 10
-9.532125479391893
 20
11.35201186788849
 30
0.0
 11
-9.432125479391899
 21
11.27484634553979
 31
0.0
  0
LINE
  5
F10108
330
261
100
AcDbEntity
  8
Geo
100
AcDbLine
 10
-9.432125479391899
 20
11.27484634553979
 30
0.0
 11
-9.332125479391903
 21
11.19790368531079
 31
0.0
  0
LINE
  5
F1010A
330
261
100
AcDbEntity
  8
Geo
100
AcDbLine
 10
-9.332125479391903
 20
11.19790368531079
 30
0.0
 11
-9.232125479391896
 21
11.12129877822469
 31
0.0
  0
LINE
  5
F1010C
330
261
100
AcDbEntity
  8
Geo
100
AcDbLine
 10
-9.232125479391896
 20
11.12129877822469
 30
0.0
 11
-9.132125479391902
 21
11.04514601097029
 31
0.0
  0
LINE
  5
F1010E
330
261
100
AcDbEntity
  8
Geo
100
AcDbLine
 10
-9.132125479391902
 20
11.04514601097029
 30
0.0
 11
-9.032125479391893
 21
10.96955909510029
 31
0.0
  0
LINE
  5
F10110
330
261
100
AcDbEntity
  8
Geo
100
AcDbLine
 10
-9.032125479391893
 20
10.96955909510029
 30
0.0
 11
-8.932125479391897
 21
10.89465089723599
 31
0.0
  0
LINE
  5
F10112
330
261
100
AcDbEntity
  8
Geo
100
AcDbLine
 10
-8.932125479391897
 20
10.89465089723599
 30
0.0
 11
-8.832125479391903
 21
10.82053327053479
 31
0.0
  0
LINE
  5
F10114
330
261
100
AcDbEntity
  8
Geo
100
AcDbLine
 10
-8.832125479391903
 20
10.82053327053479
 30
0.0
 11
-8.732125479391896
 21
10.74731688767089
 31
0.0
  0
LINE
  5
F10116
330
261
100
AcDbEntity
  8
Geo
100
AcDbLine
 10
-8.732125479391896
 20
10.74731688767089
 30
0.0
 11
-8.632125479391902
 21
10.67511107557829
 31
0.0
  0
LINE
  5
F10118
330
261
100
AcDbEntity
  8
Geo
100
AcDbLine
 10
-8.632125479391902
 20
10.67511107557829
 30
0.0
 11
-8.532125479391893
 21
10.60402365220339
 31
0.0
  0
LINE
  5
F1011A
330
261
100
AcDbEntity
  8
Geo
100
AcDbLine
 10
-8.532125479391893
 20
10.60402365220339
 30
0.0
 11
-8.432125479391897
 21
10.53416076551139
 31
0.0
  0
LINE
  5
F1011C
330
261
100
AcDbEntity
  8
Geo
100
AcDbLine
 10
-8.432125479391897
 20
10.53416076551139
 30
0.0
 11
-8.332125479391905
 21
10.46562673498499
 31
0.0
  0
LINE
  5
F1011E
330
261
100
AcDbEntity
  8
Geo
100
AcDbLine
 10
-8.332125479391905
 20
10.46562673498499
 30
0.0
 11
-8.232125479391896
 21
10.39852389585509
 31
0.0
  0
LINE
  5
F10120
330
261
100
AcDbEntity
  8
Geo
100
AcDbLine
 10
-8.232125479391896
 20
10.39852389585509
 30
0.0
 11
-8.132125479391902
 21
10.33295244629269
 31
0.0
  0
LINE
  5
F10122
330
261
100
AcDbEntity
  8
Geo
100
AcDbLine
 10
-8.132125479391902
 20
10.33295244629269
 30
0.0
 11
-8.032125479391893
 21
10.26901029779339
 31
0.0
  0
LINE
  5
F10124
330
261
100
AcDbEntity
  8
Geo
100
AcDbLine
 10
-8.032125479391893
 20
10.26901029779339
 30
0.0
 11
-7.932125479391897
 21
10.20679292897509
 31
0.0
  0
LINE
  5
F10126
330
261
100
AcDbEntity
  8
Geo
100
AcDbLine
 10
-7.932125479391897
 20
10.20679292897509
 30
0.0
 11
-7.832125479391905
 21
10.14639324300939
 31
0.0
  0
LINE
  5
F10128
330
261
100
AcDbEntity
  8
Geo
100
AcDbLine
 10
-7.832125479391905
 20
10.14639324300939
 30
0.0
 11
-7.732125479391896
 21
10.08790142889779
 31
0.0
  0
LINE
  5
F1012A
330
261
100
AcDbEntity
  8
Geo
100
AcDbLine
 10
-7.732125479391896
 20
10.08790142889779
 30
0.0
 11
-7.632125479391902
 21
10.03140482680199
 31
0.0
  0
LINE
  5
F1012C
330
261
100
AcDbEntity
  8
Geo
100
AcDbLine
 10
-7.632125479391902
 20
10.03140482680199
 30
0.0
 11
-7.532125479391893
 21
9.976987797626488
 31
0.0
  0
LINE
  5
F1012E
330
261
100
AcDbEntity
  8
Geo
100
AcDbLine
 10
-7.532125479391893
 20
9.976987797626488
 30
0.0
 11
-7.432125479391897
 21
9.924731597050989
 31
0.0
  0
LINE
  5
F10130
330
261
100
AcDbEntity
  8
Geo
100
AcDbLine
 10
-7.432125479391897
 20
9.924731597050989
 30
0.0
 11
-7.332125479391905
 21
9.874714254199092
 31
0.0
  0
LINE
  5
F10132
330
261
100
AcDbEntity
  8
Geo
100
AcDbLine
 10
-7.332125479391905
 20
9.874714254199092
 30
0.0
 11
-7.232125479391896
 21
9.827010455125092
 31
0.0
  0
LINE
  5
F10134
330
261
100
AcDbEntity
  8
Geo
100
AcDbLine
 10
-7.232125479391896
 20
9.827010455125092
 30
0.0
 11
-7.132125479391902
 21
9.781691431292292
 31
0.0
  0
LINE
  5
F10136
330
261
100
AcDbEntity
  8
Geo
100
AcDbLine
 10
-7.132125479391902
 20
9.781691431292292
 30
0.0
 11
-7.032125479391893
 21
9.738824853210095
 31
0.0
  0
LINE
  5
F10138
330
261
100
AcDbEntity
  8
Geo
100
AcDbLine
 10
-7.032125479391893
 20
9.738824853210095
 30
0.0
 11
-6.932125479391897
 21
9.698474729388292
 31
0.0
  0
LINE
  5
F1013A
330
261
100
AcDbEntity
  8
Geo
100
AcDbLine
 10
-6.932125479391897
 20
9.698474729388292
 30
0.0
 11
-6.832125479391905
 21
9.660701310759188
 31
0.0
  0
LINE
  5
F1013C
330
261
100
AcDbEntity
  8
Geo
100
AcDbLine
 10
-6.832125479391905
 20
9.660701310759188
 30
0.0
 11
-6.732125479391896
 21
9.62556100071049
 31
0.0
  0
LINE
  5
F1013E
330
261
100
AcDbEntity
  8
Geo
100
AcDbLine
 10
-6.732125479391896
 20
9.62556100071049
 30
0.0
 11
-6.632125479391902
 21
9.59310627086419
 31
0.0
  0
LINE
  5
F10140
330
261
100
AcDbEntity
  8
Geo
100
AcDbLine
 10
-6.632125479391902
 20
9.59310627086419
 30
0.0
 11
-6.532125479391893
 21
9.563385582725391
 31
0.0
  0
LINE
  5
F10142
330
261
100
AcDbEntity
  8
Geo
100
AcDbLine
 10
-6.532125479391893
 20
9.563385582725391
 30
0.0
 11
-6.432125479391897
 21
9.536443315319386
 31
0.0
  0
LINE
  5
F10144
330
261
100
AcDbEntity
  8
Geo
100
AcDbLine
 10
-6.432125479391897
 20
9.536443315319386
 30
0.0
 11
-6.332125479391905
 21
9.512319698924887
 31
0.0
  0
LINE
  5
F10146
330
261
100
AcDbEntity
  8
Geo
100
AcDbLine
 10
-6.332125479391905
 20
9.512319698924887
 30
0.0
 11
-6.232125479391896
 21
9.491050755002092
 31
0.0
  0
LINE
  5
F10148
330
261
100
AcDbEntity
  8
Geo
100
AcDbLine
 10
-6.232125479391896
 20
9.491050755002092
 30
0.0
 11
-6.132125479391902
 21
9.472668242405193
 31
0.0
  0
LINE
  5
F1014A
330
261
100
AcDbEntity
  8
Geo
100
AcDbLine
 10
-6.132125479391902
 20
9.472668242405193
 30
0.0
 11
-6.032125479391893
 21
9.457199609959992
 31
0.0
  0
LINE
  5
F1014C
330
261
100
AcDbEntity
  8
Geo
100
AcDbLine
 10
-6.032125479391893
 20
9.457199609959992
 30
0.0
 11
-5.932125479391897
 21
9.444667955477187
 31
0.0
  0
LINE
  5
F1014E
330
261
100
AcDbEntity
  8
Geo
100
AcDbLine
 10
-5.932125479391897
 20
9.444667955477187
 30
0.0
 11
-5.832125479391905
 21
9.435091991262993
 31
0.0
  0
LINE
  5
F10150
330
261
100
AcDbEntity
  8
Geo
100
AcDbLine
 10
-5.832125479391905
 20
9.435091991262993
 30
0.0
 11
-5.732125479391896
 21
9.428486016177293
 31
0.0
  0
LINE
  5
F10152
330
261
100
AcDbEntity
  8
Geo
100
AcDbLine
 10
-5.732125479391896
 20
9.428486016177293
 30
0.0
 11
-5.632125479391902
 21
9.424859894282887
 31
0.0
  0
LINE
  5
F10154
330
261
100
AcDbEntity
  8
Geo
100
AcDbLine
 10
-14.23212547939189
 20
12.76760026689339
 30
0.0
 11
-14.1321254793919
 21
12.78261726992209
 31
0.0
  0
LINE
  5
F10156
330
261
100
AcDbEntity
  8
Geo
100
AcDbLine
 10
-14.1321254793919
 20
12.78261726992209
 30
0.0
 11
-14.03212547939189
 21
12.72489504864839
 31
0.0
  0
LINE
  5
F10158
330
261
100
AcDbEntity
  8
Geo
100
AcDbLine
 10
-14.03212547939189
 20
12.72489504864839
 30
0.0
 11
-13.9321254793919
 21
12.66523047219399
 31
0.0
  0
LINE
  5
F1015A
330
261
100
AcDbEntity
  8
Geo
100
AcDbLine
 10
-13.9321254793919
 20
12.66523047219399
 30
0.0
 11
-13.8321254793919
 21
12.60371263189269
 31
0.0
  0
LINE
  5
F1015C
330
261
100
AcDbEntity
  8
Geo
100
AcDbLine
 10
-13.8321254793919
 20
12.60371263189269
 30
0.0
 11
-13.73212547939189
 21
12.54043338637789
 31
0.0
  0
LINE
  5
F1015E
330
261
100
AcDbEntity
  8
Geo
100
AcDbLine
 10
-13.73212547939189
 20
12.54043338637789
 30
0.0
 11
-13.6321254793919
 21
12.47548722441869
 31
0.0
  0
LINE
  5
F10160
330
261
100
AcDbEntity
  8
Geo
100
AcDbLine
 10
-13.6321254793919
 20
12.47548722441869
 30
0.0
 11
-13.53212547939189
 21
12.40897112382919
 31
0.0
  0
LINE
  5
F10162
330
261
100
AcDbEntity
  8
Geo
100
AcDbLine
 10
-13.53212547939189
 20
12.40897112382919
 30
0.0
 11
-13.4321254793919
 21
12.34098440666059
 31
0.0
  0
LINE
  5
F10164
330
261
100
AcDbEntity
  8
Geo
100
AcDbLine
 10
-13.4321254793919
 20
12.34098440666059
 30
0.0
 11
-13.3321254793919
 21
12.27162859089369
 31
0.0
  0
LINE
  5
F10166
330
261
100
AcDbEntity
  8
Geo
100
AcDbLine
 10
-13.3321254793919
 20
12.27162859089369
 30
0.0
 11
-13.2321254793919
 21
12.20100723885149
 31
0.0
  0
LINE
  5
F10168
330
261
100
AcDbEntity
  8
Geo
100
AcDbLine
 10
-13.2321254793919
 20
12.20100723885149
 30
0.0
 11
-13.1321254793919
 21
12.12922580255969
 31
0.0
  0
LINE
  5
F1016A
330
261
100
AcDbEntity
  8
Geo
100
AcDbLine
 10
-13.1321254793919
 20
12.12922580255969
 30
0.0
 11
-13.03212547939189
 21
12.05639146628569
 31
0.0
  0
LINE
  5
F1016C
330
261
100
AcDbEntity
  8
Geo
100
AcDbLine
 10
-13.03212547939189
 20
12.05639146628569
 30
0.0
 11
-12.9321254793919
 21
11.98261298649009
 31
0.0
  0
LINE
  5
F1016E
330
261
100
AcDbEntity
  8
Geo
100
AcDbLine
 10
-12.9321254793919
 20
11.98261298649009
 30
0.0
 11
-12.8321254793919
 21
11.90800052943199
 31
0.0
  0
LINE
  5
F10170
330
261
100
AcDbEntity
  8
Geo
100
AcDbLine
 10
-12.8321254793919
 20
11.90800052943199
 30
0.0
 11
-12.7321254793919
 21
11.83266550666769
 31
0.0
  0
LINE
  5
F10172
330
261
100
AcDbEntity
  8
Geo
100
AcDbLine
 10
-12.7321254793919
 20
11.83266550666769
 30
0.0
 11
-12.6321254793919
 21
11.75672040869099
 31
0.0
  0
LINE
  5
F10174
330
261
100
AcDbEntity
  8
Geo
100
AcDbLine
 10
-12.6321254793919
 20
11.75672040869099
 30
0.0
 11
-12.53212547939189
 21
11.68027863696188
 31
0.0
  0
LINE
  5
F10176
330
261
100
AcDbEntity
  8
Geo
100
AcDbLine
 10
-12.53212547939189
 20
11.68027863696188
 30
0.0
 11
-12.4321254793919
 21
11.60345433457528
 31
0.0
  0
LINE
  5
F10178
330
261
100
AcDbEntity
  8
Geo
100
AcDbLine
 10
-12.4321254793919
 20
11.60345433457528
 30
0.0
 11
-12.3321254793919
 21
11.52636221582189
 31
0.0
  0
LINE
  5
F1017A
330
261
100
AcDbEntity
  8
Geo
100
AcDbLine
 10
-12.3321254793919
 20
11.52636221582189
 30
0.0
 11
-12.23212547939189
 21
11.44911739489669
 31
0.0
  0
LINE
  5
F1017C
330
261
100
AcDbEntity
  8
Geo
100
AcDbLine
 10
-12.23212547939189
 20
11.44911739489669
 30
0.0
 11
-12.1321254793919
 21
11.37183521401029
 31
0.0
  0
LINE
  5
F1017E
330
261
100
AcDbEntity
  8
Geo
100
AcDbLine
 10
-12.1321254793919
 20
11.37183521401029
 30
0.0
 11
-12.03212547939189
 21
11.29463107115909
 31
0.0
  0
LINE
  5
F10180
330
261
100
AcDbEntity
  8
Geo
100
AcDbLine
 10
-12.03212547939189
 20
11.29463107115909
 30
0.0
 11
-11.9321254793919
 21
11.21762024781279
 31
0.0
  0
LINE
  5
F10182
330
261
100
AcDbEntity
  8
Geo
100
AcDbLine
 10
-11.9321254793919
 20
11.21762024781279
 30
0.0
 11
-11.8321254793919
 21
11.14091773677599
 31
0.0
  0
LINE
  5
F10184
330
261
100
AcDbEntity
  8
Geo
100
AcDbLine
 10
-11.8321254793919
 20
11.14091773677599
 30
0.0
 11
-11.73212547939189
 21
11.06463807048019
 31
0.0
  0
LINE
  5
F10186
330
261
100
AcDbEntity
  8
Geo
100
AcDbLine
 10
-11.73212547939189
 20
11.06463807048019
 30
0.0
 11
-11.6321254793919
 21
10.98889514996389
 31
0.0
  0
LINE
  5
F10188
330
261
100
AcDbEntity
  8
Geo
100
AcDbLine
 10
-11.6321254793919
 20
10.98889514996389
 30
0.0
 11
-11.53212547939189
 21
10.91380207479509
 31
0.0
  0
LINE
  5
F1018A
330
261
100
AcDbEntity
  8
Geo
100
AcDbLine
 10
-11.53212547939189
 20
10.91380207479509
 30
0.0
 11
-11.4321254793919
 21
10.83947097419069
 31
0.0
  0
LINE
  5
F1018C
330
261
100
AcDbEntity
  8
Geo
100
AcDbLine
 10
-11.4321254793919
 20
10.83947097419069
 30
0.0
 11
-11.3321254793919
 21
10.76601283958469
 31
0.0
  0
LINE
  5
F1018E
330
261
100
AcDbEntity
  8
Geo
100
AcDbLine
 10
-11.3321254793919
 20
10.76601283958469
 30
0.0
 11
-11.23212547939189
 21
10.69353735889559
 31
0.0
  0
LINE
  5
F10190
330
261
100
AcDbEntity
  8
Geo
100
AcDbLine
 10
-11.23212547939189
 20
10.69353735889559
 30
0.0
 11
-11.1321254793919
 21
10.62215275273979
 31
0.0
  0
LINE
  5
F10192
330
261
100
AcDbEntity
  8
Geo
100
AcDbLine
 10
-11.1321254793919
 20
10.62215275273979
 30
0.0
 11
-11.03212547939189
 21
10.55196561283669
 31
0.0
  0
LINE
  5
F10194
330
261
100
AcDbEntity
  8
Geo
100
AcDbLine
 10
-11.03212547939189
 20
10.55196561283669
 30
0.0
 11
-10.9321254793919
 21
10.48308074284509
 31
0.0
  0
LINE
  5
F10196
330
261
100
AcDbEntity
  8
Geo
100
AcDbLine
 10
-10.9321254793919
 20
10.48308074284509
 30
0.0
 11
-10.8321254793919
 21
10.41560100187019
 31
0.0
  0
LINE
  5
F10198
330
261
100
AcDbEntity
  8
Geo
100
AcDbLine
 10
-10.8321254793919
 20
10.41560100187019
 30
0.0
 11
-10.73212547939189
 21
10.34962715087439
 31
0.0
  0
LINE
  5
F1019A
330
261
100
AcDbEntity
  8
Geo
100
AcDbLine
 10
-10.73212547939189
 20
10.34962715087439
 30
0.0
 11
-10.6321254793919
 21
10.28525770221999
 31
0.0
  0
LINE
  5
F1019C
330
261
100
AcDbEntity
  8
Geo
100
AcDbLine
 10
-10.6321254793919
 20
10.28525770221999
 30
0.0
 11
-10.53212547939189
 21
10.22258877257119
 31
0.0
  0
LINE
  5
F1019E
330
261
100
AcDbEntity
  8
Geo
100
AcDbLine
 10
-10.53212547939189
 20
10.22258877257119
 30
0.0
 11
-10.4321254793919
 21
10.16171393937129
 31
0.0
  0
LINE
  5
F101A0
330
261
100
AcDbEntity
  8
Geo
100
AcDbLine
 10
-10.4321254793919
 20
10.16171393937129
 30
0.0
 11
-10.3321254793919
 21
10.10272410111349
 31
0.0
  0
LINE
  5
F101A2
330
261
100
AcDbEntity
  8
Geo
100
AcDbLine
 10
-10.3321254793919
 20
10.10272410111349
 30
0.0
 11
-10.2321254793919
 21
10.04570734161039
 31
0.0
  0
LINE
  5
F101A4
330
261
100
AcDbEntity
  8
Geo
100
AcDbLine
 10
-10.2321254793919
 20
10.04570734161039
 30
0.0
 11
-10.1321254793919
 21
9.990748798467393
 31
0.0
  0
LINE
  5
F101A6
330
261
100
AcDbEntity
  8
Geo
100
AcDbLine
 10
-10.1321254793919
 20
9.990748798467393
 30
0.0
 11
-10.03212547939189
 21
9.937930535954492
 31
0.0
  0
LINE
  5
F101A8
330
261
100
AcDbEntity
  8
Geo
100
AcDbLine
 10
-10.03212547939189
 20
9.937930535954492
 30
0.0
 11
-9.932125479391899
 21
9.887331422467994
 31
0.0
  0
LINE
  5
F101AA
330
261
100
AcDbEntity
  8
Geo
100
AcDbLine
 10
-9.932125479391899
 20
9.887331422467994
 30
0.0
 11
-9.832125479391903
 21
9.839027012763882
 31
0.0
  0
LINE
  5
F101AC
330
261
100
AcDbEntity
  8
Geo
100
AcDbLine
 10
-9.832125479391903
 20
9.839027012763882
 30
0.0
 11
-9.732125479391896
 21
9.793089435139291
 31
0.0
  0
LINE
  5
F101AE
330
261
100
AcDbEntity
  8
Geo
100
AcDbLine
 10
-9.732125479391896
 20
9.793089435139291
 30
0.0
 11
-9.632125479391902
 21
9.749587283729892
 31
0.0
  0
LINE
  5
F101B0
330
261
100
AcDbEntity
  8
Geo
100
AcDbLine
 10
-9.632125479391902
 20
9.749587283729892
 30
0.0
 11
-9.532125479391893
 21
9.708585516085687
 31
0.0
  0
LINE
  5
F101B2
330
261
100
AcDbEntity
  8
Geo
100
AcDbLine
 10
-9.532125479391893
 20
9.708585516085687
 30
0.0
 11
-9.432125479391899
 21
9.670145356175492
 31
0.0
  0
LINE
  5
F101B4
330
261
100
AcDbEntity
  8
Geo
100
AcDbLine
 10
-9.432125479391899
 20
9.670145356175492
 30
0.0
 11
-9.332125479391903
 21
9.634324202967391
 31
0.0
  0
LINE
  5
F101B6
330
261
100
AcDbEntity
  8
Geo
100
AcDbLine
 10
-9.332125479391903
 20
9.634324202967391
 30
0.0
 11
-9.232125479391896
 21
9.601175544720392
 31
0.0
  0
LINE
  5
F101B8
330
261
100
AcDbEntity
  8
Geo
100
AcDbLine
 10
-9.232125479391896
 20
9.601175544720392
 30
0.0
 11
-9.132125479391902
 21
9.57074887911569
 31
0.0
  0
LINE
  5
F101BA
330
261
100
AcDbEntity
  8
Geo
100
AcDbLine
 10
-9.132125479391902
 20
9.57074887911569
 30
0.0
 11
-9.032125479391893
 21
9.543089639346296
 31
0.0
  0
LINE
  5
F101BC
330
261
100
AcDbEntity
  8
Geo
100
AcDbLine
 10
-9.032125479391893
 20
9.543089639346296
 30
0.0
 11
-8.932125479391897
 21
9.518239126276494
 31
0.0
  0
LINE
  5
F101BE
330
261
100
AcDbEntity
  8
Geo
100
AcDbLine
 10
-8.932125479391897
 20
9.518239126276494
 30
0.0
 11
-8.832125479391903
 21
9.496234446770793
 31
0.0
  0
LINE
  5
F101C0
330
261
100
AcDbEntity
  8
Geo
100
AcDbLine
 10
-8.832125479391903
 20
9.496234446770793
 30
0.0
 11
-8.732125479391896
 21
9.47710845828589
 31
0.0
  0
LINE
  5
F101C2
330
261
100
AcDbEntity
  8
Geo
100
AcDbLine
 10
-8.732125479391896
 20
9.47710845828589
 30
0.0
 11
-8.632125479391902
 21
9.460889719808491
 31
0.0
  0
LINE
  5
F101C4
330
261
100
AcDbEntity
  8
Geo
100
AcDbLine
 10
-8.632125479391902
 20
9.460889719808491
 30
0.0
 11
-8.532125479391893
 21
9.447602449209798
 31
0.0
  0
LINE
  5
F101C6
330
261
100
AcDbEntity
  8
Geo
100
AcDbLine
 10
-8.532125479391893
 20
9.447602449209798
 30
0.0
 11
-8.432125479391897
 21
9.437266487084386
 31
0.0
  0
LINE
  5
F101C8
330
261
100
AcDbEntity
  8
Geo
100
AcDbLine
 10
-8.432125479391897
 20
9.437266487084386
 30
0.0
 11
-8.332125479391905
 21
9.429897267123491
 31
0.0
  0
LINE
  5
F101CA
330
261
100
AcDbEntity
  8
Geo
100
AcDbLine
 10
-8.332125479391905
 20
9.429897267123491
 30
0.0
 11
-8.232125479391896
 21
9.42550579306949
 31
0.0
  0
LINE
  5
F101CC
330
261
100
AcDbEntity
  8
Geo
100
AcDbLine
 10
-14.23212547939189
 20
9.565616941244787
 30
0.0
 11
-14.1321254793919
 21
9.45319751198799
 31
0.0
  0
LINE
  5
F101CE
330
261
100
AcDbEntity
  8
Geo
100
AcDbLine
 10
-14.1321254793919
 20
9.45319751198799
 30
0.0
 11
-14.03212547939189
 21
9.44153579671239
 31
0.0
  0
LINE
  5
F101D0
330
261
100
AcDbEntity
  8
Geo
100
AcDbLine
 10
-14.03212547939189
 20
9.44153579671239
 30
0.0
 11
-13.9321254793919
 21
9.432834448654688
 31
0.0
  0
LINE
  5
F101D2
330
261
100
AcDbEntity
  8
Geo
100
AcDbLine
 10
-13.9321254793919
 20
9.432834448654688
 30
0.0
 11
-13.8321254793919
 21
9.427106460695297
 31
0.0
  0
LINE
  5
F101D4
330
261
100
AcDbEntity
  8
Geo
100
AcDbLine
 10
-13.8321254793919
 20
9.427106460695297
 30
0.0
 11
-13.73212547939189
 21
9.424360385883792
 31
0.0
  0
LINE
  5
F101D6
330
261
100
AcDbEntity
  8
Geo
100
AcDbLine
 10
-5.632125479391902
 20
13.42333487099509
 30
0.0
 11
-5.532125479391893
 21
13.42397572516139
 31
0.0
  0
LINE
  5
F101D8
330
261
100
AcDbEntity
  8
Geo
100
AcDbLine
 10
-5.532125479391893
 20
13.42397572516139
 30
0.0
 11
-5.432125479391896
 21
13.42163035467419
 31
0.0
  0
LINE
  5
F101DA
330
261
100
AcDbEntity
  8
Geo
100
AcDbLine
 10
-5.432125479391896
 20
13.42163035467419
 30
0.0
 11
-5.332125479391905
 21
13.41630226164819
 31
0.0
  0
LINE
  5
F101DC
330
261
100
AcDbEntity
  8
Geo
100
AcDbLine
 10
-5.332125479391905
 20
13.41630226164819
 30
0.0
 11
-5.232125479391896
 21
13.40799940200859
 31
0.0
  0
LINE
  5
F101DE
330
261
100
AcDbEntity
  8
Geo
100
AcDbLine
 10
-5.232125479391896
 20
13.40799940200859
 30
0.0
 11
-5.132125479391902
 21
13.39673417361169
 31
0.0
  0
LINE
  5
F101E0
330
261
100
AcDbEntity
  8
Geo
100
AcDbLine
 10
-5.132125479391902
 20
13.39673417361169
 30
0.0
 11
-5.032125479391893
 21
13.3825233977321
 31
0.0
  0
LINE
  5
F101E2
330
261
100
AcDbEntity
  8
Geo
100
AcDbLine
 10
-5.032125479391893
 20
13.3825233977321
 30
0.0
 11
-4.932125479391898
 21
13.36538829394519
 31
0.0
  0
LINE
  5
F101E4
330
261
100
AcDbEntity
  8
Geo
100
AcDbLine
 10
-4.932125479391898
 20
13.36538829394519
 30
0.0
 11
-4.832125479391905
 21
13.34535444844199
 31
0.0
  0
LINE
  5
F101E6
330
261
100
AcDbEntity
  8
Geo
100
AcDbLine
 10
-4.832125479391905
 20
13.34535444844199
 30
0.0
 11
-4.732125479391896
 21
13.32245177582379
 31
0.0
  0
LINE
  5
F101E8
330
261
100
AcDbEntity
  8
Geo
100
AcDbLine
 10
-4.732125479391896
 20
13.32245177582379
 30
0.0
 11
-4.632125479391902
 21
13.29671447443379
 31
0.0
  0
LINE
  5
F101EA
330
261
100
AcDbEntity
  8
Geo
100
AcDbLine
 10
-4.632125479391902
 20
13.29671447443379
 30
0.0
 11
-4.532125479391893
 21
13.26818097529159
 31
0.0
  0
LINE
  5
F101EC
330
261
100
AcDbEntity
  8
Geo
100
AcDbLine
 10
-4.532125479391893
 20
13.26818097529159
 30
0.0
 11
-4.432125479391898
 21
13.23689388470809
 31
0.0
  0
LINE
  5
F101EE
330
261
100
AcDbEntity
  8
Geo
100
AcDbLine
 10
-4.432125479391898
 20
13.23689388470809
 30
0.0
 11
-4.332125479391905
 21
13.20289992066579
 31
0.0
  0
LINE
  5
F101F0
330
261
100
AcDbEntity
  8
Geo
100
AcDbLine
 10
-4.332125479391905
 20
13.20289992066579
 30
0.0
 11
-4.232125479391896
 21
13.16624984305919
 31
0.0
  0
LINE
  5
F101F2
330
261
100
AcDbEntity
  8
Geo
100
AcDbLine
 10
-4.232125479391896
 20
13.16624984305919
 30
0.0
 11
-4.132125479391902
 21
13.12699837789959
 31
0.0
  0
LINE
  5
F101F4
330
261
100
AcDbEntity
  8
Geo
100
AcDbLine
 10
-4.132125479391902
 20
13.12699837789959
 30
0.0
 11
-4.032125479391893
 21
13.08520413559899
 31
0.0
  0
LINE
  5
F101F6
330
261
100
AcDbEntity
  8
Geo
100
AcDbLine
 10
-4.032125479391893
 20
13.08520413559899
 30
0.0
 11
-3.932125479391899
 21
13.04092952345159
 31
0.0
  0
LINE
  5
F101F8
330
261
100
AcDbEntity
  8
Geo
100
AcDbLine
 10
-3.932125479391899
 20
13.04092952345159
 30
0.0
 11
-3.832125479391905
 21
12.99424065244819
 31
0.0
  0
LINE
  5
F101FA
330
261
100
AcDbEntity
  8
Geo
100
AcDbLine
 10
-3.832125479391905
 20
12.99424065244819
 30
0.0
 11
-3.732125479391896
 21
12.94520723855839
 31
0.0
  0
LINE
  5
F101FC
330
261
100
AcDbEntity
  8
Geo
100
AcDbLine
 10
-3.732125479391896
 20
12.94520723855839
 30
0.0
 11
-3.632125479391902
 21
12.89390249863039
 31
0.0
  0
LINE
  5
F101FE
330
261
100
AcDbEntity
  8
Geo
100
AcDbLine
 10
-3.632125479391902
 20
12.89390249863039
 30
0.0
 11
-3.532125479391893
 21
12.84040304106389
 31
0.0
  0
LINE
  5
F10200
330
261
100
AcDbEntity
  8
Geo
100
AcDbLine
 10
-3.532125479391893
 20
12.84040304106389
 30
0.0
 11
-3.432125479391899
 21
12.78478875141779
 31
0.0
  0
LINE
  5
F10202
330
261
100
AcDbEntity
  8
Geo
100
AcDbLine
 10
-3.432125479391899
 20
12.78478875141779
 30
0.0
 11
-3.332125479391905
 21
12.72714267312499
 31
0.0
  0
LINE
  5
F10204
330
261
100
AcDbEntity
  8
Geo
100
AcDbLine
 10
-3.332125479391905
 20
12.72714267312499
 30
0.0
 11
-3.232125479391896
 21
12.66755088349149
 31
0.0
  0
LINE
  5
F1020E
330
261
100
AcDbEntity
  8
Geo
100
AcDbLine
 10
-3.232125479391896
 20
12.66755088349149
 30
0.0
 11
-3.132125479391902
 21
12.55241403407369
 31
0.0
  0
LINE
  5
F10210
330
261
100
AcDbEntity
  8
Geo
100
AcDbLine
 10
-3.132125479391902
 20
12.55241403407369
 30
0.0
 11
-3.032125479391893
 21
12.49646507906409
 31
0.0
  0
LINE
  5
F10212
330
261
100
AcDbEntity
  8
Geo
100
AcDbLine
 10
-3.032125479391893
 20
12.49646507906409
 30
0.0
 11
-2.932125479391899
 21
12.43748323188749
 31
0.0
  0
LINE
  5
F10214
330
261
100
AcDbEntity
  8
Geo
100
AcDbLine
 10
-2.932125479391899
 20
12.43748323188749
 30
0.0
 11
-2.832125479391905
 21
12.37543183522779
 31
0.0
  0
LINE
  5
F10216
330
261
100
AcDbEntity
  8
Geo
100
AcDbLine
 10
-2.832125479391905
 20
12.37543183522779
 30
0.0
 11
-2.732125479391896
 21
12.31028703054489
 31
0.0
  0
LINE
  5
F10218
330
261
100
AcDbEntity
  8
Geo
100
AcDbLine
 10
-2.732125479391896
 20
12.31028703054489
 30
0.0
 11
-2.632125479391902
 21
12.24203914235639
 31
0.0
  0
LINE
  5
F1021A
330
261
100
AcDbEntity
  8
Geo
100
AcDbLine
 10
-2.632125479391902
 20
12.24203914235639
 30
0.0
 11
-2.532125479391893
 21
12.17069409504349
 31
0.0
  0
LINE
  5
F1021C
330
261
100
AcDbEntity
  8
Geo
100
AcDbLine
 10
-2.532125479391893
 20
12.17069409504349
 30
0.0
 11
-2.432125479391897
 21
12.09627485370499
 31
0.0
  0
LINE
  5
F1021E
330
261
100
AcDbEntity
  8
Geo
100
AcDbLine
 10
-2.432125479391897
 20
12.09627485370499
 30
0.0
 11
-2.332125479391903
 21
12.01882287923409
 31
0.0
  0
LINE
  5
F10220
330
261
100
AcDbEntity
  8
Geo
100
AcDbLine
 10
-2.332125479391903
 20
12.01882287923409
 30
0.0
 11
-2.232125479391896
 21
11.93839958637219
 31
0.0
  0
LINE
  5
F10222
330
261
100
AcDbEntity
  8
Geo
100
AcDbLine
 10
-2.232125479391896
 20
11.93839958637219
 30
0.0
 11
-2.132125479391902
 21
11.85508779201709
 31
0.0
  0
LINE
  5
F10224
330
261
100
AcDbEntity
  8
Geo
100
AcDbLine
 10
-2.132125479391902
 20
11.85508779201709
 30
0.0
 11
-2.032125479391893
 21
11.76899313954079
 31
0.0
  0
LINE
  5
F10226
330
261
100
AcDbEntity
  8
Geo
100
AcDbLine
 10
-2.032125479391893
 20
11.76899313954079
 30
0.0
 11
-1.932125479391899
 21
11.68024548331329
 31
0.0
  0
LINE
  5
F10228
330
261
100
AcDbEntity
  8
Geo
100
AcDbLine
 10
-1.932125479391899
 20
11.68024548331329
 30
0.0
 11
-1.832125479391905
 21
11.58900021605419
 31
0.0
  0
LINE
  5
F1022A
330
261
100
AcDbEntity
  8
Geo
100
AcDbLine
 10
-1.832125479391905
 20
11.58900021605419
 30
0.0
 11
-1.732125479391896
 21
11.49543952005879
 31
0.0
  0
LINE
  5
F1022C
330
261
100
AcDbEntity
  8
Geo
100
AcDbLine
 10
-1.732125479391896
 20
11.49543952005879
 30
0.0
 11
-1.6321254793919
 21
11.39977352179409
 31
0.0
  0
LINE
  5
F1022E
330
261
100
AcDbEntity
  8
Geo
100
AcDbLine
 10
-1.6321254793919
 20
11.39977352179409
 30
0.0
 11
-1.532125479391893
 21
11.30224132785499
 31
0.0
  0
LINE
  5
F10230
330
261
100
AcDbEntity
  8
Geo
100
AcDbLine
 10
-1.532125479391893
 20
11.30224132785499
 30
0.0
 11
-1.432125479391899
 21
11.20311191883729
 31
0.0
  0
LINE
  5
F10232
330
261
100
AcDbEntity
  8
Geo
100
AcDbLine
 10
-1.432125479391899
 20
11.20311191883729
 30
0.0
 11
-1.332125479391905
 21
11.10268487636059
 31
0.0
  0
LINE
  5
F10234
330
261
100
AcDbEntity
  8
Geo
100
AcDbLine
 10
-1.332125479391905
 20
11.10268487636059
 30
0.0
 11
-1.232125479391894
 21
11.00129091728149
 31
0.0
  0
LINE
  5
F10236
330
261
100
AcDbEntity
  8
Geo
100
AcDbLine
 10
-1.232125479391894
 20
11.00129091728149
 30
0.0
 11
-1.232125479391894
 21
11.00129091728149
 31
0.0
  0
LINE
  5
F10238
330
261
100
AcDbEntity
  8
Geo
100
AcDbLine
 10
-8.232125479391896
 20
13.42268897220849
 30
0.0
 11
-8.132125479391902
 21
13.42409614299249
 31
0.0
  0
LINE
  5
F1023A
330
261
100
AcDbEntity
  8
Geo
100
AcDbLine
 10
-8.132125479391902
 20
13.42409614299249
 30
0.0
 11
-8.032125479391893
 21
13.42251690931479
 31
0.0
  0
LINE
  5
F1023C
330
261
100
AcDbEntity
  8
Geo
100
AcDbLine
 10
-8.032125479391893
 20
13.42251690931479
 30
0.0
 11
-7.932125479391897
 21
13.41795362929199
 31
0.0
  0
LINE
  5
F1023E
330
261
100
AcDbEntity
  8
Geo
100
AcDbLine
 10
-7.932125479391897
 20
13.41795362929199
 30
0.0
 11
-7.832125479391905
 21
13.41041311682829
 31
0.0
  0
LINE
  5
F10240
330
261
100
AcDbEntity
  8
Geo
100
AcDbLine
 10
-7.832125479391905
 20
13.41041311682829
 30
0.0
 11
-7.732125479391896
 21
13.39990663144059
 31
0.0
  0
LINE
  5
F10242
330
261
100
AcDbEntity
  8
Geo
100
AcDbLine
 10
-7.732125479391896
 20
13.39990663144059
 30
0.0
 11
-7.632125479391902
 21
13.38644986144629
 31
0.0
  0
LINE
  5
F10244
330
261
100
AcDbEntity
  8
Geo
100
AcDbLine
 10
-7.632125479391902
 20
13.38644986144629
 30
0.0
 11
-7.532125479391893
 21
13.37006290053649
 31
0.0
  0
LINE
  5
F10246
330
261
100
AcDbEntity
  8
Geo
100
AcDbLine
 10
-7.532125479391893
 20
13.37006290053649
 30
0.0
 11
-7.432125479391897
 21
13.35077021777319
 31
0.0
  0
LINE
  5
F10248
330
261
100
AcDbEntity
  8
Geo
100
AcDbLine
 10
-7.432125479391897
 20
13.35077021777319
 30
0.0
 11
-7.332125479391905
 21
13.32860062105109
 31
0.0
  0
LINE
  5
F1024A
330
261
100
AcDbEntity
  8
Geo
100
AcDbLine
 10
-7.332125479391905
 20
13.32860062105109
 30
0.0
 11
-7.232125479391896
 21
13.30358721408199
 31
0.0
  0
LINE
  5
F1024C
330
261
100
AcDbEntity
  8
Geo
100
AcDbLine
 10
-7.232125479391896
 20
13.30358721408199
 30
0.0
 11
-7.132125479391902
 21
13.27576734696419
 31
0.0
  0
LINE
  5
F1024E
330
261
100
AcDbEntity
  8
Geo
100
AcDbLine
 10
-7.132125479391902
 20
13.27576734696419
 30
0.0
 11
-7.032125479391893
 21
13.24518256041099
 31
0.0
  0
LINE
  5
F10250
330
261
100
AcDbEntity
  8
Geo
100
AcDbLine
 10
-7.032125479391893
 20
13.24518256041099
 30
0.0
 11
-6.932125479391897
 21
13.21187852372229
 31
0.0
  0
LINE
  5
F10252
330
261
100
AcDbEntity
  8
Geo
100
AcDbLine
 10
-6.932125479391897
 20
13.21187852372229
 30
0.0
 11
-6.832125479391905
 21
13.17590496659069
 31
0.0
  0
LINE
  5
F10254
330
261
100
AcDbEntity
  8
Geo
100
AcDbLine
 10
-6.832125479391905
 20
13.17590496659069
 30
0.0
 11
-6.732125479391896
 21
13.13731560484539
 31
0.0
  0
LINE
  5
F10256
330
261
100
AcDbEntity
  8
Geo
100
AcDbLine
 10
-6.732125479391896
 20
13.13731560484539
 30
0.0
 11
-6.632125479391902
 21
13.09616806024299
 31
0.0
  0
LINE
  5
F10258
330
261
100
AcDbEntity
  8
Geo
100
AcDbLine
 10
-6.632125479391902
 20
13.09616806024299
 30
0.0
 11
-6.532125479391893
 21
13.05252377442719
 31
0.0
  0
LINE
  5
F1025A
330
261
100
AcDbEntity
  8
Geo
100
AcDbLine
 10
-6.532125479391893
 20
13.05252377442719
 30
0.0
 11
-6.432125479391897
 21
13.00644791718309
 31
0.0
  0
LINE
  5
F1025C
330
261
100
AcDbEntity
  8
Geo
100
AcDbLine
 10
-6.432125479391897
 20
13.00644791718309
 30
0.0
 11
-6.332125479391905
 21
12.95800928912629
 31
0.0
  0
LINE
  5
F1025E
330
261
100
AcDbEntity
  8
Geo
100
AcDbLine
 10
-6.332125479391905
 20
12.95800928912629
 30
0.0
 11
-6.232125479391896
 21
12.90728021896909
 31
0.0
  0
LINE
  5
F10260
330
261
100
AcDbEntity
  8
Geo
100
AcDbLine
 10
-6.232125479391896
 20
12.90728021896909
 30
0.0
 11
-6.132125479391902
 21
12.85433645551919
 31
0.0
  0
LINE
  5
F10262
330
261
100
AcDbEntity
  8
Geo
100
AcDbLine
 10
-6.132125479391902
 20
12.85433645551919
 30
0.0
 11
-6.032125479391893
 21
12.79925705457119
 31
0.0
  0
LINE
  5
F10264
330
261
100
AcDbEntity
  8
Geo
100
AcDbLine
 10
-6.032125479391893
 20
12.79925705457119
 30
0.0
 11
-5.932125479391897
 21
12.74212426086049
 31
0.0
  0
LINE
  5
F10266
330
261
100
AcDbEntity
  8
Geo
100
AcDbLine
 10
-5.932125479391897
 20
12.74212426086049
 30
0.0
 11
-5.832125479391905
 21
12.68302338525499
 31
0.0
  0
LINE
  5
F10268
330
261
100
AcDbEntity
  8
Geo
100
AcDbLine
 10
-5.832125479391905
 20
12.68302338525499
 30
0.0
 11
-5.732125479391896
 21
12.62204267736879
 31
0.0
  0
LINE
  5
F1026A
330
261
100
AcDbEntity
  8
Geo
100
AcDbLine
 10
-5.732125479391896
 20
12.62204267736879
 30
0.0
 11
-5.632125479391902
 21
12.55927319378719
 31
0.0
  0
LINE
  5
F1026C
330
261
100
AcDbEntity
  8
Geo
100
AcDbLine
 10
-5.632125479391902
 20
12.55927319378719
 30
0.0
 11
-5.532125479391893
 21
12.49480866210139
 31
0.0
  0
LINE
  5
F1026E
330
261
100
AcDbEntity
  8
Geo
100
AcDbLine
 10
-5.532125479391893
 20
12.49480866210139
 30
0.0
 11
-5.432125479391896
 21
12.42874534095349
 31
0.0
  0
LINE
  5
F10270
330
261
100
AcDbEntity
  8
Geo
100
AcDbLine
 10
-5.432125479391896
 20
12.42874534095349
 30
0.0
 11
-5.332125479391905
 21
12.3611818763031
 31
0.0
  0
LINE
  5
F10272
330
261
100
AcDbEntity
  8
Geo
100
AcDbLine
 10
-5.332125479391905
 20
12.3611818763031
 30
0.0
 11
-5.232125479391896
 21
12.29221915412899
 31
0.0
  0
LINE
  5
F10274
330
261
100
AcDbEntity
  8
Geo
100
AcDbLine
 10
-5.232125479391896
 20
12.29221915412899
 30
0.0
 11
-5.132125479391902
 21
12.22196014978549
 31
0.0
  0
LINE
  5
F10276
330
261
100
AcDbEntity
  8
Geo
100
AcDbLine
 10
-5.132125479391902
 20
12.22196014978549
 30
0.0
 11
-5.032125479391893
 21
12.15050977423979
 31
0.0
  0
LINE
  5
F10278
330
261
100
AcDbEntity
  8
Geo
100
AcDbLine
 10
-5.032125479391893
 20
12.15050977423979
 30
0.0
 11
-4.932125479391898
 21
12.07797471741809
 31
0.0
  0
LINE
  5
F1027A
330
261
100
AcDbEntity
  8
Geo
100
AcDbLine
 10
-4.932125479391898
 20
12.07797471741809
 30
0.0
 11
-4.832125479391905
 21
12.00446328889619
 31
0.0
  0
LINE
  5
F1027C
330
261
100
AcDbEntity
  8
Geo
100
AcDbLine
 10
-4.832125479391905
 20
12.00446328889619
 30
0.0
 11
-4.732125479391896
 21
11.93008525617119
 31
0.0
  0
LINE
  5
F1027E
330
261
100
AcDbEntity
  8
Geo
100
AcDbLine
 10
-4.732125479391896
 20
11.93008525617119
 30
0.0
 11
-4.632125479391902
 21
11.85495168075629
 31
0.0
  0
LINE
  5
F10280
330
261
100
AcDbEntity
  8
Geo
100
AcDbLine
 10
-4.632125479391902
 20
11.85495168075629
 30
0.0
 11
-4.532125479391893
 21
11.77917475234349
 31
0.0
  0
LINE
  5
F10282
330
261
100
AcDbEntity
  8
Geo
100
AcDbLine
 10
-4.532125479391893
 20
11.77917475234349
 30
0.0
 11
-4.432125479391898
 21
11.70286762128149
 31
0.0
  0
LINE
  5
F10284
330
261
100
AcDbEntity
  8
Geo
100
AcDbLine
 10
-4.432125479391898
 20
11.70286762128149
 30
0.0
 11
-4.332125479391905
 21
11.62614422961929
 31
0.0
  0
LINE
  5
F10286
330
261
100
AcDbEntity
  8
Geo
100
AcDbLine
 10
-4.332125479391905
 20
11.62614422961929
 30
0.0
 11
-4.232125479391896
 21
11.54911914096739
 31
0.0
  0
LINE
  5
F10288
330
261
100
AcDbEntity
  8
Geo
100
AcDbLine
 10
-4.232125479391896
 20
11.54911914096739
 30
0.0
 11
-4.132125479391902
 21
11.47190736943129
 31
0.0
  0
LINE
  5
F1028A
330
261
100
AcDbEntity
  8
Geo
100
AcDbLine
 10
-4.132125479391902
 20
11.47190736943129
 30
0.0
 11
-4.032125479391893
 21
11.39462420787209
 31
0.0
  0
LINE
  5
F1028C
330
261
100
AcDbEntity
  8
Geo
100
AcDbLine
 10
-4.032125479391893
 20
11.39462420787209
 30
0.0
 11
-3.932125479391899
 21
11.31738505575039
 31
0.0
  0
LINE
  5
F1028E
330
261
100
AcDbEntity
  8
Geo
100
AcDbLine
 10
-3.932125479391899
 20
11.31738505575039
 30
0.0
 11
-3.832125479391905
 21
11.24030524681209
 31
0.0
  0
LINE
  5
F10290
330
261
100
AcDbEntity
  8
Geo
100
AcDbLine
 10
-3.832125479391905
 20
11.24030524681209
 30
0.0
 11
-3.732125479391896
 21
11.16349987687119
 31
0.0
  0
LINE
  5
F10292
330
261
100
AcDbEntity
  8
Geo
100
AcDbLine
 10
-3.732125479391896
 20
11.16349987687119
 30
0.0
 11
-3.632125479391902
 21
11.08708363194839
 31
0.0
  0
LINE
  5
F10294
330
261
100
AcDbEntity
  8
Geo
100
AcDbLine
 10
-3.632125479391902
 20
11.08708363194839
 30
0.0
 11
-3.532125479391893
 21
11.01117061702179
 31
0.0
  0
LINE
  5
F10296
330
261
100
AcDbEntity
  8
Geo
100
AcDbLine
 10
-3.532125479391893
 20
11.01117061702179
 30
0.0
 11
-3.432125479391899
 21
10.93587418564509
 31
0.0
  0
LINE
  5
F10298
330
261
100
AcDbEntity
  8
Geo
100
AcDbLine
 10
-3.432125479391899
 20
10.93587418564509
 30
0.0
 11
-3.332125479391905
 21
10.86130677068709
 31
0.0
  0
LINE
  5
F1029A
330
261
100
AcDbEntity
  8
Geo
100
AcDbLine
 10
-3.332125479391905
 20
10.86130677068709
 30
0.0
 11
-3.232125479391896
 21
10.78757971644739
 31
0.0
  0
LINE
  5
F102A4
330
261
100
AcDbEntity
  8
Geo
100
AcDbLine
 10
-3.232125479391896
 20
10.78757971644729
 30
0.0
 11
-3.132125479391902
 21
10.82643664694499
 31
0.0
  0
LINE
  5
F102A6
330
261
100
AcDbEntity
  8
Geo
100
AcDbLine
 10
-3.132125479391902
 20
10.82643664694499
 30
0.0
 11
-3.032125479391893
 21
10.83368080178129
 31
0.0
  0
LINE
  5
F102A8
330
261
100
AcDbEntity
  8
Geo
100
AcDbLine
 10
-3.032125479391893
 20
10.83368080178129
 30
0.0
 11
-2.932125479391899
 21
10.84113875551699
 31
0.0
  0
LINE
  5
F102AA
330
261
100
AcDbEntity
  8
Geo
100
AcDbLine
 10
-2.932125479391899
 20
10.84113875551699
 30
0.0
 11
-2.832125479391905
 21
10.84881120155769
 31
0.0
  0
LINE
  5
F102AC
330
261
100
AcDbEntity
  8
Geo
100
AcDbLine
 10
-2.832125479391905
 20
10.84881120155769
 30
0.0
 11
-2.732125479391896
 21
10.85669883399109
 31
0.0
  0
LINE
  5
F102AE
330
261
100
AcDbEntity
  8
Geo
100
AcDbLine
 10
-2.732125479391896
 20
10.85669883399109
 30
0.0
 11
-2.632125479391902
 21
10.86480234607059
 31
0.0
  0
LINE
  5
F102B0
330
261
100
AcDbEntity
  8
Geo
100
AcDbLine
 10
-2.632125479391902
 20
10.86480234607059
 30
0.0
 11
-2.532125479391893
 21
10.87312242865569
 31
0.0
  0
LINE
  5
F102B2
330
261
100
AcDbEntity
  8
Geo
100
AcDbLine
 10
-2.532125479391893
 20
10.87312242865569
 30
0.0
 11
-2.432125479391897
 21
10.88165976860619
 31
0.0
  0
LINE
  5
F102B4
330
261
100
AcDbEntity
  8
Geo
100
AcDbLine
 10
-2.432125479391897
 20
10.88165976860619
 30
0.0
 11
-2.332125479391903
 21
10.89041504713369
 31
0.0
  0
LINE
  5
F102B6
330
261
100
AcDbEntity
  8
Geo
100
AcDbLine
 10
-2.332125479391903
 20
10.89041504713369
 30
0.0
 11
-2.232125479391896
 21
10.89938893810709
 31
0.0
  0
LINE
  5
F102B8
330
261
100
AcDbEntity
  8
Geo
100
AcDbLine
 10
-2.232125479391896
 20
10.89938893810709
 30
0.0
 11
-2.132125479391902
 21
10.90858210631409
 31
0.0
  0
LINE
  5
F102BA
330
261
100
AcDbEntity
  8
Geo
100
AcDbLine
 10
-2.132125479391902
 20
10.90858210631409
 30
0.0
 11
-2.032125479391893
 21
10.91799520567719
 31
0.0
  0
LINE
  5
F102BC
330
261
100
AcDbEntity
  8
Geo
100
AcDbLine
 10
-2.032125479391893
 20
10.91799520567719
 30
0.0
 11
-1.932125479391899
 21
10.92762887742509
 31
0.0
  0
LINE
  5
F102BE
330
261
100
AcDbEntity
  8
Geo
100
AcDbLine
 10
-1.932125479391899
 20
10.92762887742509
 30
0.0
 11
-1.832125479391905
 21
10.93748374821859
 31
0.0
  0
LINE
  5
F102C0
330
261
100
AcDbEntity
  8
Geo
100
AcDbLine
 10
-1.832125479391905
 20
10.93748374821859
 30
0.0
 11
-1.732125479391896
 21
10.94756042823149
 31
0.0
  0
LINE
  5
F102C2
330
261
100
AcDbEntity
  8
Geo
100
AcDbLine
 10
-1.732125479391896
 20
10.94756042823149
 30
0.0
 11
-1.6321254793919
 21
10.95785950918639
 31
0.0
  0
LINE
  5
F102C4
330
261
100
AcDbEntity
  8
Geo
100
AcDbLine
 10
-1.6321254793919
 20
10.95785950918639
 30
0.0
 11
-1.532125479391893
 21
10.96838156234499
 31
0.0
  0
LINE
  5
F102C6
330
261
100
AcDbEntity
  8
Geo
100
AcDbLine
 10
-1.532125479391893
 20
10.96838156234499
 30
0.0
 11
-1.432125479391899
 21
10.97912713645339
 31
0.0
  0
LINE
  5
F102C8
330
261
100
AcDbEntity
  8
Geo
100
AcDbLine
 10
-1.432125479391899
 20
10.97912713645339
 30
0.0
 11
-1.332125479391905
 21
10.99009675564229
 31
0.0
  0
LINE
  5
F102CA
330
261
100
AcDbEntity
  8
Geo
100
AcDbLine
 10
-1.332125479391905
 20
10.99009675564229
 30
0.0
 11
-1.232125479391894
 21
11.00129091728149
 31
0.0
  0
LINE
  5
F102CC
330
261
100
AcDbEntity
  8
Geo
100
AcDbLine
 10
-1.232125479391894
 20
11.00129091728149
 30
0.0
 11
-1.232125479391894
 21
11.00129091728149
 31
0.0
  0
LINE
  5
F102CE
330
261
100
AcDbEntity
  8
Geo
100
AcDbLine
 10
-14.23212547939189
 20
11.81912959519269
 30
0.0
 11
-14.1321254793919
 21
11.77118930602479
 31
0.0
  0
LINE
  5
F102D0
330
261
100
AcDbEntity
  8
Geo
100
AcDbLine
 10
-14.1321254793919
 20
11.77118930602479
 30
0.0
 11
-14.03212547939189
 21
11.70203245146399
 31
0.0
  0
LINE
  5
F102D2
330
261
100
AcDbEntity
  8
Geo
100
AcDbLine
 10
-14.03212547939189
 20
11.70203245146399
 30
0.0
 11
-13.9321254793919
 21
11.63253495932249
 31
0.0
  0
LINE
  5
F102D4
330
261
100
AcDbEntity
  8
Geo
100
AcDbLine
 10
-13.9321254793919
 20
11.63253495932249
 30
0.0
 11
-13.8321254793919
 21
11.56278200581699
 31
0.0
  0
LINE
  5
F102D6
330
261
100
AcDbEntity
  8
Geo
100
AcDbLine
 10
-13.8321254793919
 20
11.56278200581699
 30
0.0
 11
-13.73212547939189
 21
11.49285908025749
 31
0.0
  0
LINE
  5
F102D8
330
261
100
AcDbEntity
  8
Geo
100
AcDbLine
 10
-13.73212547939189
 20
11.49285908025749
 30
0.0
 11
-13.6321254793919
 21
11.42285188027229
 31
0.0
  0
LINE
  5
F102DA
330
261
100
AcDbEntity
  8
Geo
100
AcDbLine
 10
-13.6321254793919
 20
11.42285188027229
 30
0.0
 11
-13.53212547939189
 21
11.35284620677639
 31
0.0
  0
LINE
  5
F102DC
330
261
100
AcDbEntity
  8
Geo
100
AcDbLine
 10
-13.53212547939189
 20
11.35284620677639
 30
0.0
 11
-13.4321254793919
 21
11.28292785881399
 31
0.0
  0
LINE
  5
F102DE
330
261
100
AcDbEntity
  8
Geo
100
AcDbLine
 10
-13.4321254793919
 20
11.28292785881399
 30
0.0
 11
-13.3321254793919
 21
11.21318252840299
 31
0.0
  0
LINE
  5
F102E0
330
261
100
AcDbEntity
  8
Geo
100
AcDbLine
 10
-13.3321254793919
 20
11.21318252840299
 30
0.0
 11
-13.2321254793919
 21
11.14369569551069
 31
0.0
  0
LINE
  5
F102E2
330
261
100
AcDbEntity
  8
Geo
100
AcDbLine
 10
-13.2321254793919
 20
11.14369569551069
 30
0.0
 11
-13.1321254793919
 21
11.07455252328949
 31
0.0
  0
LINE
  5
F102E4
330
261
100
AcDbEntity
  8
Geo
100
AcDbLine
 10
-13.1321254793919
 20
11.07455252328949
 30
0.0
 11
-13.03212547939189
 21
11.00583775370099
 31
0.0
  0
LINE
  5
F102E6
330
261
100
AcDbEntity
  8
Geo
100
AcDbLine
 10
-13.03212547939189
 20
11.00583775370099
 30
0.0
 11
-12.9321254793919
 21
10.93763560365589
 31
0.0
  0
LINE
  5
F102E8
330
261
100
AcDbEntity
  8
Geo
100
AcDbLine
 10
-12.9321254793919
 20
10.93763560365589
 30
0.0
 11
-12.8321254793919
 21
10.87002966179749
 31
0.0
  0
LINE
  5
F102EA
330
261
100
AcDbEntity
  8
Geo
100
AcDbLine
 10
-12.8321254793919
 20
10.87002966179749
 30
0.0
 11
-12.7321254793919
 21
10.80310278605589
 31
0.0
  0
LINE
  5
F102EC
330
261
100
AcDbEntity
  8
Geo
100
AcDbLine
 10
-12.7321254793919
 20
10.80310278605589
 30
0.0
 11
-12.6321254793919
 21
10.73693700209679
 31
0.0
  0
LINE
  5
F102EE
330
261
100
AcDbEntity
  8
Geo
100
AcDbLine
 10
-12.6321254793919
 20
10.73693700209679
 30
0.0
 11
-12.53212547939189
 21
10.67161340279059
 31
0.0
  0
LINE
  5
F102F0
330
261
100
AcDbEntity
  8
Geo
100
AcDbLine
 10
-12.53212547939189
 20
10.67161340279059
 30
0.0
 11
-12.4321254793919
 21
10.60721204882549
 31
0.0
  0
LINE
  5
F102F2
330
261
100
AcDbEntity
  8
Geo
100
AcDbLine
 10
-12.4321254793919
 20
10.60721204882549
 30
0.0
 11
-12.3321254793919
 21
10.54381187058419
 31
0.0
  0
LINE
  5
F102F4
330
261
100
AcDbEntity
  8
Geo
100
AcDbLine
 10
-12.3321254793919
 20
10.54381187058419
 30
0.0
 11
-12.23212547939189
 21
10.48149057140739
 31
0.0
  0
LINE
  5
F102F6
330
261
100
AcDbEntity
  8
Geo
100
AcDbLine
 10
-12.23212547939189
 20
10.48149057140739
 30
0.0
 11
-12.1321254793919
 21
10.42032453236009
 31
0.0
  0
LINE
  5
F102F8
330
261
100
AcDbEntity
  8
Geo
100
AcDbLine
 10
-12.1321254793919
 20
10.42032453236009
 30
0.0
 11
-12.03212547939189
 21
10.36038871861909
 31
0.0
  0
LINE
  5
F102FA
330
261
100
AcDbEntity
  8
Geo
100
AcDbLine
 10
-12.03212547939189
 20
10.36038871861909
 30
0.0
 11
-11.9321254793919
 21
10.30175658759529
 31
0.0
  0
LINE
  5
F102FC
330
261
100
AcDbEntity
  8
Geo
100
AcDbLine
 10
-11.9321254793919
 20
10.30175658759529
 30
0.0
 11
-11.8321254793919
 21
10.24449999890469
 31
0.0
  0
LINE
  5
F102FE
330
261
100
AcDbEntity
  8
Geo
100
AcDbLine
 10
-11.8321254793919
 20
10.24449999890469
 30
0.0
 11
-11.73212547939189
 21
10.18868912629629
 31
0.0
  0
LINE
  5
F10300
330
261
100
AcDbEntity
  8
Geo
100
AcDbLine
 10
-11.73212547939189
 20
10.18868912629629
 30
0.0
 11
-11.6321254793919
 21
10.13439237164819
 31
0.0
  0
LINE
  5
F10302
330
261
100
AcDbEntity
  8
Geo
100
AcDbLine
 10
-11.6321254793919
 20
10.13439237164819
 30
0.0
 11
-11.53212547939189
 21
10.08167628113299
 31
0.0
  0
LINE
  5
F10304
330
261
100
AcDbEntity
  8
Geo
100
AcDbLine
 10
-11.53212547939189
 20
10.08167628113299
 30
0.0
 11
-11.4321254793919
 21
10.03060546365969
 31
0.0
  0
LINE
  5
F10306
330
261
100
AcDbEntity
  8
Geo
100
AcDbLine
 10
-11.4321254793919
 20
10.03060546365969
 30
0.0
 11
-11.3321254793919
 21
9.981242511688495
 31
0.0
  0
LINE
  5
F10308
330
261
100
AcDbEntity
  8
Geo
100
AcDbLine
 10
-11.3321254793919
 20
9.981242511688495
 30
0.0
 11
-11.23212547939189
 21
9.93364792451709
 31
0.0
  0
LINE
  5
F1030A
330
261
100
AcDbEntity
  8
Geo
100
AcDbLine
 10
-11.23212547939189
 20
9.93364792451709
 30
0.0
 11
-11.1321254793919
 21
9.887880034133292
 31
0.0
  0
LINE
  5
F1030C
330
261
100
AcDbEntity
  8
Geo
100
AcDbLine
 10
-11.1321254793919
 20
9.887880034133292
 30
0.0
 11
-11.03212547939189
 21
9.843994933722893
 31
0.0
  0
LINE
  5
F1030E
330
261
100
AcDbEntity
  8
Geo
100
AcDbLine
 10
-11.03212547939189
 20
9.843994933722893
 30
0.0
 11
-10.9321254793919
 21
9.802046408921793
 31
0.0
  0
LINE
  5
F10310
330
261
100
AcDbEntity
  8
Geo
100
AcDbLine
 10
-10.9321254793919
 20
9.802046408921793
 30
0.0
 11
-10.8321254793919
 21
9.762085871896392
 31
0.0
  0
LINE
  5
F10312
330
261
100
AcDbEntity
  8
Geo
100
AcDbLine
 10
-10.8321254793919
 20
9.762085871896392
 30
0.0
 11
-10.73212547939189
 21
9.724162298332688
 31
0.0
  0
LINE
  5
F10314
330
261
100
AcDbEntity
  8
Geo
100
AcDbLine
 10
-10.73212547939189
 20
9.724162298332688
 30
0.0
 11
-10.6321254793919
 21
9.688322167411497
 31
0.0
  0
LINE
  5
F10316
330
261
100
AcDbEntity
  8
Geo
100
AcDbLine
 10
-10.6321254793919
 20
9.688322167411497
 30
0.0
 11
-10.53212547939189
 21
9.654609404843892
 31
0.0
  0
LINE
  5
F10318
330
261
100
AcDbEntity
  8
Geo
100
AcDbLine
 10
-10.53212547939189
 20
9.654609404843892
 30
0.0
 11
-10.4321254793919
 21
9.623065329035194
 31
0.0
  0
LINE
  5
F1031A
330
261
100
AcDbEntity
  8
Geo
100
AcDbLine
 10
-10.4321254793919
 20
9.623065329035194
 30
0.0
 11
-10.3321254793919
 21
9.593728600445594
 31
0.0
  0
LINE
  5
F1031C
330
261
100
AcDbEntity
  8
Geo
100
AcDbLine
 10
-10.3321254793919
 20
9.593728600445594
 30
0.0
 11
-10.2321254793919
 21
9.566635174207892
 31
0.0
  0
LINE
  5
F1031E
330
261
100
AcDbEntity
  8
Geo
100
AcDbLine
 10
-10.2321254793919
 20
9.566635174207892
 30
0.0
 11
-10.1321254793919
 21
9.541818256060187
 31
0.0
  0
LINE
  5
F10320
330
261
100
AcDbEntity
  8
Geo
100
AcDbLine
 10
-10.1321254793919
 20
9.541818256060187
 30
0.0
 11
-10.03212547939189
 21
9.519308261649594
 31
0.0
  0
LINE
  5
F10322
330
261
100
AcDbEntity
  8
Geo
100
AcDbLine
 10
-10.03212547939189
 20
9.519308261649594
 30
0.0
 11
-9.932125479391899
 21
9.499132779254386
 31
0.0
  0
LINE
  5
F10324
330
261
100
AcDbEntity
  8
Geo
100
AcDbLine
 10
-9.932125479391899
 20
9.499132779254386
 30
0.0
 11
-9.832125479391903
 21
9.481316535972093
 31
0.0
  0
LINE
  5
F10326
330
261
100
AcDbEntity
  8
Geo
100
AcDbLine
 10
-9.832125479391903
 20
9.481316535972093
 30
0.0
 11
-9.732125479391896
 21
9.465881367413391
 31
0.0
  0
LINE
  5
F10328
330
261
100
AcDbEntity
  8
Geo
100
AcDbLine
 10
-9.732125479391896
 20
9.465881367413391
 30
0.0
 11
-9.632125479391902
 21
9.452846190940988
 31
0.0
  0
LINE
  5
F1032A
330
261
100
AcDbEntity
  8
Geo
100
AcDbLine
 10
-9.632125479391902
 20
9.452846190940988
 30
0.0
 11
-9.532125479391893
 21
9.44222698248399
 31
0.0
  0
LINE
  5
F1032C
330
261
100
AcDbEntity
  8
Geo
100
AcDbLine
 10
-9.532125479391893
 20
9.44222698248399
 30
0.0
 11
-9.432125479391899
 21
9.434036756958194
 31
0.0
  0
LINE
  5
F1032E
330
261
100
AcDbEntity
  8
Geo
100
AcDbLine
 10
-9.432125479391899
 20
9.434036756958194
 30
0.0
 11
-9.332125479391903
 21
9.428285552314392
 31
0.0
  0
LINE
  5
F10330
330
261
100
AcDbEntity
  8
Geo
100
AcDbLine
 10
-9.332125479391903
 20
9.428285552314392
 30
0.0
 11
-9.232125479391896
 21
9.424980417236591
 31
0.0
  0
LINE
  5
F10332
330
261
100
AcDbEntity
  8
Geo
100
AcDbLine
 10
-14.23212547939189
 20
10.08059449838449
 30
0.0
 11
-14.1321254793919
 21
9.961248415508492
 31
0.0
  0
LINE
  5
F10334
330
261
100
AcDbEntity
  8
Geo
100
AcDbLine
 10
-14.1321254793919
 20
9.961248415508492
 30
0.0
 11
-14.03212547939189
 21
9.914405880341194
 31
0.0
  0
LINE
  5
F10336
330
261
100
AcDbEntity
  8
Geo
100
AcDbLine
 10
-14.03212547939189
 20
9.914405880341194
 30
0.0
 11
-13.9321254793919
 21
9.869413625035786
 31
0.0
  0
LINE
  5
F10338
330
261
100
AcDbEntity
  8
Geo
100
AcDbLine
 10
-13.9321254793919
 20
9.869413625035786
 30
0.0
 11
-13.8321254793919
 21
9.826326792158685
 31
0.0
  0
LINE
  5
F1033A
330
261
100
AcDbEntity
  8
Geo
100
AcDbLine
 10
-13.8321254793919
 20
9.826326792158685
 30
0.0
 11
-13.73212547939189
 21
9.785198188988188
 31
0.0
  0
LINE
  5
F1033C
330
261
100
AcDbEntity
  8
Geo
100
AcDbLine
 10
-13.73212547939189
 20
9.785198188988188
 30
0.0
 11
-13.6321254793919
 21
9.746078222793492
 31
0.0
  0
LINE
  5
F1033E
330
261
100
AcDbEntity
  8
Geo
100
AcDbLine
 10
-13.6321254793919
 20
9.746078222793492
 30
0.0
 11
-13.53212547939189
 21
9.709014839055882
 31
0.0
  0
LINE
  5
F10340
330
261
100
AcDbEntity
  8
Geo
100
AcDbLine
 10
-13.53212547939189
 20
9.709014839055882
 30
0.0
 11
-13.4321254793919
 21
9.674053462706687
 31
0.0
  0
LINE
  5
F10342
330
261
100
AcDbEntity
  8
Geo
100
AcDbLine
 10
-13.4321254793919
 20
9.674053462706687
 30
0.0
 11
-13.3321254793919
 21
9.64123694245389
 31
0.0
  0
LINE
  5
F10344
330
261
100
AcDbEntity
  8
Geo
100
AcDbLine
 10
-13.3321254793919
 20
9.64123694245389
 30
0.0
 11
-13.2321254793919
 21
9.610605498267393
 31
0.0
  0
LINE
  5
F10346
330
261
100
AcDbEntity
  8
Geo
100
AcDbLine
 10
-13.2321254793919
 20
9.610605498267393
 30
0.0
 11
-13.1321254793919
 21
9.582196672084695
 31
0.0
  0
LINE
  5
F10348
330
261
100
AcDbEntity
  8
Geo
100
AcDbLine
 10
-13.1321254793919
 20
9.582196672084695
 30
0.0
 11
-13.03212547939189
 21
9.556045281800091
 31
0.0
  0
LINE
  5
F1034A
330
261
100
AcDbEntity
  8
Geo
100
AcDbLine
 10
-13.03212547939189
 20
9.556045281800091
 30
0.0
 11
-12.9321254793919
 21
9.532183378591494
 31
0.0
  0
LINE
  5
F1034C
330
261
100
AcDbEntity
  8
Geo
100
AcDbLine
 10
-12.9321254793919
 20
9.532183378591494
 30
0.0
 11
-12.8321254793919
 21
9.510640207638292
 31
0.0
  0
LINE
  5
F1034E
330
261
100
AcDbEntity
  8
Geo
100
AcDbLine
 10
-12.8321254793919
 20
9.510640207638292
 30
0.0
 11
-12.7321254793919
 21
9.491442172278793
 31
0.0
  0
LINE
  5
F10350
330
261
100
AcDbEntity
  8
Geo
100
AcDbLine
 10
-12.7321254793919
 20
9.491442172278793
 30
0.0
 11
-12.6321254793919
 21
9.474612801649891
 31
0.0
  0
LINE
  5
F10352
330
261
100
AcDbEntity
  8
Geo
100
AcDbLine
 10
-12.6321254793919
 20
9.474612801649891
 30
0.0
 11
-12.53212547939189
 21
9.460172721850188
 31
0.0
  0
LINE
  5
F10354
330
261
100
AcDbEntity
  8
Geo
100
AcDbLine
 10
-12.53212547939189
 20
9.460172721850188
 30
0.0
 11
-12.4321254793919
 21
9.44813963066019
 31
0.0
  0
LINE
  5
F10356
330
261
100
AcDbEntity
  8
Geo
100
AcDbLine
 10
-12.4321254793919
 20
9.44813963066019
 30
0.0
 11
-12.3321254793919
 21
9.438528275851886
 31
0.0
  0
LINE
  5
F10358
330
261
100
AcDbEntity
  8
Geo
100
AcDbLine
 10
-12.3321254793919
 20
9.438528275851886
 30
0.0
 11
-12.23212547939189
 21
9.431350437114382
 31
0.0
  0
LINE
  5
F1035A
330
261
100
AcDbEntity
  8
Geo
100
AcDbLine
 10
-12.23212547939189
 20
9.431350437114382
 30
0.0
 11
-12.1321254793919
 21
9.426614911616091
 31
0.0
  0
LINE
  5
F1035C
330
261
100
AcDbEntity
  8
Geo
100
AcDbLine
 10
-12.1321254793919
 20
9.426614911616091
 30
0.0
 11
-12.03212547939189
 21
9.424327503223187
 31
0.0
  0
LINE
  5
F1035E
330
261
100
AcDbEntity
  8
Geo
100
AcDbLine
 10
-9.232125479391896
 20
13.42321434804139
 30
0.0
 11
-9.132125479391902
 21
13.42406936277539
 31
0.0
  0
LINE
  5
F10360
330
261
100
AcDbEntity
  8
Geo
100
AcDbLine
 10
-9.132125479391902
 20
13.42406936277539
 30
0.0
 11
-9.032125479391893
 21
13.42247320925849
 31
0.0
  0
LINE
  5
F10362
330
261
100
AcDbEntity
  8
Geo
100
AcDbLine
 10
-9.032125479391893
 20
13.42247320925849
 30
0.0
 11
-8.932125479391897
 21
13.41842784373829
 31
0.0
  0
LINE
  5
F10364
330
261
100
AcDbEntity
  8
Geo
100
AcDbLine
 10
-8.932125479391897
 20
13.41842784373829
 30
0.0
 11
-8.832125479391903
 21
13.41193822422029
 31
0.0
  0
LINE
  5
F10366
330
261
100
AcDbEntity
  8
Geo
100
AcDbLine
 10
-8.832125479391903
 20
13.41193822422029
 30
0.0
 11
-8.732125479391896
 21
13.40301230439039
 31
0.0
  0
LINE
  5
F10368
330
261
100
AcDbEntity
  8
Geo
100
AcDbLine
 10
-8.732125479391896
 20
13.40301230439039
 30
0.0
 11
-8.632125479391902
 21
13.39166102386759
 31
0.0
  0
LINE
  5
F1036A
330
261
100
AcDbEntity
  8
Geo
100
AcDbLine
 10
-8.632125479391902
 20
13.39166102386759
 30
0.0
 11
-8.532125479391893
 21
13.37789829479599
 31
0.0
  0
LINE
  5
F1036C
330
261
100
AcDbEntity
  8
Geo
100
AcDbLine
 10
-8.532125479391893
 20
13.37789829479599
 30
0.0
 11
-8.432125479391897
 21
13.36174098479409
 31
0.0
  0
LINE
  5
F1036E
330
261
100
AcDbEntity
  8
Geo
100
AcDbLine
 10
-8.432125479391897
 20
13.36174098479409
 30
0.0
 11
-8.332125479391905
 21
13.34320889628219
 31
0.0
  0
LINE
  5
F10370
330
261
100
AcDbEntity
  8
Geo
100
AcDbLine
 10
-8.332125479391905
 20
13.34320889628219
 30
0.0
 11
-8.232125479391896
 21
13.32232474221179
 31
0.0
  0
LINE
  5
F10372
330
261
100
AcDbEntity
  8
Geo
100
AcDbLine
 10
-8.232125479391896
 20
13.32232474221179
 30
0.0
 11
-8.132125479391902
 21
13.29911411822919
 31
0.0
  0
LINE
  5
F10374
330
261
100
AcDbEntity
  8
Geo
100
AcDbLine
 10
-8.132125479391902
 20
13.29911411822919
 30
0.0
 11
-8.032125479391893
 21
13.27360547130538
 31
0.0
  0
LINE
  5
F10376
330
261
100
AcDbEntity
  8
Geo
100
AcDbLine
 10
-8.032125479391893
 20
13.27360547130538
 30
0.0
 11
-7.932125479391897
 21
13.24583006487089
 31
0.0
  0
LINE
  5
F10378
330
261
100
AcDbEntity
  8
Geo
100
AcDbLine
 10
-7.932125479391897
 20
13.24583006487089
 30
0.0
 11
-7.832125479391905
 21
13.21582194050009
 31
0.0
  0
LINE
  5
F1037A
330
261
100
AcDbEntity
  8
Geo
100
AcDbLine
 10
-7.832125479391905
 20
13.21582194050009
 30
0.0
 11
-7.732125479391896
 21
13.18361787618888
 31
0.0
  0
LINE
  5
F1037C
330
261
100
AcDbEntity
  8
Geo
100
AcDbLine
 10
-7.732125479391896
 20
13.18361787618888
 30
0.0
 11
-7.632125479391902
 21
13.14925734128029
 31
0.0
  0
LINE
  5
F1037E
330
261
100
AcDbEntity
  8
Geo
100
AcDbLine
 10
-7.632125479391902
 20
13.14925734128029
 30
0.0
 11
-7.532125479391893
 21
13.11278244809049
 31
0.0
  0
LINE
  5
F10380
330
261
100
AcDbEntity
  8
Geo
100
AcDbLine
 10
-7.532125479391893
 20
13.11278244809049
 30
0.0
 11
-7.432125479391897
 21
13.07423790029579
 31
0.0
  0
LINE
  5
F10382
330
261
100
AcDbEntity
  8
Geo
100
AcDbLine
 10
-7.432125479391897
 20
13.07423790029579
 30
0.0
 11
-7.332125479391905
 21
13.03367093814389
 31
0.0
  0
LINE
  5
F10384
330
261
100
AcDbEntity
  8
Geo
100
AcDbLine
 10
-7.332125479391905
 20
13.03367093814389
 30
0.0
 11
-7.232125479391896
 21
12.99113128055629
 31
0.0
  0
LINE
  5
F10386
330
261
100
AcDbEntity
  8
Geo
100
AcDbLine
 10
-7.232125479391896
 20
12.99113128055629
 30
0.0
 11
-7.132125479391902
 21
12.94667106419239
 31
0.0
  0
LINE
  5
F10388
330
261
100
AcDbEntity
  8
Geo
100
AcDbLine
 10
-7.132125479391902
 20
12.94667106419239
 30
0.0
 11
-7.032125479391893
 21
12.90034477955099
 31
0.0
  0
LINE
  5
F1038A
330
261
100
AcDbEntity
  8
Geo
100
AcDbLine
 10
-7.032125479391893
 20
12.90034477955099
 30
0.0
 11
-6.932125479391897
 21
12.85220920418669
 31
0.0
  0
LINE
  5
F1038C
330
261
100
AcDbEntity
  8
Geo
100
AcDbLine
 10
-6.932125479391897
 20
12.85220920418669
 30
0.0
 11
-6.832125479391905
 21
12.80232333312289
 31
0.0
  0
LINE
  5
F1038E
330
261
100
AcDbEntity
  8
Geo
100
AcDbLine
 10
-6.832125479391905
 20
12.80232333312289
 30
0.0
 11
-6.732125479391896
 21
12.75074830654789
 31
0.0
  0
LINE
  5
F10390
330
261
100
AcDbEntity
  8
Geo
100
AcDbLine
 10
-6.732125479391896
 20
12.75074830654789
 30
0.0
 11
-6.632125479391902
 21
12.6975473348811
 31
0.0
  0
LINE
  5
F10392
330
261
100
AcDbEntity
  8
Geo
100
AcDbLine
 10
-6.632125479391902
 20
12.6975473348811
 30
0.0
 11
-6.532125479391893
 21
12.64278562130229
 31
0.0
  0
LINE
  5
F10394
330
261
100
AcDbEntity
  8
Geo
100
AcDbLine
 10
-6.532125479391893
 20
12.64278562130229
 30
0.0
 11
-6.432125479391897
 21
12.58653028183879
 31
0.0
  0
LINE
  5
F10396
330
261
100
AcDbEntity
  8
Geo
100
AcDbLine
 10
-6.432125479391897
 20
12.58653028183879
 30
0.0
 11
-6.332125479391905
 21
12.52885026310739
 31
0.0
  0
LINE
  5
F10398
330
261
100
AcDbEntity
  8
Geo
100
AcDbLine
 10
-6.332125479391905
 20
12.52885026310739
 30
0.0
 11
-6.232125479391896
 21
12.46981625781379
 31
0.0
  0
LINE
  5
F1039A
330
261
100
AcDbEntity
  8
Geo
100
AcDbLine
 10
-6.232125479391896
 20
12.46981625781379
 30
0.0
 11
-6.132125479391902
 21
12.40950061811149
 31
0.0
  0
LINE
  5
F1039C
330
261
100
AcDbEntity
  8
Geo
100
AcDbLine
 10
-6.132125479391902
 20
12.40950061811149
 30
0.0
 11
-6.032125479391893
 21
12.34797726692659
 31
0.0
  0
LINE
  5
F1039E
330
261
100
AcDbEntity
  8
Geo
100
AcDbLine
 10
-6.032125479391893
 20
12.34797726692659
 30
0.0
 11
-5.932125479391897
 21
12.28532160735819
 31
0.0
  0
LINE
  5
F103A0
330
261
100
AcDbEntity
  8
Geo
100
AcDbLine
 10
-5.932125479391897
 20
12.28532160735819
 30
0.0
 11
-5.832125479391905
 21
12.22161043026369
 31
0.0
  0
LINE
  5
F103A2
330
261
100
AcDbEntity
  8
Geo
100
AcDbLine
 10
-5.832125479391905
 20
12.22161043026369
 30
0.0
 11
-5.732125479391896
 21
12.15692182014439
 31
0.0
  0
LINE
  5
F103A4
330
261
100
AcDbEntity
  8
Geo
100
AcDbLine
 10
-5.732125479391896
 20
12.15692182014439
 30
0.0
 11
-5.632125479391902
 21
12.09133505944469
 31
0.0
  0
LINE
  5
F103A6
330
261
100
AcDbEntity
  8
Geo
100
AcDbLine
 10
-5.632125479391902
 20
12.09133505944469
 30
0.0
 11
-5.532125479391893
 21
12.02493053138349
 31
0.0
  0
LINE
  5
F103A8
330
261
100
AcDbEntity
  8
Geo
100
AcDbLine
 10
-5.532125479391893
 20
12.02493053138349
 30
0.0
 11
-5.432125479391896
 21
11.95778962143639
 31
0.0
  0
LINE
  5
F103AA
330
261
100
AcDbEntity
  8
Geo
100
AcDbLine
 10
-5.432125479391896
 20
11.95778962143639
 30
0.0
 11
-5.332125479391905
 21
11.88999461758989
 31
0.0
  0
LINE
  5
F103AC
330
261
100
AcDbEntity
  8
Geo
100
AcDbLine
 10
-5.332125479391905
 20
11.88999461758989
 30
0.0
 11
-5.232125479391896
 21
11.82162860948829
 31
0.0
  0
LINE
  5
F103AE
330
261
100
AcDbEntity
  8
Geo
100
AcDbLine
 10
-5.232125479391896
 20
11.82162860948829
 30
0.0
 11
-5.132125479391902
 21
11.75277538659979
 31
0.0
  0
LINE
  5
F103B0
330
261
100
AcDbEntity
  8
Geo
100
AcDbLine
 10
-5.132125479391902
 20
11.75277538659979
 30
0.0
 11
-5.032125479391893
 21
11.68351933552369
 31
0.0
  0
LINE
  5
F103B2
330
261
100
AcDbEntity
  8
Geo
100
AcDbLine
 10
-5.032125479391893
 20
11.68351933552369
 30
0.0
 11
-4.932125479391898
 21
11.61394533656589
 31
0.0
  0
LINE
  5
F103B4
330
261
100
AcDbEntity
  8
Geo
100
AcDbLine
 10
-4.932125479391898
 20
11.61394533656589
 30
0.0
 11
-4.832125479391905
 21
11.54413865970979
 31
0.0
  0
LINE
  5
F103B6
330
261
100
AcDbEntity
  8
Geo
100
AcDbLine
 10
-4.832125479391905
 20
11.54413865970979
 30
0.0
 11
-4.732125479391896
 21
11.47418486010879
 31
0.0
  0
LINE
  5
F103B8
330
261
100
AcDbEntity
  8
Geo
100
AcDbLine
 10
-4.732125479391896
 20
11.47418486010879
 30
0.0
 11
-4.632125479391902
 21
11.40416967323059
 31
0.0
  0
LINE
  5
F103BA
330
261
100
AcDbEntity
  8
Geo
100
AcDbLine
 10
-4.632125479391902
 20
11.40416967323059
 30
0.0
 11
-4.532125479391893
 21
11.33417890977889
 31
0.0
  0
LINE
  5
F103BC
330
261
100
AcDbEntity
  8
Geo
100
AcDbLine
 10
-4.532125479391893
 20
11.33417890977889
 30
0.0
 11
-4.432125479391898
 21
11.26429835052399
 31
0.0
  0
LINE
  5
F103BE
330
261
100
AcDbEntity
  8
Geo
100
AcDbLine
 10
-4.432125479391898
 20
11.26429835052399
 30
0.0
 11
-4.332125479391905
 21
11.19461364116999
 31
0.0
  0
LINE
  5
F103C0
330
261
100
AcDbEntity
  8
Geo
100
AcDbLine
 10
-4.332125479391905
 20
11.19461364116999
 30
0.0
 11
-4.232125479391896
 21
11.12521018738688
 31
0.0
  0
LINE
  5
F103C2
330
261
100
AcDbEntity
  8
Geo
100
AcDbLine
 10
-4.232125479391896
 20
11.12521018738688
 30
0.0
 11
-4.132125479391902
 21
11.05617305013779
 31
0.0
  0
LINE
  5
F103C4
330
261
100
AcDbEntity
  8
Geo
100
AcDbLine
 10
-4.132125479391902
 20
11.05617305013779
 30
0.0
 11
-4.032125479391893
 21
10.98758684142739
 31
0.0
  0
LINE
  5
F103C6
330
261
100
AcDbEntity
  8
Geo
100
AcDbLine
 10
-4.032125479391893
 20
10.98758684142739
 30
0.0
 11
-3.932125479391899
 21
10.91953562060209
 31
0.0
  0
LINE
  5
F103C8
330
261
100
AcDbEntity
  8
Geo
100
AcDbLine
 10
-3.932125479391899
 20
10.91953562060209
 30
0.0
 11
-3.832125479391905
 21
10.85210279132629
 31
0.0
  0
LINE
  5
F103CA
330
261
100
AcDbEntity
  8
Geo
100
AcDbLine
 10
-3.832125479391905
 20
10.85210279132629
 30
0.0
 11
-3.732125479391896
 21
10.78537099936289
 31
0.0
  0
LINE
  5
F103CC
330
261
100
AcDbEntity
  8
Geo
100
AcDbLine
 10
-3.732125479391896
 20
10.78537099936289
 30
0.0
 11
-3.632125479391902
 21
10.71942203128279
 31
0.0
  0
LINE
  5
F103CE
330
261
100
AcDbEntity
  8
Geo
100
AcDbLine
 10
-3.632125479391902
 20
10.71942203128279
 30
0.0
 11
-3.532125479391893
 21
10.65433671422649
 31
0.0
  0
LINE
  5
F103D0
330
261
100
AcDbEntity
  8
Geo
100
AcDbLine
 10
-3.532125479391893
 20
10.65433671422649
 30
0.0
 11
-3.432125479391899
 21
10.59019481684319
 31
0.0
  0
LINE
  5
F103D2
330
261
100
AcDbEntity
  8
Geo
100
AcDbLine
 10
-3.432125479391899
 20
10.59019481684319
 30
0.0
 11
-3.332125479391905
 21
10.52707495152519
 31
0.0
  0
LINE
  5
F103D4
330
261
100
AcDbEntity
  8
Geo
100
AcDbLine
 10
-3.332125479391905
 20
10.52707495152519
 30
0.0
 11
-3.232125479391896
 21
10.46505447806149
 31
0.0
  0
LINE
  5
F103DE
330
261
100
AcDbEntity
  8
Geo
100
AcDbLine
 10
-3.232125479391896
 20
10.46505447806149
 30
0.0
 11
-3.132125479391902
 21
10.46009930668879
 31
0.0
  0
LINE
  5
F103E0
330
261
100
AcDbEntity
  8
Geo
100
AcDbLine
 10
-3.132125479391902
 20
10.46009930668879
 30
0.0
 11
-3.032125479391893
 21
10.40602618718988
 31
0.0
  0
LINE
  5
F103E2
330
261
100
AcDbEntity
  8
Geo
100
AcDbLine
 10
-3.032125479391893
 20
10.40602618718988
 30
0.0
 11
-2.932125479391899
 21
10.35098065764519
 31
0.0
  0
LINE
  5
F103E4
330
261
100
AcDbEntity
  8
Geo
100
AcDbLine
 10
-2.932125479391899
 20
10.35098065764519
 30
0.0
 11
-2.832125479391905
 21
10.29517519418409
 31
0.0
  0
LINE
  5
F103E6
330
261
100
AcDbEntity
  8
Geo
100
AcDbLine
 10
-2.832125479391905
 20
10.29517519418409
 30
0.0
 11
-2.732125479391896
 21
10.23884217330489
 31
0.0
  0
LINE
  5
F103E8
330
261
100
AcDbEntity
  8
Geo
100
AcDbLine
 10
-2.732125479391896
 20
10.23884217330489
 30
0.0
 11
-2.632125479391902
 21
10.18223458926719
 31
0.0
  0
LINE
  5
F103EA
330
261
100
AcDbEntity
  8
Geo
100
AcDbLine
 10
-2.632125479391902
 20
10.18223458926719
 30
0.0
 11
-2.532125479391893
 21
10.12562665002269
 31
0.0
  0
LINE
  5
F103EC
330
261
100
AcDbEntity
  8
Geo
100
AcDbLine
 10
-2.532125479391893
 20
10.12562665002269
 30
0.0
 11
-2.432125479391897
 21
10.06931422836919
 31
0.0
  0
LINE
  5
F103EE
330
261
100
AcDbEntity
  8
Geo
100
AcDbLine
 10
-2.432125479391897
 20
10.06931422836919
 30
0.0
 11
-2.332125479391903
 21
10.01361514354259
 31
0.0
  0
LINE
  5
F103F0
330
261
100
AcDbEntity
  8
Geo
100
AcDbLine
 10
-2.332125479391903
 20
10.01361514354259
 30
0.0
 11
-2.232125479391896
 21
9.958869247114492
 31
0.0
  0
LINE
  5
F103F2
330
261
100
AcDbEntity
  8
Geo
100
AcDbLine
 10
-2.232125479391896
 20
9.958869247114492
 30
0.0
 11
-2.132125479391902
 21
9.905438285880592
 31
0.0
  0
LINE
  5
F103F4
330
261
100
AcDbEntity
  8
Geo
100
AcDbLine
 10
-2.132125479391902
 20
9.905438285880592
 30
0.0
 11
-2.032125479391893
 21
9.853705513459793
 31
0.0
  0
LINE
  5
F103F6
330
261
100
AcDbEntity
  8
Geo
100
AcDbLine
 10
-2.032125479391893
 20
9.853705513459793
 30
0.0
 11
-1.932125479391899
 21
9.804075021621491
 31
0.0
  0
LINE
  5
F103F8
330
261
100
AcDbEntity
  8
Geo
100
AcDbLine
 10
-1.932125479391899
 20
9.804075021621491
 30
0.0
 11
-1.832125479391905
 21
9.756970761993994
 31
0.0
  0
LINE
  5
F103FA
330
261
100
AcDbEntity
  8
Geo
100
AcDbLine
 10
-1.832125479391905
 20
9.756970761993994
 30
0.0
 11
-1.732125479391896
 21
9.712835228817095
 31
0.0
  0
LINE
  5
F103FC
330
261
100
AcDbEntity
  8
Geo
100
AcDbLine
 10
-1.732125479391896
 20
9.712835228817095
 30
0.0
 11
-1.6321254793919
 21
9.672127773882994
 31
0.0
  0
LINE
  5
F103FE
330
261
100
AcDbEntity
  8
Geo
100
AcDbLine
 10
-1.6321254793919
 20
9.672127773882994
 30
0.0
 11
-1.532125479391893
 21
9.635322525798793
 31
0.0
  0
LINE
  5
F10400
330
261
100
AcDbEntity
  8
Geo
100
AcDbLine
 10
-1.532125479391893
 20
9.635322525798793
 30
0.0
 11
-1.432125479391899
 21
9.602905887302386
 31
0.0
  0
LINE
  5
F10402
330
261
100
AcDbEntity
  8
Geo
100
AcDbLine
 10
-1.432125479391899
 20
9.602905887302386
 30
0.0
 11
-1.332125479391905
 21
9.575373586618187
 31
0.0
  0
LINE
  5
F10404
330
261
100
AcDbEntity
  8
Geo
100
AcDbLine
 10
-1.332125479391905
 20
9.575373586618187
 30
0.0
 11
-1.232125479391894
 21
9.553227261834392
 31
0.0
  0
LINE
  5
F10406
330
261
100
AcDbEntity
  8
Geo
100
AcDbLine
 10
-1.232125479391894
 20
9.553227261834392
 30
0.0
 11
-1.232125479391894
 21
9.553227261834392
 31
0.0
  0
LINE
  5
F10408
330
261
100
AcDbEntity
  8
Geo
100
AcDbLine
 10
-12.03212547939189
 20
13.42386726205479
 30
0.0
 11
-11.9321254793919
 21
13.42370374989169
 31
0.0
  0
LINE
  5
F1040A
330
261
100
AcDbEntity
  8
Geo
100
AcDbLine
 10
-11.9321254793919
 20
13.42370374989169
 30
0.0
 11
-11.8321254793919
 21
13.42108951757319
 31
0.0
  0
LINE
  5
F1040C
330
261
100
AcDbEntity
  8
Geo
100
AcDbLine
 10
-11.8321254793919
 20
13.42108951757319
 30
0.0
 11
-11.73212547939189
 21
13.41602776910589
 31
0.0
  0
LINE
  5
F1040E
330
261
100
AcDbEntity
  8
Geo
100
AcDbLine
 10
-11.73212547939189
 20
13.41602776910589
 30
0.0
 11
-11.6321254793919
 21
13.40852470817519
 31
0.0
  0
LINE
  5
F10410
330
261
100
AcDbEntity
  8
Geo
100
AcDbLine
 10
-11.6321254793919
 20
13.40852470817519
 30
0.0
 11
-11.53212547939189
 21
13.39858953054239
 31
0.0
  0
LINE
  5
F10412
330
261
100
AcDbEntity
  8
Geo
100
AcDbLine
 10
-11.53212547939189
 20
13.39858953054239
 30
0.0
 11
-11.4321254793919
 21
13.38623441277399
 31
0.0
  0
LINE
  5
F10414
330
261
100
AcDbEntity
  8
Geo
100
AcDbLine
 10
-11.4321254793919
 20
13.38623441277399
 30
0.0
 11
-11.3321254793919
 21
13.37147449731849
 31
0.0
  0
LINE
  5
F10416
330
261
100
AcDbEntity
  8
Geo
100
AcDbLine
 10
-11.3321254793919
 20
13.37147449731849
 30
0.0
 11
-11.23212547939189
 21
13.35432787394719
 31
0.0
  0
LINE
  5
F10418
330
261
100
AcDbEntity
  8
Geo
100
AcDbLine
 10
-11.23212547939189
 20
13.35432787394719
 30
0.0
 11
-11.1321254793919
 21
13.33481555758399
 31
0.0
  0
LINE
  5
F1041A
330
261
100
AcDbEntity
  8
Geo
100
AcDbLine
 10
-11.1321254793919
 20
13.33481555758399
 30
0.0
 11
-11.03212547939189
 21
13.31296146254919
 31
0.0
  0
LINE
  5
F1041C
330
261
100
AcDbEntity
  8
Geo
100
AcDbLine
 10
-11.03212547939189
 20
13.31296146254919
 30
0.0
 11
-10.9321254793919
 21
13.28879237324989
 31
0.0
  0
LINE
  5
F1041E
330
261
100
AcDbEntity
  8
Geo
100
AcDbLine
 10
-10.9321254793919
 20
13.28879237324989
 30
0.0
 11
-10.8321254793919
 21
13.26233791135339
 31
0.0
  0
LINE
  5
F10420
330
261
100
AcDbEntity
  8
Geo
100
AcDbLine
 10
-10.8321254793919
 20
13.26233791135339
 30
0.0
 11
-10.73212547939189
 21
13.23363049948229
 31
0.0
  0
LINE
  5
F10422
330
261
100
AcDbEntity
  8
Geo
100
AcDbLine
 10
-10.73212547939189
 20
13.23363049948229
 30
0.0
 11
-10.6321254793919
 21
13.20270532147799
 31
0.0
  0
LINE
  5
F10424
330
261
100
AcDbEntity
  8
Geo
100
AcDbLine
 10
-10.6321254793919
 20
13.20270532147799
 30
0.0
 11
-10.53212547939189
 21
13.16960027927859
 31
0.0
  0
LINE
  5
F10426
330
261
100
AcDbEntity
  8
Geo
100
AcDbLine
 10
-10.53212547939189
 20
13.16960027927859
 30
0.0
 11
-10.4321254793919
 21
13.13435594646679
 31
0.0
  0
LINE
  5
F10428
330
261
100
AcDbEntity
  8
Geo
100
AcDbLine
 10
-10.4321254793919
 20
13.13435594646679
 30
0.0
 11
-10.3321254793919
 21
13.09701551854249
 31
0.0
  0
LINE
  5
F1042A
330
261
100
AcDbEntity
  8
Geo
100
AcDbLine
 10
-10.3321254793919
 20
13.09701551854249
 30
0.0
 11
-10.2321254793919
 21
13.05762475998269
 31
0.0
  0
LINE
  5
F1042C
330
261
100
AcDbEntity
  8
Geo
100
AcDbLine
 10
-10.2321254793919
 20
13.05762475998269
 30
0.0
 11
-10.1321254793919
 21
13.01623194815199
 31
0.0
  0
LINE
  5
F1042E
330
261
100
AcDbEntity
  8
Geo
100
AcDbLine
 10
-10.1321254793919
 20
13.01623194815199
 30
0.0
 11
-10.03212547939189
 21
12.97288781413419
 31
0.0
  0
LINE
  5
F10430
330
261
100
AcDbEntity
  8
Geo
100
AcDbLine
 10
-10.03212547939189
 20
12.97288781413419
 30
0.0
 11
-9.932125479391899
 21
12.92764548055629
 31
0.0
  0
LINE
  5
F10432
330
261
100
AcDbEntity
  8
Geo
100
AcDbLine
 10
-9.932125479391899
 20
12.92764548055629
 30
0.0
 11
-9.832125479391903
 21
12.88056039648089
 31
0.0
  0
LINE
  5
F10434
330
261
100
AcDbEntity
  8
Geo
100
AcDbLine
 10
-9.832125479391903
 20
12.88056039648089
 30
0.0
 11
-9.732125479391896
 21
12.83169026944799
 31
0.0
  0
LINE
  5
F10436
330
261
100
AcDbEntity
  8
Geo
100
AcDbLine
 10
-9.732125479391896
 20
12.83169026944799
 30
0.0
 11
-9.632125479391902
 21
12.78109499474859
 31
0.0
  0
LINE
  5
F10438
330
261
100
AcDbEntity
  8
Geo
100
AcDbLine
 10
-9.632125479391902
 20
12.78109499474859
 30
0.0
 11
-9.532125479391893
 21
12.72883658201709
 31
0.0
  0
LINE
  5
F1043A
330
261
100
AcDbEntity
  8
Geo
100
AcDbLine
 10
-9.532125479391893
 20
12.72883658201709
 30
0.0
 11
-9.432125479391899
 21
12.67497907923179
 31
0.0
  0
LINE
  5
F1043C
330
261
100
AcDbEntity
  8
Geo
100
AcDbLine
 10
-9.432125479391899
 20
12.67497907923179
 30
0.0
 11
-9.332125479391903
 21
12.61958849421799
 31
0.0
  0
LINE
  5
F1043E
330
261
100
AcDbEntity
  8
Geo
100
AcDbLine
 10
-9.332125479391903
 20
12.61958849421799
 30
0.0
 11
-9.232125479391896
 21
12.56273271374829
 31
0.0
  0
LINE
  5
F10440
330
261
100
AcDbEntity
  8
Geo
100
AcDbLine
 10
-9.232125479391896
 20
12.56273271374829
 30
0.0
 11
-9.132125479391902
 21
12.50448142034099
 31
0.0
  0
LINE
  5
F10442
330
261
100
AcDbEntity
  8
Geo
100
AcDbLine
 10
-9.132125479391902
 20
12.50448142034099
 30
0.0
 11
-9.032125479391893
 21
12.44490600685689
 31
0.0
  0
LINE
  5
F10444
330
261
100
AcDbEntity
  8
Geo
100
AcDbLine
 10
-9.032125479391893
 20
12.44490600685689
 30
0.0
 11
-8.932125479391897
 21
12.38407948899989
 31
0.0
  0
LINE
  5
F10446
330
261
100
AcDbEntity
  8
Geo
100
AcDbLine
 10
-8.932125479391897
 20
12.38407948899989
 30
0.0
 11
-8.832125479391903
 21
12.32207641582909
 31
0.0
  0
LINE
  5
F10448
330
261
100
AcDbEntity
  8
Geo
100
AcDbLine
 10
-8.832125479391903
 20
12.32207641582909
 30
0.0
 11
-8.732125479391896
 21
12.25897277839149
 31
0.0
  0
LINE
  5
F1044A
330
261
100
AcDbEntity
  8
Geo
100
AcDbLine
 10
-8.732125479391896
 20
12.25897277839149
 30
0.0
 11
-8.632125479391902
 21
12.19484591658669
 31
0.0
  0
LINE
  5
F1044C
330
261
100
AcDbEntity
  8
Geo
100
AcDbLine
 10
-8.632125479391902
 20
12.19484591658669
 30
0.0
 11
-8.532125479391893
 21
12.12977442437969
 31
0.0
  0
LINE
  5
F1044E
330
261
100
AcDbEntity
  8
Geo
100
AcDbLine
 10
-8.532125479391893
 20
12.12977442437969
 30
0.0
 11
-8.432125479391897
 21
12.06383805347579
 31
0.0
  0
LINE
  5
F10450
330
261
100
AcDbEntity
  8
Geo
100
AcDbLine
 10
-8.432125479391897
 20
12.06383805347579
 30
0.0
 11
-8.332125479391905
 21
11.99711761557649
 31
0.0
  0
LINE
  5
F10452
330
261
100
AcDbEntity
  8
Geo
100
AcDbLine
 10
-8.332125479391905
 20
11.99711761557649
 30
0.0
 11
-8.232125479391896
 21
11.92969488333709
 31
0.0
  0
LINE
  5
F10454
330
261
100
AcDbEntity
  8
Geo
100
AcDbLine
 10
-8.232125479391896
 20
11.92969488333709
 30
0.0
 11
-8.132125479391902
 21
11.86165249014559
 31
0.0
  0
LINE
  5
F10456
330
261
100
AcDbEntity
  8
Geo
100
AcDbLine
 10
-8.132125479391902
 20
11.86165249014559
 30
0.0
 11
-8.032125479391893
 21
11.79307382884709
 31
0.0
  0
LINE
  5
F10458
330
261
100
AcDbEntity
  8
Geo
100
AcDbLine
 10
-8.032125479391893
 20
11.79307382884709
 30
0.0
 11
-7.932125479391897
 21
11.72404294953799
 31
0.0
  0
LINE
  5
F1045A
330
261
100
AcDbEntity
  8
Geo
100
AcDbLine
 10
-7.932125479391897
 20
11.72404294953799
 30
0.0
 11
-7.832125479391905
 21
11.65464445655329
 31
0.0
  0
LINE
  5
F1045C
330
261
100
AcDbEntity
  8
Geo
100
AcDbLine
 10
-7.832125479391905
 20
11.65464445655329
 30
0.0
 11
-7.732125479391896
 21
11.5849634047761
 31
0.0
  0
LINE
  5
F1045E
330
261
100
AcDbEntity
  8
Geo
100
AcDbLine
 10
-7.732125479391896
 20
11.5849634047761
 30
0.0
 11
-7.632125479391902
 21
11.51508519539359
 31
0.0
  0
LINE
  5
F10460
330
261
100
AcDbEntity
  8
Geo
100
AcDbLine
 10
-7.632125479391902
 20
11.51508519539359
 30
0.0
 11
-7.532125479391893
 21
11.44509547122989
 31
0.0
  0
LINE
  5
F10462
330
261
100
AcDbEntity
  8
Geo
100
AcDbLine
 10
-7.532125479391893
 20
11.44509547122989
 30
0.0
 11
-7.432125479391897
 21
11.37508001178149
 31
0.0
  0
LINE
  5
F10464
330
261
100
AcDbEntity
  8
Geo
100
AcDbLine
 10
-7.432125479391897
 20
11.37508001178149
 30
0.0
 11
-7.332125479391905
 21
11.30512462808649
 31
0.0
  0
LINE
  5
F10466
330
261
100
AcDbEntity
  8
Geo
100
AcDbLine
 10
-7.332125479391905
 20
11.30512462808649
 30
0.0
 11
-7.232125479391896
 21
11.23531505755359
 31
0.0
  0
LINE
  5
F10468
330
261
100
AcDbEntity
  8
Geo
100
AcDbLine
 10
-7.232125479391896
 20
11.23531505755359
 30
0.0
 11
-7.132125479391902
 21
11.16573685888299
 31
0.0
  0
LINE
  5
F1046A
330
261
100
AcDbEntity
  8
Geo
100
AcDbLine
 10
-7.132125479391902
 20
11.16573685888299
 30
0.0
 11
-7.032125479391893
 21
11.09647530720519
 31
0.0
  0
LINE
  5
F1046C
330
261
100
AcDbEntity
  8
Geo
100
AcDbLine
 10
-7.032125479391893
 20
11.09647530720519
 30
0.0
 11
-6.932125479391897
 21
11.02761528956759
 31
0.0
  0
LINE
  5
F1046E
330
261
100
AcDbEntity
  8
Geo
100
AcDbLine
 10
-6.932125479391897
 20
11.02761528956759
 30
0.0
 11
-6.832125479391905
 21
10.95924120089719
 31
0.0
  0
LINE
  5
F10470
330
261
100
AcDbEntity
  8
Geo
100
AcDbLine
 10
-6.832125479391905
 20
10.95924120089719
 30
0.0
 11
-6.732125479391896
 21
10.89143684056569
 31
0.0
  0
LINE
  5
F10472
330
261
100
AcDbEntity
  8
Geo
100
AcDbLine
 10
-6.732125479391896
 20
10.89143684056569
 30
0.0
 11
-6.632125479391902
 21
10.82428530968479
 31
0.0
  0
LINE
  5
F10474
330
261
100
AcDbEntity
  8
Geo
100
AcDbLine
 10
-6.632125479391902
 20
10.82428530968479
 30
0.0
 11
-6.532125479391893
 21
10.75786890925799
 31
0.0
  0
LINE
  5
F10476
330
261
100
AcDbEntity
  8
Geo
100
AcDbLine
 10
-6.532125479391893
 20
10.75786890925799
 30
0.0
 11
-6.432125479391897
 21
10.69226903931159
 31
0.0
  0
LINE
  5
F10478
330
261
100
AcDbEntity
  8
Geo
100
AcDbLine
 10
-6.432125479391897
 20
10.69226903931159
 30
0.0
 11
-6.332125479391905
 21
10.62756609913129
 31
0.0
  0
LINE
  5
F1047A
330
261
100
AcDbEntity
  8
Geo
100
AcDbLine
 10
-6.332125479391905
 20
10.62756609913129
 30
0.0
 11
-6.232125479391896
 21
10.56383938872449
 31
0.0
  0
LINE
  5
F1047C
330
261
100
AcDbEntity
  8
Geo
100
AcDbLine
 10
-6.232125479391896
 20
10.56383938872449
 30
0.0
 11
-6.132125479391902
 21
10.50116701162999
 31
0.0
  0
LINE
  5
F1047E
330
261
100
AcDbEntity
  8
Geo
100
AcDbLine
 10
-6.132125479391902
 20
10.50116701162999
 30
0.0
 11
-6.032125479391893
 21
10.43962577919429
 31
0.0
  0
LINE
  5
F10480
330
261
100
AcDbEntity
  8
Geo
100
AcDbLine
 10
-6.032125479391893
 20
10.43962577919429
 30
0.0
 11
-5.932125479391897
 21
10.37929111643179
 31
0.0
  0
LINE
  5
F10482
330
261
100
AcDbEntity
  8
Geo
100
AcDbLine
 10
-5.932125479391897
 20
10.37929111643179
 30
0.0
 11
-5.832125479391905
 21
10.32023696958329
 31
0.0
  0
LINE
  5
F10484
330
261
100
AcDbEntity
  8
Geo
100
AcDbLine
 10
-5.832125479391905
 20
10.32023696958329
 30
0.0
 11
-5.732125479391896
 21
10.26253571548769
 31
0.0
  0
LINE
  5
F10486
330
261
100
AcDbEntity
  8
Geo
100
AcDbLine
 10
-5.732125479391896
 20
10.26253571548769
 30
0.0
 11
-5.632125479391902
 21
10.20625807287689
 31
0.0
  0
LINE
  5
F10488
330
261
100
AcDbEntity
  8
Geo
100
AcDbLine
 10
-5.632125479391902
 20
10.20625807287689
 30
0.0
 11
-5.532125479391893
 21
10.15147301570249
 31
0.0
  0
LINE
  5
F1048A
330
261
100
AcDbEntity
  8
Geo
100
AcDbLine
 10
-5.532125479391893
 20
10.15147301570249
 30
0.0
 11
-5.432125479391896
 21
10.09824768860169
 31
0.0
  0
LINE
  5
F1048C
330
261
100
AcDbEntity
  8
Geo
100
AcDbLine
 10
-5.432125479391896
 20
10.09824768860169
 30
0.0
 11
-5.332125479391905
 21
10.04664732460429
 31
0.0
  0
LINE
  5
F1048E
330
261
100
AcDbEntity
  8
Geo
100
AcDbLine
 10
-5.332125479391905
 20
10.04664732460429
 30
0.0
 11
-5.232125479391896
 21
9.996735165183194
 31
0.0
  0
LINE
  5
F10490
330
261
100
AcDbEntity
  8
Geo
100
AcDbLine
 10
-5.232125479391896
 20
9.996735165183194
 30
0.0
 11
-5.132125479391902
 21
9.94857238274589
 31
0.0
  0
LINE
  5
F10492
330
261
100
AcDbEntity
  8
Geo
100
AcDbLine
 10
-5.132125479391902
 20
9.94857238274589
 30
0.0
 11
-5.032125479391893
 21
9.902218005660792
 31
0.0
  0
LINE
  5
F10494
330
261
100
AcDbEntity
  8
Geo
100
AcDbLine
 10
-5.032125479391893
 20
9.902218005660792
 30
0.0
 11
-4.932125479391898
 21
9.857728845912687
 31
0.0
  0
LINE
  5
F10496
330
261
100
AcDbEntity
  8
Geo
100
AcDbLine
 10
-4.932125479391898
 20
9.857728845912687
 30
0.0
 11
-4.832125479391905
 21
9.815159429473187
 31
0.0
  0
LINE
  5
F10498
330
261
100
AcDbEntity
  8
Geo
100
AcDbLine
 10
-4.832125479391905
 20
9.815159429473187
 30
0.0
 11
-4.732125479391896
 21
9.77456192947449
 31
0.0
  0
LINE
  5
F1049A
330
261
100
AcDbEntity
  8
Geo
100
AcDbLine
 10
-4.732125479391896
 20
9.77456192947449
 30
0.0
 11
-4.632125479391902
 21
9.735986102265092
 31
0.0
  0
LINE
  5
F1049C
330
261
100
AcDbEntity
  8
Geo
100
AcDbLine
 10
-4.632125479391902
 20
9.735986102265092
 30
0.0
 11
-4.532125479391893
 21
9.699479226428886
 31
0.0
  0
LINE
  5
F1049E
330
261
100
AcDbEntity
  8
Geo
100
AcDbLine
 10
-4.532125479391893
 20
9.699479226428886
 30
0.0
 11
-4.432125479391898
 21
9.665086044840091
 31
0.0
  0
LINE
  5
F104A0
330
261
100
AcDbEntity
  8
Geo
100
AcDbLine
 10
-4.432125479391898
 20
9.665086044840091
 30
0.0
 11
-4.332125479391905
 21
9.632848709826792
 31
0.0
  0
LINE
  5
F104A2
330
261
100
AcDbEntity
  8
Geo
100
AcDbLine
 10
-4.332125479391905
 20
9.632848709826792
 30
0.0
 11
-4.232125479391896
 21
9.602806731508382
 31
0.0
  0
LINE
  5
F104A4
330
261
100
AcDbEntity
  8
Geo
100
AcDbLine
 10
-4.232125479391896
 20
9.602806731508382
 30
0.0
 11
-4.132125479391902
 21
9.574996929372591
 31
0.0
  0
LINE
  5
F104A6
330
261
100
AcDbEntity
  8
Geo
100
AcDbLine
 10
-4.132125479391902
 20
9.574996929372591
 30
0.0
 11
-4.032125479391893
 21
9.549453387148988
 31
0.0
  0
LINE
  5
F104A8
330
261
100
AcDbEntity
  8
Geo
100
AcDbLine
 10
-4.032125479391893
 20
9.549453387148988
 30
0.0
 11
-3.932125479391899
 21
9.526207411035796
 31
0.0
  0
LINE
  5
F104AA
330
261
100
AcDbEntity
  8
Geo
100
AcDbLine
 10
-3.932125479391899
 20
9.526207411035796
 30
0.0
 11
-3.832125479391905
 21
9.505287491331692
 31
0.0
  0
LINE
  5
F104AC
330
261
100
AcDbEntity
  8
Geo
100
AcDbLine
 10
-3.832125479391905
 20
9.505287491331692
 30
0.0
 11
-3.732125479391896
 21
9.486719267517292
 31
0.0
  0
LINE
  5
F104AE
330
261
100
AcDbEntity
  8
Geo
100
AcDbLine
 10
-3.732125479391896
 20
9.486719267517292
 30
0.0
 11
-3.632125479391902
 21
9.470525496831792
 31
0.0
  0
LINE
  5
F104B0
330
261
100
AcDbEntity
  8
Geo
100
AcDbLine
 10
-3.632125479391902
 20
9.470525496831792
 30
0.0
 11
-3.532125479391893
 21
9.456726026381492
 31
0.0
  0
LINE
  5
F104B2
330
261
100
AcDbEntity
  8
Geo
100
AcDbLine
 10
-3.532125479391893
 20
9.456726026381492
 30
0.0
 11
-3.432125479391899
 21
9.445337768815193
 31
0.0
  0
LINE
  5
F104B4
330
261
100
AcDbEntity
  8
Geo
100
AcDbLine
 10
-3.432125479391899
 20
9.445337768815193
 30
0.0
 11
-3.332125479391905
 21
9.436374681596387
 31
0.0
  0
LINE
  5
F104B6
330
261
100
AcDbEntity
  8
Geo
100
AcDbLine
 10
-3.332125479391905
 20
9.436374681596387
 30
0.0
 11
-3.232125479391896
 21
9.42984774989609
 31
0.0
  0
LINE
  5
F104C2
330
261
100
AcDbEntity
  8
Geo
100
AcDbLine
 10
-3.132125479391902
 20
9.530084416032687
 30
0.0
 11
-3.032125479391893
 21
9.530656071726994
 31
0.0
  0
LINE
  5
F104C4
330
261
100
AcDbEntity
  8
Geo
100
AcDbLine
 10
-3.032125479391893
 20
9.530656071726994
 30
0.0
 11
-2.932125479391899
 21
9.531278330972687
 31
0.0
  0
LINE
  5
F104C6
330
261
100
AcDbEntity
  8
Geo
100
AcDbLine
 10
-2.932125479391899
 20
9.531278330972687
 30
0.0
 11
-2.832125479391905
 21
9.531954450031888
 31
0.0
  0
LINE
  5
F104C8
330
261
100
AcDbEntity
  8
Geo
100
AcDbLine
 10
-2.832125479391905
 20
9.531954450031888
 30
0.0
 11
-2.732125479391896
 21
9.532687808702393
 31
0.0
  0
LINE
  5
F104CA
330
261
100
AcDbEntity
  8
Geo
100
AcDbLine
 10
-2.732125479391896
 20
9.532687808702393
 30
0.0
 11
-2.632125479391902
 21
9.533481909910692
 31
0.0
  0
LINE
  5
F104CC
330
261
100
AcDbEntity
  8
Geo
100
AcDbLine
 10
-2.632125479391902
 20
9.533481909910692
 30
0.0
 11
-2.532125479391893
 21
9.534340379264886
 31
0.0
  0
LINE
  5
F104CE
330
261
100
AcDbEntity
  8
Geo
100
AcDbLine
 10
-2.532125479391893
 20
9.534340379264886
 30
0.0
 11
-2.432125479391897
 21
9.535266964564488
 31
0.0
  0
LINE
  5
F104D0
330
261
100
AcDbEntity
  8
Geo
100
AcDbLine
 10
-2.432125479391897
 20
9.535266964564488
 30
0.0
 11
-2.332125479391903
 21
9.536265535265492
 31
0.0
  0
LINE
  5
F104D2
330
261
100
AcDbEntity
  8
Geo
100
AcDbLine
 10
-2.332125479391903
 20
9.536265535265492
 30
0.0
 11
-2.232125479391896
 21
9.537340081896592
 31
0.0
  0
LINE
  5
F104D4
330
261
100
AcDbEntity
  8
Geo
100
AcDbLine
 10
-2.232125479391896
 20
9.537340081896592
 30
0.0
 11
-2.132125479391902
 21
9.538494715423887
 31
0.0
  0
LINE
  5
F104D6
330
261
100
AcDbEntity
  8
Geo
100
AcDbLine
 10
-2.132125479391902
 20
9.538494715423887
 30
0.0
 11
-2.032125479391893
 21
9.539733666561687
 31
0.0
  0
LINE
  5
F104D8
330
261
100
AcDbEntity
  8
Geo
100
AcDbLine
 10
-2.032125479391893
 20
9.539733666561687
 30
0.0
 11
-1.932125479391899
 21
9.541061285025692
 31
0.0
  0
LINE
  5
F104DA
330
261
100
AcDbEntity
  8
Geo
100
AcDbLine
 10
-1.932125479391899
 20
9.541061285025692
 30
0.0
 11
-1.832125479391905
 21
9.542482038724687
 31
0.0
  0
LINE
  5
F104DC
330
261
100
AcDbEntity
  8
Geo
100
AcDbLine
 10
-1.832125479391905
 20
9.542482038724687
 30
0.0
 11
-1.732125479391896
 21
9.544000512889192
 31
0.0
  0
LINE
  5
F104DE
330
261
100
AcDbEntity
  8
Geo
100
AcDbLine
 10
-1.732125479391896
 20
9.544000512889192
 30
0.0
 11
-1.6321254793919
 21
9.545621409131991
 31
0.0
  0
LINE
  5
F104E0
330
261
100
AcDbEntity
  8
Geo
100
AcDbLine
 10
-1.6321254793919
 20
9.545621409131991
 30
0.0
 11
-1.532125479391893
 21
9.547349544437988
 31
0.0
  0
LINE
  5
F104E2
330
261
100
AcDbEntity
  8
Geo
100
AcDbLine
 10
-1.532125479391893
 20
9.547349544437988
 30
0.0
 11
-1.432125479391899
 21
9.549189850079386
 31
0.0
  0
LINE
  5
F104E4
330
261
100
AcDbEntity
  8
Geo
100
AcDbLine
 10
-1.432125479391899
 20
9.549189850079386
 30
0.0
 11
-1.332125479391905
 21
9.551147370452687
 31
0.0
  0
LINE
  5
F104E6
330
261
100
AcDbEntity
  8
Geo
100
AcDbLine
 10
-1.332125479391905
 20
9.551147370452687
 30
0.0
 11
-1.232125479391894
 21
9.553227261834392
 31
0.0
  0
LINE
  5
F104E8
330
261
100
AcDbEntity
  8
Geo
100
AcDbLine
 10
-1.232125479391894
 20
9.553227261834392
 30
0.0
 11
-1.232125479391894
 21
9.553227261834392
 31
0.0
  0
LINE
  5
F104EA
330
261
100
AcDbEntity
  8
Geo
100
AcDbLine
 10
-14.23212547939189
 20
12.64620766936619
 30
0.0
 11
-14.1321254793919
 21
12.65121083235859
 31
0.0
  0
LINE
  5
F104EC
330
261
100
AcDbEntity
  8
Geo
100
AcDbLine
 10
-14.23212547939189
 20
12.48002992500979
 30
0.0
 11
-14.1321254793919
 21
12.47267138742369
 31
0.0
  0
LINE
  5
F104EE
330
261
100
AcDbEntity
  8
Geo
100
AcDbLine
 10
-14.23212547939189
 20
9.98911861486539
 30
0.0
 11
-14.1321254793919
 21
9.869489789598294
 31
0.0
  0
LINE
  5
F104F0
330
261
100
AcDbEntity
  8
Geo
100
AcDbLine
 10
-14.23212547939189
 20
9.897004787018595
 30
0.0
 11
-14.1321254793919
 21
9.778710185986184
 31
0.0
  0
LINE
  5
F104F2
330
261
100
AcDbEntity
  8
Geo
100
AcDbLine
 10
-14.1321254793919
 20
12.65121083235859
 30
0.0
 11
-14.03212547939189
 21
12.59006007163619
 31
0.0
  0
LINE
  5
F104F4
330
261
100
AcDbEntity
  8
Geo
100
AcDbLine
 10
-14.1321254793919
 20
12.47267138742369
 30
0.0
 11
-14.03212547939189
 21
12.40817171885709
 31
0.0
  0
LINE
  5
F104F6
330
261
100
AcDbEntity
  8
Geo
100
AcDbLine
 10
-14.1321254793919
 20
9.869489789598294
 30
0.0
 11
-14.03212547939189
 21
9.827291491715993
 31
0.0
  0
LINE
  5
F104F8
330
261
100
AcDbEntity
  8
Geo
100
AcDbLine
 10
-14.1321254793919
 20
9.778710185986184
 30
0.0
 11
-14.03212547939189
 21
9.742805468140893
 31
0.0
  0
LINE
  5
F104FA
330
261
100
AcDbEntity
  8
Geo
100
AcDbLine
 10
-14.03212547939189
 20
12.59006007163619
 30
0.0
 11
-13.9321254793919
 21
12.52716829174649
 31
0.0
  0
LINE
  5
F104FC
330
261
100
AcDbEntity
  8
Geo
100
AcDbLine
 10
-14.03212547939189
 20
12.40817171885709
 30
0.0
 11
-13.9321254793919
 21
12.34220262738549
 31
0.0
  0
LINE
  5
F104FE
330
261
100
AcDbEntity
  8
Geo
100
AcDbLine
 10
-14.03212547939189
 20
9.827291491715993
 30
0.0
 11
-13.9321254793919
 21
9.787050241203193
 31
0.0
  0
LINE
  5
F10500
330
261
100
AcDbEntity
  8
Geo
100
AcDbLine
 10
-14.03212547939189
 20
9.742805468140893
 30
0.0
 11
-13.9321254793919
 21
9.708961343845095
 31
0.0
  0
LINE
  5
F10502
330
261
100
AcDbEntity
  8
Geo
100
AcDbLine
 10
-13.9321254793919
 20
12.52716829174649
 30
0.0
 11
-13.8321254793919
 21
12.46262940289339
 31
0.0
  0
LINE
  5
F10504
330
261
100
AcDbEntity
  8
Geo
100
AcDbLine
 10
-13.9321254793919
 20
12.34220262738549
 30
0.0
 11
-13.8321254793919
 21
12.27486261826459
 31
0.0
  0
LINE
  5
F10506
330
261
100
AcDbEntity
  8
Geo
100
AcDbLine
 10
-13.9321254793919
 20
9.787050241203193
 30
0.0
 11
-13.8321254793919
 21
9.748815357788688
 31
0.0
  0
LINE
  5
F10508
330
261
100
AcDbEntity
  8
Geo
100
AcDbLine
 10
-13.9321254793919
 20
9.708961343845095
 30
0.0
 11
-13.8321254793919
 21
9.677219292501392
 31
0.0
  0
LINE
  5
F1050A
330
261
100
AcDbEntity
  8
Geo
100
AcDbLine
 10
-13.8321254793919
 20
12.46262940289339
 30
0.0
 11
-13.73212547939189
 21
12.39653977474969
 31
0.0
  0
LINE
  5
F1050C
330
261
100
AcDbEntity
  8
Geo
100
AcDbLine
 10
-13.8321254793919
 20
12.27486261826459
 30
0.0
 11
-13.73212547939189
 21
12.20625224380839
 31
0.0
  0
LINE
  5
F1050E
330
261
100
AcDbEntity
  8
Geo
100
AcDbLine
 10
-13.8321254793919
 20
9.748815357788688
 30
0.0
 11
-13.73212547939189
 21
9.712633702195095
 31
0.0
  0
LINE
  5
F10510
330
261
100
AcDbEntity
  8
Geo
100
AcDbLine
 10
-13.8321254793919
 20
9.677219292501392
 30
0.0
 11
-13.73212547939189
 21
9.647618217208988
 31
0.0
  0
LINE
  5
F10512
330
261
100
AcDbEntity
  8
Geo
100
AcDbLine
 10
-13.73212547939189
 20
12.39653977474969
 30
0.0
 11
-13.6321254793919
 21
12.32899809255669
 31
0.0
  0
LINE
  5
F10514
330
261
100
AcDbEntity
  8
Geo
100
AcDbLine
 10
-13.73212547939189
 20
12.20625224380839
 30
0.0
 11
-13.6321254793919
 21
12.13647395324479
 31
0.0
  0
LINE
  5
F10516
330
261
100
AcDbEntity
  8
Geo
100
AcDbLine
 10
-13.73212547939189
 20
9.712633702195095
 30
0.0
 11
-13.6321254793919
 21
9.678549618706387
 31
0.0
  0
LINE
  5
F10518
330
261
100
AcDbEntity
  8
Geo
100
AcDbLine
 10
-13.73212547939189
 20
9.647618217208988
 30
0.0
 11
-13.6321254793919
 21
9.620194397084294
 31
0.0
  0
LINE
  5
F1051A
330
261
100
AcDbEntity
  8
Geo
100
AcDbLine
 10
-13.6321254793919
 20
12.32899809255669
 30
0.0
 11
-13.53212547939189
 21
12.26010520976739
 31
0.0
  0
LINE
  5
F1051C
330
261
100
AcDbEntity
  8
Geo
100
AcDbLine
 10
-13.6321254793919
 20
12.13647395324479
 30
0.0
 11
-13.53212547939189
 21
12.06563193973729
 31
0.0
  0
LINE
  5
F1051E
330
261
100
AcDbEntity
  8
Geo
100
AcDbLine
 10
-13.6321254793919
 20
9.678549618706387
 30
0.0
 11
-13.53212547939189
 21
9.646604880819591
 31
0.0
  0
LINE
  5
F10520
330
261
100
AcDbEntity
  8
Geo
100
AcDbLine
 10
-13.6321254793919
 20
9.620194397084294
 30
0.0
 11
-13.53212547939189
 21
9.594981442796591
 31
0.0
  0
LINE
  5
F10522
330
261
100
AcDbEntity
  8
Geo
100
AcDbLine
 10
-13.53212547939189
 20
12.26010520976739
 30
0.0
 11
-13.4321254793919
 21
12.18996399745189
 31
0.0
  0
LINE
  5
F10524
330
261
100
AcDbEntity
  8
Geo
100
AcDbLine
 10
-13.53212547939189
 20
12.06563193973729
 30
0.0
 11
-13.4321254793919
 21
11.99383198480429
 31
0.0
  0
LINE
  5
F10526
330
261
100
AcDbEntity
  8
Geo
100
AcDbLine
 10
-13.53212547939189
 20
9.646604880819591
 30
0.0
 11
-13.4321254793919
 21
9.61683864004679
 31
0.0
  0
LINE
  5
F10528
330
261
100
AcDbEntity
  8
Geo
100
AcDbLine
 10
-13.53212547939189
 20
9.594981442796591
 30
0.0
 11
-13.4321254793919
 21
9.572010255375488
 31
0.0
  0
LINE
  5
F1052A
330
261
100
AcDbEntity
  8
Geo
100
AcDbLine
 10
-13.4321254793919
 20
12.18996399745189
 30
0.0
 11
-13.3321254793919
 21
12.11867919068969
 31
0.0
  0
LINE
  5
F1052C
330
261
100
AcDbEntity
  8
Geo
100
AcDbLine
 10
-13.4321254793919
 20
11.99383198480429
 30
0.0
 11
-13.3321254793919
 21
11.92118130036499
 31
0.0
  0
LINE
  5
F1052E
330
261
100
AcDbEntity
  8
Geo
100
AcDbLine
 10
-13.4321254793919
 20
9.61683864004679
 30
0.0
 11
-13.3321254793919
 21
9.589287377931297
 31
0.0
  0
LINE
  5
F10530
330
261
100
AcDbEntity
  8
Geo
100
AcDbLine
 10
-13.4321254793919
 20
9.572010255375488
 30
0.0
 11
-13.3321254793919
 21
9.551308988337991
 31
0.0
  0
LINE
  5
F10532
330
261
100
AcDbEntity
  8
Geo
100
AcDbLine
 10
-13.3321254793919
 20
12.11867919068969
 30
0.0
 11
-13.2321254793919
 21
12.04635723217939
 31
0.0
  0
LINE
  5
F10534
330
261
100
AcDbEntity
  8
Geo
100
AcDbLine
 10
-13.3321254793919
 20
11.92118130036499
 30
0.0
 11
-13.2321254793919
 21
11.84778836865079
 31
0.0
  0
LINE
  5
F10536
330
261
100
AcDbEntity
  8
Geo
100
AcDbLine
 10
-13.3321254793919
 20
9.589287377931297
 30
0.0
 11
-13.2321254793919
 21
9.563984861335587
 31
0.0
  0
LINE
  5
F10538
330
261
100
AcDbEntity
  8
Geo
100
AcDbLine
 10
-13.3321254793919
 20
9.551308988337991
 30
0.0
 11
-13.2321254793919
 21
9.53290301318389
 31
0.0
  0
LINE
  5
F1053A
330
261
100
AcDbEntity
  8
Geo
100
AcDbLine
 10
-13.2321254793919
 20
12.04635723217939
 30
0.0
 11
-13.1321254793919
 21
11.9731061132976
 31
0.0
  0
LINE
  5
F1053C
330
261
100
AcDbEntity
  8
Geo
100
AcDbLine
 10
-13.2321254793919
 20
11.84778836865079
 30
0.0
 11
-13.1321254793919
 21
11.77376278021889
 31
0.0
  0
LINE
  5
F1053E
330
261
100
AcDbEntity
  8
Geo
100
AcDbLine
 10
-13.2321254793919
 20
9.563984861335587
 30
0.0
 11
-13.1321254793919
 21
9.540962101056797
 31
0.0
  0
LINE
  5
F10540
330
261
100
AcDbEntity
  8
Geo
100
AcDbLine
 10
-13.2321254793919
 20
9.53290301318389
 30
0.0
 11
-13.1321254793919
 21
9.516814888300091
 31
0.0
  0
LINE
  5
F10542
330
261
100
AcDbEntity
  8
Geo
100
AcDbLine
 10
-13.1321254793919
 20
11.9731061132976
 30
0.0
 11
-13.03212547939189
 21
11.89903521284629
 31
0.0
  0
LINE
  5
F10544
330
261
100
AcDbEntity
  8
Geo
100
AcDbLine
 10
-13.1321254793919
 20
11.77376278021889
 30
0.0
 11
-13.03212547939189
 21
11.69921507031159
 31
0.0
  0
LINE
  5
F10546
330
261
100
AcDbEntity
  8
Geo
100
AcDbLine
 10
-13.1321254793919
 20
9.540962101056797
 30
0.0
 11
-13.03212547939189
 21
9.520247313819792
 31
0.0
  0
LINE
  5
F10548
330
261
100
AcDbEntity
  8
Geo
100
AcDbLine
 10
-13.1321254793919
 20
9.516814888300091
 30
0.0
 11
-13.03212547939189
 21
9.503064331313293
 31
0.0
  0
LINE
  5
F1054A
330
261
100
AcDbEntity
  8
Geo
100
AcDbLine
 10
-13.03212547939189
 20
11.89903521284629
 30
0.0
 11
-12.9321254793919
 21
11.82425513372789
 31
0.0
  0
LINE
  5
F1054C
330
261
100
AcDbEntity
  8
Geo
100
AcDbLine
 10
-13.03212547939189
 20
11.69921507031159
 30
0.0
 11
-12.9321254793919
 21
11.62425655380469
 31
0.0
  0
LINE
  5
F1054E
330
261
100
AcDbEntity
  8
Geo
100
AcDbLine
 10
-13.03212547939189
 20
9.520247313819792
 30
0.0
 11
-12.9321254793919
 21
9.501865887694792
 31
0.0
  0
LINE
  5
F10550
330
261
100
AcDbEntity
  8
Geo
100
AcDbLine
 10
-13.03212547939189
 20
9.503064331313293
 30
0.0
 11
-12.9321254793919
 21
9.491668194923992
 31
0.0
  0
LINE
  5
F10552
330
261
100
AcDbEntity
  8
Geo
100
AcDbLine
 10
-12.9321254793919
 20
11.82425513372789
 30
0.0
 11
-12.8321254793919
 21
11.74887753779239
 31
0.0
  0
LINE
  5
F10554
330
261
100
AcDbEntity
  8
Geo
100
AcDbLine
 10
-12.9321254793919
 20
11.62425655380469
 30
0.0
 11
-12.8321254793919
 21
11.54899915899169
 31
0.0
  0
LINE
  5
F10556
330
261
100
AcDbEntity
  8
Geo
100
AcDbLine
 10
-12.9321254793919
 20
9.501865887694792
 30
0.0
 11
-12.8321254793919
 21
9.485840350981193
 31
0.0
  0
LINE
  5
F10558
330
261
100
AcDbEntity
  8
Geo
100
AcDbLine
 10
-12.9321254793919
 20
9.491668194923992
 30
0.0
 11
-12.8321254793919
 21
9.482640446251792
 31
0.0
  0
LINE
  5
F1055A
330
261
100
AcDbEntity
  8
Geo
100
AcDbLine
 10
-12.8321254793919
 20
11.74887753779239
 30
0.0
 11
-12.7321254793919
 21
11.67301497910419
 31
0.0
  0
LINE
  5
F1055C
330
261
100
AcDbEntity
  8
Geo
100
AcDbLine
 10
-12.8321254793919
 20
11.54899915899169
 30
0.0
 11
-12.7321254793919
 21
11.47355526045199
 31
0.0
  0
LINE
  5
F1055E
330
261
100
AcDbEntity
  8
Geo
100
AcDbLine
 10
-12.8321254793919
 20
9.485840350981193
 30
0.0
 11
-12.7321254793919
 21
9.472190344597793
 31
0.0
  0
LINE
  5
F10560
330
261
100
AcDbEntity
  8
Geo
100
AcDbLine
 10
-12.8321254793919
 20
9.482640446251792
 30
0.0
 11
-12.7321254793919
 21
9.475992149717091
 31
0.0
  0
LINE
  5
F10562
330
261
100
AcDbEntity
  8
Geo
100
AcDbLine
 10
-12.7321254793919
 20
11.67301497910419
 30
0.0
 11
-12.6321254793919
 21
11.59678073587519
 31
0.0
  0
LINE
  5
F10564
330
261
100
AcDbEntity
  8
Geo
100
AcDbLine
 10
-12.7321254793919
 20
11.47355526045199
 30
0.0
 11
-12.6321254793919
 21
11.39803751125299
 31
0.0
  0
LINE
  5
F10566
330
261
100
AcDbEntity
  8
Geo
100
AcDbLine
 10
-12.7321254793919
 20
9.472190344597793
 30
0.0
 11
-12.6321254793919
 21
9.460932598010089
 31
0.0
  0
LINE
  5
F10568
330
261
100
AcDbEntity
  8
Geo
100
AcDbLine
 10
-12.7321254793919
 20
9.475992149717091
 30
0.0
 11
-12.6321254793919
 21
9.471731453480693
 31
0.0
  0
LINE
  5
F1056A
330
261
100
AcDbEntity
  8
Geo
100
AcDbLine
 10
-12.6321254793919
 20
11.59678073587519
 30
0.0
 11
-12.53212547939189
 21
11.52028864131809
 31
0.0
  0
LINE
  5
F1056C
330
261
100
AcDbEntity
  8
Geo
100
AcDbLine
 10
-12.6321254793919
 20
11.39803751125299
 30
0.0
 11
-12.53212547939189
 21
11.32255867473619
 31
0.0
  0
LINE
  5
F1056E
330
261
100
AcDbEntity
  8
Geo
100
AcDbLine
 10
-12.6321254793919
 20
9.460932598010089
 30
0.0
 11
-12.53212547939189
 21
9.452080908726793
 31
0.0
  0
LINE
  5
F10570
330
261
100
AcDbEntity
  8
Geo
100
AcDbLine
 10
-12.6321254793919
 20
9.471731453480693
 30
0.0
 11
-12.53212547939189
 21
9.469863579457591
 31
0.0
  0
LINE
  5
F10572
330
261
100
AcDbEntity
  8
Geo
100
AcDbLine
 10
-12.53212547939189
 20
11.52028864131809
 30
0.0
 11
-12.4321254793919
 21
11.44365291366989
 31
0.0
  0
LINE
  5
F10574
330
261
100
AcDbEntity
  8
Geo
100
AcDbLine
 10
-12.53212547939189
 20
11.32255867473619
 30
0.0
 11
-12.4321254793919
 21
11.24723145613859
 31
0.0
  0
LINE
  5
F10576
330
261
100
AcDbEntity
  8
Geo
100
AcDbLine
 10
-12.53212547939189
 20
9.452080908726793
 30
0.0
 11
-12.4321254793919
 21
9.445646125389796
 31
0.0
  0
LINE
  5
F10578
330
261
100
AcDbEntity
  8
Geo
100
AcDbLine
 10
-12.4321254793919
 20
11.44365291366989
 30
0.0
 11
-12.3321254793919
 21
11.36698798564109
 31
0.0
  0
LINE
  5
F1057A
330
261
100
AcDbEntity
  8
Geo
100
AcDbLine
 10
-12.4321254793919
 20
11.24723145613859
 30
0.0
 11
-12.3321254793919
 21
11.17216833430059
 31
0.0
  0
LINE
  5
F1057C
330
261
100
AcDbEntity
  8
Geo
100
AcDbLine
 10
-12.4321254793919
 20
9.445646125389796
 30
0.0
 11
-12.3321254793919
 21
9.441636134477992
 31
0.0
  0
LINE
  5
F1057E
330
261
100
AcDbEntity
  8
Geo
100
AcDbLine
 10
-12.4321254793919
 20
13.37780394836149
 30
0.0
 11
-12.3321254793919
 21
13.37488224560359
 31
0.0
  0
LINE
  5
F10580
330
261
100
AcDbEntity
  8
Geo
100
AcDbLine
 10
-12.3321254793919
 20
11.36698798564109
 30
0.0
 11
-12.23212547939189
 21
11.29040833354409
 31
0.0
  0
LINE
  5
F10582
330
261
100
AcDbEntity
  8
Geo
100
AcDbLine
 10
-12.3321254793919
 20
11.17216833430059
 30
0.0
 11
-12.23212547939189
 21
11.09748139371289
 31
0.0
  0
LINE
  5
F10584
330
261
100
AcDbEntity
  8
Geo
100
AcDbLine
 10
-12.3321254793919
 20
9.441636134477992
 30
0.0
 11
-12.23212547939189
 21
9.440055850641293
 31
0.0
  0
LINE
  5
F10586
330
261
100
AcDbEntity
  8
Geo
100
AcDbLine
 10
-12.3321254793919
 20
13.37488224560359
 30
0.0
 11
-12.23212547939189
 21
13.36956965838919
 31
0.0
  0
LINE
  5
F10588
330
261
100
AcDbEntity
  8
Geo
100
AcDbLine
 10
-12.23212547939189
 20
11.29040833354409
 30
0.0
 11
-12.1321254793919
 21
11.21402830635729
 31
0.0
  0
LINE
  5
F1058A
330
261
100
AcDbEntity
  8
Geo
100
AcDbLine
 10
-12.23212547939189
 20
11.09748139371289
 30
0.0
 11
-12.1321254793919
 21
11.02328215715069
 31
0.0
  0
LINE
  5
F1058C
330
261
100
AcDbEntity
  8
Geo
100
AcDbLine
 10
-12.23212547939189
 20
13.36956965838919
 30
0.0
 11
-12.1321254793919
 21
13.36187269783219
 31
0.0
  0
LINE
  5
F1058E
330
261
100
AcDbEntity
  8
Geo
100
AcDbLine
 10
-12.1321254793919
 20
11.21402830635729
 30
0.0
 11
-12.03212547939189
 21
11.13796195497809
 31
0.0
  0
LINE
  5
F10590
330
261
100
AcDbEntity
  8
Geo
100
AcDbLine
 10
-12.1321254793919
 20
11.02328215715069
 30
0.0
 11
-12.03212547939189
 21
10.94968141914839
 31
0.0
  0
LINE
  5
F10592
330
261
100
AcDbEntity
  8
Geo
100
AcDbLine
 10
-12.1321254793919
 20
13.40728755460029
 30
0.0
 11
-12.03212547939189
 21
13.40400559411879
 31
0.0
  0
LINE
  5
F10594
330
261
100
AcDbEntity
  8
Geo
100
AcDbLine
 10
-12.1321254793919
 20
13.36187269783219
 30
0.0
 11
-12.03212547939189
 21
13.35180079733729
 31
0.0
  0
LINE
  5
F10596
330
261
100
AcDbEntity
  8
Geo
100
AcDbLine
 10
-12.03212547939189
 20
11.13796195497809
 30
0.0
 11
-11.9321254793919
 21
11.06232286192279
 31
0.0
  0
LINE
  5
F10598
330
261
100
AcDbEntity
  8
Geo
100
AcDbLine
 10
-12.03212547939189
 20
10.94968141914839
 30
0.0
 11
-11.9321254793919
 21
10.87678908056019
 31
0.0
  0
LINE
  5
F1059A
330
261
100
AcDbEntity
  8
Geo
100
AcDbLine
 10
-12.03212547939189
 20
13.40400559411879
 30
0.0
 11
-11.9321254793919
 21
13.39829705556718
 31
0.0
  0
LINE
  5
F1059C
330
261
100
AcDbEntity
  8
Geo
100
AcDbLine
 10
-12.03212547939189
 20
13.35180079733729
 30
0.0
 11
-11.9321254793919
 21
13.33936630103899
 31
0.0
  0
LINE
  5
F1059E
330
261
100
AcDbEntity
  8
Geo
100
AcDbLine
 10
-11.9321254793919
 20
11.06232286192279
 30
0.0
 11
-11.8321254793919
 21
10.98722397172359
 31
0.0
  0
LINE
  5
F105A0
330
261
100
AcDbEntity
  8
Geo
100
AcDbLine
 10
-11.9321254793919
 20
10.87678908056019
 30
0.0
 11
-11.8321254793919
 21
10.80471398445619
 31
0.0
  0
LINE
  5
F105A2
330
261
100
AcDbEntity
  8
Geo
100
AcDbLine
 10
-11.9321254793919
 20
13.39829705556718
 30
0.0
 11
-11.8321254793919
 21
13.39016893533779
 31
0.0
  0
LINE
  5
F105A4
330
261
100
AcDbEntity
  8
Geo
100
AcDbLine
 10
-11.9321254793919
 20
13.33936630103899
 30
0.0
 11
-11.8321254793919
 21
13.32458444867189
 31
0.0
  0
LINE
  5
F105A6
330
261
100
AcDbEntity
  8
Geo
100
AcDbLine
 10
-11.8321254793919
 20
10.98722397172359
 30
0.0
 11
-11.73212547939189
 21
10.91277742228059
 31
0.0
  0
LINE
  5
F105A8
330
261
100
AcDbEntity
  8
Geo
100
AcDbLine
 10
-11.8321254793919
 20
10.80471398445619
 30
0.0
 11
-11.73212547939189
 21
10.73356375359739
 31
0.0
  0
LINE
  5
F105AA
330
261
100
AcDbEntity
  8
Geo
100
AcDbLine
 10
-11.8321254793919
 20
13.39016893533779
 30
0.0
 11
-11.73212547939189
 21
13.37963119526509
 31
0.0
  0
LINE
  5
F105AC
330
261
100
AcDbEntity
  8
Geo
100
AcDbLine
 10
-11.8321254793919
 20
13.32458444867189
 30
0.0
 11
-11.73212547939189
 21
13.30747335689359
 31
0.0
  0
LINE
  5
F105AE
330
261
100
AcDbEntity
  8
Geo
100
AcDbLine
 10
-11.73212547939189
 20
10.91277742228059
 30
0.0
 11
-11.6321254793919
 21
10.83909437741639
 31
0.0
  0
LINE
  5
F105B0
330
261
100
AcDbEntity
  8
Geo
100
AcDbLine
 10
-11.73212547939189
 20
10.73356375359739
 30
0.0
 11
-11.6321254793919
 21
10.66344462973309
 31
0.0
  0
LINE
  5
F105B2
330
261
100
AcDbEntity
  8
Geo
100
AcDbLine
 10
-11.73212547939189
 20
13.37963119526509
 30
0.0
 11
-11.6321254793919
 21
13.36669675041719
 31
0.0
  0
LINE
  5
F105B4
330
261
100
AcDbEntity
  8
Geo
100
AcDbLine
 10
-11.73212547939189
 20
13.30747335689359
 30
0.0
 11
-11.6321254793919
 21
13.28805399708019
 31
0.0
  0
LINE
  5
F105B6
330
261
100
AcDbEntity
  8
Geo
100
AcDbLine
 10
-11.6321254793919
 20
10.83909437741639
 30
0.0
 11
-11.53212547939189
 21
10.76628486088599
 31
0.0
  0
LINE
  5
F105B8
330
261
100
AcDbEntity
  8
Geo
100
AcDbLine
 10
-11.6321254793919
 20
10.66344462973309
 30
0.0
 11
-11.53212547939189
 21
10.59446131496029
 31
0.0
  0
LINE
  5
F105BA
330
261
100
AcDbEntity
  8
Geo
100
AcDbLine
 10
-11.6321254793919
 20
13.36669675041719
 30
0.0
 11
-11.53212547939189
 21
13.35138145326639
 31
0.0
  0
LINE
  5
F105BC
330
261
100
AcDbEntity
  8
Geo
100
AcDbLine
 10
-11.6321254793919
 20
13.28805399708019
 30
0.0
 11
-11.53212547939189
 21
13.26635016962419
 31
0.0
  0
LINE
  5
F105BE
330
261
100
AcDbEntity
  8
Geo
100
AcDbLine
 10
-11.53212547939189
 20
10.76628486088599
 30
0.0
 11
-11.4321254793919
 21
10.69445759208939
 31
0.0
  0
LINE
  5
F105C0
330
261
100
AcDbEntity
  8
Geo
100
AcDbLine
 10
-11.53212547939189
 20
10.59446131496029
 30
0.0
 11
-11.4321254793919
 21
10.52671681538249
 31
0.0
  0
LINE
  5
F105C2
330
261
100
AcDbEntity
  8
Geo
100
AcDbLine
 10
-11.53212547939189
 20
13.35138145326639
 30
0.0
 11
-11.4321254793919
 21
13.33370407426069
 31
0.0
  0
LINE
  5
F105C4
330
261
100
AcDbEntity
  8
Geo
100
AcDbLine
 10
-11.53212547939189
 20
13.26635016962419
 30
0.0
 11
-11.4321254793919
 21
13.24238847476489
 31
0.0
  0
LINE
  5
F105C6
330
261
100
AcDbEntity
  8
Geo
100
AcDbLine
 10
-11.4321254793919
 20
10.69445759208939
 30
0.0
 11
-11.3321254793919
 21
10.62371982373119
 31
0.0
  0
LINE
  5
F105C8
330
261
100
AcDbEntity
  8
Geo
100
AcDbLine
 10
-11.4321254793919
 20
10.52671681538249
 30
0.0
 11
-11.3321254793919
 21
10.46031228730019
 31
0.0
  0
LINE
  5
F105CA
330
261
100
AcDbEntity
  8
Geo
100
AcDbLine
 10
-11.4321254793919
 20
13.33370407426069
 30
0.0
 11
-11.3321254793919
 21
13.31368627881879
 31
0.0
  0
LINE
  5
F105CC
330
261
100
AcDbEntity
  8
Geo
100
AcDbLine
 10
-11.4321254793919
 20
13.24238847476489
 30
0.0
 11
-11.3321254793919
 21
13.21619827998639
 31
0.0
  0
LINE
  5
F105CE
330
261
100
AcDbEntity
  8
Geo
100
AcDbLine
 10
-11.3321254793919
 20
10.62371982373119
 30
0.0
 11
-11.23212547939189
 21
10.55417718167019
 31
0.0
  0
LINE
  5
F105D0
330
261
100
AcDbEntity
  8
Geo
100
AcDbLine
 10
-11.3321254793919
 20
10.46031228730019
 30
0.0
 11
-11.23212547939189
 21
10.39534688616439
 31
0.0
  0
LINE
  5
F105D2
330
261
100
AcDbEntity
  8
Geo
100
AcDbLine
 10
-11.3321254793919
 20
13.31368627881879
 30
0.0
 11
-11.23212547939189
 21
13.29135260077659
 31
0.0
  0
LINE
  5
F105D4
330
261
100
AcDbEntity
  8
Geo
100
AcDbLine
 10
-11.3321254793919
 20
13.21619827998639
 30
0.0
 11
-11.23212547939189
 21
13.18781168402539
 31
0.0
  0
LINE
  5
F105D6
330
261
100
AcDbEntity
  8
Geo
100
AcDbLine
 10
-11.23212547939189
 20
10.55417718167019
 30
0.0
 11
-11.1321254793919
 21
10.48593350719909
 31
0.0
  0
LINE
  5
F105D8
330
261
100
AcDbEntity
  8
Geo
100
AcDbLine
 10
-11.23212547939189
 20
10.39534688616439
 30
0.0
 11
-11.1321254793919
 21
10.33191761851699
 31
0.0
  0
LINE
  5
F105DA
330
261
100
AcDbEntity
  8
Geo
100
AcDbLine
 10
-11.23212547939189
 20
13.29135260077659
 30
0.0
 11
-11.1321254793919
 21
13.26673041231899
 31
0.0
  0
LINE
  5
F105DC
330
261
100
AcDbEntity
  8
Geo
100
AcDbLine
 10
-11.23212547939189
 20
13.18781168402539
 30
0.0
 11
-11.1321254793919
 21
13.15726347753079
 31
0.0
  0
LINE
  5
F105DE
330
261
100
AcDbEntity
  8
Geo
100
AcDbLine
 10
-11.1321254793919
 20
10.48593350719909
 30
0.0
 11
-11.03212547939189
 21
10.41909070198809
 31
0.0
  0
LINE
  5
F105E0
330
261
100
AcDbEntity
  8
Geo
100
AcDbLine
 10
-11.1321254793919
 20
10.33191761851699
 30
0.0
 11
-11.03212547939189
 21
10.27011919714079
 31
0.0
  0
LINE
  5
F105E2
330
261
100
AcDbEntity
  8
Geo
100
AcDbLine
 10
-11.1321254793919
 20
13.26673041231899
 30
0.0
 11
-11.03212547939189
 21
13.23984989043199
 31
0.0
  0
LINE
  5
F105E4
330
261
100
AcDbEntity
  8
Geo
100
AcDbLine
 10
-11.1321254793919
 20
13.15726347753079
 30
0.0
 11
-11.03212547939189
 21
13.12459110042389
 31
0.0
  0
LINE
  5
F105E6
330
261
100
AcDbEntity
  8
Geo
100
AcDbLine
 10
-11.03212547939189
 20
10.41909070198809
 30
0.0
 11
-10.9321254793919
 21
10.35374857592479
 31
0.0
  0
LINE
  5
F105E8
330
261
100
AcDbEntity
  8
Geo
100
AcDbLine
 10
-11.03212547939189
 20
10.27011919714079
 30
0.0
 11
-10.9321254793919
 21
10.21004389963359
 31
0.0
  0
LINE
  5
F105EA
330
261
100
AcDbEntity
  8
Geo
100
AcDbLine
 10
-11.03212547939189
 20
13.23984989043199
 30
0.0
 11
-10.9321254793919
 21
13.21074397991819
 31
0.0
  0
LINE
  5
F105EC
330
261
100
AcDbEntity
  8
Geo
100
AcDbLine
 10
-11.03212547939189
 20
13.12459110042389
 30
0.0
 11
-10.9321254793919
 21
13.08983459601249
 31
0.0
  0
LINE
  5
F105EE
330
261
100
AcDbEntity
  8
Geo
100
AcDbLine
 10
-10.9321254793919
 20
10.35374857592479
 30
0.0
 11
-10.8321254793919
 21
10.29000469807809
 31
0.0
  0
LINE
  5
F105F0
330
261
100
AcDbEntity
  8
Geo
100
AcDbLine
 10
-10.9321254793919
 20
10.21004389963359
 30
0.0
 11
-10.8321254793919
 21
10.15178143061929
 31
0.0
  0
LINE
  5
F105F2
330
261
100
AcDbEntity
  8
Geo
100
AcDbLine
 10
-10.9321254793919
 20
13.21074397991819
 30
0.0
 11
-10.8321254793919
 21
13.17944835301899
 31
0.0
  0
LINE
  5
F105F4
330
261
100
AcDbEntity
  8
Geo
100
AcDbLine
 10
-10.9321254793919
 20
13.08983459601249
 30
0.0
 11
-10.8321254793919
 21
13.05303656191349
 31
0.0
  0
LINE
  5
F105F6
330
261
100
AcDbEntity
  8
Geo
100
AcDbLine
 10
-10.8321254793919
 20
10.29000469807809
 30
0.0
 11
-10.73212547939189
 21
10.22795425100769
 31
0.0
  0
LINE
  5
F105F8
330
261
100
AcDbEntity
  8
Geo
100
AcDbLine
 10
-10.8321254793919
 20
10.15178143061929
 30
0.0
 11
-10.73212547939189
 21
10.09541878780049
 31
0.0
  0
LINE
  5
F105FA
330
261
100
AcDbEntity
  8
Geo
100
AcDbLine
 10
-10.8321254793919
 20
13.17944835301899
 30
0.0
 11
-10.73212547939189
 21
13.14600136569549
 31
0.0
  0
LINE
  5
F105FC
330
261
100
AcDbEntity
  8
Geo
100
AcDbLine
 10
-10.8321254793919
 20
13.05303656191349
 30
0.0
 11
-10.73212547939189
 21
13.01424209784509
 31
0.0
  0
LINE
  5
F105FE
330
261
100
AcDbEntity
  8
Geo
100
AcDbLine
 10
-10.73212547939189
 20
10.22795425100769
 30
0.0
 11
-10.6321254793919
 21
10.16768988863699
 31
0.0
  0
LINE
  5
F10600
330
261
100
AcDbEntity
  8
Geo
100
AcDbLine
 10
-10.73212547939189
 20
10.09541878780049
 30
0.0
 11
-10.6321254793919
 21
10.04104013205329
 31
0.0
  0
LINE
  5
F10602
330
261
100
AcDbEntity
  8
Geo
100
AcDbLine
 10
-10.73212547939189
 20
13.14600136569549
 30
0.0
 11
-10.6321254793919
 21
13.11044401061869
 31
0.0
  0
LINE
  5
F10604
330
261
100
AcDbEntity
  8
Geo
100
AcDbLine
 10
-10.73212547939189
 20
13.01424209784509
 30
0.0
 11
-10.6321254793919
 21
12.97349875035289
 31
0.0
  0
LINE
  5
F10606
330
261
100
AcDbEntity
  8
Geo
100
AcDbLine
 10
-10.6321254793919
 20
10.16768988863699
 30
0.0
 11
-10.53212547939189
 21
10.10930159790209
 31
0.0
  0
LINE
  5
F10608
330
261
100
AcDbEntity
  8
Geo
100
AcDbLine
 10
-10.6321254793919
 20
10.04104013205329
 30
0.0
 11
-10.53212547939189
 21
9.988726661758292
 31
0.0
  0
LINE
  5
F1060A
330
261
100
AcDbEntity
  8
Geo
100
AcDbLine
 10
-10.6321254793919
 20
13.11044401061869
 30
0.0
 11
-10.53212547939189
 21
13.07281986692889
 31
0.0
  0
LINE
  5
F1060C
330
261
100
AcDbEntity
  8
Geo
100
AcDbLine
 10
-10.6321254793919
 20
12.97349875035289
 30
0.0
 11
-10.53212547939189
 21
12.93085645453619
 31
0.0
  0
LINE
  5
F1060E
330
261
100
AcDbEntity
  8
Geo
100
AcDbLine
 10
-10.53212547939189
 20
10.10930159790209
 30
0.0
 11
-10.4321254793919
 21
10.05287656438289
 31
0.0
  0
LINE
  5
F10610
330
261
100
AcDbEntity
  8
Geo
100
AcDbLine
 10
-10.53212547939189
 20
9.988726661758292
 30
0.0
 11
-10.4321254793919
 21
9.938556491554193
 31
0.0
  0
LINE
  5
F10612
330
261
100
AcDbEntity
  8
Geo
100
AcDbLine
 10
-10.53212547939189
 20
13.07281986692889
 30
0.0
 11
-10.4321254793919
 21
13.03317504682559
 31
0.0
  0
LINE
  5
F10614
330
261
100
AcDbEntity
  8
Geo
100
AcDbLine
 10
-10.53212547939189
 20
12.93085645453619
 30
0.0
 11
-10.4321254793919
 21
12.88636747284809
 31
0.0
  0
LINE
  5
F10616
330
261
100
AcDbEntity
  8
Geo
100
AcDbLine
 10
-10.4321254793919
 20
10.05287656438289
 30
0.0
 11
-10.3321254793919
 21
9.998499042117687
 31
0.0
  0
LINE
  5
F10618
330
261
100
AcDbEntity
  8
Geo
100
AcDbLine
 10
-10.4321254793919
 20
9.938556491554193
 30
0.0
 11
-10.3321254793919
 21
9.890604535697693
 31
0.0
  0
LINE
  5
F1061A
330
261
100
AcDbEntity
  8
Geo
100
AcDbLine
 10
-10.4321254793919
 20
13.03317504682559
 30
0.0
 11
-10.3321254793919
 21
12.99155813905149
 31
0.0
  0
LINE
  5
F1061C
330
261
100
AcDbEntity
  8
Geo
100
AcDbLine
 10
-10.4321254793919
 20
12.88636747284809
 30
0.0
 11
-10.3321254793919
 21
12.84008633104229
 31
0.0
  0
LINE
  5
F1061E
330
261
100
AcDbEntity
  8
Geo
100
AcDbLine
 10
-10.3321254793919
 20
9.998499042117687
 30
0.0
 11
-10.2321254793919
 21
9.946250227794292
 31
0.0
  0
LINE
  5
F10620
330
261
100
AcDbEntity
  8
Geo
100
AcDbLine
 10
-10.3321254793919
 20
9.890604535697693
 30
0.0
 11
-10.2321254793919
 21
9.844942396200591
 31
0.0
  0
LINE
  5
F10622
330
261
100
AcDbEntity
  8
Geo
100
AcDbLine
 10
-10.3321254793919
 20
12.99155813905149
 30
0.0
 11
-10.2321254793919
 21
12.94802014934279
 31
0.0
  0
LINE
  5
F10624
330
261
100
AcDbEntity
  8
Geo
100
AcDbLine
 10
-10.3321254793919
 20
12.84008633104229
 30
0.0
 11
-10.2321254793919
 21
12.79206975134599
 31
0.0
  0
LINE
  5
F10626
330
261
100
AcDbEntity
  8
Geo
100
AcDbLine
 10
-10.2321254793919
 20
9.946250227794292
 30
0.0
 11
-10.1321254793919
 21
9.896208139507292
 31
0.0
  0
LINE
  5
F10628
330
261
100
AcDbEntity
  8
Geo
100
AcDbLine
 10
-10.2321254793919
 20
9.844942396200591
 30
0.0
 11
-10.1321254793919
 21
9.801638255913591
 31
0.0
  0
LINE
  5
F1062A
330
261
100
AcDbEntity
  8
Geo
100
AcDbLine
 10
-10.2321254793919
 20
12.94802014934279
 30
0.0
 11
-10.1321254793919
 21
12.90261443791609
 31
0.0
  0
LINE
  5
F1062C
330
261
100
AcDbEntity
  8
Geo
100
AcDbLine
 10
-10.2321254793919
 20
12.79206975134599
 30
0.0
 11
-10.1321254793919
 21
12.74237658294169
 31
0.0
  0
LINE
  5
F1062E
330
261
100
AcDbEntity
  8
Geo
100
AcDbLine
 10
-10.1321254793919
 20
9.896208139507292
 30
0.0
 11
-10.03212547939189
 21
9.848447500260688
 31
0.0
  0
LINE
  5
F10630
330
261
100
AcDbEntity
  8
Geo
100
AcDbLine
 10
-10.1321254793919
 20
9.801638255913591
 30
0.0
 11
-10.03212547939189
 21
9.760756776715886
 31
0.0
  0
LINE
  5
F10632
330
261
100
AcDbEntity
  8
Geo
100
AcDbLine
 10
-10.1321254793919
 20
12.90261443791609
 30
0.0
 11
-10.03212547939189
 21
12.85539665407019
 31
0.0
  0
LINE
  5
F10634
330
261
100
AcDbEntity
  8
Geo
100
AcDbLine
 10
-10.1321254793919
 20
12.74237658294169
 30
0.0
 11
-10.03212547939189
 21
12.69106772984089
 31
0.0
  0
LINE
  5
F10636
330
261
100
AcDbEntity
  8
Geo
100
AcDbLine
 10
-10.03212547939189
 20
9.848447500260688
 30
0.0
 11
-9.932125479391899
 21
9.803039626391793
 31
0.0
  0
LINE
  5
F10638
330
261
100
AcDbEntity
  8
Geo
100
AcDbLine
 10
-10.03212547939189
 20
9.760756776715886
 30
0.0
 11
-9.932125479391899
 21
9.722359002960992
 31
0.0
  0
LINE
  5
F1063A
330
261
100
AcDbEntity
  8
Geo
100
AcDbLine
 10
-10.03212547939189
 20
12.85539665407019
 30
0.0
 11
-9.932125479391899
 21
12.80642466798219
 31
0.0
  0
LINE
  5
F1063C
330
261
100
AcDbEntity
  8
Geo
100
AcDbLine
 10
-10.03212547939189
 20
12.69106772984089
 30
0.0
 11
-9.932125479391899
 21
12.63820607624049
 31
0.0
  0
LINE
  5
F1063E
330
261
100
AcDbEntity
  8
Geo
100
AcDbLine
 10
-9.932125479391899
 20
9.803039626391793
 30
0.0
 11
-9.832125479391903
 21
9.760052321081387
 31
0.0
  0
LINE
  5
F10640
330
261
100
AcDbEntity
  8
Geo
100
AcDbLine
 10
-9.932125479391899
 20
9.722359002960992
 30
0.0
 11
-9.832125479391903
 21
9.686502270326093
 31
0.0
  0
LINE
  5
F10642
330
261
100
AcDbEntity
  8
Geo
100
AcDbLine
 10
-9.932125479391899
 20
12.80642466798219
 30
0.0
 11
-9.832125479391903
 21
12.75575849978159
 31
0.0
  0
LINE
  5
F10644
330
261
100
AcDbEntity
  8
Geo
100
AcDbLine
 10
-9.932125479391899
 20
12.63820607624049
 30
0.0
 11
-9.832125479391903
 21
12.58385640945159
 31
0.0
  0
LINE
  5
F10646
330
261
100
AcDbEntity
  8
Geo
100
AcDbLine
 10
-9.832125479391903
 20
9.760052321081387
 30
0.0
 11
-9.732125479391896
 21
9.719549773109193
 31
0.0
  0
LINE
  5
F10648
330
261
100
AcDbEntity
  8
Geo
100
AcDbLine
 10
-9.832125479391903
 20
9.686502270326093
 30
0.0
 11
-9.732125479391896
 21
9.653240120197491
 31
0.0
  0
LINE
  5
F1064A
330
261
100
AcDbEntity
  8
Geo
100
AcDbLine
 10
-9.832125479391903
 20
12.75575849978159
 30
0.0
 11
-9.732125479391896
 21
12.70346024598999
 31
0.0
  0
LINE
  5
F1064C
330
261
100
AcDbEntity
  8
Geo
100
AcDbLine
 10
-9.832125479391903
 20
12.58385640945159
 30
0.0
 11
-9.732125479391896
 21
12.52808534049629
 31
0.0
  0
LINE
  5
F1064E
330
261
100
AcDbEntity
  8
Geo
100
AcDbLine
 10
-9.732125479391896
 20
9.719549773109193
 30
0.0
 11
-9.632125479391902
 21
9.681592461007795
 31
0.0
  0
LINE
  5
F10650
330
261
100
AcDbEntity
  8
Geo
100
AcDbLine
 10
-9.732125479391896
 20
9.653240120197491
 30
0.0
 11
-9.632125479391902
 21
9.622622219722687
 31
0.0
  0
LINE
  5
F10652
330
261
100
AcDbEntity
  8
Geo
100
AcDbLine
 10
-9.732125479391896
 20
12.70346024598999
 30
0.0
 11
-9.632125479391902
 21
12.64959400341479
 31
0.0
  0
LINE
  5
F10654
330
261
100
AcDbEntity
  8
Geo
100
AcDbLine
 10
-9.732125479391896
 20
12.52808534049629
 30
0.0
 11
-9.632125479391902
 21
12.47096122246899
 31
0.0
  0
LINE
  5
F10656
330
261
100
AcDbEntity
  8
Geo
100
AcDbLine
 10
-9.632125479391902
 20
9.681592461007795
 30
0.0
 11
-9.532125479391893
 21
9.646237062755492
 31
0.0
  0
LINE
  5
F10658
330
261
100
AcDbEntity
  8
Geo
100
AcDbLine
 10
-9.632125479391902
 20
9.622622219722687
 30
0.0
 11
-9.532125479391893
 21
9.594694287647293
 31
0.0
  0
LINE
  5
F1065A
330
261
100
AcDbEntity
  8
Geo
100
AcDbLine
 10
-9.632125479391902
 20
12.64959400341479
 30
0.0
 11
-9.532125479391893
 21
12.59422579059289
 31
0.0
  0
LINE
  5
F1065C
330
261
100
AcDbEntity
  8
Geo
100
AcDbLine
 10
-9.632125479391902
 20
12.47096122246899
 30
0.0
 11
-9.532125479391893
 21
12.41255406676279
 31
0.0
  0
LINE
  5
F1065E
330
261
100
AcDbEntity
  8
Geo
100
AcDbLine
 10
-9.532125479391893
 20
9.646237062755492
 30
0.0
 11
-9.432125479391899
 21
9.61353637114449
 31
0.0
  0
LINE
  5
F10660
330
261
100
AcDbEntity
  8
Geo
100
AcDbLine
 10
-9.532125479391893
 20
9.594694287647293
 30
0.0
 11
-9.432125479391899
 21
9.569498026047792
 31
0.0
  0
LINE
  5
F10662
330
261
100
AcDbEntity
  8
Geo
100
AcDbLine
 10
-9.532125479391893
 20
12.59422579059289
 30
0.0
 11
-9.432125479391899
 21
12.53742346687769
 31
0.0
  0
LINE
  5
F10664
330
261
100
AcDbEntity
  8
Geo
100
AcDbLine
 10
-9.532125479391893
 20
12.41255406676279
 30
0.0
 11
-9.432125479391899
 21
12.35293545726349
 31
0.0
  0
LINE
  5
F10666
330
261
100
AcDbEntity
  8
Geo
100
AcDbLine
 10
-9.432125479391899
 20
9.61353637114449
 30
0.0
 11
-9.332125479391903
 21
9.583539214950688
 31
0.0
  0
LINE
  5
F10668
330
261
100
AcDbEntity
  8
Geo
100
AcDbLine
 10
-9.432125479391899
 20
9.569498026047792
 30
0.0
 11
-9.332125479391903
 21
9.547071058061296
 31
0.0
  0
LINE
  5
F1066A
330
261
100
AcDbEntity
  8
Geo
100
AcDbLine
 10
-9.432125479391899
 20
12.53742346687769
 30
0.0
 11
-9.332125479391903
 21
12.47925664927059
 31
0.0
  0
LINE
  5
F1066C
330
261
100
AcDbEntity
  8
Geo
100
AcDbLine
 10
-9.432125479391899
 20
12.35293545726349
 30
0.0
 11
-9.332125479391903
 21
12.29217846261599
 31
0.0
  0
LINE
  5
F1066E
330
261
100
AcDbEntity
  8
Geo
100
AcDbLine
 10
-9.332125479391903
 20
9.583539214950688
 30
0.0
 11
-9.232125479391896
 21
9.556290386022386
 31
0.0
  0
LINE
  5
F10670
330
261
100
AcDbEntity
  8
Geo
100
AcDbLine
 10
-9.332125479391903
 20
9.547071058061296
 30
0.0
 11
-9.232125479391896
 21
9.52744687170739
 31
0.0
  0
LINE
  5
F10672
330
261
100
AcDbEntity
  8
Geo
100
AcDbLine
 10
-9.332125479391903
 20
12.47925664927059
 30
0.0
 11
-9.232125479391896
 21
12.41979662709879
 31
0.0
  0
LINE
  5
F10674
330
261
100
AcDbEntity
  8
Geo
100
AcDbLine
 10
-9.332125479391903
 20
12.29217846261599
 30
0.0
 11
-9.232125479391896
 21
12.23035754667179
 31
0.0
  0
LINE
  5
F10676
330
261
100
AcDbEntity
  8
Geo
100
AcDbLine
 10
-9.232125479391896
 20
9.556290386022386
 30
0.0
 11
-9.132125479391902
 21
9.531830572397094
 31
0.0
  0
LINE
  5
F10678
330
261
100
AcDbEntity
  8
Geo
100
AcDbLine
 10
-9.232125479391896
 20
9.52744687170739
 30
0.0
 11
-9.132125479391902
 21
9.510654769882991
 31
0.0
  0
LINE
  5
F1067A
330
261
100
AcDbEntity
  8
Geo
100
AcDbLine
 10
-9.232125479391896
 20
12.41979662709879
 30
0.0
 11
-9.132125479391902
 21
12.35911627464249
 31
0.0
  0
LINE
  5
F1067C
330
261
100
AcDbEntity
  8
Geo
100
AcDbLine
 10
-9.232125479391896
 20
12.23035754667179
 30
0.0
 11
-9.132125479391902
 21
12.16754847722559
 31
0.0
  0
LINE
  5
F1067E
330
261
100
AcDbEntity
  8
Geo
100
AcDbLine
 10
-9.132125479391902
 20
9.531830572397094
 30
0.0
 11
-9.032125479391893
 21
9.510196297545594
 31
0.0
  0
LINE
  5
F10680
330
261
100
AcDbEntity
  8
Geo
100
AcDbLine
 10
-9.132125479391902
 20
9.510654769882991
 30
0.0
 11
-9.032125479391893
 21
9.496719826607492
 31
0.0
  0
LINE
  5
F10682
330
261
100
AcDbEntity
  8
Geo
100
AcDbLine
 10
-9.132125479391902
 20
12.35911627464249
 30
0.0
 11
-9.032125479391893
 21
12.29728996182029
 31
0.0
  0
LINE
  5
F10684
330
261
100
AcDbEntity
  8
Geo
100
AcDbLine
 10
-9.132125479391902
 20
12.16754847722559
 30
0.0
 11
-9.032125479391893
 21
12.10382823315429
 31
0.0
  0
LINE
  5
F10686
330
261
100
AcDbEntity
  8
Geo
100
AcDbLine
 10
-9.032125479391893
 20
9.510196297545594
 30
0.0
 11
-8.932125479391897
 21
9.491419865835293
 31
0.0
  0
LINE
  5
F10688
330
261
100
AcDbEntity
  8
Geo
100
AcDbLine
 10
-9.032125479391893
 20
9.496719826607492
 30
0.0
 11
-8.932125479391897
 21
9.485662849582388
 31
0.0
  0
LINE
  5
F1068A
330
261
100
AcDbEntity
  8
Geo
100
AcDbLine
 10
-9.032125479391893
 20
12.29728996182029
 30
0.0
 11
-8.932125479391897
 21
12.23439346304129
 31
0.0
  0
LINE
  5
F1068C
330
261
100
AcDbEntity
  8
Geo
100
AcDbLine
 10
-9.032125479391893
 20
12.10382823315429
 30
0.0
 11
-8.932125479391897
 21
12.03927491007159
 31
0.0
  0
LINE
  5
F1068E
330
261
100
AcDbEntity
  8
Geo
100
AcDbLine
 10
-8.932125479391897
 20
9.491419865835293
 30
0.0
 11
-8.832125479391903
 21
9.475529314293492
 31
0.0
  0
LINE
  5
F10690
330
261
100
AcDbEntity
  8
Geo
100
AcDbLine
 10
-8.932125479391897
 20
9.485662849582388
 30
0.0
 11
-8.832125479391903
 21
9.477500349120392
 31
0.0
  0
LINE
  5
F10692
330
261
100
AcDbEntity
  8
Geo
100
AcDbLine
 10
-8.932125479391897
 20
12.23439346304129
 30
0.0
 11
-8.832125479391903
 21
12.17050386433589
 31
0.0
  0
LINE
  5
F10694
330
261
100
AcDbEntity
  8
Geo
100
AcDbLine
 10
-8.932125479391897
 20
12.03927491007159
 30
0.0
 11
-8.832125479391903
 21
11.97396762461399
 31
0.0
  0
LINE
  5
F10696
330
261
100
AcDbEntity
  8
Geo
100
AcDbLine
 10
-8.832125479391903
 20
9.475529314293492
 30
0.0
 11
-8.732125479391896
 21
9.462548370741792
 31
0.0
  0
LINE
  5
F10698
330
261
100
AcDbEntity
  8
Geo
100
AcDbLine
 10
-8.832125479391903
 20
9.477500349120392
 30
0.0
 11
-8.732125479391896
 21
9.472244513493187
 31
0.0
  0
LINE
  5
F1069A
330
261
100
AcDbEntity
  8
Geo
100
AcDbLine
 10
-8.832125479391903
 20
12.17050386433589
 30
0.0
 11
-8.732125479391896
 21
12.10569946887918
 31
0.0
  0
LINE
  5
F1069C
330
261
100
AcDbEntity
  8
Geo
100
AcDbLine
 10
-8.832125479391903
 20
11.97396762461399
 30
0.0
 11
-8.732125479391896
 21
11.90798641747509
 31
0.0
  0
LINE
  5
F1069E
330
261
100
AcDbEntity
  8
Geo
100
AcDbLine
 10
-8.732125479391896
 20
9.462548370741792
 30
0.0
 11
-8.632125479391902
 21
9.452496418366195
 31
0.0
  0
LINE
  5
F106A0
330
261
100
AcDbEntity
  8
Geo
100
AcDbLine
 10
-8.732125479391896
 20
9.472244513493187
 30
0.0
 11
-8.632125479391902
 21
9.469903190730992
 31
0.0
  0
LINE
  5
F106A2
330
261
100
AcDbEntity
  8
Geo
100
AcDbLine
 10
-8.732125479391896
 20
12.10569946887918
 30
0.0
 11
-8.632125479391902
 21
12.04005970102219
 31
0.0
  0
LINE
  5
F106A4
330
261
100
AcDbEntity
  8
Geo
100
AcDbLine
 10
-8.732125479391896
 20
11.90798641747509
 30
0.0
 11
-8.632125479391902
 21
11.84141215530799
 31
0.0
  0
LINE
  5
F106A6
330
261
100
AcDbEntity
  8
Geo
100
AcDbLine
 10
-8.632125479391902
 20
9.452496418366195
 30
0.0
 11
-8.532125479391893
 21
9.44538846677349
 31
0.0
  0
LINE
  5
F106A8
330
261
100
AcDbEntity
  8
Geo
100
AcDbLine
 10
-8.632125479391902
 20
12.04005970102219
 30
0.0
 11
-8.532125479391893
 21
11.97366500894949
 31
0.0
  0
LINE
  5
F106AA
330
261
100
AcDbEntity
  8
Geo
100
AcDbLine
 10
-8.632125479391902
 20
11.84141215530799
 30
0.0
 11
-8.532125479391893
 21
11.77432643161459
 31
0.0
  0
LINE
  5
F106AC
330
261
100
AcDbEntity
  8
Geo
100
AcDbLine
 10
-8.532125479391893
 20
9.44538846677349
 30
0.0
 11
-8.432125479391897
 21
9.441235129579693
 31
0.0
  0
LINE
  5
F106AE
330
261
100
AcDbEntity
  8
Geo
100
AcDbLine
 10
-8.532125479391893
 20
13.37771488837359
 30
0.0
 11
-8.432125479391897
 21
13.37422105437419
 31
0.0
  0
LINE
  5
F106B0
330
261
100
AcDbEntity
  8
Geo
100
AcDbLine
 10
-8.532125479391893
 20
11.97366500894949
 30
0.0
 11
-8.432125479391897
 21
11.90659676608159
 31
0.0
  0
LINE
  5
F106B2
330
261
100
AcDbEntity
  8
Geo
100
AcDbLine
 10
-8.532125479391893
 20
11.77432643161459
 30
0.0
 11
-8.432125479391897
 21
11.70681146674489
 31
0.0
  0
LINE
  5
F106B4
330
261
100
AcDbEntity
  8
Geo
100
AcDbLine
 10
-8.432125479391897
 20
13.37422105437419
 30
0.0
 11
-8.332125479391905
 21
13.36781528955279
 31
0.0
  0
LINE
  5
F106B6
330
261
100
AcDbEntity
  8
Geo
100
AcDbLine
 10
-8.432125479391897
 20
11.90659676608159
 30
0.0
 11
-8.332125479391905
 21
11.83893717134409
 31
0.0
  0
LINE
  5
F106B8
330
261
100
AcDbEntity
  8
Geo
100
AcDbLine
 10
-8.432125479391897
 20
11.70681146674489
 30
0.0
 11
-8.332125479391905
 21
11.63895000712729
 31
0.0
  0
LINE
  5
F106BA
330
261
100
AcDbEntity
  8
Geo
100
AcDbLine
 10
-8.332125479391905
 20
13.40815215671719
 30
0.0
 11
-8.232125479391896
 21
13.40638208088499
 31
0.0
  0
LINE
  5
F106BC
330
261
100
AcDbEntity
  8
Geo
100
AcDbLine
 10
-8.332125479391905
 20
13.36781528955279
 30
0.0
 11
-8.232125479391896
 21
13.35850715901759
 31
0.0
  0
LINE
  5
F106BE
330
261
100
AcDbEntity
  8
Geo
100
AcDbLine
 10
-8.332125479391905
 20
11.83893717134409
 30
0.0
 11
-8.232125479391896
 21
11.77076914842379
 31
0.0
  0
LINE
  5
F106C0
330
261
100
AcDbEntity
  8
Geo
100
AcDbLine
 10
-8.332125479391905
 20
11.63895000712729
 30
0.0
 11
-8.232125479391896
 21
11.57082522385459
 31
0.0
  0
LINE
  5
F106C2
330
261
100
AcDbEntity
  8
Geo
100
AcDbLine
 10
-8.232125479391896
 20
13.40638208088499
 30
0.0
 11
-8.132125479391902
 21
13.40165205128439
 31
0.0
  0
LINE
  5
F106C4
330
261
100
AcDbEntity
  8
Geo
100
AcDbLine
 10
-8.232125479391896
 20
13.35850715901759
 30
0.0
 11
-8.132125479391902
 21
13.34631056169859
 31
0.0
  0
LINE
  5
F106C6
330
261
100
AcDbEntity
  8
Geo
100
AcDbLine
 10
-8.232125479391896
 20
11.77076914842379
 30
0.0
 11
-8.132125479391902
 21
11.70217624413809
 31
0.0
  0
LINE
  5
F106C8
330
261
100
AcDbEntity
  8
Geo
100
AcDbLine
 10
-8.232125479391896
 20
11.57082522385459
 30
0.0
 11
-8.132125479391902
 21
11.50252061074959
 31
0.0
  0
LINE
  5
F106CA
330
261
100
AcDbEntity
  8
Geo
100
AcDbLine
 10
-8.132125479391902
 20
13.40165205128439
 30
0.0
 11
-8.032125479391893
 21
13.39396913081059
 31
0.0
  0
LINE
  5
F106CC
330
261
100
AcDbEntity
  8
Geo
100
AcDbLine
 10
-8.132125479391902
 20
13.34631056169859
 30
0.0
 11
-8.032125479391893
 21
13.33124370959329
 31
0.0
  0
LINE
  5
F106CE
330
261
100
AcDbEntity
  8
Geo
100
AcDbLine
 10
-8.132125479391902
 20
11.70217624413809
 30
0.0
 11
-8.032125479391893
 21
11.63324252603929
 31
0.0
  0
LINE
  5
F106D0
330
261
100
AcDbEntity
  8
Geo
100
AcDbLine
 10
-8.132125479391902
 20
11.50252061074959
 30
0.0
 11
-8.032125479391893
 21
11.43411988203459
 31
0.0
  0
LINE
  5
F106D2
330
261
100
AcDbEntity
  8
Geo
100
AcDbLine
 10
-8.032125479391893
 20
13.39396913081059
 30
0.0
 11
-7.932125479391897
 21
13.38334479162479
 31
0.0
  0
LINE
  5
F106D4
330
261
100
AcDbEntity
  8
Geo
100
AcDbLine
 10
-8.032125479391893
 20
13.33124370959329
 30
0.0
 11
-7.932125479391897
 21
13.31332910057279
 31
0.0
  0
LINE
  5
F106D6
330
261
100
AcDbEntity
  8
Geo
100
AcDbLine
 10
-8.032125479391893
 20
11.63324252603929
 30
0.0
 11
-7.932125479391897
 21
11.56405247938179
 31
0.0
  0
LINE
  5
F106D8
330
261
100
AcDbEntity
  8
Geo
100
AcDbLine
 10
-8.032125479391893
 20
11.43411988203459
 30
0.0
 11
-7.932125479391897
 21
11.36570686973128
 31
0.0
  0
LINE
  5
F106DA
330
261
100
AcDbEntity
  8
Geo
100
AcDbLine
 10
-7.932125479391897
 20
13.38334479162479
 30
0.0
 11
-7.832125479391905
 21
13.36979489802359
 31
0.0
  0
LINE
  5
F106DC
330
261
100
AcDbEntity
  8
Geo
100
AcDbLine
 10
-7.932125479391897
 20
13.31332910057279
 30
0.0
 11
-7.832125479391905
 21
13.29259348478799
 31
0.0
  0
LINE
  5
F106DE
330
261
100
AcDbEntity
  8
Geo
100
AcDbLine
 10
-7.932125479391897
 20
11.56405247938179
 30
0.0
 11
-7.832125479391905
 21
11.49469090357619
 31
0.0
  0
LINE
  5
F106E0
330
261
100
AcDbEntity
  8
Geo
100
AcDbLine
 10
-7.932125479391897
 20
11.36570686973128
 30
0.0
 11
-7.832125479391905
 21
11.29736542091628
 31
0.0
  0
LINE
  5
F106E2
330
261
100
AcDbEntity
  8
Geo
100
AcDbLine
 10
-7.832125479391905
 20
13.36979489802359
 30
0.0
 11
-7.732125479391896
 21
13.35333968275109
 31
0.0
  0
LINE
  5
F106E4
330
261
100
AcDbEntity
  8
Geo
100
AcDbLine
 10
-7.832125479391905
 20
13.29259348478799
 30
0.0
 11
-7.732125479391896
 21
13.26906782472569
 31
0.0
  0
LINE
  5
F106E6
330
261
100
AcDbEntity
  8
Geo
100
AcDbLine
 10
-7.832125479391905
 20
11.49469090357619
 30
0.0
 11
-7.732125479391896
 21
11.42524280825989
 31
0.0
  0
LINE
  5
F106E8
330
261
100
AcDbEntity
  8
Geo
100
AcDbLine
 10
-7.832125479391905
 20
11.29736542091628
 30
0.0
 11
-7.732125479391896
 21
11.22917929495789
 31
0.0
  0
LINE
  5
F106EA
330
261
100
AcDbEntity
  8
Geo
100
AcDbLine
 10
-7.732125479391896
 20
13.35333968275109
 30
0.0
 11
-7.632125479391902
 21
13.33400371678659
 31
0.0
  0
LINE
  5
F106EC
330
261
100
AcDbEntity
  8
Geo
100
AcDbLine
 10
-7.732125479391896
 20
13.26906782472569
 30
0.0
 11
-7.632125479391902
 21
13.24278724897579
 31
0.0
  0
LINE
  5
F106EE
330
261
100
AcDbEntity
  8
Geo
100
AcDbLine
 10
-7.732125479391896
 20
11.42524280825989
 30
0.0
 11
-7.632125479391902
 21
11.35579330910849
 31
0.0
  0
LINE
  5
F106F0
330
261
100
AcDbEntity
  8
Geo
100
AcDbLine
 10
-7.732125479391896
 20
11.22917929495789
 30
0.0
 11
-7.632125479391902
 21
11.16123206086029
 31
0.0
  0
LINE
  5
F106F2
330
261
100
AcDbEntity
  8
Geo
100
AcDbLine
 10
-7.632125479391902
 20
13.33400371678659
 30
0.0
 11
-7.532125479391893
 21
13.31181587265549
 31
0.0
  0
LINE
  5
F106F4
330
261
100
AcDbEntity
  8
Geo
100
AcDbLine
 10
-7.632125479391902
 20
13.24278724897579
 30
0.0
 11
-7.532125479391893
 21
13.21379099977689
 31
0.0
  0
LINE
  5
F106F6
330
261
100
AcDbEntity
  8
Geo
100
AcDbLine
 10
-7.632125479391902
 20
11.35579330910849
 30
0.0
 11
-7.532125479391893
 21
11.28642752351809
 31
0.0
  0
LINE
  5
F106F8
330
261
100
AcDbEntity
  8
Geo
100
AcDbLine
 10
-7.632125479391902
 20
11.16123206086029
 30
0.0
 11
-7.532125479391893
 21
11.09360699484179
 31
0.0
  0
LINE
  5
F106FA
330
261
100
AcDbEntity
  8
Geo
100
AcDbLine
 10
-7.532125479391893
 20
13.31181587265549
 30
0.0
 11
-7.432125479391897
 21
13.28680928131669
 31
0.0
  0
LINE
  5
F106FC
330
261
100
AcDbEntity
  8
Geo
100
AcDbLine
 10
-7.532125479391893
 20
13.21379099977689
 30
0.0
 11
-7.432125479391897
 21
13.18212237441999
 31
0.0
  0
LINE
  5
F106FE
330
261
100
AcDbEntity
  8
Geo
100
AcDbLine
 10
-7.532125479391893
 20
11.28642752351809
 30
0.0
 11
-7.432125479391897
 21
11.21723046628549
 31
0.0
  0
LINE
  5
F10700
330
261
100
AcDbEntity
  8
Geo
100
AcDbLine
 10
-7.532125479391893
 20
11.09360699484179
 30
0.0
 11
-7.432125479391897
 21
11.02638697827099
 31
0.0
  0
LINE
  5
F10702
330
261
100
AcDbEntity
  8
Geo
100
AcDbLine
 10
-7.432125479391897
 20
13.28680928131669
 30
0.0
 11
-7.332125479391905
 21
13.25902128269129
 31
0.0
  0
LINE
  5
F10704
330
261
100
AcDbEntity
  8
Geo
100
AcDbLine
 10
-7.432125479391897
 20
13.18212237441999
 30
0.0
 11
-7.332125479391905
 21
13.14782866059619
 31
0.0
  0
LINE
  5
F10706
330
261
100
AcDbEntity
  8
Geo
100
AcDbLine
 10
-7.432125479391897
 20
11.21723046628549
 30
0.0
 11
-7.332125479391905
 21
11.14828694541359
 31
0.0
  0
LINE
  5
F10708
330
261
100
AcDbEntity
  8
Geo
100
AcDbLine
 10
-7.432125479391897
 20
11.02638697827099
 30
0.0
 11
-7.332125479391905
 21
10.95965439608719
 31
0.0
  0
LINE
  5
F1070A
330
261
100
AcDbEntity
  8
Geo
100
AcDbLine
 10
-7.332125479391905
 20
13.25902128269129
 30
0.0
 11
-7.232125479391896
 21
13.22849336990659
 31
0.0
  0
LINE
  5
F1070C
330
261
100
AcDbEntity
  8
Geo
100
AcDbLine
 10
-7.332125479391905
 20
13.14782866059619
 30
0.0
 11
-7.232125479391896
 21
13.11096106578749
 31
0.0
  0
LINE
  5
F1070E
330
261
100
AcDbEntity
  8
Geo
100
AcDbLine
 10
-7.332125479391905
 20
11.14828694541359
 30
0.0
 11
-7.232125479391896
 21
11.07968145817119
 31
0.0
  0
LINE
  5
F10710
330
261
100
AcDbEntity
  8
Geo
100
AcDbLine
 10
-7.332125479391905
 20
10.95965439608719
 30
0.0
 11
-7.232125479391896
 21
10.89349103582959
 31
0.0
  0
LINE
  5
F10712
330
261
100
AcDbEntity
  8
Geo
100
AcDbLine
 10
-7.232125479391896
 20
13.22849336990659
 30
0.0
 11
-7.132125479391902
 21
13.19527112733819
 31
0.0
  0
LINE
  5
F10714
330
261
100
AcDbEntity
  8
Geo
100
AcDbLine
 10
-7.232125479391896
 20
13.11096106578749
 30
0.0
 11
-7.132125479391902
 21
13.07157464080259
 31
0.0
  0
LINE
  5
F10716
330
261
100
AcDbEntity
  8
Geo
100
AcDbLine
 10
-7.232125479391896
 20
11.07968145817119
 30
0.0
 11
-7.132125479391902
 21
11.01149808753209
 31
0.0
  0
LINE
  5
F10718
330
261
100
AcDbEntity
  8
Geo
100
AcDbLine
 10
-7.232125479391896
 20
10.89349103582959
 30
0.0
 11
-7.132125479391902
 21
10.82797798739849
 31
0.0
  0
LINE
  5
F1071A
330
261
100
AcDbEntity
  8
Geo
100
AcDbLine
 10
-7.132125479391902
 20
13.19527112733819
 30
0.0
 11
-7.032125479391893
 21
13.15940416254379
 31
0.0
  0
LINE
  5
F1071C
330
261
100
AcDbEntity
  8
Geo
100
AcDbLine
 10
-7.132125479391902
 20
13.07157464080259
 30
0.0
 11
-7.032125479391893
 21
13.02972819757569
 31
0.0
  0
LINE
  5
F1071E
330
261
100
AcDbEntity
  8
Geo
100
AcDbLine
 10
-7.132125479391902
 20
11.01149808753209
 30
0.0
 11
-7.032125479391893
 21
10.94382039912389
 31
0.0
  0
LINE
  5
F10720
330
261
100
AcDbEntity
  8
Geo
100
AcDbLine
 10
-7.132125479391902
 20
10.82797798739849
 30
0.0
 11
-7.032125479391893
 21
10.76319554367069
 31
0.0
  0
LINE
  5
F10722
330
261
100
AcDbEntity
  8
Geo
100
AcDbLine
 10
-7.032125479391893
 20
13.15940416254379
 30
0.0
 11
-6.932125479391897
 21
13.12094603218829
 31
0.0
  0
LINE
  5
F10724
330
261
100
AcDbEntity
  8
Geo
100
AcDbLine
 10
-7.032125479391893
 20
13.02972819757569
 30
0.0
 11
-6.932125479391897
 21
12.98548422134799
 31
0.0
  0
LINE
  5
F10726
330
261
100
AcDbEntity
  8
Geo
100
AcDbLine
 10
-7.032125479391893
 20
10.94382039912389
 30
0.0
 11
-6.932125479391897
 21
10.87673133880909
 31
0.0
  0
LINE
  5
F10728
330
261
100
AcDbEntity
  8
Geo
100
AcDbLine
 10
-7.032125479391893
 20
10.76319554367069
 30
0.0
 11
-6.932125479391897
 21
10.69922310209339
 31
0.0
  0
LINE
  5
F1072A
330
261
100
AcDbEntity
  8
Geo
100
AcDbLine
 10
-6.932125479391897
 20
13.12094603218829
 30
0.0
 11
-6.832125479391905
 21
13.07995416207329
 31
0.0
  0
LINE
  5
F1072C
330
261
100
AcDbEntity
  8
Geo
100
AcDbLine
 10
-6.932125479391897
 20
12.98548422134799
 30
0.0
 11
-6.832125479391905
 21
12.93890877736429
 31
0.0
  0
LINE
  5
F1072E
330
261
100
AcDbEntity
  8
Geo
100
AcDbLine
 10
-6.932125479391897
 20
10.87673133880909
 30
0.0
 11
-6.832125479391905
 21
10.81031313102709
 31
0.0
  0
LINE
  5
F10730
330
261
100
AcDbEntity
  8
Geo
100
AcDbLine
 10
-6.932125479391897
 20
10.69922310209339
 30
0.0
 11
-6.832125479391905
 21
10.63613906737379
 31
0.0
  0
LINE
  5
F10732
330
261
100
AcDbEntity
  8
Geo
100
AcDbLine
 10
-6.832125479391905
 20
13.07995416207329
 30
0.0
 11
-6.732125479391896
 21
13.03648976138869
 31
0.0
  0
LINE
  5
F10734
330
261
100
AcDbEntity
  8
Geo
100
AcDbLine
 10
-6.832125479391905
 20
12.93890877736429
 30
0.0
 11
-6.732125479391896
 21
12.89007141222459
 31
0.0
  0
LINE
  5
F10736
330
261
100
AcDbEntity
  8
Geo
100
AcDbLine
 10
-6.832125479391905
 20
10.81031313102709
 30
0.0
 11
-6.732125479391896
 21
10.74464717801939
 31
0.0
  0
LINE
  5
F10738
330
261
100
AcDbEntity
  8
Geo
100
AcDbLine
 10
-6.832125479391905
 20
10.63613906737379
 30
0.0
 11
-6.732125479391896
 21
10.57402075538659
 31
0.0
  0
LINE
  5
F1073A
330
261
100
AcDbEntity
  8
Geo
100
AcDbLine
 10
-6.732125479391896
 20
13.03648976138869
 30
0.0
 11
-6.632125479391902
 21
12.99061773131479
 31
0.0
  0
LINE
  5
F1073C
330
261
100
AcDbEntity
  8
Geo
100
AcDbLine
 10
-6.732125479391896
 20
12.89007141222459
 30
0.0
 11
-6.632125479391902
 21
12.83904505003679
 31
0.0
  0
LINE
  5
F1073E
330
261
100
AcDbEntity
  8
Geo
100
AcDbLine
 10
-6.732125479391896
 20
10.74464717801939
 30
0.0
 11
-6.632125479391902
 21
10.67981396006309
 31
0.0
  0
LINE
  5
F10740
330
261
100
AcDbEntity
  8
Geo
100
AcDbLine
 10
-6.732125479391896
 20
10.57402075538659
 30
0.0
 11
-6.632125479391902
 21
10.51294429841559
 31
0.0
  0
LINE
  5
F10742
330
261
100
AcDbEntity
  8
Geo
100
AcDbLine
 10
-6.632125479391902
 20
12.99061773131479
 30
0.0
 11
-6.532125479391893
 21
12.94240656811169
 31
0.0
  0
LINE
  5
F10744
330
261
100
AcDbEntity
  8
Geo
100
AcDbLine
 10
-6.632125479391902
 20
12.83904505003679
 30
0.0
 11
-6.532125479391893
 21
12.78590588352579
 31
0.0
  0
LINE
  5
F10746
330
261
100
AcDbEntity
  8
Geo
100
AcDbLine
 10
-6.632125479391902
 20
10.67981396006309
 30
0.0
 11
-6.532125479391893
 21
10.61589293683409
 31
0.0
  0
LINE
  5
F10748
330
261
100
AcDbEntity
  8
Geo
100
AcDbLine
 10
-6.632125479391902
 20
10.51294429841559
 30
0.0
 11
-6.532125479391893
 21
10.45298455184549
 31
0.0
  0
LINE
  5
F1074A
330
261
100
AcDbEntity
  8
Geo
100
AcDbLine
 10
-6.532125479391893
 20
12.94240656811169
 30
0.0
 11
-6.432125479391897
 21
12.89192826084039
 31
0.0
  0
LINE
  5
F1074C
330
261
100
AcDbEntity
  8
Geo
100
AcDbLine
 10
-6.532125479391893
 20
12.78590588352579
 30
0.0
 11
-6.432125479391897
 21
12.73073326026289
 31
0.0
  0
LINE
  5
F1074E
330
261
100
AcDbEntity
  8
Geo
100
AcDbLine
 10
-6.532125479391893
 20
10.61589293683409
 30
0.0
 11
-6.432125479391897
 21
10.55296245002139
 31
0.0
  0
LINE
  5
F10750
330
261
100
AcDbEntity
  8
Geo
100
AcDbLine
 10
-6.532125479391893
 20
10.45298455184549
 30
0.0
 11
-6.432125479391897
 21
10.39421500241949
 31
0.0
  0
LINE
  5
F10752
330
261
100
AcDbEntity
  8
Geo
100
AcDbLine
 10
-6.432125479391897
 20
12.89192826084039
 30
0.0
 11
-6.332125479391905
 21
12.83925818386869
 31
0.0
  0
LINE
  5
F10754
330
261
100
AcDbEntity
  8
Geo
100
AcDbLine
 10
-6.432125479391897
 20
12.73073326026289
 30
0.0
 11
-6.332125479391905
 21
12.67360956418329
 31
0.0
  0
LINE
  5
F10756
330
261
100
AcDbEntity
  8
Geo
100
AcDbLine
 10
-6.432125479391897
 20
10.55296245002139
 30
0.0
 11
-6.332125479391905
 21
10.49109962731119
 31
0.0
  0
LINE
  5
F10758
330
261
100
AcDbEntity
  8
Geo
100
AcDbLine
 10
-6.432125479391897
 20
10.39421500241949
 30
0.0
 11
-6.332125479391905
 21
10.33670767817339
 31
0.0
  0
LINE
  5
F1075A
330
261
100
AcDbEntity
  8
Geo
100
AcDbLine
 10
-6.332125479391905
 20
12.83925818386869
 30
0.0
 11
-6.232125479391896
 21
12.78447498432179
 31
0.0
  0
LINE
  5
F1075C
330
261
100
AcDbEntity
  8
Geo
100
AcDbLine
 10
-6.332125479391905
 20
12.67360956418329
 30
0.0
 11
-6.232125479391896
 21
12.61462009257019
 31
0.0
  0
LINE
  5
F1075E
330
261
100
AcDbEntity
  8
Geo
100
AcDbLine
 10
-6.332125479391905
 20
10.49109962731119
 30
0.0
 11
-6.232125479391896
 21
10.43038028785919
 31
0.0
  0
LINE
  5
F10760
330
261
100
AcDbEntity
  8
Geo
100
AcDbLine
 10
-6.332125479391905
 20
10.33670767817339
 30
0.0
 11
-6.232125479391896
 21
10.28053306015849
 31
0.0
  0
LINE
  5
F10762
330
261
100
AcDbEntity
  8
Geo
100
AcDbLine
 10
-6.232125479391896
 20
12.78447498432179
 30
0.0
 11
-6.132125479391902
 21
12.72766046464619
 31
0.0
  0
LINE
  5
F10764
330
261
100
AcDbEntity
  8
Geo
100
AcDbLine
 10
-6.232125479391896
 20
12.61462009257019
 30
0.0
 11
-6.132125479391902
 21
12.55385292868879
 31
0.0
  0
LINE
  5
F10766
330
261
100
AcDbEntity
  8
Geo
100
AcDbLine
 10
-6.232125479391896
 20
10.43038028785919
 30
0.0
 11
-6.132125479391902
 21
10.37087884936639
 31
0.0
  0
LINE
  5
F10768
330
261
100
AcDbEntity
  8
Geo
100
AcDbLine
 10
-6.232125479391896
 20
10.28053306015849
 30
0.0
 11
-6.132125479391902
 21
10.22575999605939
 31
0.0
  0
LINE
  5
F1076A
330
261
100
AcDbEntity
  8
Geo
100
AcDbLine
 10
-6.132125479391902
 20
12.72766046464619
 30
0.0
 11
-6.032125479391893
 21
12.66889946046189
 31
0.0
  0
LINE
  5
F1076C
330
261
100
AcDbEntity
  8
Geo
100
AcDbLine
 10
-6.132125479391902
 20
12.55385292868879
 30
0.0
 11
-6.032125479391893
 21
12.49139881026019
 31
0.0
  0
LINE
  5
F1076E
330
261
100
AcDbEntity
  8
Geo
100
AcDbLine
 10
-6.132125479391902
 20
10.37087884936639
 30
0.0
 11
-6.032125479391893
 21
10.31266823687309
 31
0.0
  0
LINE
  5
F10770
330
261
100
AcDbEntity
  8
Geo
100
AcDbLine
 10
-6.132125479391902
 20
10.22575999605939
 30
0.0
 11
-6.032125479391893
 21
10.17245561581439
 31
0.0
  0
LINE
  5
F10772
330
261
100
AcDbEntity
  8
Geo
100
AcDbLine
 10
-6.032125479391893
 20
12.66889946046189
 30
0.0
 11
-5.932125479391897
 21
12.60827971388599
 31
0.0
  0
LINE
  5
F10774
330
261
100
AcDbEntity
  8
Geo
100
AcDbLine
 10
-6.032125479391893
 20
12.49139881026019
 30
0.0
 11
-5.932125479391897
 21
12.42735099397089
 31
0.0
  0
LINE
  5
F10776
330
261
100
AcDbEntity
  8
Geo
100
AcDbLine
 10
-6.032125479391893
 20
10.31266823687309
 30
0.0
 11
-5.932125479391897
 21
10.25581979338129
 31
0.0
  0
LINE
  5
F10778
330
261
100
AcDbEntity
  8
Geo
100
AcDbLine
 10
-6.032125479391893
 20
10.17245561581439
 30
0.0
 11
-5.932125479391897
 21
10.12068524934109
 31
0.0
  0
LINE
  5
F1077A
330
261
100
AcDbEntity
  8
Geo
100
AcDbLine
 10
-5.932125479391897
 20
12.60827971388599
 30
0.0
 11
-5.832125479391905
 21
12.54589174251519
 31
0.0
  0
LINE
  5
F1077C
330
261
100
AcDbEntity
  8
Geo
100
AcDbLine
 10
-5.932125479391897
 20
12.42735099397089
 30
0.0
 11
-5.832125479391905
 21
12.36180511622259
 31
0.0
  0
LINE
  5
F1077E
330
261
100
AcDbEntity
  8
Geo
100
AcDbLine
 10
-5.932125479391897
 20
10.25581979338129
 30
0.0
 11
-5.832125479391905
 21
10.20040319241709
 31
0.0
  0
LINE
  5
F10780
330
261
100
AcDbEntity
  8
Geo
100
AcDbLine
 10
-5.932125479391897
 20
10.12068524934109
 30
0.0
 11
-5.832125479391905
 21
10.07051234646769
 31
0.0
  0
LINE
  5
F10782
330
261
100
AcDbEntity
  8
Geo
100
AcDbLine
 10
-5.832125479391905
 20
12.54589174251519
 30
0.0
 11
-5.732125479391896
 21
12.48182870426549
 31
0.0
  0
LINE
  5
F10784
330
261
100
AcDbEntity
  8
Geo
100
AcDbLine
 10
-5.832125479391905
 20
12.36180511622259
 30
0.0
 11
-5.732125479391896
 21
12.29485905032668
 31
0.0
  0
LINE
  5
F10786
330
261
100
AcDbEntity
  8
Geo
100
AcDbLine
 10
-5.832125479391905
 20
10.20040319241709
 30
0.0
 11
-5.732125479391896
 21
10.14648635263849
 31
0.0
  0
LINE
  5
F10788
330
261
100
AcDbEntity
  8
Geo
100
AcDbLine
 10
-5.832125479391905
 20
10.07051234646769
 30
0.0
 11
-5.732125479391896
 21
10.02199839916889
 31
0.0
  0
LINE
  5
F1078A
330
261
100
AcDbEntity
  8
Geo
100
AcDbLine
 10
-5.732125479391896
 20
12.48182870426549
 30
0.0
 11
-5.632125479391902
 21
12.41618625826759
 31
0.0
  0
LINE
  5
F1078C
330
261
100
AcDbEntity
  8
Geo
100
AcDbLine
 10
-5.732125479391896
 20
12.29485905032668
 30
0.0
 11
-5.632125479391902
 21
12.22661276036009
 31
0.0
  0
LINE
  5
F1078E
330
261
100
AcDbEntity
  8
Geo
100
AcDbLine
 10
-5.732125479391896
 20
10.14648635263849
 30
0.0
 11
-5.632125479391902
 21
10.09413535459409
 31
0.0
  0
LINE
  5
F10790
330
261
100
AcDbEntity
  8
Geo
100
AcDbLine
 10
-5.732125479391896
 20
10.02199839916889
 30
0.0
 11
-5.632125479391902
 21
9.975202866201492
 31
0.0
  0
LINE
  5
F10792
330
261
100
AcDbEntity
  8
Geo
100
AcDbLine
 10
-5.632125479391902
 20
12.41618625826759
 30
0.0
 11
-5.532125479391893
 21
12.34906242202929
 31
0.0
  0
LINE
  5
F10794
330
261
100
AcDbEntity
  8
Geo
100
AcDbLine
 10
-5.632125479391902
 20
12.22661276036009
 30
0.0
 11
-5.532125479391893
 21
12.15716815189839
 31
0.0
  0
LINE
  5
F10796
330
261
100
AcDbEntity
  8
Geo
100
AcDbLine
 10
-5.632125479391902
 20
10.09413535459409
 30
0.0
 11
-5.532125479391893
 21
10.04341435973499
 31
0.0
  0
LINE
  5
F10798
330
261
100
AcDbEntity
  8
Geo
100
AcDbLine
 10
-5.632125479391902
 20
9.975202866201492
 30
0.0
 11
-5.532125479391893
 21
9.930183100231293
 31
0.0
  0
LINE
  5
F1079A
330
261
100
AcDbEntity
  8
Geo
100
AcDbLine
 10
-5.532125479391893
 20
12.34906242202929
 30
0.0
 11
-5.432125479391896
 21
12.28055742507449
 31
0.0
  0
LINE
  5
F1079C
330
261
100
AcDbEntity
  8
Geo
100
AcDbLine
 10
-5.532125479391893
 20
12.15716815189839
 30
0.0
 11
-5.432125479391896
 21
12.08662891985019
 31
0.0
  0
LINE
  5
F1079E
330
261
100
AcDbEntity
  8
Geo
100
AcDbLine
 10
-5.532125479391893
 20
10.04341435973499
 30
0.0
 11
-5.432125479391896
 21
9.994385531778194
 31
0.0
  0
LINE
  5
F107A0
330
261
100
AcDbEntity
  8
Geo
100
AcDbLine
 10
-5.532125479391893
 20
9.930183100231293
 30
0.0
 11
-5.432125479391896
 21
9.886994277541893
 31
0.0
  0
LINE
  5
F107A2
330
261
100
AcDbEntity
  8
Geo
100
AcDbLine
 10
-5.432125479391896
 20
12.28055742507449
 30
0.0
 11
-5.332125479391905
 21
12.21077355928109
 31
0.0
  0
LINE
  5
F107A4
330
261
100
AcDbEntity
  8
Geo
100
AcDbLine
 10
-5.432125479391896
 20
12.08662891985019
 30
0.0
 11
-5.332125479391905
 21
12.01510039361939
 31
0.0
  0
LINE
  5
F107A6
330
261
100
AcDbEntity
  8
Geo
100
AcDbLine
 10
-5.432125479391896
 20
9.994385531778194
 30
0.0
 11
-5.332125479391905
 21
9.947108960518887
 31
0.0
  0
LINE
  5
F107A8
330
261
100
AcDbEntity
  8
Geo
100
AcDbLine
 10
-5.432125479391896
 20
9.886994277541893
 30
0.0
 11
-5.332125479391905
 21
9.845689330410293
 31
0.0
  0
LINE
  5
F107AA
330
261
100
AcDbEntity
  8
Geo
100
AcDbLine
 10
-5.332125479391905
 20
12.21077355928109
 30
0.0
 11
-5.232125479391896
 21
12.13981502613759
 31
0.0
  0
LINE
  5
F107AC
330
261
100
AcDbEntity
  8
Geo
100
AcDbLine
 10
-5.332125479391905
 20
12.01510039361939
 30
0.0
 11
-5.232125479391896
 21
11.94268937982719
 31
0.0
  0
LINE
  5
F107AE
330
261
100
AcDbEntity
  8
Geo
100
AcDbLine
 10
-5.332125479391905
 20
9.947108960518887
 30
0.0
 11
-5.232125479391896
 21
9.901642588183991
 31
0.0
  0
LINE
  5
F107B0
330
261
100
AcDbEntity
  8
Geo
100
AcDbLine
 10
-5.332125479391905
 20
9.845689330410293
 30
0.0
 11
-5.232125479391896
 21
9.806318882233187
 31
0.0
  0
LINE
  5
F107B2
330
261
100
AcDbEntity
  8
Geo
100
AcDbLine
 10
-5.232125479391896
 20
12.13981502613759
 30
0.0
 11
-5.132125479391902
 21
12.06778778114969
 31
0.0
  0
LINE
  5
F107B4
330
261
100
AcDbEntity
  8
Geo
100
AcDbLine
 10
-5.232125479391896
 20
11.94268937982719
 30
0.0
 11
-5.132125479391902
 21
11.86950400282789
 31
0.0
  0
LINE
  5
F107B6
330
261
100
AcDbEntity
  8
Geo
100
AcDbLine
 10
-5.232125479391896
 20
9.901642588183991
 30
0.0
 11
-5.132125479391902
 21
9.858042138418394
 31
0.0
  0
LINE
  5
F107B8
330
261
100
AcDbEntity
  8
Geo
100
AcDbLine
 10
-5.232125479391896
 20
9.806318882233187
 30
0.0
 11
-5.132125479391902
 21
9.768931185482994
 31
0.0
  0
LINE
  5
F107BA
330
261
100
AcDbEntity
  8
Geo
100
AcDbLine
 10
-5.132125479391902
 20
12.06778778114969
 30
0.0
 11
-5.032125479391893
 21
11.99479937562709
 31
0.0
  0
LINE
  5
F107BC
330
261
100
AcDbEntity
  8
Geo
100
AcDbLine
 10
-5.132125479391902
 20
11.86950400282789
 30
0.0
 11
-5.032125479391893
 21
11.79565354325738
 31
0.0
  0
LINE
  5
F107BE
330
261
100
AcDbEntity
  8
Geo
100
AcDbLine
 10
-5.132125479391902
 20
9.858042138418394
 30
0.0
 11
-5.032125479391893
 21
9.816361047989893
 31
0.0
  0
LINE
  5
F107C0
330
261
100
AcDbEntity
  8
Geo
100
AcDbLine
 10
-5.132125479391902
 20
9.768931185482994
 30
0.0
 11
-5.032125479391893
 21
9.733572062569292
 31
0.0
  0
LINE
  5
F107C2
330
261
100
AcDbEntity
  8
Geo
100
AcDbLine
 10
-5.032125479391893
 20
11.99479937562709
 30
0.0
 11
-4.932125479391898
 21
11.92095879608709
 31
0.0
  0
LINE
  5
F107C4
330
261
100
AcDbEntity
  8
Geo
100
AcDbLine
 10
-5.032125479391893
 20
11.79565354325738
 30
0.0
 11
-4.932125479391898
 21
11.72124827485519
 31
0.0
  0
LINE
  5
F107C6
330
261
100
AcDbEntity
  8
Geo
100
AcDbLine
 10
-5.032125479391893
 20
9.816361047989893
 30
0.0
 11
-4.932125479391898
 21
9.776650401296793
 31
0.0
  0
LINE
  5
F107C8
330
261
100
AcDbEntity
  8
Geo
100
AcDbLine
 10
-5.032125479391893
 20
9.733572062569292
 30
0.0
 11
-4.932125479391898
 21
9.700284849678894
 31
0.0
  0
LINE
  5
F107CA
330
261
100
AcDbEntity
  8
Geo
100
AcDbLine
 10
-4.932125479391898
 20
11.92095879608709
 30
0.0
 11
-4.832125479391905
 21
11.84637630151629
 31
0.0
  0
LINE
  5
F107CC
330
261
100
AcDbEntity
  8
Geo
100
AcDbLine
 10
-4.932125479391898
 20
11.72124827485519
 30
0.0
 11
-4.832125479391905
 21
11.64639929980268
 31
0.0
  0
LINE
  5
F107CE
330
261
100
AcDbEntity
  8
Geo
100
AcDbLine
 10
-4.932125479391898
 20
9.776650401296793
 30
0.0
 11
-4.832125479391905
 21
9.738958867759293
 31
0.0
  0
LINE
  5
F107D0
330
261
100
AcDbEntity
  8
Geo
100
AcDbLine
 10
-4.932125479391898
 20
9.700284849678894
 30
0.0
 11
-4.832125479391905
 21
9.669110343662987
 31
0.0
  0
LINE
  5
F107D2
330
261
100
AcDbEntity
  8
Geo
100
AcDbLine
 10
-4.832125479391905
 20
11.84637630151629
 30
0.0
 11
-4.732125479391896
 21
11.77116325873099
 31
0.0
  0
LINE
  5
F107D4
330
261
100
AcDbEntity
  8
Geo
100
AcDbLine
 10
-4.832125479391905
 20
11.64639929980268
 30
0.0
 11
-4.732125479391896
 21
11.57121838282589
 31
0.0
  0
LINE
  5
F107D6
330
261
100
AcDbEntity
  8
Geo
100
AcDbLine
 10
-4.832125479391905
 20
9.738958867759293
 30
0.0
 11
-4.732125479391896
 21
9.703332642169693
 31
0.0
  0
LINE
  5
F107D8
330
261
100
AcDbEntity
  8
Geo
100
AcDbLine
 10
-4.832125479391905
 20
9.669110343662987
 30
0.0
 11
-4.732125479391896
 21
9.64008675203679
 31
0.0
  0
LINE
  5
F107DA
330
261
100
AcDbEntity
  8
Geo
100
AcDbLine
 10
-4.732125479391896
 20
11.77116325873099
 30
0.0
 11
-4.632125479391902
 21
11.69543197608399
 31
0.0
  0
LINE
  5
F107DC
330
261
100
AcDbEntity
  8
Geo
100
AcDbLine
 10
-4.732125479391896
 20
11.57121838282589
 30
0.0
 11
-4.632125479391902
 21
11.49581778430719
 31
0.0
  0
LINE
  5
F107DE
330
261
100
AcDbEntity
  8
Geo
100
AcDbLine
 10
-4.732125479391896
 20
9.703332642169693
 30
0.0
 11
-4.632125479391902
 21
9.669815388076287
 31
0.0
  0
LINE
  5
F107E0
330
261
100
AcDbEntity
  8
Geo
100
AcDbLine
 10
-4.732125479391896
 20
9.64008675203679
 30
0.0
 11
-4.632125479391902
 21
9.613249646151594
 31
0.0
  0
LINE
  5
F107E2
330
261
100
AcDbEntity
  8
Geo
100
AcDbLine
 10
-4.632125479391902
 20
11.69543197608399
 30
0.0
 11
-4.532125479391893
 21
11.61929553576559
 31
0.0
  0
LINE
  5
F107E4
330
261
100
AcDbEntity
  8
Geo
100
AcDbLine
 10
-4.632125479391902
 20
11.49581778430719
 30
0.0
 11
-4.532125479391893
 21
11.42031009265829
 31
0.0
  0
LINE
  5
F107E6
330
261
100
AcDbEntity
  8
Geo
100
AcDbLine
 10
-4.632125479391902
 20
9.669815388076287
 30
0.0
 11
-4.532125479391893
 21
9.638448184269092
 31
0.0
  0
LINE
  5
F107E8
330
261
100
AcDbEntity
  8
Geo
100
AcDbLine
 10
-4.632125479391902
 20
9.613249646151594
 30
0.0
 11
-4.532125479391893
 21
9.588631917599187
 31
0.0
  0
LINE
  5
F107EA
330
261
100
AcDbEntity
  8
Geo
100
AcDbLine
 10
-4.532125479391893
 20
11.61929553576559
 30
0.0
 11
-4.432125479391898
 21
11.54286762494879
 31
0.0
  0
LINE
  5
F107EC
330
261
100
AcDbEntity
  8
Geo
100
AcDbLine
 10
-4.532125479391893
 20
11.42031009265829
 30
0.0
 11
-4.432125479391898
 21
11.34480805620279
 31
0.0
  0
LINE
  5
F107EE
330
261
100
AcDbEntity
  8
Geo
100
AcDbLine
 10
-4.532125479391893
 20
9.638448184269092
 30
0.0
 11
-4.432125479391898
 21
9.609269474433695
 31
0.0
  0
LINE
  5
F107F0
330
261
100
AcDbEntity
  8
Geo
100
AcDbLine
 10
-4.532125479391893
 20
9.588631917599187
 30
0.0
 11
-4.432125479391898
 21
9.566263737899797
 31
0.0
  0
LINE
  5
F107F2
330
261
100
AcDbEntity
  8
Geo
100
AcDbLine
 10
-4.432125479391898
 20
11.54286762494879
 30
0.0
 11
-4.332125479391905
 21
11.46626236603129
 31
0.0
  0
LINE
  5
F107F4
330
261
100
AcDbEntity
  8
Geo
100
AcDbLine
 10
-4.432125479391898
 20
11.34480805620279
 30
0.0
 11
-4.332125479391905
 21
11.26942441481979
 31
0.0
  0
LINE
  5
F107F6
330
261
100
AcDbEntity
  8
Geo
100
AcDbLine
 10
-4.432125479391898
 20
9.609269474433695
 30
0.0
 11
-4.332125479391905
 21
9.582315020034792
 31
0.0
  0
LINE
  5
F107F8
330
261
100
AcDbEntity
  8
Geo
100
AcDbLine
 10
-4.432125479391898
 20
9.566263737899797
 30
0.0
 11
-4.332125479391905
 21
9.546172521523187
 31
0.0
  0
LINE
  5
F107FA
330
261
100
AcDbEntity
  8
Geo
100
AcDbLine
 10
-4.332125479391905
 20
11.46626236603129
 30
0.0
 11
-4.232125479391896
 21
11.38959414622759
 31
0.0
  0
LINE
  5
F107FC
330
261
100
AcDbEntity
  8
Geo
100
AcDbLine
 10
-4.332125479391905
 20
11.26942441481979
 30
0.0
 11
-4.232125479391896
 21
11.19427173160059
 31
0.0
  0
LINE
  5
F107FE
330
261
100
AcDbEntity
  8
Geo
100
AcDbLine
 10
-4.332125479391905
 20
9.582315020034792
 30
0.0
 11
-4.232125479391896
 21
9.557617856486693
 31
0.0
  0
LINE
  5
F10800
330
261
100
AcDbEntity
  8
Geo
100
AcDbLine
 10
-4.332125479391905
 20
9.546172521523187
 30
0.0
 11
-4.232125479391896
 21
9.528382892290293
 31
0.0
  0
LINE
  5
F10802
330
261
100
AcDbEntity
  8
Geo
100
AcDbLine
 10
-4.232125479391896
 20
11.38959414622759
 30
0.0
 11
-4.132125479391902
 21
11.31297744676529
 31
0.0
  0
LINE
  5
F10804
330
261
100
AcDbEntity
  8
Geo
100
AcDbLine
 10
-4.232125479391896
 20
11.19427173160059
 30
0.0
 11
-4.132125479391902
 21
11.11946222476889
 31
0.0
  0
LINE
  5
F10806
330
261
100
AcDbEntity
  8
Geo
100
AcDbLine
 10
-4.232125479391896
 20
9.557617856486693
 30
0.0
 11
-4.132125479391902
 21
9.535208252664792
 31
0.0
  0
LINE
  5
F10808
330
261
100
AcDbEntity
  8
Geo
100
AcDbLine
 10
-4.232125479391896
 20
9.528382892290293
 30
0.0
 11
-4.132125479391902
 21
9.512916653193792
 31
0.0
  0
LINE
  5
F1080A
330
261
100
AcDbEntity
  8
Geo
100
AcDbLine
 10
-4.132125479391902
 20
11.31297744676529
 30
0.0
 11
-4.032125479391893
 21
11.23652667194199
 31
0.0
  0
LINE
  5
F1080C
330
261
100
AcDbEntity
  8
Geo
100
AcDbLine
 10
-4.132125479391902
 20
11.11946222476889
 30
0.0
 11
-4.032125479391893
 21
11.04510760011649
 31
0.0
  0
LINE
  5
F1080E
330
261
100
AcDbEntity
  8
Geo
100
AcDbLine
 10
-4.132125479391902
 20
9.535208252664792
 30
0.0
 11
-4.032125479391893
 21
9.515113673808793
 31
0.0
  0
LINE
  5
F10810
330
261
100
AcDbEntity
  8
Geo
100
AcDbLine
 10
-4.132125479391902
 20
9.512916653193792
 30
0.0
 11
-4.032125479391893
 21
9.499792759676292
 31
0.0
  0
LINE
  5
F10812
330
261
100
AcDbEntity
  8
Geo
100
AcDbLine
 10
-4.032125479391893
 20
11.23652667194199
 30
0.0
 11
-3.932125479391899
 21
11.16035597829599
 31
0.0
  0
LINE
  5
F10814
330
261
100
AcDbEntity
  8
Geo
100
AcDbLine
 10
-4.032125479391893
 20
11.04510760011649
 30
0.0
 11
-3.932125479391899
 21
10.97131888420359
 31
0.0
  0
LINE
  5
F10816
330
261
100
AcDbEntity
  8
Geo
100
AcDbLine
 10
-4.032125479391893
 20
9.515113673808793
 30
0.0
 11
-3.932125479391899
 21
9.497358747860491
 31
0.0
  0
LINE
  5
F10818
330
261
100
AcDbEntity
  8
Geo
100
AcDbLine
 10
-4.032125479391893
 20
9.499792759676292
 30
0.0
 11
-3.932125479391899
 21
9.489027296398793
 31
0.0
  0
LINE
  5
F1081A
330
261
100
AcDbEntity
  8
Geo
100
AcDbLine
 10
-3.932125479391899
 20
11.16035597829599
 30
0.0
 11
-3.832125479391905
 21
11.08457910414749
 31
0.0
  0
LINE
  5
F1081C
330
261
100
AcDbEntity
  8
Geo
100
AcDbLine
 10
-3.932125479391899
 20
10.97131888420359
 30
0.0
 11
-3.832125479391905
 21
10.89820625857379
 31
0.0
  0
LINE
  5
F1081E
330
261
100
AcDbEntity
  8
Geo
100
AcDbLine
 10
-3.932125479391899
 20
9.497358747860491
 30
0.0
 11
-3.832125479391905
 21
9.481965235280297
 31
0.0
  0
LINE
  5
F10820
330
261
100
AcDbEntity
  8
Geo
100
AcDbLine
 10
-3.932125479391899
 20
9.489027296398793
 30
0.0
 11
-3.832125479391905
 21
9.480633457526886
 31
0.0
  0
LINE
  5
F10822
330
261
100
AcDbEntity
  8
Geo
100
AcDbLine
 10
-3.832125479391905
 20
11.08457910414749
 30
0.0
 11
-3.732125479391896
 21
11.00930919976399
 31
0.0
  0
LINE
  5
F10824
330
261
100
AcDbEntity
  8
Geo
100
AcDbLine
 10
-3.832125479391905
 20
10.89820625857379
 30
0.0
 11
-3.732125479391896
 21
10.82587889523029
 31
0.0
  0
LINE
  5
F10826
330
261
100
AcDbEntity
  8
Geo
100
AcDbLine
 10
-3.832125479391905
 20
9.481965235280297
 30
0.0
 11
-3.732125479391896
 21
9.468952002376893
 31
0.0
  0
LINE
  5
F10828
330
261
100
AcDbEntity
  8
Geo
100
AcDbLine
 10
-3.832125479391905
 20
9.480633457526886
 30
0.0
 11
-3.732125479391896
 21
9.474621530560591
 31
0.0
  0
LINE
  5
F1082A
330
261
100
AcDbEntity
  8
Geo
100
AcDbLine
 10
-3.732125479391896
 20
11.00930919976399
 30
0.0
 11
-3.632125479391902
 21
10.93465865840449
 31
0.0
  0
LINE
  5
F1082C
330
261
100
AcDbEntity
  8
Geo
100
AcDbLine
 10
-3.732125479391896
 20
10.82587889523029
 30
0.0
 11
-3.632125479391902
 21
10.75444479362039
 31
0.0
  0
LINE
  5
F1082E
330
261
100
AcDbEntity
  8
Geo
100
AcDbLine
 10
-3.732125479391896
 20
9.468952002376893
 30
0.0
 11
-3.632125479391902
 21
9.458334998185693
 31
0.0
  0
LINE
  5
F10830
330
261
100
AcDbEntity
  8
Geo
100
AcDbLine
 10
-3.732125479391896
 20
9.474621530560591
 30
0.0
 11
-3.632125479391902
 21
9.470998883725291
 31
0.0
  0
LINE
  5
F10832
330
261
100
AcDbEntity
  8
Geo
100
AcDbLine
 10
-3.632125479391902
 20
10.93465865840449
 30
0.0
 11
-3.532125479391893
 21
10.86073894849279
 31
0.0
  0
LINE
  5
F10834
330
261
100
AcDbEntity
  8
Geo
100
AcDbLine
 10
-3.632125479391902
 20
10.75444479362039
 30
0.0
 11
-3.532125479391893
 21
10.68401061937009
 31
0.0
  0
LINE
  5
F10836
330
261
100
AcDbEntity
  8
Geo
100
AcDbLine
 10
-3.632125479391902
 20
9.458334998185693
 30
0.0
 11
-3.532125479391893
 21
9.450127234920591
 31
0.0
  0
LINE
  5
F10838
330
261
100
AcDbEntity
  8
Geo
100
AcDbLine
 10
-3.632125479391902
 20
9.470998883725291
 30
0.0
 11
-3.532125479391893
 21
9.46976995694149
 31
0.0
  0
LINE
  5
F1083A
330
261
100
AcDbEntity
  8
Geo
100
AcDbLine
 10
-3.532125479391893
 20
10.86073894849279
 30
0.0
 11
-3.432125479391899
 21
10.78766044717319
 31
0.0
  0
LINE
  5
F1083C
330
261
100
AcDbEntity
  8
Geo
100
AcDbLine
 10
-3.532125479391893
 20
10.68401061937009
 30
0.0
 11
-3.432125479391899
 21
10.61468154501079
 31
0.0
  0
LINE
  5
F1083E
330
261
100
AcDbEntity
  8
Geo
100
AcDbLine
 10
-3.532125479391893
 20
9.450127234920591
 30
0.0
 11
-3.432125479391899
 21
9.444338772026991
 31
0.0
  0
LINE
  5
F10840
330
261
100
AcDbEntity
  8
Geo
100
AcDbLine
 10
-3.432125479391899
 20
10.78766044717319
 30
0.0
 11
-3.332125479391905
 21
10.71553227549449
 31
0.0
  0
LINE
  5
F10842
330
261
100
AcDbEntity
  8
Geo
100
AcDbLine
 10
-3.432125479391899
 20
10.61468154501079
 30
0.0
 11
-3.332125479391905
 21
10.54656109293509
 31
0.0
  0
LINE
  5
F10844
330
261
100
AcDbEntity
  8
Geo
100
AcDbLine
 10
-3.432125479391899
 20
13.37725850889429
 30
0.0
 11
-3.332125479391905
 21
13.37369841264429
 31
0.0
  0
LINE
  5
F10846
330
261
100
AcDbEntity
  8
Geo
100
AcDbLine
 10
-3.432125479391899
 20
9.444338772026991
 30
0.0
 11
-3.332125479391905
 21
9.440976703852392
 31
0.0
  0
LINE
  5
F10848
330
261
100
AcDbEntity
  8
Geo
100
AcDbLine
 10
-3.332125479391905
 20
10.71553227549449
 30
0.0
 11
-3.232125479391896
 21
10.64446213547029
 31
0.0
  0
LINE
  5
F1084A
330
261
100
AcDbEntity
  8
Geo
100
AcDbLine
 10
-3.332125479391905
 20
10.54656109293509
 30
0.0
 11
-3.232125479391896
 21
10.47975098081699
 31
0.0
  0
LINE
  5
F1084C
330
261
100
AcDbEntity
  8
Geo
100
AcDbLine
 10
-3.332125479391905
 20
13.37369841264429
 30
0.0
 11
-3.232125479391896
 21
13.36774888284509
 31
0.0
  0
LINE
  5
F1085A
330
261
100
AcDbEntity
  8
Geo
100
AcDbLine
 10
-14.23212547939189
 20
11.42409738263899
 30
0.0
 11
-14.23212547939189
 21
11.42409738263899
 31
0.0
  0
LINE
  5
F1085C
330
261
100
AcDbEntity
  8
Geo
100
AcDbLine
 10
-14.23212547939189
 20
11.42409738263899
 30
0.0
 11
-14.23212547939189
 21
11.42409738263899
 31
0.0
  0
LINE
  5
F1085E
330
261
100
AcDbEntity
  8
Geo
100
AcDbLine
 10
42.7678745206081
 20
14.02409738263899
 30
0.0
 11
42.7678745206081
 21
11.42409738263899
 31
0.0
  0
LINE
  5
F10860
330
261
100
AcDbEntity
  8
Geo
100
AcDbLine
 10
-14.23212547939189
 20
11.42409738263899
 30
0.0
 11
-14.23212547939189
 21
9.524097382638991
 31
0.0
  0
LINE
  5
F10862
330
261
100
AcDbEntity
  8
Geo
100
AcDbLine
 10
-14.23212547939189
 20
9.524097382638991
 30
0.0
 11
-14.1321254793919
 21
9.424097382638992
 31
0.0
  0
LINE
  5
F10864
330
261
100
AcDbEntity
  8
Geo
100
AcDbLine
 10
-14.1321254793919
 20
9.424097382638992
 30
0.0
 11
-0.2321254793918896
 21
9.424097382638992
 31
0.0
  0
LINE
  5
F1086A
330
261
100
AcDbEntity
  8
Geo
100
AcDbLine
 10
-0.232125479391889
 20
9.424097382638992
 30
0.0
 11
3.499925328176987
 21
8.424097382638992
 31
0.0
  0
LINE
  5
F1086C
330
261
100
AcDbEntity
  8
Geo
100
AcDbLine
 10
3.499925328176988
 20
8.424097382638992
 30
0.0
 11
42.36787452060809
 21
8.424097382638992
 31
0.0
  0
LINE
  5
F1086E
330
261
100
AcDbEntity
  8
Geo
100
AcDbLine
 10
42.36787452060809
 20
8.424097382638992
 30
0.0
 11
42.7678745206081
 21
8.824097382638992
 31
0.0
  0
LINE
  5
F10870
330
261
100
AcDbEntity
  8
Geo
100
AcDbLine
 10
-14.23212547939189
 20
13.32409738263899
 30
0.0
 11
-14.23212547939189
 21
9.524097382638991
 31
0.0
  0
LINE
  5
F10872
330
261
100
AcDbEntity
  8
Geo
100
AcDbLine
 10
-14.1321254793919
 20
13.42409738263899
 30
0.0
 11
-14.1321254793919
 21
9.424097382638992
 31
0.0
  0
LINE
  5
F1087A
330
261
100
AcDbEntity
  8
Geo
100
AcDbLine
 10
6.767874520608102
 20
14.42409738263899
 30
0.0
 11
6.767874520608102
 21
8.424097382638992
 31
0.0
  0
LINE
  5
F1087C
330
261
100
AcDbEntity
  8
Geo
100
AcDbLine
 10
42.36787452060809
 20
14.42409738263899
 30
0.0
 11
42.36787452060809
 21
8.424097382638992
 31
0.0
  0
LINE
  5
F1087E
330
261
100
AcDbEntity
  8
Geo
100
AcDbLine
 10
42.7678745206081
 20
14.02409738263899
 30
0.0
 11
42.7678745206081
 21
8.824097382638992
 31
0.0
  0
TEXT
  5
F108AA
330
261
100
AcDbEntity
  8
Text
100
AcDbText
 10
-18.7694300518135
 20
-51.6303972366148
 30
0.0
 40
2.0
  1

100
AcDbText
  0
TEXT
  5
F108BA
330
261
100
AcDbEntity
  8
Text
100
AcDbText
 10
-18.7694300518135
 20
-59.7910189982729
 30
0.0
 40
2.0
  1

100
AcDbText
  0
TEXT
  5
F1095E
330
261
100
AcDbEntity
  8
Text
100
AcDbText
 10
91.12694300518127
 20
-64.29274611398961
 30
0.0
 40
1.5
  1

100
AcDbText
  0
TEXT
  5
F10962
330
261
100
AcDbEntity
  8
Text
100
AcDbText
 10
121.321243523316
 20
-64.29274611398961
 30
0.0
 40
1.5
  1

100
AcDbText
  0
TEXT
  5
F10966
330
261
100
AcDbEntity
  8
Text
100
AcDbText
 10
91.12694300518127
 20
-67.28497409326429
 30
0.0
 40
1.5
  1

100
AcDbText
  0
TEXT
  5
F1096A
330
261
100
AcDbEntity
  8
Text
100
AcDbText
 10
121.321243523316
 20
-67.28497409326429
 30
0.0
 40
1.5
  1

100
AcDbText
  0
LWPOLYLINE
  5
F10974
330
261
100
AcDbEntity
  8
Rahmen
100
AcDbPolyline
 90
        4
 70
     1
 43
0.0
 10
-134.650259067358
 20
99.8316062176166
 10
143.354922279793
 20
99.8316062176166
 10
143.354922279793
 20
-100.103626943005
 10
-134.650259067358
 20
-100.103626943005
  0
LWPOLYLINE
  5
F10978
330
261
100
AcDbEntity
  8
Rahmen
100
AcDbPolyline
 90
        4
 70
     1
 43
0.0
 10
103.367875647668
 20
-97.11139896373062
 10
143.354922279793
 20
-97.11139896373062
 10
143.354922279793
 20
-100.103626943005
 10
103.367875647668
 20
-100.103626943005
  0
TEXT
  5
F1097A
330
261
100
AcDbEntity
  8
Text
100
AcDbText
 10
104.455958549223
 20
-98.11139896373061
 30
0.0
 40
0.75
  1
Ers. durch:
100
AcDbText
  0
LWPOLYLINE
  5
F1097E
330
261
100
AcDbEntity
  8
Rahmen
100
AcDbPolyline
 90
        4
 70
     1
 43
0.0
 10
63.380829015544
 20
-97.11139896373062
 10
103.367875647668
 20
-97.11139896373062
 10
103.367875647668
 20
-100.103626943005
 10
63.380829015544
 20
-100.103626943005
  0
TEXT
  5
F10980
330
261
100
AcDbEntity
  8
Text
100
AcDbText
 10
64.46891191709839
 20
-98.11139896373061
 30
0.0
 40
0.75
  1
Ers. für:
100
AcDbText
  0
TEXT
  5
F10982
330
261
100
AcDbEntity
  8
Text
100
AcDbText
 10
91.39896373056991
 20
-99.4715025906736
 30
0.0
 40
0.75
  1

100
AcDbText
  0
LWPOLYLINE
  5
F10984
330
261
100
AcDbEntity
  8
Rahmen
100
AcDbPolyline
 90
        4
 70
     1
 43
0.0
 10
130.025906735751
 20
-94.119170984456
 10
143.354922279793
 20
-94.119170984456
 10
143.354922279793
 20
-97.11139896373062
 10
130.025906735751
 20
-97.11139896373062
  0
TEXT
  5
F10986
330
261
100
AcDbEntity
  8
Text
100
AcDbText
 10
131.113989637306
 20
-95.119170984456
 30
0.0
 40
0.75
  1
Blätter
100
AcDbText
  0
TEXT
  5
F10988
330
261
100
AcDbEntity
  8
Text
100
AcDbText
 10
141.178756476684
 20
-96.479274611399
 30
0.0
 40
0.75
  1

100
AcDbText
  0
LWPOLYLINE
  5
F1098A
330
261
100
AcDbEntity
  8
Rahmen
100
AcDbPolyline
 90
        4
 70
     1
 43
0.0
 10
130.025906735751
 20
-91.12694300518127
 10
143.354922279793
 20
-91.12694300518127
 10
143.354922279793
 20
-94.119170984456
 10
130.025906735751
 20
-94.119170984456
  0
TEXT
  5
F1098C
330
261
100
AcDbEntity
  8
Text
100
AcDbText
 10
131.113989637306
 20
-92.12694300518128
 30
0.0
 40
0.75
  1
Blatt
100
AcDbText
  0
TEXT
  5
F1098E
330
261
100
AcDbEntity
  8
Text
100
AcDbText
 10
141.178756476684
 20
-93.48704663212428
 30
0.0
 40
0.75
  1

100
AcDbText
  0
LWPOLYLINE
  5
F10990
330
261
100
AcDbEntity
  8
Rahmen
100
AcDbPolyline
 90
        4
 70
     1
 43
0.0
 10
63.380829015544
 20
-91.12694300518127
 10
130.025906735751
 20
-91.12694300518127
 10
130.025906735751
 20
-97.11139896373062
 10
63.380829015544
 20
-97.11139896373062
  0
TEXT
  5
F10992
330
261
100
AcDbEntity
  8
Text
100
AcDbText
 10
64.46891191709839
 20
-92.12694300518128
 30
0.0
 40
0.75
  1
Datum:
100
AcDbText
  0
TEXT
  5
F10994
330
261
100
AcDbEntity
  8
Text
100
AcDbText
 10
91.67098445595859
 20
-95.119170984456
 30
0.0
 40
0.75
  1
17.12.2014
100
AcDbText
  0
LWPOLYLINE
  5
F10996
330
261
100
AcDbEntity
  8
Rahmen
100
AcDbPolyline
 90
        4
 70
     1
 43
0.0
 10
63.380829015544
 20
-85.14248704663208
 10
143.354922279793
 20
-85.14248704663208
 10
143.354922279793
 20
-91.12694300518127
 10
63.380829015544
 20
-91.12694300518127
  0
TEXT
  5
F10998
330
261
100
AcDbEntity
  8
Text
100
AcDbText
 10
-208.09585492228
 20
103.0
 30
0.0
 40
1.5
  1

100
AcDbText
  0
TEXT
  5
F1099A
330
261
100
AcDbEntity
  8
Text
100
AcDbText
 10
95.25859375298493
 20
-89.26118129362476
 30
0.0
 40
2.5
  1
9000-040
100
AcDbText
  0
LWPOLYLINE
  5
F1099C
330
261
100
AcDbEntity
  8
Rahmen
100
AcDbPolyline
 90
        4
 70
     1
 43
0.0
 10
103.367875647668
 20
-79.1580310880829
 10
143.354922279793
 20
-79.1580310880829
 10
143.354922279793
 20
-85.14248704663208
 10
103.367875647668
 20
-85.14248704663208
  0
TEXT
  5
F1099E
330
261
100
AcDbEntity
  8
Text
100
AcDbText
 10
104.455958549223
 20
-80.1580310880829
 30
0.0
 40
0.75
  1
Zu bearb. Material:
100
AcDbText
  0
LWPOLYLINE
  5
F109A2
330
261
100
AcDbEntity
  8
Rahmen
100
AcDbPolyline
 90
        4
 70
     1
 43
0.0
 10
63.380829015544
 20
-79.1580310880829
 10
103.367875647668
 20
-79.1580310880829
 10
103.367875647668
 20
-85.14248704663208
 10
63.380829015544
 20
-85.14248704663208
  0
TEXT
  5
F109A4
330
261
100
AcDbEntity
  8
Text
100
AcDbText
 10
64.46891191709839
 20
-80.1580310880829
 30
0.0
 40
0.75
  1
Werkstoff:
100
AcDbText
  0
LWPOLYLINE
  5
F109A8
330
261
100
AcDbEntity
  8
Rahmen
100
AcDbPolyline
 90
        4
 70
     1
 43
0.0
 10
103.367875647668
 20
-76.16580310880832
 10
143.354922279793
 20
-76.16580310880832
 10
143.354922279793
 20
-79.1580310880829
 10
103.367875647668
 20
-79.1580310880829
  0
TEXT
  5
F109AA
330
261
100
AcDbEntity
  8
Text
100
AcDbText
 10
-208.09585492228
 20
103.0
 30
0.0
 40
1.5
  1

100
AcDbText
  0
LWPOLYLINE
  5
F109AE
330
261
100
AcDbEntity
  8
Rahmen
100
AcDbPolyline
 90
        4
 70
     1
 43
0.0
 10
63.380829015544
 20
-76.16580310880832
 10
103.367875647668
 20
-76.16580310880832
 10
103.367875647668
 20
-79.1580310880829
 10
63.380829015544
 20
-79.1580310880829
  0
TEXT
  5
F109B0
330
261
100
AcDbEntity
  8
Text
100
AcDbText
 10
64.46891191709839
 20
-77.1658031088083
 30
0.0
 40
0.75
  1
Maßstab:
100
AcDbText
  0
TEXT
  5
F109B2
330
261
100
AcDbEntity
  8
Text
100
AcDbText
 10
89.49481865284978
 20
-77.1658031088083
 30
0.0
 40
0.75
  1
1 : 1
100
AcDbText
  0
LINE
  5
F10D79
330
261
100
AcDbEntity
  8
0
100
AcDbLine
 10
-0.2321254793918883
 20
13.42409738263899
 30
0.0
 11
-0.2321254793918883
 21
9.424097382638992
 31
0.0
  0
LINE
  5
F10D7B
330
261
100
AcDbEntity
  8
0
100
AcDbLine
 10
3.499925328176987
 20
14.42409738263899
 30
0.0
 11
3.499925328176987
 21
8.424097382638992
 31
0.0
  0
VIEWPORT
  5
294
102
{ACAD_XDICTIONARY
360
F10E6A
102
}
330
25D
100
AcDbEntity
 67
     1
  8
0
 60
     1
100
AcDbViewport
 10
0.0
 20
0.0
 30
0.0
 40
10.0
 41
10.0
 68
    -1
 69
     1
 12
0.0
 22
0.0
 13
0.0
 23
0.0
 14
1.0
 24
1.0
 15
0.0
 25
0.0
 16
0.0
 26
0.0
 36
1.0
 17
0.0
 27
0.0
 37
0.0
 42
0.0
 43
0.0
 44
0.0
 45
10.0
 50
0.0
 51
0.0000000000007958
 72
   100
 90
    32800
  1

281
     0
 71
     0
 74
     0
110
0.0
120
0.0
130
0.0
111
1.0
121
0.0
131
0.0
112
0.0
122
1.0
132
0.0
 79
     0
146
0.0
1001
VD_INVISIBLE_NOT_FOR_READ
1000
VD_INVISIBLE_NOT_FOR_READ
1001
GENIUS_GENODEF_13
1002
{
1000
HIER
1070
     0
1002
}
1002
{
1000
MANEDIT
1070
     0
1002
}
1002
{
1000
NOSEL
1070
     0
1002
}
1002
{
1000
BEHIND
1070
     0
1002
}
1002
{
1000
OTHER
1070
     0
1002
}
1002
{
1000
REACTOR
1002
}
1001
GENIUS_GENOBJ-N-SDF_13
1002
{
1000
OWNER
1000
GEN
1002
}
1001
GENIUS_GENSCREG_15
1000
PF
1040
1.0
1000
DF
1040
1.0
1000
MIN
1011
-5.0
1021
-5.0
1031
0.0
1000
MAX
1011
5.0
1021
5.0
1031
0.0
1000
FLAGS
1070
     4
  0
VIEWPORT
  5
295
102
{ACAD_XDICTIONARY
360
F10E6C
102
}
330
25D
100
AcDbEntity
 67
     1
  8
0
 60
     1
100
AcDbViewport
 10
0.0
 20
0.0
 30
0.0
 40
10.0
 41
10.0
 68
     0
 69
     2
 12
0.0
 22
0.0
 13
0.0
 23
0.0
 14
1.0
 24
1.0
 15
0.0
 25
0.0
 16
0.0
 26
0.0
 36
1.0
 17
0.0
 27
0.0
 37
0.0
 42
0.0
 43
0.0
 44
0.0
 45
10.0
 50
0.0
 51
0.0000000000007958
 72
   100
 90
   163872
  1

281
     0
 71
     0
 74
     0
110
0.0
120
0.0
130
0.0
111
1.0
121
0.0
131
0.0
112
0.0
122
1.0
132
0.0
 79
     0
146
0.0
1001
VD_INVISIBLE_NOT_FOR_READ
1000
VD_INVISIBLE_NOT_FOR_READ
1001
GENIUS_GENOBJ-N-SDF_13
1002
{
1000
OWNER
1000
GEN
1002
}
1001
GENIUS_GENODEF_13
1002
{
1000
HIER
1070
     0
1002
}
1002
{
1000
MANEDIT
1070
     0
1002
}
1002
{
1000
NOSEL
1070
     0
1002
}
1002
{
1000
BEHIND
1070
     0
1002
}
1002
{
1000
OTHER
1070
     0
1002
}
1002
{
1000
REACTOR
1002
}
1001
GENIUS_GENSCREG_15
1000
PF
1040
1.0
1000
DF
1040
1.0
1000
MIN
1011
-5.0
1021
-5.0
1031
0.0
1000
MAX
1011
5.0
1021
5.0
1031
0.0
1000
FLAGS
1070
     4
  0
ENDSEC
  0
SECTION
  2
OBJECTS
  0
DICTIONARY
  5
13
330
0
100
AcDbDictionary
281
     1
  3
ACAD_2007HEADERVARS_RT
350
F10E65
  3
ACAD_COLOR
350
FA7
  3
ACAD_GROUP
350
14
  3
ACAD_LAYOUT
350
FCF
  3
ACAD_MATERIAL
350
F7A
  3
ACAD_MLEADERSTYLE
350
FCD
  3
ACAD_MLINESTYLE
350
16
  3
ACAD_PLOTSETTINGS
350
17
  3
ACAD_PLOTSTYLENAME
350
18
  3
ACAD_SCALELIST
350
FAB
  3
ACAD_TABLESTYLE
350
FA8
  3
ACAD_VISUALSTYLE
350
F93
  3
ACDB_RECOMPOSE_DATA
350
F10E63
  3
AcDbVariableDictionary
350
F10C5D
  3
AcmDictionary
350
F10A09
  3
AMG
350
F109BD
  3
AMGSNAPSETTINGS
350
F10A4A
  3
DWGPROPS
350
F10E64
  0
DICTIONARY
  5
F10D8C
330
252
100
AcDbDictionary
280
     1
281
     1
  3
ADSK_XREC_LAYER_RECONCILED
360
F10D8D
  0
DICTIONARY
  5
F10D8E
330
23F
100
AcDbDictionary
280
     1
281
     1
  3
ADSK_XREC_LAYER_RECONCILED
360
F10D8F
  0
DICTIONARY
  5
F10D90
330
240
100
AcDbDictionary
280
     1
281
     1
  3
ADSK_XREC_LAYER_RECONCILED
360
F10D91
  0
DICTIONARY
  5
F10D92
330
241
100
AcDbDictionary
280
     1
281
     1
  3
ADSK_XREC_LAYER_RECONCILED
360
F10D93
  0
DICTIONARY
  5
F10D94
330
57E
100
AcDbDictionary
280
     1
281
     1
  3
ADSK_XREC_LAYER_RECONCILED
360
F10D95
  0
DICTIONARY
  5
F10E6E
330
296
100
AcDbDictionary
280
     1
281
     1
  3
ACAD_XREC_ROUNDTRIP
360
F10E6F
  0
DICTIONARY
  5
F10E70
330
297
100
AcDbDictionary
280
     1
281
     1
  3
ACAD_XREC_ROUNDTRIP
360
F10E71
  0
DICTIONARY
  5
F10E61
330
F10A79
100
AcDbDictionary
280
     1
281
     1
  3
ACAD_MTEXT_2008_RT
360
F10E62
  3
ACAD_MTEXT_RT
360
F10EAB
  0
DICTIONARY
  5
F10E6A
330
294
100
AcDbDictionary
280
     1
281
     1
  3
ACAD_XREC_ROUNDTRIP
360
F10E6B
  0
DICTIONARY
  5
F10E6C
330
295
100
AcDbDictionary
280
     1
281
     1
  3
ACAD_XREC_ROUNDTRIP
360
F10E6D
  0
DICTIONARY
  5
F10E65
102
{ACAD_REACTORS
330
13
102
}
330
13
100
AcDbDictionary
281
     1
  3
DIMARCSYM
350
F10E66
  3
DIMLTEX1
350
F10E68
  3
DIMLTEX2
350
F10E69
  3
DIMLTYPE
350
F10E67
  0
DICTIONARY
  5
FA7
102
{ACAD_REACTORS
330
13
102
}
330
13
100
AcDbDictionary
281
     1
  0
DICTIONARY
  5
14
330
13
100
AcDbDictionary
281
     1
  0
DICTIONARY
  5
FCF
102
{ACAD_REACTORS
330
13
102
}
330
13
100
AcDbDictionary
281
     1
  3
Layout1
350
FD1
  3
Model
350
FD0
  0
DICTIONARY
  5
F7A
102
{ACAD_REACTORS
330
13
102
}
330
13
100
AcDbDictionary
281
     1
  3
ByBlock
350
F83
  3
ByLayer
350
F7B
  3
Global
350
F8B
  0
DICTIONARY
  5
FCD
102
{ACAD_REACTORS
330
13
102
}
330
13
100
AcDbDictionary
281
     1
  3
Standard
350
FCE
  0
DICTIONARY
  5
16
330
13
100
AcDbDictionary
281
     1
  3
Standard
350
FAA
  0
DICTIONARY
  5
17
102
{ACAD_REACTORS
330
13
102
}
330
13
100
AcDbDictionary
281
     1
  0
ACDBDICTIONARYWDFLT
  5
18
102
{ACAD_REACTORS
330
13
102
}
330
13
100
AcDbDictionary
281
     1
  3
Normal
350
19
100
AcDbDictionaryWithDefault
340
19
  0
DICTIONARY
  5
FAB
102
{ACAD_REACTORS
330
13
102
}
330
13
100
AcDbDictionary
281
     1
  3
A0
350
FAC
  3
A1
350
FAD
  3
A2
350
FAE
  3
A3
350
FAF
  3
A4
350
FB0
  3
A5
350
FB1
  3
A6
350
FB2
  3
A7
350
FB3
  3
A8
350
FB4
  3
A9
350
FB5
  3
B0
350
FB6
  3
B1
350
FB7
  3
B2
350
FB8
  3
B3
350
FB9
  3
B4
350
FBA
  3
B5
350
FBB
  3
B6
350
FBC
  3
B7
350
FBD
  3
B8
350
FBE
  3
B9
350
FBF
  3
C0
350
FC0
  3
C1
350
FC1
  3
C2
350
FC2
  3
C3
350
FC3
  3
C4
350
FC4
  3
C5
350
FC5
  3
C6
350
FC6
  3
C7
350
FC7
  3
C8
350
FC8
  3
C9
350
FC9
  3
D0
350
FCA
  3
D1
350
FCB
  3
D2
350
FCC
  0
DICTIONARY
  5
FA8
102
{ACAD_REACTORS
330
13
102
}
330
13
100
AcDbDictionary
281
     1
  3
Standard
350
FA9
  0
DICTIONARY
  5
F93
102
{ACAD_REACTORS
330
13
102
}
330
13
100
AcDbDictionary
281
     1
  3
2dWireframe
350
F99
  3
3D Hidden
350
F9B
  3
3dWireframe
350
F9A
  3
Basic
350
F98
  3
Brighten
350
F9F
  3
ColorChange
350
FA3
  3
Conceptual
350
F9C
  3
Dim
350
F9E
  3
EdgeColorOff
350
FA6
  3
Facepattern
350
FA2
  3
Flat
350
F94
  3
FlatWithEdges
350
F95
  3
Gouraud
350
F96
  3
GouraudWithEdges
350
F97
  3
Hidden
350
F109B5
  3
JitterOff
350
FA4
  3
Linepattern
350
FA1
  3
OverhangOff
350
FA5
  3
Realistic
350
F9D
  3
Shaded
350
F109BA
  3
Shaded with edges
350
F109B9
  3
Shades of Gray
350
F109B6
  3
Sketchy
350
F109B7
  3
Thicken
350
FA0
  3
Wireframe
350
F109B4
  3
X-Ray
350
F109B8
  0
XRECORD
  5
F10E63
102
{ACAD_REACTORS
330
13
102
}
330
13
100
AcDbXrecord
280
     1
 90
        1
330
FA9
330
F10A79
  0
DICTIONARY
  5
F10C5D
102
{ACAD_REACTORS
330
13
102
}
330
13
100
AcDbDictionary
281
     1
  3
CANNOSCALE
350
F10C60
  3
CMLEADERSTYLE
350
F10C5F
  3
CTABLESTYLE
350
F10C5E
  3
DIMASSOC
350
F10C63
  3
INDEXCTL
350
F10C62
  3
SORTENTS
350
F10C61
  3
XCLIPFRAME
350
F10E5F
  0
DICTIONARY
  5
F10A09
102
{ACAD_REACTORS
330
13
102
}
330
13
100
AcDbDictionary
281
     1
  3
AcmStdDictionary
350
F10A14
  0
DICTIONARY
  5
F109BD
102
{ACAD_REACTORS
330
13
102
}
330
13
100
AcDbDictionary
281
     1
  0
DICTIONARY
  5
F10A4A
102
{ACAD_REACTORS
330
13
102
}
330
13
100
AcDbDictionary
281
     1
  0
XRECORD
  5
F10E64
102
{ACAD_REACTORS
330
13
102
}
330
13
100
AcDbXrecord
280
     1
  1
DWGPROPS COOKIE
  2

  3

  4

  6

  7

  8
Steigner
  9

300
=
301
=
302
=
303
=
304
=
305
=
306
=
307
=
308
=
309
=
 40
0.0102437847222222
 41
2457010.644155209
 42
2457011.401155266
  1

 90
        0
  0
XRECORD
  5
F10D8D
102
{ACAD_REACTORS
330
F10D8C
102
}
330
F10D8C
100
AcDbXrecord
280
     1
290
     1
  0
XRECORD
  5
F10D8F
102
{ACAD_REACTORS
330
F10D8E
102
}
330
F10D8E
100
AcDbXrecord
280
     1
290
     1
  0
XRECORD
  5
F10D91
102
{ACAD_REACTORS
330
F10D90
102
}
330
F10D90
100
AcDbXrecord
280
     1
290
     1
  0
XRECORD
  5
F10D93
102
{ACAD_REACTORS
330
F10D92
102
}
330
F10D92
100
AcDbXrecord
280
     1
290
     1
  0
XRECORD
  5
F10D95
102
{ACAD_REACTORS
330
F10D94
102
}
330
F10D94
100
AcDbXrecord
280
     1
290
     1
  0
XRECORD
  5
F10E6F
102
{ACAD_REACTORS
330
F10E6E
102
}
330
F10E6E
100
AcDbXrecord
280
     1
102
SHADEPLOT
 70
     0
  0
XRECORD
  5
F10E71
102
{ACAD_REACTORS
330
F10E70
102
}
330
F10E70
100
AcDbXrecord
280
     1
102
SHADEPLOT
 70
     0
  0
XRECORD
  5
F10E62
102
{ACAD_REACTORS
330
F10E61
102
}
330
F10E61
100
AcDbXrecord
280
     1
 40
30538.0
  1
\A1;15°{\H1.250000;\S+5°~.+5°;}
  0
XRECORD
  5
F10EAB
102
{ACAD_REACTORS
330
F10E61
102
}
330
F10E61
100
AcDbXrecord
280
     1
 40
28765.0
  1
\A1;15°{\H0.5x;\S+5°^ +5°;}
  0
XRECORD
  5
F10E6B
102
{ACAD_REACTORS
330
F10E6A
102
}
330
F10E6A
100
AcDbXrecord
280
     1
102
SHADEPLOT
 70
     0
  0
XRECORD
  5
F10E6D
102
{ACAD_REACTORS
330
F10E6C
102
}
330
F10E6C
100
AcDbXrecord
280
     1
102
SHADEPLOT
 70
     0
  0
XRECORD
  5
F10E66
102
{ACAD_REACTORS
330
F10E65
102
}
330
F10E65
100
AcDbXrecord
280
     1
 70
     1
  0
XRECORD
  5
F10E68
102
{ACAD_REACTORS
330
F10E65
102
}
330
F10E65
100
AcDbXrecord
280
     1
340
256
  0
XRECORD
  5
F10E69
102
{ACAD_REACTORS
330
F10E65
102
}
330
F10E65
100
AcDbXrecord
280
     1
340
256
  0
XRECORD
  5
F10E67
102
{ACAD_REACTORS
330
F10E65
102
}
330
F10E65
100
AcDbXrecord
280
     1
340
256
  0
LAYOUT
  5
FD1
102
{ACAD_XDICTIONARY
360
F10E9B
102
}
102
{ACAD_REACTORS
330
FCF
102
}
330
FCF
100
AcDbPlotSettings
  1

  2
Microsoft XPS Document Writer
  4

  6

 40
0.0
 41
0.0
 42
0.0
 43
0.0
 44
0.0
 45
0.0
 46
0.0
 47
0.0
 48
0.0
 49
0.0
140
0.0
141
0.0
142
1.0
143
1.0
 70
   688
 72
     0
 73
     0
 74
     5
  7

 75
    16
147
1.0
148
0.0
149
0.0
100
AcDbLayout
  1
Layout1
 70
     1
 71
     1
 10
0.0
 20
0.0
 11
12.0
 21
9.0
 12
0.0
 22
0.0
 32
0.0
 14
1.000000000000000E+20
 24
1.000000000000000E+20
 34
1.000000000000000E+20
 15
-1.000000000000000E+20
 25
-1.000000000000000E+20
 35
-1.000000000000000E+20
146
0.0
 13
0.0
 23
0.0
 33
0.0
 16
1.0
 26
0.0
 36
0.0
 17
0.0
 27
1.0
 37
0.0
 76
     0
330
25D
  0
LAYOUT
  5
FD0
102
{ACAD_XDICTIONARY
360
F10E99
102
}
102
{ACAD_REACTORS
330
FCF
102
}
330
FCF
100
AcDbPlotSettings
  1

  2
Microsoft XPS Document Writer
  4

  6

 40
0.0
 41
0.0
 42
0.0
 43
0.0
 44
0.0
 45
0.0
 46
0.0
 47
0.0
 48
0.0
 49
0.0
140
0.0
141
0.0
142
1.0
143
1.0
 70
  1712
 72
     0
 73
     0
 74
     0
  7

 75
     0
147
1.0
148
0.0
149
0.0
100
AcDbLayout
  1
Model
 70
     1
 71
     0
 10
0.0
 20
0.0
 11
12.0
 21
9.0
 12
0.0
 22
0.0
 32
0.0
 14
0.0
 24
0.0
 34
0.0
 15
0.0
 25
0.0
 35
0.0
146
0.0
 13
0.0
 23
0.0
 33
0.0
 16
1.0
 26
0.0
 36
0.0
 17
0.0
 27
1.0
 37
0.0
 76
     0
330
261
331
26B
  0
MATERIAL
  5
F83
102
{ACAD_XDICTIONARY
360
F84
102
}
102
{ACAD_REACTORS
330
F7A
102
}
330
F7A
100
AcDbMaterial
  1
ByBlock
 72
     0
 43
0.0208333333333333
 43
0.0
 43
0.0
 43
0.0
 43
0.0
 43
0.0208333333333333
 43
0.0
 43
0.0
 43
0.0
 43
0.0
 43
1.0
 43
0.0
 43
0.0
 43
0.0
 43
0.0
 43
1.0
 77
     0
 47
0.0208333333333333
 47
0.0
 47
0.0
 47
0.0
 47
0.0
 47
0.0208333333333333
 47
0.0
 47
0.0
 47
0.0
 47
0.0
 47
1.0
 47
0.0
 47
0.0
 47
0.0
 47
0.0
 47
1.0
171
     0
 49
0.0208333333333333
 49
0.0
 49
0.0
 49
0.0
 49
0.0
 49
0.0208333333333333
 49
0.0
 49
0.0
 49
0.0
 49
0.0
 49
1.0
 49
0.0
 49
0.0
 49
0.0
 49
0.0
 49
1.0
175
     0
142
0.0208333333333333
142
0.0
142
0.0
142
0.0
142
0.0
142
0.0208333333333333
142
0.0
142
0.0
142
0.0
142
0.0
142
1.0
142
0.0
142
0.0
142
0.0
142
0.0
142
1.0
179
     0
144
0.0208333333333333
144
0.0
144
0.0
144
0.0
144
0.0
144
0.0208333333333333
144
0.0
144
0.0
144
0.0
144
0.0
144
1.0
144
0.0
144
0.0
144
0.0
144
0.0
144
1.0
147
0.0208333333333333
147
0.0
147
0.0
147
0.0
147
0.0
147
0.0208333333333333
147
0.0
147
0.0
147
0.0
147
0.0
147
1.0
147
0.0
147
0.0
147
0.0
147
0.0
147
1.0
  0
MATERIAL
  5
F7B
102
{ACAD_XDICTIONARY
360
F7C
102
}
102
{ACAD_REACTORS
330
F7A
102
}
330
F7A
100
AcDbMaterial
  1
ByLayer
 72
     0
 43
0.0208333333333333
 43
0.0
 43
0.0
 43
0.0
 43
0.0
 43
0.0208333333333333
 43
0.0
 43
0.0
 43
0.0
 43
0.0
 43
1.0
 43
0.0
 43
0.0
 43
0.0
 43
0.0
 43
1.0
 77
     0
 47
0.0208333333333333
 47
0.0
 47
0.0
 47
0.0
 47
0.0
 47
0.0208333333333333
 47
0.0
 47
0.0
 47
0.0
 47
0.0
 47
1.0
 47
0.0
 47
0.0
 47
0.0
 47
0.0
 47
1.0
171
     0
 49
0.0208333333333333
 49
0.0
 49
0.0
 49
0.0
 49
0.0
 49
0.0208333333333333
 49
0.0
 49
0.0
 49
0.0
 49
0.0
 49
1.0
 49
0.0
 49
0.0
 49
0.0
 49
0.0
 49
1.0
175
     0
142
0.0208333333333333
142
0.0
142
0.0
142
0.0
142
0.0
142
0.0208333333333333
142
0.0
142
0.0
142
0.0
142
0.0
142
1.0
142
0.0
142
0.0
142
0.0
142
0.0
142
1.0
179
     0
144
0.0208333333333333
144
0.0
144
0.0
144
0.0
144
0.0
144
0.0208333333333333
144
0.0
144
0.0
144
0.0
144
0.0
144
1.0
144
0.0
144
0.0
144
0.0
144
0.0
144
1.0
147
0.0208333333333333
147
0.0
147
0.0
147
0.0
147
0.0
147
0.0208333333333333
147
0.0
147
0.0
147
0.0
147
0.0
147
1.0
147
0.0
147
0.0
147
0.0
147
0.0
147
1.0
  0
MATERIAL
  5
F8B
102
{ACAD_XDICTIONARY
360
F8C
102
}
102
{ACAD_REACTORS
330
F7A
102
}
330
F7A
100
AcDbMaterial
  1
Global
 72
     0
 43
0.0208333333333333
 43
0.0
 43
0.0
 43
0.0
 43
0.0
 43
0.0208333333333333
 43
0.0
 43
0.0
 43
0.0
 43
0.0
 43
1.0
 43
0.0
 43
0.0
 43
0.0
 43
0.0
 43
1.0
 77
     0
 47
0.0208333333333333
 47
0.0
 47
0.0
 47
0.0
 47
0.0
 47
0.0208333333333333
 47
0.0
 47
0.0
 47
0.0
 47
0.0
 47
1.0
 47
0.0
 47
0.0
 47
0.0
 47
0.0
 47
1.0
171
     0
 49
0.0208333333333333
 49
0.0
 49
0.0
 49
0.0
 49
0.0
 49
0.0208333333333333
 49
0.0
 49
0.0
 49
0.0
 49
0.0
 49
1.0
 49
0.0
 49
0.0
 49
0.0
 49
0.0
 49
1.0
175
     0
142
0.0208333333333333
142
0.0
142
0.0
142
0.0
142
0.0
142
0.0208333333333333
142
0.0
142
0.0
142
0.0
142
0.0
142
1.0
142
0.0
142
0.0
142
0.0
142
0.0
142
1.0
179
     0
144
0.0208333333333333
144
0.0
144
0.0
144
0.0
144
0.0
144
0.0208333333333333
144
0.0
144
0.0
144
0.0
144
0.0
144
1.0
144
0.0
144
0.0
144
0.0
144
0.0
144
1.0
147
0.0208333333333333
147
0.0
147
0.0
147
0.0
147
0.0
147
0.0208333333333333
147
0.0
147
0.0
147
0.0
147
0.0
147
1.0
147
0.0
147
0.0
147
0.0
147
0.0
147
1.0
  0
MLEADERSTYLE
  5
FCE
102
{ACAD_REACTORS
330
FCD
102
}
330
FCD
100
AcDbMLeaderStyle
170
     2
171
     1
172
     0
 90
        2
 40
0.0
 41
0.0
173
     1
 91
-1056964608
340
256
 92
       -2
290
     1
 42
0.09
291
     1
 43
0.36
  3
Standard
 44
0.18
300

342
253
174
     1
178
     6
175
     1
176
     0
 93
-1056964608
 45
0.18
292
     0
297
     0
 46
0.18
 94
-1056964608
 47
1.0
 49
1.0
140
1.0
293
     1
141
0.0
294
     1
177
     0
142
1.0
295
     0
296
     0
143
0.125
1001
ACAD_MLEADERVER
1070
     2
  0
MLINESTYLE
  5
FAA
102
{ACAD_REACTORS
330
16
102
}
330
16
100
AcDbMlineStyle
  2
STANDARD
 70
     0
  3

 62
   256
 51
90.0
 52
90.0
 71
     2
 49
0.5
 62
   256
  6
BYLAYER
 49
-0.5
 62
   256
  6
BYLAYER
  0
ACDBPLACEHOLDER
  5
19
102
{ACAD_REACTORS
330
18
102
}
330
18
  0
SCALE
  5
FAC
102
{ACAD_REACTORS
330
FAB
102
}
330
FAB
100
AcDbScale
 70
     0
300
1:1
140
1.0
141
1.0
290
     1
  0
SCALE
  5
FAD
102
{ACAD_REACTORS
330
FAB
102
}
330
FAB
100
AcDbScale
 70
     0
300
1:2
140
1.0
141
2.0
290
     0
  0
SCALE
  5
FAE
102
{ACAD_REACTORS
330
FAB
102
}
330
FAB
100
AcDbScale
 70
     0
300
1:4
140
1.0
141
4.0
290
     0
  0
SCALE
  5
FAF
102
{ACAD_REACTORS
330
FAB
102
}
330
FAB
100
AcDbScale
 70
     0
300
1:5
140
1.0
141
5.0
290
     0
  0
SCALE
  5
FB0
102
{ACAD_REACTORS
330
FAB
102
}
330
FAB
100
AcDbScale
 70
     0
300
1:8
140
1.0
141
8.0
290
     0
  0
SCALE
  5
FB1
102
{ACAD_REACTORS
330
FAB
102
}
330
FAB
100
AcDbScale
 70
     0
300
1:10
140
1.0
141
10.0
290
     0
  0
SCALE
  5
FB2
102
{ACAD_REACTORS
330
FAB
102
}
330
FAB
100
AcDbScale
 70
     0
300
1:16
140
1.0
141
16.0
290
     0
  0
SCALE
  5
FB3
102
{ACAD_REACTORS
330
FAB
102
}
330
FAB
100
AcDbScale
 70
     0
300
1:20
140
1.0
141
20.0
290
     0
  0
SCALE
  5
FB4
102
{ACAD_REACTORS
330
FAB
102
}
330
FAB
100
AcDbScale
 70
     0
300
1:30
140
1.0
141
30.0
290
     0
  0
SCALE
  5
FB5
102
{ACAD_REACTORS
330
FAB
102
}
330
FAB
100
AcDbScale
 70
     0
300
1:40
140
1.0
141
40.0
290
     0
  0
SCALE
  5
FB6
102
{ACAD_REACTORS
330
FAB
102
}
330
FAB
100
AcDbScale
 70
     0
300
1:50
140
1.0
141
50.0
290
     0
  0
SCALE
  5
FB7
102
{ACAD_REACTORS
330
FAB
102
}
330
FAB
100
AcDbScale
 70
     0
300
1:100
140
1.0
141
100.0
290
     0
  0
SCALE
  5
FB8
102
{ACAD_REACTORS
330
FAB
102
}
330
FAB
100
AcDbScale
 70
     0
300
2:1
140
2.0
141
1.0
290
     0
  0
SCALE
  5
FB9
102
{ACAD_REACTORS
330
FAB
102
}
330
FAB
100
AcDbScale
 70
     0
300
4:1
140
4.0
141
1.0
290
     0
  0
SCALE
  5
FBA
102
{ACAD_REACTORS
330
FAB
102
}
330
FAB
100
AcDbScale
 70
     0
300
8:1
140
8.0
141
1.0
290
     0
  0
SCALE
  5
FBB
102
{ACAD_REACTORS
330
FAB
102
}
330
FAB
100
AcDbScale
 70
     0
300
10:1
140
10.0
141
1.0
290
     0
  0
SCALE
  5
FBC
102
{ACAD_REACTORS
330
FAB
102
}
330
FAB
100
AcDbScale
 70
     0
300
100:1
140
100.0
141
1.0
290
     0
  0
SCALE
  5
FBD
102
{ACAD_REACTORS
330
FAB
102
}
330
FAB
100
AcDbScale
 70
     0
300
1/128" = 1'-0"
140
0.0078125
141
12.0
290
     0
  0
SCALE
  5
FBE
102
{ACAD_REACTORS
330
FAB
102
}
330
FAB
100
AcDbScale
 70
     0
300
1/64" = 1'-0"
140
0.015625
141
12.0
290
     0
  0
SCALE
  5
FBF
102
{ACAD_REACTORS
330
FAB
102
}
330
FAB
100
AcDbScale
 70
     0
300
1/32" = 1'-0"
140
0.03125
141
12.0
290
     0
  0
SCALE
  5
FC0
102
{ACAD_REACTORS
330
FAB
102
}
330
FAB
100
AcDbScale
 70
     0
300
1/16" = 1'-0"
140
0.0625
141
12.0
290
     0
  0
SCALE
  5
FC1
102
{ACAD_REACTORS
330
FAB
102
}
330
FAB
100
AcDbScale
 70
     0
300
3/32" = 1'-0"
140
0.09375
141
12.0
290
     0
  0
SCALE
  5
FC2
102
{ACAD_REACTORS
330
FAB
102
}
330
FAB
100
AcDbScale
 70
     0
300
1/8" = 1'-0"
140
0.125
141
12.0
290
     0
  0
SCALE
  5
FC3
102
{ACAD_REACTORS
330
FAB
102
}
330
FAB
100
AcDbScale
 70
     0
300
3/16" = 1'-0"
140
0.1875
141
12.0
290
     0
  0
SCALE
  5
FC4
102
{ACAD_REACTORS
330
FAB
102
}
330
FAB
100
AcDbScale
 70
     0
300
1/4" = 1'-0"
140
0.25
141
12.0
290
     0
  0
SCALE
  5
FC5
102
{ACAD_REACTORS
330
FAB
102
}
330
FAB
100
AcDbScale
 70
     0
300
3/8" = 1'-0"
140
0.375
141
12.0
290
     0
  0
SCALE
  5
FC6
102
{ACAD_REACTORS
330
FAB
102
}
330
FAB
100
AcDbScale
 70
     0
300
1/2" = 1'-0"
140
0.5
141
12.0
290
     0
  0
SCALE
  5
FC7
102
{ACAD_REACTORS
330
FAB
102
}
330
FAB
100
AcDbScale
 70
     0
300
3/4" = 1'-0"
140
0.75
141
12.0
290
     0
  0
SCALE
  5
FC8
102
{ACAD_REACTORS
330
FAB
102
}
330
FAB
100
AcDbScale
 70
     0
300
1" = 1'-0"
140
1.0
141
12.0
290
     0
  0
SCALE
  5
FC9
102
{ACAD_REACTORS
330
FAB
102
}
330
FAB
100
AcDbScale
 70
     0
300
1-1/2" = 1'-0"
140
1.5
141
12.0
290
     0
  0
SCALE
  5
FCA
102
{ACAD_REACTORS
330
FAB
102
}
330
FAB
100
AcDbScale
 70
     0
300
3" = 1'-0"
140
3.0
141
12.0
290
     0
  0
SCALE
  5
FCB
102
{ACAD_REACTORS
330
FAB
102
}
330
FAB
100
AcDbScale
 70
     0
300
6" = 1'-0"
140
6.0
141
12.0
290
     0
  0
SCALE
  5
FCC
102
{ACAD_REACTORS
330
FAB
102
}
330
FAB
100
AcDbScale
 70
     0
300
1'-0" = 1'-0"
140
12.0
141
12.0
290
     0
  0
TABLESTYLE
  5
FA9
102
{ACAD_XDICTIONARY
360
FF8
102
}
102
{ACAD_REACTORS
330
FA8
102
}
330
FA8
100
AcDbTableStyle
  3
Standard
 70
     0
 71
     0
 40
0.06
 41
0.06
280
     0
281
     0
  7
Standard
140
0.18
170
     2
 62
     0
 63
     7
283
     0
274
    -2
284
     1
 64
     0
275
    -2
285
     1
 65
     0
276
    -2
286
     1
 66
     0
277
    -2
287
     1
 67
     0
278
    -2
288
     1
 68
     0
279
    -2
289
     1
 69
     0
  7
Standard
140
0.25
170
     5
 62
     0
 63
     7
283
     0
274
    -2
284
     1
 64
     0
275
    -2
285
     1
 65
     0
276
    -2
286
     1
 66
     0
277
    -2
287
     1
 67
     0
278
    -2
288
     1
 68
     0
279
    -2
289
     1
 69
     0
  7
Standard
140
0.18
170
     5
 62
     0
 63
     7
283
     0
274
    -2
284
     1
 64
     0
275
    -2
285
     1
 65
     0
276
    -2
286
     1
 66
     0
277
    -2
287
     1
 67
     0
278
    -2
288
     1
 68
     0
279
    -2
289
     1
 69
     0
  0
VISUALSTYLE
  5
F99
102
{ACAD_XDICTIONARY
360
F10E7C
102
}
102
{ACAD_REACTORS
330
F93
102
}
330
F93
100
AcDbVisualStyle
  2

 70
     4
 71
     0
 72
     2
 73
     0
 90
        0
 40
-0.6
 41
-30.0
 62
     5
 63
     7
 74
     1
 91
        4
 64
     7
 65
   257
 75
     1
175
     1
 42
1.0
 92
        0
 66
   257
 43
1.0
 76
     1
 77
     6
 78
     2
 67
     7
 79
     5
170
     0
171
     0
290
     0
174
     0
 93
        1
 44
0.0
173
     0
291
     0
 45
0.0
1001
ACAD
1000
AcDbSavedByObjectVersion
1070
     0
  0
VISUALSTYLE
  5
F9B
102
{ACAD_XDICTIONARY
360
F10E80
102
}
102
{ACAD_REACTORS
330
F93
102
}
330
F93
100
AcDbVisualStyle
  2

 70
     6
 71
     1
 72
     2
 73
     2
 90
        0
 40
-0.6
 41
-30.0
 62
     5
 63
     7
 74
     2
 91
        2
 64
     7
 65
   257
 75
     2
175
     1
 42
179.0
 92
        0
 66
   257
 43
1.0
 76
     1
 77
     6
 78
     2
 67
     7
 79
     3
170
     0
171
     0
290
     0
174
     0
 93
        1
 44
0.0
173
     0
291
     0
 45
0.0
1001
ACAD
1000
AcDbSavedByObjectVersion
1070
     0
  0
VISUALSTYLE
  5
F9A
102
{ACAD_XDICTIONARY
360
F10E7E
102
}
102
{ACAD_REACTORS
330
F93
102
}
330
F93
100
AcDbVisualStyle
  2

 70
     5
 71
     0
 72
     2
 73
     0
 90
        0
 40
-0.6
 41
-30.0
 62
     5
 63
     7
 74
     1
 91
        4
 64
     7
 65
   257
 75
     1
175
     1
 42
1.0
 92
        0
 66
   257
 43
1.0
 76
     1
 77
     6
 78
     2
 67
     7
 79
     5
170
     0
171
     0
290
     0
174
     0
 93
        1
 44
0.0
173
     0
291
     0
 45
0.0
1001
ACAD
1000
AcDbSavedByObjectVersion
1070
     0
  0
VISUALSTYLE
  5
F98
102
{ACAD_XDICTIONARY
360
F10E7A
102
}
102
{ACAD_REACTORS
330
F93
102
}
330
F93
100
AcDbVisualStyle
  2

 70
     7
 71
     1
 72
     0
 73
     1
 90
        0
 40
-0.6
 41
-30.0
 62
     5
 63
     7
 74
     0
 91
        4
 64
     7
 65
   257
 75
     1
175
     1
 42
1.0
 92
        8
 66
     7
 43
1.0
 76
     1
 77
     6
 78
     2
 67
     7
 79
     5
170
     0
171
     0
290
     0
174
     0
 93
        1
 44
0.0
173
     0
291
     1
 45
0.0
1001
ACAD
1000
AcDbSavedByObjectVersion
1070
     0
  0
VISUALSTYLE
  5
F9F
102
{ACAD_XDICTIONARY
360
F10E88
102
}
102
{ACAD_REACTORS
330
F93
102
}
330
F93
100
AcDbVisualStyle
  2

 70
    12
 71
     2
 72
     2
 73
     0
 90
        0
 40
-0.6
 41
-30.0
 62
     5
 63
     7
 74
     1
 91
        4
 64
     7
 65
   257
 75
     1
175
     1
 42
1.0
 92
        8
 66
     7
 43
1.0
 76
     1
 77
     6
 78
     2
 67
     7
 79
     5
170
     0
171
     0
290
     0
174
     0
 93
        1
 44
50.0
173
     0
291
     1
 45
0.0
1001
ACAD
1000
AcDbSavedByObjectVersion
1070
     0
  0
VISUALSTYLE
  5
FA3
102
{ACAD_XDICTIONARY
360
F10E90
102
}
102
{ACAD_REACTORS
330
F93
102
}
330
F93
100
AcDbVisualStyle
  2

 70
    16
 71
     2
 72
     2
 73
     3
 90
        0
 40
-0.6
 41
-30.0
 62
     5
 63
     8
 74
     1
 91
        4
 64
     7
 65
   257
 75
     1
175
     1
 42
1.0
 92
        8
 66
     8
 43
1.0
 76
     1
 77
     6
 78
     2
 67
     7
 79
     5
170
     0
171
     0
290
     0
174
     0
 93
        1
 44
0.0
173
     0
291
     1
 45
0.0
1001
ACAD
1000
AcDbSavedByObjectVersion
1070
     0
  0
VISUALSTYLE
  5
F9C
102
{ACAD_XDICTIONARY
360
F10E82
102
}
102
{ACAD_REACTORS
330
F93
102
}
330
F93
100
AcDbVisualStyle
  2

 70
     9
 71
     3
 72
     2
 73
     0
 90
        0
 40
-0.6
 41
-30.0
 62
     5
 63
     7
 74
     2
 91
        2
 64
     7
 65
   257
 75
     1
175
     1
 42
179.0
 92
        8
 66
     7
 43
1.0
 76
     1
 77
     6
 78
     2
 67
     7
 79
     3
170
     0
171
     0
290
     0
174
     0
 93
        1
 44
0.0
173
     0
291
     0
 45
0.0
1001
ACAD
1000
AcDbSavedByObjectVersion
1070
     0
  0
VISUALSTYLE
  5
F9E
102
{ACAD_XDICTIONARY
360
F10E86
102
}
102
{ACAD_REACTORS
330
F93
102
}
330
F93
100
AcDbVisualStyle
  2

 70
    11
 71
     2
 72
     2
 73
     0
 90
        0
 40
-0.6
 41
-30.0
 62
     5
 63
     7
 74
     1
 91
        4
 64
     7
 65
   257
 75
     1
175
     1
 42
1.0
 92
        8
 66
     7
 43
1.0
 76
     1
 77
     6
 78
     2
 67
     7
 79
     5
170
     0
171
     0
290
     0
174
     0
 93
        1
 44
-50.0
173
     0
291
     1
 45
0.0
1001
ACAD
1000
AcDbSavedByObjectVersion
1070
     0
  0
VISUALSTYLE
  5
FA6
102
{ACAD_XDICTIONARY
360
F10E96
102
}
102
{ACAD_REACTORS
330
F93
102
}
330
F93
100
AcDbVisualStyle
  2

 70
    22
 71
     2
 72
     2
 73
     0
 90
        0
 40
-0.6
 41
-30.0
 62
     5
 63
     7
 74
     1
 91
        4
 64
     7
 65
   257
 75
     1
175
     1
 42
1.0
 92
        8
 66
     7
 43
1.0
 76
     1
 77
     6
 78
     2
 67
     7
 79
     5
170
     0
171
     0
290
     0
174
     0
 93
        1
 44
0.0
173
     0
291
     1
 45
0.0
1001
ACAD
1000
AcDbSavedByObjectVersion
1070
     0
  0
VISUALSTYLE
  5
FA2
102
{ACAD_XDICTIONARY
360
F10E8E
102
}
102
{ACAD_REACTORS
330
F93
102
}
330
F93
100
AcDbVisualStyle
  2

 70
    15
 71
     2
 72
     2
 73
     0
 90
        0
 40
-0.6
 41
-30.0
 62
     5
 63
     7
 74
     1
 91
        4
 64
     7
 65
   257
 75
     1
175
     1
 42
1.0
 92
        8
 66
     7
 43
1.0
 76
     1
 77
     6
 78
     2
 67
     7
 79
     5
170
     0
171
     0
290
     0
174
     0
 93
        1
 44
0.0
173
     0
291
     1
 45
0.0
1001
ACAD
1000
AcDbSavedByObjectVersion
1070
     0
  0
VISUALSTYLE
  5
F94
102
{ACAD_XDICTIONARY
360
F10E72
102
}
102
{ACAD_REACTORS
330
F93
102
}
330
F93
100
AcDbVisualStyle
  2

 70
     0
 71
     2
 72
     1
 73
     1
 90
        2
 40
-0.6
 41
30.0
 62
     5
 63
     7
 74
     0
 91
        4
 64
     7
 65
   257
 75
     1
175
     1
 42
1.0
 92
        8
 66
     7
 43
1.0
 76
     1
 77
     6
 78
     2
 67
     7
 79
     5
170
     0
171
     0
290
     0
174
     0
 93
       13
 44
0.0
173
     0
291
     1
 45
0.0
1001
ACAD
1000
AcDbSavedByObjectVersion
1070
     0
  0
VISUALSTYLE
  5
F95
102
{ACAD_XDICTIONARY
360
F10E74
102
}
102
{ACAD_REACTORS
330
F93
102
}
330
F93
100
AcDbVisualStyle
  2

 70
     1
 71
     2
 72
     1
 73
     1
 90
        2
 40
-0.6
 41
30.0
 62
     5
 63
     7
 74
     1
 91
        4
 64
     7
 65
   257
 75
     1
175
     1
 42
1.0
 92
        0
 66
   257
 43
1.0
 76
     1
 77
     6
 78
     2
 67
     7
 79
     5
170
     0
171
     0
290
     0
174
     0
 93
       13
 44
0.0
173
     0
291
     1
 45
0.0
1001
ACAD
1000
AcDbSavedByObjectVersion
1070
     0
  0
VISUALSTYLE
  5
F96
102
{ACAD_XDICTIONARY
360
F10E76
102
}
102
{ACAD_REACTORS
330
F93
102
}
330
F93
100
AcDbVisualStyle
  2

 70
     2
 71
     2
 72
     2
 73
     1
 90
        2
 40
-0.6
 41
30.0
 62
     5
 63
     7
 74
     0
 91
        4
 64
     7
 65
   257
 75
     1
175
     1
 42
1.0
 92
        0
 66
     7
 43
1.0
 76
     1
 77
     6
 78
     2
 67
     7
 79
     5
170
     0
171
     0
290
     0
174
     0
 93
       13
 44
0.0
173
     0
291
     1
 45
0.0
1001
ACAD
1000
AcDbSavedByObjectVersion
1070
     0
  0
VISUALSTYLE
  5
F97
102
{ACAD_XDICTIONARY
360
F10E78
102
}
102
{ACAD_REACTORS
330
F93
102
}
330
F93
100
AcDbVisualStyle
  2

 70
     3
 71
     2
 72
     2
 73
     1
 90
        2
 40
-0.6
 41
30.0
 62
     5
 63
     7
 74
     1
 91
        4
 64
     7
 65
   257
 75
     1
175
     1
 42
1.0
 92
        0
 66
   257
 43
1.0
 76
     1
 77
     6
 78
     2
 67
     7
 79
     5
170
     0
171
     0
290
     0
174
     0
 93
       13
 44
0.0
173
     0
291
     1
 45
0.0
1001
ACAD
1000
AcDbSavedByObjectVersion
1070
     0
  0
VISUALSTYLE
  5
F109B5
102
{ACAD_XDICTIONARY
360
F10E9F
102
}
102
{ACAD_REACTORS
330
F93
102
}
330
F93
100
AcDbVisualStyle
  2

 70
     6
 71
     1
 72
     2
 73
     2
 90
        0
 40
-0.6
 41
-30.0
 62
     5
 63
     7
 74
     2
 91
        2
 64
     7
 65
   257
 75
     2
175
     1
 42
40.0
 92
        0
 66
   257
 43
1.0
 76
     1
 77
     6
 78
     2
 67
     7
 79
     3
170
     0
171
     0
290
     0
174
     0
 93
        1
 44
0.0
173
     0
291
     0
 45
0.0
1001
ACAD
1000
AcDbSavedByObjectVersion
1070
     0
  0
VISUALSTYLE
  5
FA4
102
{ACAD_XDICTIONARY
360
F10E92
102
}
102
{ACAD_REACTORS
330
F93
102
}
330
F93
100
AcDbVisualStyle
  2

 70
    20
 71
     2
 72
     2
 73
     0
 90
        0
 40
-0.6
 41
-30.0
 62
     5
 63
     7
 74
     1
 91
        4
 64
     7
 65
   257
 75
     1
175
     1
 42
1.0
 92
       10
 66
     7
 43
1.0
 76
     1
 77
     6
 78
     2
 67
     7
 79
     5
170
     0
171
     0
290
     0
174
     0
 93
        1
 44
0.0
173
     0
291
     1
 45
0.0
1001
ACAD
1000
AcDbSavedByObjectVersion
1070
     0
  0
VISUALSTYLE
  5
FA1
102
{ACAD_XDICTIONARY
360
F10E8C
102
}
102
{ACAD_REACTORS
330
F93
102
}
330
F93
100
AcDbVisualStyle
  2

 70
    14
 71
     2
 72
     2
 73
     0
 90
        0
 40
-0.6
 41
-30.0
 62
     5
 63
     7
 74
     1
 91
        4
 64
     7
 65
   257
 75
     7
175
     7
 42
1.0
 92
        8
 66
     7
 43
1.0
 76
     1
 77
     6
 78
     2
 67
     7
 79
     5
170
     0
171
     0
290
     0
174
     0
 93
        1
 44
0.0
173
     0
291
     1
 45
0.0
1001
ACAD
1000
AcDbSavedByObjectVersion
1070
     0
  0
VISUALSTYLE
  5
FA5
102
{ACAD_XDICTIONARY
360
F10E94
102
}
102
{ACAD_REACTORS
330
F93
102
}
330
F93
100
AcDbVisualStyle
  2

 70
    21
 71
     2
 72
     2
 73
     0
 90
        0
 40
-0.6
 41
-30.0
 62
     5
 63
     7
 74
     1
 91
        4
 64
     7
 65
   257
 75
     1
175
     1
 42
1.0
 92
        9
 66
     7
 43
1.0
 76
     1
 77
     6
 78
     2
 67
     7
 79
     5
170
     0
171
     0
290
     0
174
     0
 93
        1
 44
0.0
173
     0
291
     1
 45
0.0
1001
ACAD
1000
AcDbSavedByObjectVersion
1070
     0
  0
VISUALSTYLE
  5
F9D
102
{ACAD_XDICTIONARY
360
F10E84
102
}
102
{ACAD_REACTORS
330
F93
102
}
330
F93
100
AcDbVisualStyle
  2

 70
     8
 71
     2
 72
     2
 73
     0
 90
        0
 40
-0.6
 41
-30.0
 62
     5
 63
     7
 74
     1
 91
        0
 64
     7
 65
   257
 75
     1
175
     1
 42
1.0
 92
        8
 66
     8
 43
1.0
 76
     1
 77
     6
 78
     2
 67
     7
 79
     5
170
     0
171
     0
290
     0
174
     0
 93
       13
 44
0.0
173
     0
291
     0
 45
0.0
1001
ACAD
1000
AcDbSavedByObjectVersion
1070
     0
  0
VISUALSTYLE
  5
F109BA
102
{ACAD_XDICTIONARY
360
F10EA9
102
}
102
{ACAD_REACTORS
330
F93
102
}
330
F93
100
AcDbVisualStyle
  2

 70
    27
 71
     2
 72
     2
 73
     1
 90
        2
 40
-0.6
 41
30.0
 62
     5
 63
     7
 74
     0
 91
        4
 64
     7
 65
   257
 75
     1
175
     1
 42
1.0
 92
        8
 66
   257
 43
1.0
 76
     1
 77
     6
 78
     2
 67
     8
 79
     3
170
     0
171
     0
290
     0
174
     0
 93
        5
 44
0.0
173
     0
291
     0
 45
0.0
1001
ACAD
1000
AcDbSavedByObjectVersion
1070
     0
  0
VISUALSTYLE
  5
F109B9
102
{ACAD_XDICTIONARY
360
F10EA7
102
}
102
{ACAD_REACTORS
330
F93
102
}
330
F93
100
AcDbVisualStyle
  2

 70
    26
 71
     2
 72
     2
 73
     1
 90
        2
 40
-0.6
 41
30.0
 62
     5
 63
     7
 74
     1
 91
       10
 64
     7
 65
   257
 75
     2
175
     1
 42
1.0
 92
        8
 66
   257
 43
1.0
 76
     1
 77
     6
 78
     2
 67
     7
 79
     3
170
     0
171
     0
290
     0
174
     0
 93
        5
 44
0.0
173
     0
291
     0
 45
0.0
1001
ACAD
1000
AcDbSavedByObjectVersion
1070
     0
  0
VISUALSTYLE
  5
F109B6
102
{ACAD_XDICTIONARY
360
F10EA1
102
}
102
{ACAD_REACTORS
330
F93
102
}
330
F93
100
AcDbVisualStyle
  2

 70
    23
 71
     2
 72
     2
 73
     3
 90
        0
 40
-0.6
 41
-30.0
 62
     5
 63
     7
 74
     2
 91
        2
 64
     7
 65
     7
 75
     1
175
     1
 42
40.0
 92
        8
 66
     7
 43
1.0
 76
     1
 77
     6
 78
     2
 67
     7
 79
     3
170
     0
171
     0
290
     0
174
     0
 93
        1
 44
0.0
173
     0
291
     0
 45
0.0
1001
ACAD
1000
AcDbSavedByObjectVersion
1070
     0
  0
VISUALSTYLE
  5
F109B7
102
{ACAD_XDICTIONARY
360
F10EA3
102
}
102
{ACAD_REACTORS
330
F93
102
}
330
F93
100
AcDbVisualStyle
  2

 70
    24
 71
     1
 72
     2
 73
     2
 90
        0
 40
-0.6
 41
-30.0
 62
     5
 63
     7
 74
     2
 91
        2
 64
     7
 65
     7
 75
     1
175
     1
 42
40.0
 92
       11
 66
     7
 43
1.0
 76
     1
 77
     6
 78
     2
 67
     7
 79
     6
170
     0
171
     0
290
     0
174
     0
 93
        1
 44
0.0
173
     0
291
     0
 45
0.0
1001
ACAD
1000
AcDbSavedByObjectVersion
1070
     0
  0
VISUALSTYLE
  5
FA0
102
{ACAD_XDICTIONARY
360
F10E8A
102
}
102
{ACAD_REACTORS
330
F93
102
}
330
F93
100
AcDbVisualStyle
  2

 70
    13
 71
     2
 72
     2
 73
     0
 90
        0
 40
-0.6
 41
-30.0
 62
     5
 63
     7
 74
     1
 91
        4
 64
     7
 65
   257
 75
     1
175
     1
 42
1.0
 92
       12
 66
     7
 43
1.0
 76
     1
 77
     6
 78
     2
 67
     7
 79
     5
170
     0
171
     0
290
     0
174
     0
 93
        1
 44
0.0
173
     0
291
     1
 45
0.0
1001
ACAD
1000
AcDbSavedByObjectVersion
1070
     0
  0
VISUALSTYLE
  5
F109B4
102
{ACAD_XDICTIONARY
360
F10E9D
102
}
102
{ACAD_REACTORS
330
F93
102
}
330
F93
100
AcDbVisualStyle
  2

 70
     5
 71
     0
 72
     2
 73
     0
 90
        0
 40
-0.6
 41
-30.0
 62
     5
 63
     7
 74
     1
 91
        4
 64
     7
 65
   257
 75
     1
175
     1
 42
1.0
 92
        0
 66
   257
 43
1.0
 76
     1
 77
     6
 78
     2
 67
     7
 79
     3
170
     0
171
     0
290
     0
174
     0
 93
        1
 44
0.0
173
     0
291
     0
 45
0.0
1001
ACAD
1000
AcDbSavedByObjectVersion
1070
     0
  0
VISUALSTYLE
  5
F109B8
102
{ACAD_XDICTIONARY
360
F10EA5
102
}
102
{ACAD_REACTORS
330
F93
102
}
330
F93
100
AcDbVisualStyle
  2

 70
    25
 71
     2
 72
     2
 73
     1
 90
        1
 40
0.5
 41
-30.0
 62
     5
 63
     7
 74
     1
 91
        0
 64
     7
 65
   257
 75
     1
175
     1
 42
1.0
 92
        8
 66
     7
 43
1.0
 76
     1
 77
     6
 78
     2
 67
     7
 79
     3
170
     0
171
     0
290
     0
174
     0
 93
       13
 44
0.0
173
     0
291
     0
 45
0.0
1001
ACAD
1000
AcDbSavedByObjectVersion
1070
     0
  0
DICTIONARYVAR
  5
F10C60
102
{ACAD_REACTORS
330
F10C5D
102
}
330
F10C5D
100
DictionaryVariables
280
     0
  1
1:1
  0
DICTIONARYVAR
  5
F10C5F
102
{ACAD_REACTORS
330
F10C5D
102
}
330
F10C5D
100
DictionaryVariables
280
     0
  1
STANDARD
  0
DICTIONARYVAR
  5
F10C5E
102
{ACAD_REACTORS
330
F10C5D
102
}
330
F10C5D
100
DictionaryVariables
280
     0
  1
STANDARD
  0
DICTIONARYVAR
  5
F10C63
102
{ACAD_REACTORS
330
F10C5D
102
}
330
F10C5D
100
DictionaryVariables
280
     0
  1
1
  0
DICTIONARYVAR
  5
F10C62
102
{ACAD_REACTORS
330
F10C5D
102
}
330
F10C5D
100
DictionaryVariables
280
     0
  1
0
  0
DICTIONARYVAR
  5
F10C61
102
{ACAD_REACTORS
330
F10C5D
102
}
330
F10C5D
100
DictionaryVariables
280
     0
  1
127
  0
DICTIONARYVAR
  5
F10E5F
102
{ACAD_REACTORS
330
F10C5D
102
}
330
F10C5D
100
DictionaryVariables
280
     0
  1
2
  0
DICTIONARY
  5
F10A14
102
{ACAD_REACTORS
330
F10A09
102
}
330
F10A09
100
AcDbDictionary
281
     1
  0
DICTIONARY
  5
F10E9B
330
FD1
100
AcDbDictionary
280
     1
281
     1
  3
ACAD_XREC_ROUNDTRIP
360
F10E9C
  0
DICTIONARY
  5
F10E99
330
FD0
100
AcDbDictionary
280
     1
281
     1
  3
ACAD_XREC_ROUNDTRIP
360
F10E9A
  0
DICTIONARY
  5
F84
330
F83
100
AcDbDictionary
280
     1
281
     1
  3
ACAD_XREC_ROUNDTRIP
360
FFF
  3
BUMPTILE
360
F86
  3
DIFFUSETILE
360
F85
  3
OPACITYTILE
360
F89
  3
REFLECTIONTILE
360
F88
  3
REFRACTIONTILE
360
F8A
  3
SPECULARTILE
360
F87
  0
DICTIONARY
  5
F7C
330
F7B
100
AcDbDictionary
280
     1
281
     1
  3
ACAD_XREC_ROUNDTRIP
360
FFE
  3
BUMPTILE
360
F7E
  3
DIFFUSETILE
360
F7D
  3
OPACITYTILE
360
F81
  3
REFLECTIONTILE
360
F80
  3
REFRACTIONTILE
360
F82
  3
SPECULARTILE
360
F7F
  0
DICTIONARY
  5
F8C
330
F8B
100
AcDbDictionary
280
     1
281
     1
  3
ACAD_XREC_ROUNDTRIP
360
1000
  3
BUMPTILE
360
F8E
  3
DIFFUSETILE
360
F8D
  3
OPACITYTILE
360
F91
  3
REFLECTIONTILE
360
F90
  3
REFRACTIONTILE
360
F92
  3
SPECULARTILE
360
F8F
  0
DICTIONARY
  5
FF8
330
FA9
100
AcDbDictionary
280
     1
281
     1
  3
ACAD_ROUNDTRIP_2008_TABLESTYLE_CELLSTYLEMAP
360
F10E60
  3
ACAD_XREC_ROUNDTRIP
360
F10E98
  0
DICTIONARY
  5
F10E7C
330
F99
100
AcDbDictionary
280
     1
281
     1
  3
ACAD_XREC_ROUNDTRIP
360
F10E7D
  0
DICTIONARY
  5
F10E80
330
F9B
100
AcDbDictionary
280
     1
281
     1
  3
ACAD_XREC_ROUNDTRIP
360
F10E81
  0
DICTIONARY
  5
F10E7E
330
F9A
100
AcDbDictionary
280
     1
281
     1
  3
ACAD_XREC_ROUNDTRIP
360
F10E7F
  0
DICTIONARY
  5
F10E7A
330
F98
100
AcDbDictionary
280
     1
281
     1
  3
ACAD_XREC_ROUNDTRIP
360
F10E7B
  0
DICTIONARY
  5
F10E88
330
F9F
100
AcDbDictionary
280
     1
281
     1
  3
ACAD_XREC_ROUNDTRIP
360
F10E89
  0
DICTIONARY
  5
F10E90
330
FA3
100
AcDbDictionary
280
     1
281
     1
  3
ACAD_XREC_ROUNDTRIP
360
F10E91
  0
DICTIONARY
  5
F10E82
330
F9C
100
AcDbDictionary
280
     1
281
     1
  3
ACAD_XREC_ROUNDTRIP
360
F10E83
  0
DICTIONARY
  5
F10E86
330
F9E
100
AcDbDictionary
280
     1
281
     1
  3
ACAD_XREC_ROUNDTRIP
360
F10E87
  0
DICTIONARY
  5
F10E96
330
FA6
100
AcDbDictionary
280
     1
281
     1
  3
ACAD_XREC_ROUNDTRIP
360
F10E97
  0
DICTIONARY
  5
F10E8E
330
FA2
100
AcDbDictionary
280
     1
281
     1
  3
ACAD_XREC_ROUNDTRIP
360
F10E8F
  0
DICTIONARY
  5
F10E72
330
F94
100
AcDbDictionary
280
     1
281
     1
  3
ACAD_XREC_ROUNDTRIP
360
F10E73
  0
DICTIONARY
  5
F10E74
330
F95
100
AcDbDictionary
280
     1
281
     1
  3
ACAD_XREC_ROUNDTRIP
360
F10E75
  0
DICTIONARY
  5
F10E76
330
F96
100
AcDbDictionary
280
     1
281
     1
  3
ACAD_XREC_ROUNDTRIP
360
F10E77
  0
DICTIONARY
  5
F10E78
330
F97
100
AcDbDictionary
280
     1
281
     1
  3
ACAD_XREC_ROUNDTRIP
360
F10E79
  0
DICTIONARY
  5
F10E9F
330
F109B5
100
AcDbDictionary
280
     1
281
     1
  3
ACAD_XREC_ROUNDTRIP
360
F10EA0
  0
DICTIONARY
  5
F10E92
330
FA4
100
AcDbDictionary
280
     1
281
     1
  3
ACAD_XREC_ROUNDTRIP
360
F10E93
  0
DICTIONARY
  5
F10E8C
330
FA1
100
AcDbDictionary
280
     1
281
     1
  3
ACAD_XREC_ROUNDTRIP
360
F10E8D
  0
DICTIONARY
  5
F10E94
330
FA5
100
AcDbDictionary
280
     1
281
     1
  3
ACAD_XREC_ROUNDTRIP
360
F10E95
  0
DICTIONARY
  5
F10E84
330
F9D
100
AcDbDictionary
280
     1
281
     1
  3
ACAD_XREC_ROUNDTRIP
360
F10E85
  0
DICTIONARY
  5
F10EA9
330
F109BA
100
AcDbDictionary
280
     1
281
     1
  3
ACAD_XREC_ROUNDTRIP
360
F10EAA
  0
DICTIONARY
  5
F10EA7
330
F109B9
100
AcDbDictionary
280
     1
281
     1
  3
ACAD_XREC_ROUNDTRIP
360
F10EA8
  0
DICTIONARY
  5
F10EA1
330
F109B6
100
AcDbDictionary
280
     1
281
     1
  3
ACAD_XREC_ROUNDTRIP
360
F10EA2
  0
DICTIONARY
  5
F10EA3
330
F109B7
100
AcDbDictionary
280
     1
281
     1
  3
ACAD_XREC_ROUNDTRIP
360
F10EA4
  0
DICTIONARY
  5
F10E8A
330
FA0
100
AcDbDictionary
280
     1
281
     1
  3
ACAD_XREC_ROUNDTRIP
360
F10E8B
  0
DICTIONARY
  5
F10E9D
330
F109B4
100
AcDbDictionary
280
     1
281
     1
  3
ACAD_XREC_ROUNDTRIP
360
F10E9E
  0
DICTIONARY
  5
F10EA5
330
F109B8
100
AcDbDictionary
280
     1
281
     1
  3
ACAD_XREC_ROUNDTRIP
360
F10EA6
  0
XRECORD
  5
F10E9C
102
{ACAD_REACTORS
330
F10E9B
102
}
330
F10E9B
100
AcDbXrecord
280
     1
102
SHADEPLOT
 70
     0
102
SHADEPLOTRESLEVEL
 70
     2
102
SHADEPLOTCUSTOMDPI
 70
   300
  0
XRECORD
  5
F10E9A
102
{ACAD_REACTORS
330
F10E99
102
}
330
F10E99
100
AcDbXrecord
280
     1
102
SHADEPLOT
 70
     0
102
SHADEPLOTRESLEVEL
 70
     2
102
SHADEPLOTCUSTOMDPI
 70
   300
  0
XRECORD
  5
FFF
102
{ACAD_REACTORS
330
F84
102
}
330
F84
100
AcDbXrecord
280
     1
102
MATERIAL
148
0.0
149
0.0
149
0.0
 93
        0
 94
      127
282
     0
 72
     0
 77
     0
171
     0
175
     0
179
     0
273
     0
  0
XRECORD
  5
F86
102
{ACAD_REACTORS
330
F84
102
}
330
F84
100
AcDbXrecord
280
     1
270
     1
271
     1
  0
XRECORD
  5
F85
102
{ACAD_REACTORS
330
F84
102
}
330
F84
100
AcDbXrecord
280
     1
270
     1
271
     1
  0
XRECORD
  5
F89
102
{ACAD_REACTORS
330
F84
102
}
330
F84
100
AcDbXrecord
280
     1
270
     1
271
     1
  0
XRECORD
  5
F88
102
{ACAD_REACTORS
330
F84
102
}
330
F84
100
AcDbXrecord
280
     1
270
     1
271
     1
  0
XRECORD
  5
F8A
102
{ACAD_REACTORS
330
F84
102
}
330
F84
100
AcDbXrecord
280
     1
270
     1
271
     1
  0
XRECORD
  5
F87
102
{ACAD_REACTORS
330
F84
102
}
330
F84
100
AcDbXrecord
280
     1
270
     1
271
     1
  0
XRECORD
  5
FFE
102
{ACAD_REACTORS
330
F7C
102
}
330
F7C
100
AcDbXrecord
280
     1
102
MATERIAL
148
0.0
149
0.0
149
0.0
 93
        0
 94
      127
282
     0
 72
     0
 77
     0
171
     0
175
     0
179
     0
273
     0
  0
XRECORD
  5
F7E
102
{ACAD_REACTORS
330
F7C
102
}
330
F7C
100
AcDbXrecord
280
     1
270
     1
271
     1
  0
XRECORD
  5
F7D
102
{ACAD_REACTORS
330
F7C
102
}
330
F7C
100
AcDbXrecord
280
     1
270
     1
271
     1
  0
XRECORD
  5
F81
102
{ACAD_REACTORS
330
F7C
102
}
330
F7C
100
AcDbXrecord
280
     1
270
     1
271
     1
  0
XRECORD
  5
F80
102
{ACAD_REACTORS
330
F7C
102
}
330
F7C
100
AcDbXrecord
280
     1
270
     1
271
     1
  0
XRECORD
  5
F82
102
{ACAD_REACTORS
330
F7C
102
}
330
F7C
100
AcDbXrecord
280
     1
270
     1
271
     1
  0
XRECORD
  5
F7F
102
{ACAD_REACTORS
330
F7C
102
}
330
F7C
100
AcDbXrecord
280
     1
270
     1
271
     1
  0
XRECORD
  5
1000
102
{ACAD_REACTORS
330
F8C
102
}
330
F8C
100
AcDbXrecord
280
     1
102
MATERIAL
148
0.0
149
0.0
149
0.0
 93
        0
 94
      127
282
     0
 72
     0
 77
     0
171
     0
175
     0
179
     0
273
     0
  0
XRECORD
  5
F8E
102
{ACAD_REACTORS
330
F8C
102
}
330
F8C
100
AcDbXrecord
280
     1
270
     1
271
     1
  0
XRECORD
  5
F8D
102
{ACAD_REACTORS
330
F8C
102
}
330
F8C
100
AcDbXrecord
280
     1
270
     1
271
     1
  0
XRECORD
  5
F91
102
{ACAD_REACTORS
330
F8C
102
}
330
F8C
100
AcDbXrecord
280
     1
270
     1
271
     1
  0
XRECORD
  5
F90
102
{ACAD_REACTORS
330
F8C
102
}
330
F8C
100
AcDbXrecord
280
     1
270
     1
271
     1
  0
XRECORD
  5
F92
102
{ACAD_REACTORS
330
F8C
102
}
330
F8C
100
AcDbXrecord
280
     1
270
     1
271
     1
  0
XRECORD
  5
F8F
102
{ACAD_REACTORS
330
F8C
102
}
330
F8C
100
AcDbXrecord
280
     1
270
     1
271
     1
  0
CELLSTYLEMAP
  5
F10E60
102
{ACAD_REACTORS
330
FF8
102
}
330
FF8
100
AcDbCellStyleMap
 90
        3
300
CELLSTYLE
  1
TABLEFORMAT_BEGIN
 90
        5
170
     1
 91
        0
 92
    32768
 62
   257
 93
        1
300
CONTENTFORMAT
  1
CONTENTFORMAT_BEGIN
 90
        0
 91
        0
 92
      512
 93
        0
300

 40
0.0
140
1.0
 94
        5
 62
     0
340
253
144
0.25
309
CONTENTFORMAT_END
171
     1
301
MARGIN
  1
CELLMARGIN_BEGIN
 40
0.06
 40
0.06
 40
0.06
 40
0.06
 40
0.18
 40
0.18
309
CELLMARGIN_END
 94
        6
 95
        1
302
GRIDFORMAT
  1
GRIDFORMAT_BEGIN
 90
        0
 91
        1
 62
     0
 92
       -2
340
0
 93
        0
 40
0.045
309
GRIDFORMAT_END
 95
        2
302
GRIDFORMAT
  1
GRIDFORMAT_BEGIN
 90
        0
 91
        1
 62
     0
 92
       -2
340
0
 93
        0
 40
0.045
309
GRIDFORMAT_END
 95
        4
302
GRIDFORMAT
  1
GRIDFORMAT_BEGIN
 90
        0
 91
        1
 62
     0
 92
       -2
340
0
 93
        0
 40
0.045
309
GRIDFORMAT_END
 95
        8
302
GRIDFORMAT
  1
GRIDFORMAT_BEGIN
 90
        0
 91
        1
 62
     0
 92
       -2
340
0
 93
        0
 40
0.045
309
GRIDFORMAT_END
 95
       16
302
GRIDFORMAT
  1
GRIDFORMAT_BEGIN
 90
        0
 91
        1
 62
     0
 92
       -2
340
0
 93
        0
 40
0.045
309
GRIDFORMAT_END
 95
       32
302
GRIDFORMAT
  1
GRIDFORMAT_BEGIN
 90
        0
 91
        1
 62
     0
 92
       -2
340
0
 93
        0
 40
0.045
309
GRIDFORMAT_END
309
TABLEFORMAT_END
  1
CELLSTYLE_BEGIN
 90
        1
 91
        1
300
_TITLE
309
CELLSTYLE_END
300
CELLSTYLE
  1
TABLEFORMAT_BEGIN
 90
        5
170
     1
 91
        0
 92
        0
 62
   257
 93
        1
300
CONTENTFORMAT
  1
CONTENTFORMAT_BEGIN
 90
        0
 91
        0
 92
      512
 93
        0
300

 40
0.0
140
1.0
 94
        5
 62
     0
340
253
144
0.18
309
CONTENTFORMAT_END
171
     1
301
MARGIN
  1
CELLMARGIN_BEGIN
 40
0.06
 40
0.06
 40
0.06
 40
0.06
 40
0.18
 40
0.18
309
CELLMARGIN_END
 94
        6
 95
        1
302
GRIDFORMAT
  1
GRIDFORMAT_BEGIN
 90
        0
 91
        1
 62
     0
 92
       -2
340
0
 93
        0
 40
0.045
309
GRIDFORMAT_END
 95
        2
302
GRIDFORMAT
  1
GRIDFORMAT_BEGIN
 90
        0
 91
        1
 62
     0
 92
       -2
340
0
 93
        0
 40
0.045
309
GRIDFORMAT_END
 95
        4
302
GRIDFORMAT
  1
GRIDFORMAT_BEGIN
 90
        0
 91
        1
 62
     0
 92
       -2
340
0
 93
        0
 40
0.045
309
GRIDFORMAT_END
 95
        8
302
GRIDFORMAT
  1
GRIDFORMAT_BEGIN
 90
        0
 91
        1
 62
     0
 92
       -2
340
0
 93
        0
 40
0.045
309
GRIDFORMAT_END
 95
       16
302
GRIDFORMAT
  1
GRIDFORMAT_BEGIN
 90
        0
 91
        1
 62
     0
 92
       -2
340
0
 93
        0
 40
0.045
309
GRIDFORMAT_END
 95
       32
302
GRIDFORMAT
  1
GRIDFORMAT_BEGIN
 90
        0
 91
        1
 62
     0
 92
       -2
340
0
 93
        0
 40
0.045
309
GRIDFORMAT_END
309
TABLEFORMAT_END
  1
CELLSTYLE_BEGIN
 90
        2
 91
        1
300
_HEADER
309
CELLSTYLE_END
300
CELLSTYLE
  1
TABLEFORMAT_BEGIN
 90
        5
170
     1
 91
        0
 92
        0
 62
   257
 93
        1
300
CONTENTFORMAT
  1
CONTENTFORMAT_BEGIN
 90
        0
 91
        0
 92
      512
 93
        0
300

 40
0.0
140
1.0
 94
        2
 62
     0
340
253
144
0.18
309
CONTENTFORMAT_END
171
     1
301
MARGIN
  1
CELLMARGIN_BEGIN
 40
0.06
 40
0.06
 40
0.06
 40
0.06
 40
0.18
 40
0.18
309
CELLMARGIN_END
 94
        6
 95
        1
302
GRIDFORMAT
  1
GRIDFORMAT_BEGIN
 90
        0
 91
        1
 62
     0
 92
       -2
340
0
 93
        0
 40
0.045
309
GRIDFORMAT_END
 95
        2
302
GRIDFORMAT
  1
GRIDFORMAT_BEGIN
 90
        0
 91
        1
 62
     0
 92
       -2
340
0
 93
        0
 40
0.045
309
GRIDFORMAT_END
 95
        4
302
GRIDFORMAT
  1
GRIDFORMAT_BEGIN
 90
        0
 91
        1
 62
     0
 92
       -2
340
0
 93
        0
 40
0.045
309
GRIDFORMAT_END
 95
        8
302
GRIDFORMAT
  1
GRIDFORMAT_BEGIN
 90
        0
 91
        1
 62
     0
 92
       -2
340
0
 93
        0
 40
0.045
309
GRIDFORMAT_END
 95
       16
302
GRIDFORMAT
  1
GRIDFORMAT_BEGIN
 90
        0
 91
        1
 62
     0
 92
       -2
340
0
 93
        0
 40
0.045
309
GRIDFORMAT_END
 95
       32
302
GRIDFORMAT
  1
GRIDFORMAT_BEGIN
 90
        0
 91
        1
 62
     0
 92
       -2
340
0
 93
        0
 40
0.045
309
GRIDFORMAT_END
309
TABLEFORMAT_END
  1
CELLSTYLE_BEGIN
 90
        3
 91
        2
300
_DATA
309
CELLSTYLE_END
  0
XRECORD
  5
F10E98
102
{ACAD_REACTORS
330
FF8
102
}
330
FF8
100
AcDbXrecord
280
     1
102
ACAD_ROUNDTRIP_PRE2007_TABLESTYLE
 90
      512
 91
        0
  1

 92
      512
 93
        0
  2

 94
      512
 95
        0
  3

  0
XRECORD
  5
F10E7D
102
{ACAD_REACTORS
330
F10E7C
102
}
330
F10E7C
100
AcDbXrecord
280
     1
102
RTVSPropertyOp0
 70
     1
102
RTVSPropertyOp1
 70
     1
102
RTVSPropertyOp2
 70
     1
102
RTVSPropertyOp3
 70
     1
102
RTVSPropertyOp4
 70
     1
102
RTVSPropertyOp5
 70
     1
102
RTVSPropertyOp6
 70
     1
102
RTVSPropertyOp7
 70
     1
102
RTVSPropertyOp8
 70
     1
102
RTVSPropertyOp9
 70
     1
102
RTVSPropertyOp10
 70
     1
102
RTVSPropertyOp11
 70
     1
102
RTVSPropertyOp12
 70
     1
102
RTVSPropertyOp13
 70
     1
102
RTVSPropertyOp14
 70
     1
102
RTVSPropertyOp15
 70
     1
102
RTVSPropertyOp16
 70
     1
102
RTVSPropertyOp17
 70
     1
102
RTVSPropertyOp18
 70
     1
102
RTVSPropertyOp19
 70
     1
102
RTVSPropertyOp20
 70
     1
102
RTVSPropertyOp21
 70
     1
102
RTVSPropertyOp22
 70
     1
102
RTVSPropertyOp23
 70
     1
102
RTVSPropertyOp24
 70
     1
102
RTVSPropertyOp25
 70
     1
102
RTVSPropertyOp26
 70
     1
102
RTVSPropertyOp27
 70
     1
102
RTVSPropertyOp28
 70
     1
102
RTVSPropertyOp29
 70
     1
102
RTVSPropertyOp30
 70
     1
102
RTVSPropertyOp31
 70
     1
102
RTVSPropertyOp32
 70
     1
  0
XRECORD
  5
F10E81
102
{ACAD_REACTORS
330
F10E80
102
}
330
F10E80
100
AcDbXrecord
280
     1
102
RTVSPropertyOp0
 70
     1
102
RTVSPropertyOp1
 70
     1
102
RTVSPropertyOp2
 70
     1
102
RTVSPropertyOp3
 70
     1
102
RTVSPropertyOp4
 70
     1
102
RTVSPropertyOp5
 70
     1
102
RTVSPropertyOp6
 70
     1
102
RTVSPropertyOp7
 70
     1
102
RTVSPropertyOp8
 70
     1
102
RTVSPropertyOp9
 70
     1
102
RTVSPropertyOp10
 70
     1
102
RTVSPropertyOp11
 70
     1
102
RTVSPropertyOp12
 70
     1
102
RTVSPropertyOp13
 70
     1
102
RTVSPropertyOp14
 70
     1
102
RTVSPropertyOp15
 70
     1
102
RTVSPropertyOp16
 70
     1
102
RTVSPropertyOp17
 70
     1
102
RTVSPropertyOp18
 70
     1
102
RTVSPropertyOp19
 70
     1
102
RTVSPropertyOp20
 70
     1
102
RTVSPropertyOp21
 70
     1
102
RTVSPropertyOp22
 70
     1
102
RTVSPropertyOp23
 70
     1
102
RTVSPropertyOp24
 70
     1
102
RTVSPropertyOp25
 70
     1
102
RTVSPropertyOp26
 70
     1
102
RTVSPropertyOp27
 70
     1
102
RTVSPropertyOp28
 70
     1
102
RTVSPropertyOp29
 70
     1
102
RTVSPropertyOp30
 70
     1
102
RTVSPropertyOp31
 70
     1
102
RTVSPropertyOp32
 70
     1
  0
XRECORD
  5
F10E7F
102
{ACAD_REACTORS
330
F10E7E
102
}
330
F10E7E
100
AcDbXrecord
280
     1
102
RTVSPropertyOp0
 70
     1
102
RTVSPropertyOp1
 70
     1
102
RTVSPropertyOp2
 70
     1
102
RTVSPropertyOp3
 70
     1
102
RTVSPropertyOp4
 70
     1
102
RTVSPropertyOp5
 70
     1
102
RTVSPropertyOp6
 70
     1
102
RTVSPropertyOp7
 70
     1
102
RTVSPropertyOp8
 70
     1
102
RTVSPropertyOp9
 70
     1
102
RTVSPropertyOp10
 70
     1
102
RTVSPropertyOp11
 70
     1
102
RTVSPropertyOp12
 70
     1
102
RTVSPropertyOp13
 70
     1
102
RTVSPropertyOp14
 70
     1
102
RTVSPropertyOp15
 70
     1
102
RTVSPropertyOp16
 70
     1
102
RTVSPropertyOp17
 70
     1
102
RTVSPropertyOp18
 70
     1
102
RTVSPropertyOp19
 70
     1
102
RTVSPropertyOp20
 70
     1
102
RTVSPropertyOp21
 70
     1
102
RTVSPropertyOp22
 70
     1
102
RTVSPropertyOp23
 70
     1
102
RTVSPropertyOp24
 70
     1
102
RTVSPropertyOp25
 70
     1
102
RTVSPropertyOp26
 70
     1
102
RTVSPropertyOp27
 70
     1
102
RTVSPropertyOp28
 70
     1
102
RTVSPropertyOp29
 70
     1
102
RTVSPropertyOp30
 70
     1
102
RTVSPropertyOp31
 70
     1
102
RTVSPropertyOp32
 70
     1
  0
XRECORD
  5
F10E7B
102
{ACAD_REACTORS
330
F10E7A
102
}
330
F10E7A
100
AcDbXrecord
280
     1
102
RTVSPropertyOp0
 70
     1
102
RTVSPropertyOp1
 70
     1
102
RTVSPropertyOp2
 70
     1
102
RTVSPropertyOp3
 70
     1
102
RTVSPropertyOp4
 70
     1
102
RTVSPropertyOp5
 70
     1
102
RTVSPropertyOp6
 70
     1
102
RTVSPropertyOp7
 70
     1
102
RTVSPropertyOp8
 70
     1
102
RTVSPropertyOp9
 70
     1
102
RTVSPropertyOp10
 70
     1
102
RTVSPropertyOp11
 70
     1
102
RTVSPropertyOp12
 70
     1
102
RTVSPropertyOp13
 70
     1
102
RTVSPropertyOp14
 70
     1
102
RTVSPropertyOp15
 70
     1
102
RTVSPropertyOp16
 70
     1
102
RTVSPropertyOp17
 70
     1
102
RTVSPropertyOp18
 70
     1
102
RTVSPropertyOp19
 70
     1
102
RTVSPropertyOp20
 70
     1
102
RTVSPropertyOp21
 70
     1
102
RTVSPropertyOp22
 70
     1
102
RTVSPropertyOp23
 70
     1
102
RTVSPropertyOp24
 70
     1
102
RTVSPropertyOp25
 70
     1
102
RTVSPropertyOp26
 70
     1
102
RTVSPropertyOp27
 70
     1
102
RTVSPropertyOp28
 70
     1
102
RTVSPropertyOp29
 70
     1
102
RTVSPropertyOp30
 70
     1
102
RTVSPropertyOp31
 70
     1
102
RTVSPropertyOp32
 70
     1
  0
XRECORD
  5
F10E89
102
{ACAD_REACTORS
330
F10E88
102
}
330
F10E88
100
AcDbXrecord
280
     1
102
RTVSPropertyOp0
 70
     1
102
RTVSPropertyOp1
 70
     1
102
RTVSPropertyOp2
 70
     1
102
RTVSPropertyOp3
 70
     1
102
RTVSPropertyOp4
 70
     1
102
RTVSPropertyOp5
 70
     1
102
RTVSPropertyOp6
 70
     1
102
RTVSPropertyOp7
 70
     1
102
RTVSPropertyOp8
 70
     1
102
RTVSPropertyOp9
 70
     1
102
RTVSPropertyOp10
 70
     1
102
RTVSPropertyOp11
 70
     1
102
RTVSPropertyOp12
 70
     1
102
RTVSPropertyOp13
 70
     1
102
RTVSPropertyOp14
 70
     1
102
RTVSPropertyOp15
 70
     1
102
RTVSPropertyOp16
 70
     1
102
RTVSPropertyOp17
 70
     1
102
RTVSPropertyOp18
 70
     1
102
RTVSPropertyOp19
 70
     1
102
RTVSPropertyOp20
 70
     1
102
RTVSPropertyOp21
 70
     1
102
RTVSPropertyOp22
 70
     1
102
RTVSPropertyOp23
 70
     1
102
RTVSPropertyOp24
 70
     1
102
RTVSPropertyOp25
 70
     1
102
RTVSPropertyOp26
 70
     1
102
RTVSPropertyOp27
 70
     1
102
RTVSPropertyOp28
 70
     1
102
RTVSPropertyOp29
 70
     1
102
RTVSPropertyOp30
 70
     1
102
RTVSPropertyOp31
 70
     1
102
RTVSPropertyOp32
 70
     1
  0
XRECORD
  5
F10E91
102
{ACAD_REACTORS
330
F10E90
102
}
330
F10E90
100
AcDbXrecord
280
     1
102
RTVSPropertyOp0
 70
     1
102
RTVSPropertyOp1
 70
     1
102
RTVSPropertyOp2
 70
     1
102
RTVSPropertyOp3
 70
     1
102
RTVSPropertyOp4
 70
     1
102
RTVSPropertyOp5
 70
     1
102
RTVSPropertyOp6
 70
     1
102
RTVSPropertyOp7
 70
     1
102
RTVSPropertyOp8
 70
     1
102
RTVSPropertyOp9
 70
     1
102
RTVSPropertyOp10
 70
     1
102
RTVSPropertyOp11
 70
     1
102
RTVSPropertyOp12
 70
     1
102
RTVSPropertyOp13
 70
     1
102
RTVSPropertyOp14
 70
     1
102
RTVSPropertyOp15
 70
     1
102
RTVSPropertyOp16
 70
     1
102
RTVSPropertyOp17
 70
     1
102
RTVSPropertyOp18
 70
     1
102
RTVSPropertyOp19
 70
     1
102
RTVSPropertyOp20
 70
     1
102
RTVSPropertyOp21
 70
     1
102
RTVSPropertyOp22
 70
     1
102
RTVSPropertyOp23
 70
     1
102
RTVSPropertyOp24
 70
     1
102
RTVSPropertyOp25
 70
     1
102
RTVSPropertyOp26
 70
     1
102
RTVSPropertyOp27
 70
     1
102
RTVSPropertyOp28
 70
     1
102
RTVSPropertyOp29
 70
     1
102
RTVSPropertyOp30
 70
     1
102
RTVSPropertyOp31
 70
     1
102
RTVSPropertyOp32
 70
     1
  0
XRECORD
  5
F10E83
102
{ACAD_REACTORS
330
F10E82
102
}
330
F10E82
100
AcDbXrecord
280
     1
102
RTVSPropertyOp0
 70
     1
102
RTVSPropertyOp1
 70
     1
102
RTVSPropertyOp2
 70
     1
102
RTVSPropertyOp3
 70
     1
102
RTVSPropertyOp4
 70
     1
102
RTVSPropertyOp5
 70
     1
102
RTVSPropertyOp6
 70
     1
102
RTVSPropertyOp7
 70
     1
102
RTVSPropertyOp8
 70
     1
102
RTVSPropertyOp9
 70
     1
102
RTVSPropertyOp10
 70
     1
102
RTVSPropertyOp11
 70
     1
102
RTVSPropertyOp12
 70
     1
102
RTVSPropertyOp13
 70
     1
102
RTVSPropertyOp14
 70
     1
102
RTVSPropertyOp15
 70
     1
102
RTVSPropertyOp16
 70
     1
102
RTVSPropertyOp17
 70
     1
102
RTVSPropertyOp18
 70
     1
102
RTVSPropertyOp19
 70
     1
102
RTVSPropertyOp20
 70
     1
102
RTVSPropertyOp21
 70
     1
102
RTVSPropertyOp22
 70
     1
102
RTVSPropertyOp23
 70
     1
102
RTVSPropertyOp24
 70
     1
102
RTVSPropertyOp25
 70
     1
102
RTVSPropertyOp26
 70
     1
102
RTVSPropertyOp27
 70
     1
102
RTVSPropertyOp28
 70
     1
102
RTVSPropertyOp29
 70
     1
102
RTVSPropertyOp30
 70
     1
102
RTVSPropertyOp31
 70
     1
102
RTVSPropertyOp32
 70
     1
  0
XRECORD
  5
F10E87
102
{ACAD_REACTORS
330
F10E86
102
}
330
F10E86
100
AcDbXrecord
280
     1
102
RTVSPropertyOp0
 70
     1
102
RTVSPropertyOp1
 70
     1
102
RTVSPropertyOp2
 70
     1
102
RTVSPropertyOp3
 70
     1
102
RTVSPropertyOp4
 70
     1
102
RTVSPropertyOp5
 70
     1
102
RTVSPropertyOp6
 70
     1
102
RTVSPropertyOp7
 70
     1
102
RTVSPropertyOp8
 70
     1
102
RTVSPropertyOp9
 70
     1
102
RTVSPropertyOp10
 70
     1
102
RTVSPropertyOp11
 70
     1
102
RTVSPropertyOp12
 70
     1
102
RTVSPropertyOp13
 70
     1
102
RTVSPropertyOp14
 70
     1
102
RTVSPropertyOp15
 70
     1
102
RTVSPropertyOp16
 70
     1
102
RTVSPropertyOp17
 70
     1
102
RTVSPropertyOp18
 70
     1
102
RTVSPropertyOp19
 70
     1
102
RTVSPropertyOp20
 70
     1
102
RTVSPropertyOp21
 70
     1
102
RTVSPropertyOp22
 70
     1
102
RTVSPropertyOp23
 70
     1
102
RTVSPropertyOp24
 70
     1
102
RTVSPropertyOp25
 70
     1
102
RTVSPropertyOp26
 70
     1
102
RTVSPropertyOp27
 70
     1
102
RTVSPropertyOp28
 70
     1
102
RTVSPropertyOp29
 70
     1
102
RTVSPropertyOp30
 70
     1
102
RTVSPropertyOp31
 70
     1
102
RTVSPropertyOp32
 70
     1
  0
XRECORD
  5
F10E97
102
{ACAD_REACTORS
330
F10E96
102
}
330
F10E96
100
AcDbXrecord
280
     1
102
RTVSPropertyOp0
 70
     0
102
RTVSPropertyOp1
 70
     0
102
RTVSPropertyOp2
 70
     0
102
RTVSPropertyOp3
 70
     0
102
RTVSPropertyOp4
 70
     0
102
RTVSPropertyOp5
 70
     0
102
RTVSPropertyOp6
 70
     0
102
RTVSPropertyOp7
 70
     0
102
RTVSPropertyOp8
 70
     0
102
RTVSPropertyOp9
 70
     0
102
RTVSPropertyOp10
 70
     0
102
RTVSPropertyOp11
 70
     0
102
RTVSPropertyOp12
 70
     0
102
RTVSPropertyOp13
 70
     0
102
RTVSPropertyOp14
 70
     2
102
RTVSPropertyOp15
 70
     0
102
RTVSPropertyOp16
 70
     0
102
RTVSPropertyOp17
 70
     0
102
RTVSPropertyOp18
 70
     0
102
RTVSPropertyOp19
 70
     0
102
RTVSPropertyOp20
 70
     0
102
RTVSPropertyOp21
 70
     0
102
RTVSPropertyOp22
 70
     0
102
RTVSPropertyOp23
 70
     0
102
RTVSPropertyOp24
 70
     0
102
RTVSPropertyOp25
 70
     0
102
RTVSPropertyOp26
 70
     0
102
RTVSPropertyOp27
 70
     0
102
RTVSPropertyOp28
 70
     1
102
RTVSPropertyOp29
 70
     1
102
RTVSPropertyOp30
 70
     1
102
RTVSPropertyOp31
 70
     1
102
RTVSPropertyOp32
 70
     1
  0
XRECORD
  5
F10E8F
102
{ACAD_REACTORS
330
F10E8E
102
}
330
F10E8E
100
AcDbXrecord
280
     1
102
RTVSPropertyOp0
 70
     1
102
RTVSPropertyOp1
 70
     1
102
RTVSPropertyOp2
 70
     1
102
RTVSPropertyOp3
 70
     1
102
RTVSPropertyOp4
 70
     1
102
RTVSPropertyOp5
 70
     1
102
RTVSPropertyOp6
 70
     1
102
RTVSPropertyOp7
 70
     1
102
RTVSPropertyOp8
 70
     1
102
RTVSPropertyOp9
 70
     1
102
RTVSPropertyOp10
 70
     1
102
RTVSPropertyOp11
 70
     1
102
RTVSPropertyOp12
 70
     1
102
RTVSPropertyOp13
 70
     1
102
RTVSPropertyOp14
 70
     1
102
RTVSPropertyOp15
 70
     1
102
RTVSPropertyOp16
 70
     1
102
RTVSPropertyOp17
 70
     1
102
RTVSPropertyOp18
 70
     1
102
RTVSPropertyOp19
 70
     1
102
RTVSPropertyOp20
 70
     1
102
RTVSPropertyOp21
 70
     1
102
RTVSPropertyOp22
 70
     1
102
RTVSPropertyOp23
 70
     1
102
RTVSPropertyOp24
 70
     1
102
RTVSPropertyOp25
 70
     1
102
RTVSPropertyOp26
 70
     1
102
RTVSPropertyOp27
 70
     1
102
RTVSPropertyOp28
 70
     1
102
RTVSPropertyOp29
 70
     1
102
RTVSPropertyOp30
 70
     1
102
RTVSPropertyOp31
 70
     1
102
RTVSPropertyOp32
 70
     1
  0
XRECORD
  5
F10E73
102
{ACAD_REACTORS
330
F10E72
102
}
330
F10E72
100
AcDbXrecord
280
     1
102
RTVSPropertyOp0
 70
     1
102
RTVSPropertyOp1
 70
     1
102
RTVSPropertyOp2
 70
     1
102
RTVSPropertyOp3
 70
     1
102
RTVSPropertyOp4
 70
     1
102
RTVSPropertyOp5
 70
     1
102
RTVSPropertyOp6
 70
     1
102
RTVSPropertyOp7
 70
     1
102
RTVSPropertyOp8
 70
     1
102
RTVSPropertyOp9
 70
     1
102
RTVSPropertyOp10
 70
     1
102
RTVSPropertyOp11
 70
     1
102
RTVSPropertyOp12
 70
     1
102
RTVSPropertyOp13
 70
     1
102
RTVSPropertyOp14
 70
     1
102
RTVSPropertyOp15
 70
     1
102
RTVSPropertyOp16
 70
     1
102
RTVSPropertyOp17
 70
     1
102
RTVSPropertyOp18
 70
     1
102
RTVSPropertyOp19
 70
     1
102
RTVSPropertyOp20
 70
     1
102
RTVSPropertyOp21
 70
     1
102
RTVSPropertyOp22
 70
     1
102
RTVSPropertyOp23
 70
     1
102
RTVSPropertyOp24
 70
     1
102
RTVSPropertyOp25
 70
     1
102
RTVSPropertyOp26
 70
     1
102
RTVSPropertyOp27
 70
     1
102
RTVSPropertyOp28
 70
     1
102
RTVSPropertyOp29
 70
     1
102
RTVSPropertyOp30
 70
     1
102
RTVSPropertyOp31
 70
     1
102
RTVSPropertyOp32
 70
     1
  0
XRECORD
  5
F10E75
102
{ACAD_REACTORS
330
F10E74
102
}
330
F10E74
100
AcDbXrecord
280
     1
102
RTVSPropertyOp0
 70
     1
102
RTVSPropertyOp1
 70
     1
102
RTVSPropertyOp2
 70
     1
102
RTVSPropertyOp3
 70
     1
102
RTVSPropertyOp4
 70
     1
102
RTVSPropertyOp5
 70
     1
102
RTVSPropertyOp6
 70
     1
102
RTVSPropertyOp7
 70
     1
102
RTVSPropertyOp8
 70
     1
102
RTVSPropertyOp9
 70
     1
102
RTVSPropertyOp10
 70
     1
102
RTVSPropertyOp11
 70
     1
102
RTVSPropertyOp12
 70
     1
102
RTVSPropertyOp13
 70
     1
102
RTVSPropertyOp14
 70
     1
102
RTVSPropertyOp15
 70
     1
102
RTVSPropertyOp16
 70
     1
102
RTVSPropertyOp17
 70
     1
102
RTVSPropertyOp18
 70
     1
102
RTVSPropertyOp19
 70
     1
102
RTVSPropertyOp20
 70
     1
102
RTVSPropertyOp21
 70
     1
102
RTVSPropertyOp22
 70
     1
102
RTVSPropertyOp23
 70
     1
102
RTVSPropertyOp24
 70
     1
102
RTVSPropertyOp25
 70
     1
102
RTVSPropertyOp26
 70
     1
102
RTVSPropertyOp27
 70
     1
102
RTVSPropertyOp28
 70
     1
102
RTVSPropertyOp29
 70
     1
102
RTVSPropertyOp30
 70
     1
102
RTVSPropertyOp31
 70
     1
102
RTVSPropertyOp32
 70
     1
  0
XRECORD
  5
F10E77
102
{ACAD_REACTORS
330
F10E76
102
}
330
F10E76
100
AcDbXrecord
280
     1
102
RTVSPropertyOp0
 70
     1
102
RTVSPropertyOp1
 70
     1
102
RTVSPropertyOp2
 70
     1
102
RTVSPropertyOp3
 70
     1
102
RTVSPropertyOp4
 70
     1
102
RTVSPropertyOp5
 70
     1
102
RTVSPropertyOp6
 70
     1
102
RTVSPropertyOp7
 70
     1
102
RTVSPropertyOp8
 70
     1
102
RTVSPropertyOp9
 70
     1
102
RTVSPropertyOp10
 70
     1
102
RTVSPropertyOp11
 70
     1
102
RTVSPropertyOp12
 70
     1
102
RTVSPropertyOp13
 70
     1
102
RTVSPropertyOp14
 70
     1
102
RTVSPropertyOp15
 70
     1
102
RTVSPropertyOp16
 70
     1
102
RTVSPropertyOp17
 70
     1
102
RTVSPropertyOp18
 70
     1
102
RTVSPropertyOp19
 70
     1
102
RTVSPropertyOp20
 70
     1
102
RTVSPropertyOp21
 70
     1
102
RTVSPropertyOp22
 70
     1
102
RTVSPropertyOp23
 70
     1
102
RTVSPropertyOp24
 70
     1
102
RTVSPropertyOp25
 70
     1
102
RTVSPropertyOp26
 70
     1
102
RTVSPropertyOp27
 70
     1
102
RTVSPropertyOp28
 70
     1
102
RTVSPropertyOp29
 70
     1
102
RTVSPropertyOp30
 70
     1
102
RTVSPropertyOp31
 70
     1
102
RTVSPropertyOp32
 70
     1
  0
XRECORD
  5
F10E79
102
{ACAD_REACTORS
330
F10E78
102
}
330
F10E78
100
AcDbXrecord
280
     1
102
RTVSPropertyOp0
 70
     1
102
RTVSPropertyOp1
 70
     1
102
RTVSPropertyOp2
 70
     1
102
RTVSPropertyOp3
 70
     1
102
RTVSPropertyOp4
 70
     1
102
RTVSPropertyOp5
 70
     1
102
RTVSPropertyOp6
 70
     1
102
RTVSPropertyOp7
 70
     1
102
RTVSPropertyOp8
 70
     1
102
RTVSPropertyOp9
 70
     1
102
RTVSPropertyOp10
 70
     1
102
RTVSPropertyOp11
 70
     1
102
RTVSPropertyOp12
 70
     1
102
RTVSPropertyOp13
 70
     1
102
RTVSPropertyOp14
 70
     1
102
RTVSPropertyOp15
 70
     1
102
RTVSPropertyOp16
 70
     1
102
RTVSPropertyOp17
 70
     1
102
RTVSPropertyOp18
 70
     1
102
RTVSPropertyOp19
 70
     1
102
RTVSPropertyOp20
 70
     1
102
RTVSPropertyOp21
 70
     1
102
RTVSPropertyOp22
 70
     1
102
RTVSPropertyOp23
 70
     1
102
RTVSPropertyOp24
 70
     1
102
RTVSPropertyOp25
 70
     1
102
RTVSPropertyOp26
 70
     1
102
RTVSPropertyOp27
 70
     1
102
RTVSPropertyOp28
 70
     1
102
RTVSPropertyOp29
 70
     1
102
RTVSPropertyOp30
 70
     1
102
RTVSPropertyOp31
 70
     1
102
RTVSPropertyOp32
 70
     1
  0
XRECORD
  5
F10EA0
102
{ACAD_REACTORS
330
F10E9F
102
}
330
F10E9F
100
AcDbXrecord
280
     1
102
RTVSPropertyOp0
 70
     1
102
RTVSPropertyOp1
 70
     1
102
RTVSPropertyOp2
 70
     1
102
RTVSPropertyOp3
 70
     1
102
RTVSPropertyOp4
 70
     1
102
RTVSPropertyOp5
 70
     1
102
RTVSPropertyOp6
 70
     1
102
RTVSPropertyOp7
 70
     1
102
RTVSPropertyOp8
 70
     1
102
RTVSPropertyOp9
 70
     1
102
RTVSPropertyOp10
 70
     1
102
RTVSPropertyOp11
 70
     1
102
RTVSPropertyOp12
 70
     1
102
RTVSPropertyOp13
 70
     1
102
RTVSPropertyOp14
 70
     1
102
RTVSPropertyOp15
 70
     1
102
RTVSPropertyOp16
 70
     1
102
RTVSPropertyOp17
 70
     1
102
RTVSPropertyOp18
 70
     1
102
RTVSPropertyOp19
 70
     1
102
RTVSPropertyOp20
 70
     1
102
RTVSPropertyOp21
 70
     1
102
RTVSPropertyOp22
 70
     1
102
RTVSPropertyOp23
 70
     1
102
RTVSPropertyOp24
 70
     1
102
RTVSPropertyOp25
 70
     1
102
RTVSPropertyOp26
 70
     1
102
RTVSPropertyOp27
 70
     1
102
RTVSPropertyOp28
 70
     1
102
RTVSPropertyOp29
 70
     1
102
RTVSPropertyOp30
 70
     1
102
RTVSPropertyOp31
 70
     1
102
RTVSPropertyOp32
 70
     1
  0
XRECORD
  5
F10E93
102
{ACAD_REACTORS
330
F10E92
102
}
330
F10E92
100
AcDbXrecord
280
     1
102
RTVSPropertyOp0
 70
     0
102
RTVSPropertyOp1
 70
     0
102
RTVSPropertyOp2
 70
     0
102
RTVSPropertyOp3
 70
     0
102
RTVSPropertyOp4
 70
     0
102
RTVSPropertyOp5
 70
     0
102
RTVSPropertyOp6
 70
     0
102
RTVSPropertyOp7
 70
     0
102
RTVSPropertyOp8
 70
     0
102
RTVSPropertyOp9
 70
     0
102
RTVSPropertyOp10
 70
     0
102
RTVSPropertyOp11
 70
     0
102
RTVSPropertyOp12
 70
     0
102
RTVSPropertyOp13
 70
     0
102
RTVSPropertyOp14
 70
     2
102
RTVSPropertyOp15
 70
     0
102
RTVSPropertyOp16
 70
     0
102
RTVSPropertyOp17
 70
     0
102
RTVSPropertyOp18
 70
     0
102
RTVSPropertyOp19
 70
     0
102
RTVSPropertyOp20
 70
     0
102
RTVSPropertyOp21
 70
     0
102
RTVSPropertyOp22
 70
     0
102
RTVSPropertyOp23
 70
     0
102
RTVSPropertyOp24
 70
     0
102
RTVSPropertyOp25
 70
     0
102
RTVSPropertyOp26
 70
     0
102
RTVSPropertyOp27
 70
     0
102
RTVSPropertyOp28
 70
     1
102
RTVSPropertyOp29
 70
     1
102
RTVSPropertyOp30
 70
     1
102
RTVSPropertyOp31
 70
     1
102
RTVSPropertyOp32
 70
     1
  0
XRECORD
  5
F10E8D
102
{ACAD_REACTORS
330
F10E8C
102
}
330
F10E8C
100
AcDbXrecord
280
     1
102
RTVSPropertyOp0
 70
     1
102
RTVSPropertyOp1
 70
     1
102
RTVSPropertyOp2
 70
     1
102
RTVSPropertyOp3
 70
     1
102
RTVSPropertyOp4
 70
     1
102
RTVSPropertyOp5
 70
     1
102
RTVSPropertyOp6
 70
     1
102
RTVSPropertyOp7
 70
     1
102
RTVSPropertyOp8
 70
     1
102
RTVSPropertyOp9
 70
     1
102
RTVSPropertyOp10
 70
     1
102
RTVSPropertyOp11
 70
     1
102
RTVSPropertyOp12
 70
     1
102
RTVSPropertyOp13
 70
     1
102
RTVSPropertyOp14
 70
     1
102
RTVSPropertyOp15
 70
     1
102
RTVSPropertyOp16
 70
     1
102
RTVSPropertyOp17
 70
     1
102
RTVSPropertyOp18
 70
     1
102
RTVSPropertyOp19
 70
     1
102
RTVSPropertyOp20
 70
     1
102
RTVSPropertyOp21
 70
     1
102
RTVSPropertyOp22
 70
     1
102
RTVSPropertyOp23
 70
     1
102
RTVSPropertyOp24
 70
     1
102
RTVSPropertyOp25
 70
     1
102
RTVSPropertyOp26
 70
     1
102
RTVSPropertyOp27
 70
     1
102
RTVSPropertyOp28
 70
     1
102
RTVSPropertyOp29
 70
     1
102
RTVSPropertyOp30
 70
     1
102
RTVSPropertyOp31
 70
     1
102
RTVSPropertyOp32
 70
     1
  0
XRECORD
  5
F10E95
102
{ACAD_REACTORS
330
F10E94
102
}
330
F10E94
100
AcDbXrecord
280
     1
102
RTVSPropertyOp0
 70
     0
102
RTVSPropertyOp1
 70
     0
102
RTVSPropertyOp2
 70
     0
102
RTVSPropertyOp3
 70
     0
102
RTVSPropertyOp4
 70
     0
102
RTVSPropertyOp5
 70
     0
102
RTVSPropertyOp6
 70
     0
102
RTVSPropertyOp7
 70
     0
102
RTVSPropertyOp8
 70
     0
102
RTVSPropertyOp9
 70
     0
102
RTVSPropertyOp10
 70
     0
102
RTVSPropertyOp11
 70
     0
102
RTVSPropertyOp12
 70
     0
102
RTVSPropertyOp13
 70
     0
102
RTVSPropertyOp14
 70
     2
102
RTVSPropertyOp15
 70
     0
102
RTVSPropertyOp16
 70
     0
102
RTVSPropertyOp17
 70
     0
102
RTVSPropertyOp18
 70
     0
102
RTVSPropertyOp19
 70
     0
102
RTVSPropertyOp20
 70
     0
102
RTVSPropertyOp21
 70
     0
102
RTVSPropertyOp22
 70
     0
102
RTVSPropertyOp23
 70
     0
102
RTVSPropertyOp24
 70
     0
102
RTVSPropertyOp25
 70
     0
102
RTVSPropertyOp26
 70
     0
102
RTVSPropertyOp27
 70
     0
102
RTVSPropertyOp28
 70
     1
102
RTVSPropertyOp29
 70
     1
102
RTVSPropertyOp30
 70
     1
102
RTVSPropertyOp31
 70
     1
102
RTVSPropertyOp32
 70
     1
  0
XRECORD
  5
F10E85
102
{ACAD_REACTORS
330
F10E84
102
}
330
F10E84
100
AcDbXrecord
280
     1
102
RTVSPropertyOp0
 70
     1
102
RTVSPropertyOp1
 70
     1
102
RTVSPropertyOp2
 70
     1
102
RTVSPropertyOp3
 70
     1
102
RTVSPropertyOp4
 70
     1
102
RTVSPropertyOp5
 70
     1
102
RTVSPropertyOp6
 70
     1
102
RTVSPropertyOp7
 70
     1
102
RTVSPropertyOp8
 70
     1
102
RTVSPropertyOp9
 70
     1
102
RTVSPropertyOp10
 70
     1
102
RTVSPropertyOp11
 70
     1
102
RTVSPropertyOp12
 70
     1
102
RTVSPropertyOp13
 70
     1
102
RTVSPropertyOp14
 70
     1
102
RTVSPropertyOp15
 70
     1
102
RTVSPropertyOp16
 70
     1
102
RTVSPropertyOp17
 70
     1
102
RTVSPropertyOp18
 70
     1
102
RTVSPropertyOp19
 70
     1
102
RTVSPropertyOp20
 70
     1
102
RTVSPropertyOp21
 70
     1
102
RTVSPropertyOp22
 70
     1
102
RTVSPropertyOp23
 70
     1
102
RTVSPropertyOp24
 70
     1
102
RTVSPropertyOp25
 70
     1
102
RTVSPropertyOp26
 70
     1
102
RTVSPropertyOp27
 70
     1
102
RTVSPropertyOp28
 70
     1
102
RTVSPropertyOp29
 70
     1
102
RTVSPropertyOp30
 70
     1
102
RTVSPropertyOp31
 70
     1
102
RTVSPropertyOp32
 70
     1
  0
XRECORD
  5
F10EAA
102
{ACAD_REACTORS
330
F10EA9
102
}
330
F10EA9
100
AcDbXrecord
280
     1
102
RTVSPropertyOp0
 70
     1
102
RTVSPropertyOp1
 70
     1
102
RTVSPropertyOp2
 70
     1
102
RTVSPropertyOp3
 70
     1
102
RTVSPropertyOp4
 70
     1
102
RTVSPropertyOp5
 70
     1
102
RTVSPropertyOp6
 70
     1
102
RTVSPropertyOp7
 70
     1
102
RTVSPropertyOp8
 70
     1
102
RTVSPropertyOp9
 70
     1
102
RTVSPropertyOp10
 70
     1
102
RTVSPropertyOp11
 70
     1
102
RTVSPropertyOp12
 70
     1
102
RTVSPropertyOp13
 70
     1
102
RTVSPropertyOp14
 70
     1
102
RTVSPropertyOp15
 70
     1
102
RTVSPropertyOp16
 70
     1
102
RTVSPropertyOp17
 70
     1
102
RTVSPropertyOp18
 70
     1
102
RTVSPropertyOp19
 70
     1
102
RTVSPropertyOp20
 70
     1
102
RTVSPropertyOp21
 70
     1
102
RTVSPropertyOp22
 70
     1
102
RTVSPropertyOp23
 70
     1
102
RTVSPropertyOp24
 70
     1
102
RTVSPropertyOp25
 70
     1
102
RTVSPropertyOp26
 70
     1
102
RTVSPropertyOp27
 70
     1
102
RTVSPropertyOp28
 70
     1
102
RTVSPropertyOp29
 70
     1
102
RTVSPropertyOp30
 70
     1
102
RTVSPropertyOp31
 70
     1
102
RTVSPropertyOp32
 70
     1
  0
XRECORD
  5
F10EA8
102
{ACAD_REACTORS
330
F10EA7
102
}
330
F10EA7
100
AcDbXrecord
280
     1
102
RTVSPropertyOp0
 70
     1
102
RTVSPropertyOp1
 70
     1
102
RTVSPropertyOp2
 70
     1
102
RTVSPropertyOp3
 70
     1
102
RTVSPropertyOp4
 70
     1
102
RTVSPropertyOp5
 70
     1
102
RTVSPropertyOp6
 70
     1
102
RTVSPropertyOp7
 70
     1
102
RTVSPropertyOp8
 70
     1
102
RTVSPropertyOp9
 70
     1
102
RTVSPropertyOp10
 70
     1
102
RTVSPropertyOp11
 70
     1
102
RTVSPropertyOp12
 70
     1
102
RTVSPropertyOp13
 70
     1
102
RTVSPropertyOp14
 70
     1
102
RTVSPropertyOp15
 70
     1
102
RTVSPropertyOp16
 70
     1
102
RTVSPropertyOp17
 70
     1
102
RTVSPropertyOp18
 70
     1
102
RTVSPropertyOp19
 70
     1
102
RTVSPropertyOp20
 70
     1
102
RTVSPropertyOp21
 70
     1
102
RTVSPropertyOp22
 70
     1
102
RTVSPropertyOp23
 70
     1
102
RTVSPropertyOp24
 70
     1
102
RTVSPropertyOp25
 70
     1
102
RTVSPropertyOp26
 70
     1
102
RTVSPropertyOp27
 70
     1
102
RTVSPropertyOp28
 70
     1
102
RTVSPropertyOp29
 70
     1
102
RTVSPropertyOp30
 70
     1
102
RTVSPropertyOp31
 70
     1
102
RTVSPropertyOp32
 70
     1
  0
XRECORD
  5
F10EA2
102
{ACAD_REACTORS
330
F10EA1
102
}
330
F10EA1
100
AcDbXrecord
280
     1
102
RTVSPropertyOp0
 70
     1
102
RTVSPropertyOp1
 70
     1
102
RTVSPropertyOp2
 70
     1
102
RTVSPropertyOp3
 70
     1
102
RTVSPropertyOp4
 70
     1
102
RTVSPropertyOp5
 70
     1
102
RTVSPropertyOp6
 70
     1
102
RTVSPropertyOp7
 70
     1
102
RTVSPropertyOp8
 70
     1
102
RTVSPropertyOp9
 70
     1
102
RTVSPropertyOp10
 70
     1
102
RTVSPropertyOp11
 70
     1
102
RTVSPropertyOp12
 70
     1
102
RTVSPropertyOp13
 70
     1
102
RTVSPropertyOp14
 70
     1
102
RTVSPropertyOp15
 70
     1
102
RTVSPropertyOp16
 70
     1
102
RTVSPropertyOp17
 70
     1
102
RTVSPropertyOp18
 70
     1
102
RTVSPropertyOp19
 70
     1
102
RTVSPropertyOp20
 70
     1
102
RTVSPropertyOp21
 70
     1
102
RTVSPropertyOp22
 70
     1
102
RTVSPropertyOp23
 70
     1
102
RTVSPropertyOp24
 70
     1
102
RTVSPropertyOp25
 70
     1
102
RTVSPropertyOp26
 70
     1
102
RTVSPropertyOp27
 70
     1
102
RTVSPropertyOp28
 70
     1
102
RTVSPropertyOp29
 70
     1
102
RTVSPropertyOp30
 70
     1
102
RTVSPropertyOp31
 70
     1
102
RTVSPropertyOp32
 70
     1
  0
XRECORD
  5
F10EA4
102
{ACAD_REACTORS
330
F10EA3
102
}
330
F10EA3
100
AcDbXrecord
280
     1
102
RTVSPropertyOp0
 70
     1
102
RTVSPropertyOp1
 70
     1
102
RTVSPropertyOp2
 70
     1
102
RTVSPropertyOp3
 70
     1
102
RTVSPropertyOp4
 70
     1
102
RTVSPropertyOp5
 70
     1
102
RTVSPropertyOp6
 70
     1
102
RTVSPropertyOp7
 70
     1
102
RTVSPropertyOp8
 70
     1
102
RTVSPropertyOp9
 70
     1
102
RTVSPropertyOp10
 70
     1
102
RTVSPropertyOp11
 70
     1
102
RTVSPropertyOp12
 70
     1
102
RTVSPropertyOp13
 70
     1
102
RTVSPropertyOp14
 70
     1
102
RTVSPropertyOp15
 70
     1
102
RTVSPropertyOp16
 70
     1
102
RTVSPropertyOp17
 70
     1
102
RTVSPropertyOp18
 70
     1
102
RTVSPropertyOp19
 70
     1
102
RTVSPropertyOp20
 70
     1
102
RTVSPropertyOp21
 70
     1
102
RTVSPropertyOp22
 70
     1
102
RTVSPropertyOp23
 70
     1
102
RTVSPropertyOp24
 70
     1
102
RTVSPropertyOp25
 70
     1
102
RTVSPropertyOp26
 70
     1
102
RTVSPropertyOp27
 70
     1
102
RTVSPropertyOp28
 70
     1
102
RTVSPropertyOp29
 70
     1
102
RTVSPropertyOp30
 70
     1
102
RTVSPropertyOp31
 70
     1
102
RTVSPropertyOp32
 70
     1
  0
XRECORD
  5
F10E8B
102
{ACAD_REACTORS
330
F10E8A
102
}
330
F10E8A
100
AcDbXrecord
280
     1
102
RTVSPropertyOp0
 70
     1
102
RTVSPropertyOp1
 70
     1
102
RTVSPropertyOp2
 70
     1
102
RTVSPropertyOp3
 70
     1
102
RTVSPropertyOp4
 70
     1
102
RTVSPropertyOp5
 70
     1
102
RTVSPropertyOp6
 70
     1
102
RTVSPropertyOp7
 70
     1
102
RTVSPropertyOp8
 70
     1
102
RTVSPropertyOp9
 70
     1
102
RTVSPropertyOp10
 70
     1
102
RTVSPropertyOp11
 70
     1
102
RTVSPropertyOp12
 70
     1
102
RTVSPropertyOp13
 70
     1
102
RTVSPropertyOp14
 70
     1
102
RTVSPropertyOp15
 70
     1
102
RTVSPropertyOp16
 70
     1
102
RTVSPropertyOp17
 70
     1
102
RTVSPropertyOp18
 70
     1
102
RTVSPropertyOp19
 70
     1
102
RTVSPropertyOp20
 70
     1
102
RTVSPropertyOp21
 70
     1
102
RTVSPropertyOp22
 70
     1
102
RTVSPropertyOp23
 70
     1
102
RTVSPropertyOp24
 70
     1
102
RTVSPropertyOp25
 70
     1
102
RTVSPropertyOp26
 70
     1
102
RTVSPropertyOp27
 70
     1
102
RTVSPropertyOp28
 70
     1
102
RTVSPropertyOp29
 70
     1
102
RTVSPropertyOp30
 70
     1
102
RTVSPropertyOp31
 70
     1
102
RTVSPropertyOp32
 70
     1
  0
XRECORD
  5
F10E9E
102
{ACAD_REACTORS
330
F10E9D
102
}
330
F10E9D
100
AcDbXrecord
280
     1
102
RTVSPropertyOp0
 70
     1
102
RTVSPropertyOp1
 70
     1
102
RTVSPropertyOp2
 70
     1
102
RTVSPropertyOp3
 70
     1
102
RTVSPropertyOp4
 70
     1
102
RTVSPropertyOp5
 70
     1
102
RTVSPropertyOp6
 70
     1
102
RTVSPropertyOp7
 70
     1
102
RTVSPropertyOp8
 70
     1
102
RTVSPropertyOp9
 70
     1
102
RTVSPropertyOp10
 70
     1
102
RTVSPropertyOp11
 70
     1
102
RTVSPropertyOp12
 70
     1
102
RTVSPropertyOp13
 70
     1
102
RTVSPropertyOp14
 70
     1
102
RTVSPropertyOp15
 70
     1
102
RTVSPropertyOp16
 70
     1
102
RTVSPropertyOp17
 70
     1
102
RTVSPropertyOp18
 70
     1
102
RTVSPropertyOp19
 70
     1
102
RTVSPropertyOp20
 70
     1
102
RTVSPropertyOp21
 70
     1
102
RTVSPropertyOp22
 70
     1
102
RTVSPropertyOp23
 70
     1
102
RTVSPropertyOp24
 70
     1
102
RTVSPropertyOp25
 70
     1
102
RTVSPropertyOp26
 70
     1
102
RTVSPropertyOp27
 70
     1
102
RTVSPropertyOp28
 70
     1
102
RTVSPropertyOp29
 70
     1
102
RTVSPropertyOp30
 70
     1
102
RTVSPropertyOp31
 70
     1
102
RTVSPropertyOp32
 70
     1
  0
XRECORD
  5
F10EA6
102
{ACAD_REACTORS
330
F10EA5
102
}
330
F10EA5
100
AcDbXrecord
280
     1
102
RTVSPropertyOp0
 70
     1
102
RTVSPropertyOp1
 70
     1
102
RTVSPropertyOp2
 70
     1
102
RTVSPropertyOp3
 70
     1
102
RTVSPropertyOp4
 70
     1
102
RTVSPropertyOp5
 70
     1
102
RTVSPropertyOp6
 70
     1
102
RTVSPropertyOp7
 70
     1
102
RTVSPropertyOp8
 70
     1
102
RTVSPropertyOp9
 70
     1
102
RTVSPropertyOp10
 70
     1
102
RTVSPropertyOp11
 70
     1
102
RTVSPropertyOp12
 70
     1
102
RTVSPropertyOp13
 70
     1
102
RTVSPropertyOp14
 70
     1
102
RTVSPropertyOp15
 70
     1
102
RTVSPropertyOp16
 70
     1
102
RTVSPropertyOp17
 70
     1
102
RTVSPropertyOp18
 70
     1
102
RTVSPropertyOp19
 70
     1
102
RTVSPropertyOp20
 70
     1
102
RTVSPropertyOp21
 70
     1
102
RTVSPropertyOp22
 70
     1
102
RTVSPropertyOp23
 70
     1
102
RTVSPropertyOp24
 70
     1
102
RTVSPropertyOp25
 70
     1
102
RTVSPropertyOp26
 70
     1
102
RTVSPropertyOp27
 70
     1
102
RTVSPropertyOp28
 70
     1
102
RTVSPropertyOp29
 70
     1
102
RTVSPropertyOp30
 70
     1
102
RTVSPropertyOp31
 70
     1
102
RTVSPropertyOp32
 70
     1
  0
ENDSEC
  0
EOF
