  0
SECTION
  2
HEADER
  9
$ACADVER
  1
AC1015
  9
$ACADMAINTVER
 70
    20
  9
$DWGCODEPAGE
  3
ANSI_1252
  9
$INSBASE
 10
0.0
 20
0.0
 30
0.0
  9
$EXTMIN
 10
-208.09585492228
 20
-100.103626943005
 30
0.0
  9
$EXTMAX
 10
143.354922279793
 20
106.7646657571623
 30
0.0
  9
$LIMMIN
 10
0.0
 20
0.0
  9
$LIMMAX
 10
12.0
 20
9.0
  9
$ORTHOMODE
 70
     0
  9
$REGENMODE
 70
     1
  9
$FILLMODE
 70
     1
  9
$QTEXTMODE
 70
     0
  9
$MIRRTEXT
 70
     1
  9
$LTSCALE
 40
1.0
  9
$ATTMODE
 70
     1
  9
$TEXTSIZE
 40
0.2
  9
$TRACEWID
 40
0.05
  9
$TEXTSTYLE
  7
Standard
  9
$CLAYER
  8
0
  9
$CELTYPE
  6
ByLayer
  9
$CECOLOR
 62
   256
  9
$CELTSCALE
 40
1.0
  9
$DISPSILH
 70
     0
  9
$DIMSCALE
 40
1.0
  9
$DIMASZ
 40
2.5
  9
$DIMEXO
 40
0.625
  9
$DIMDLI
 40
0.38
  9
$DIMRND
 40
0.0
  9
$DIMDLE
 40
0.0
  9
$DIMEXE
 40
1.25
  9
$DIMTP
 40
0.0
  9
$DIMTM
 40
0.000000001
  9
$DIMTXT
 40
2.5
  9
$DIMCEN
 40
0.09
  9
$DIMTSZ
 40
0.0
  9
$DIMTOL
 70
     1
  9
$DIMLIM
 70
     0
  9
$DIMTIH
 70
     0
  9
$DIMTOH
 70
     0
  9
$DIMSE1
 70
     0
  9
$DIMSE2
 70
     0
  9
$DIMTAD
 70
     1
  9
$DIMZIN
 70
     0
  9
$DIMBLK
  1
VDDIM_DEFAULT
  9
$DIMASO
 70
     1
  9
$DIMSHO
 70
     1
  9
$DIMPOST
  1

  9
$DIMAPOST
  1

  9
$DIMALT
 70
     0
  9
$DIMALTD
 70
     2
  9
$DIMALTF
 40
25.4
  9
$DIMLFAC
 40
1.0
  9
$DIMTOFL
 70
     0
  9
$DIMTVP
 40
0.0
  9
$DIMTIX
 70
     0
  9
$DIMSOXD
 70
     0
  9
$DIMSAH
 70
     0
  9
$DIMBLK1
  1

  9
$DIMBLK2
  1

  9
$DIMSTYLE
  2
BEM-ISBE
  9
$DIMCLRD
 70
     0
  9
$DIMCLRE
 70
     0
  9
$DIMCLRT
 70
     0
  9
$DIMTFAC
 40
0.5
  9
$DIMGAP
 40
0.625
  9
$DIMJUST
 70
     0
  9
$DIMSD1
 70
     0
  9
$DIMSD2
 70
     0
  9
$DIMTOLJ
 70
     1
  9
$DIMTZIN
 70
     0
  9
$DIMALTZ
 70
     0
  9
$DIMALTTZ
 70
     0
  9
$DIMUPT
 70
     0
  9
$DIMDEC
 70
     3
  9
$DIMTDEC
 70
     3
  9
$DIMALTU
 70
     2
  9
$DIMALTTD
 70
     2
  9
$DIMTXSTY
  7
Standard
  9
$DIMAUNIT
 70
     0
  9
$DIMADEC
 70
     3
  9
$DIMALTRND
 40
0.0
  9
$DIMAZIN
 70
     0
  9
$DIMDSEP
 70
    46
  9
$DIMATFIT
 70
     3
  9
$DIMFRAC
 70
     0
  9
$DIMLDRBLK
  1

  9
$DIMLUNIT
 70
     2
  9
$DIMLWD
 70
    -2
  9
$DIMLWE
 70
    -2
  9
$DIMTMOVE
 70
     0
  9
$LUNITS
 70
     2
  9
$LUPREC
 70
     4
  9
$SKETCHINC
 40
0.1
  9
$FILLETRAD
 40
0.0
  9
$AUNITS
 70
     0
  9
$AUPREC
 70
     0
  9
$MENU
  1
.
  9
$ELEVATION
 40
0.0
  9
$PELEVATION
 40
0.0
  9
$THICKNESS
 40
0.0
  9
$LIMCHECK
 70
     0
  9
$CHAMFERA
 40
0.5
  9
$CHAMFERB
 40
0.5
  9
$CHAMFERC
 40
1.0
  9
$CHAMFERD
 40
0.0
  9
$SKPOLY
 70
     0
  9
$TDCREATE
 40
2457073.581119421
  9
$TDUCREATE
 40
2457073.539452755
  9
$TDUPDATE
 40
2457073.584411979
  9
$TDUUPDATE
 40
2457073.542745312
  9
$TDINDWG
 40
0.0032938773
  9
$TDUSRTIMER
 40
0.0032938310
  9
$USRTIMER
 70
     1
  9
$ANGBASE
 50
0.0
  9
$ANGDIR
 70
     0
  9
$PDMODE
 70
     0
  9
$PDSIZE
 40
0.0
  9
$PLINEWID
 40
0.0
  9
$SPLFRAME
 70
     0
  9
$SPLINETYPE
 70
     6
  9
$SPLINESEGS
 70
     8
  9
$HANDSEED
  5
F10AEE
  9
$SURFTAB1
 70
     6
  9
$SURFTAB2
 70
     6
  9
$SURFTYPE
 70
     6
  9
$SURFU
 70
     6
  9
$SURFV
 70
     6
  9
$UCSBASE
  2

  9
$UCSNAME
  2

  9
$UCSORG
 10
-21.82127981039976
 20
-4.490802410757019
 30
0.0
  9
$UCSXDIR
 10
1.0
 20
0.0
 30
0.0
  9
$UCSYDIR
 10
0.0
 20
1.0
 30
0.0
  9
$UCSORTHOREF
  2

  9
$UCSORTHOVIEW
 70
     0
  9
$UCSORGTOP
 10
0.0
 20
0.0
 30
0.0
  9
$UCSORGBOTTOM
 10
0.0
 20
0.0
 30
0.0
  9
$UCSORGLEFT
 10
0.0
 20
0.0
 30
0.0
  9
$UCSORGRIGHT
 10
0.0
 20
0.0
 30
0.0
  9
$UCSORGFRONT
 10
0.0
 20
0.0
 30
0.0
  9
$UCSORGBACK
 10
0.0
 20
0.0
 30
0.0
  9
$PUCSBASE
  2

  9
$PUCSNAME
  2

  9
$PUCSORG
 10
0.0
 20
0.0
 30
0.0
  9
$PUCSXDIR
 10
1.0
 20
0.0
 30
0.0
  9
$PUCSYDIR
 10
0.0
 20
1.0
 30
0.0
  9
$PUCSORTHOREF
  2

  9
$PUCSORTHOVIEW
 70
     0
  9
$PUCSORGTOP
 10
0.0
 20
0.0
 30
0.0
  9
$PUCSORGBOTTOM
 10
0.0
 20
0.0
 30
0.0
  9
$PUCSORGLEFT
 10
0.0
 20
0.0
 30
0.0
  9
$PUCSORGRIGHT
 10
0.0
 20
0.0
 30
0.0
  9
$PUCSORGFRONT
 10
0.0
 20
0.0
 30
0.0
  9
$PUCSORGBACK
 10
0.0
 20
0.0
 30
0.0
  9
$USERI1
 70
     0
  9
$USERI2
 70
     0
  9
$USERI3
 70
     0
  9
$USERI4
 70
     0
  9
$USERI5
 70
     0
  9
$USERR1
 40
0.0
  9
$USERR2
 40
0.0
  9
$USERR3
 40
0.0
  9
$USERR4
 40
0.0
  9
$USERR5
 40
0.0
  9
$WORLDVIEW
 70
     1
  9
$SHADEDGE
 70
     3
  9
$SHADEDIF
 70
    70
  9
$TILEMODE
 70
     1
  9
$MAXACTVP
 70
    64
  9
$PINSBASE
 10
0.0
 20
0.0
 30
0.0
  9
$PLIMCHECK
 70
     0
  9
$PEXTMIN
 10
1.000000000000000E+20
 20
1.000000000000000E+20
 30
1.000000000000000E+20
  9
$PEXTMAX
 10
-1.000000000000000E+20
 20
-1.000000000000000E+20
 30
-1.000000000000000E+20
  9
$PLIMMIN
 10
0.0
 20
0.0
  9
$PLIMMAX
 10
12.0
 20
9.0
  9
$UNITMODE
 70
     0
  9
$VISRETAIN
 70
     1
  9
$PLINEGEN
 70
     0
  9
$PSLTSCALE
 70
     1
  9
$TREEDEPTH
 70
  3020
  9
$CMLSTYLE
  2
Standard
  9
$CMLJUST
 70
     0
  9
$CMLSCALE
 40
1.0
  9
$PROXYGRAPHICS
 70
     1
  9
$MEASUREMENT
 70
     0
  9
$CELWEIGHT
370
    -1
  9
$ENDCAPS
280
     0
  9
$JOINSTYLE
280
     0
  9
$LWDISPLAY
290
     0
  9
$INSUNITS
 70
     4
  9
$HYPERLINKBASE
  1

  9
$STYLESHEET
  1

  9
$XEDIT
290
     1
  9
$CEPSNTYPE
380
     0
  9
$PSTYLEMODE
290
     0
  9
$FINGERPRINTGUID
  2
{FAEB1C30-E019-11D5-929B-00C0DF256EC4}
  9
$VERSIONGUID
  2
{23C60BFA-8942-4337-AB48-71A911F1E4AE}
  9
$EXTNAMES
290
     1
  9
$PSVPSCALE
 40
0.0
  9
$OLESTARTUP
290
     0
  0
ENDSEC
  0
SECTION
  2
CLASSES
  0
CLASS
  1
ACDBDICTIONARYWDFLT
  2
AcDbDictionaryWithDefault
  3
ObjectDBX Classes
 90
        0
280
     0
281
     0
  0
CLASS
  1
MATERIAL
  2
AcDbMaterial
  3
ObjectDBX Classes
 90
     1153
280
     0
281
     0
  0
CLASS
  1
MLEADERSTYLE
  2
AcDbMLeaderStyle
  3
ACDB_MLEADERSTYLE_CLASS
 90
     4095
280
     0
281
     0
  0
CLASS
  1
SCALE
  2
AcDbScale
  3
ObjectDBX Classes
 90
     1153
280
     0
281
     0
  0
CLASS
  1
TABLESTYLE
  2
AcDbTableStyle
  3
ObjectDBX Classes
 90
     4095
280
     0
281
     0
  0
CLASS
  1
VISUALSTYLE
  2
AcDbVisualStyle
  3
ObjectDBX Classes
 90
     4095
280
     0
281
     0
  0
CLASS
  1
DICTIONARYVAR
  2
AcDbDictionaryVar
  3
ObjectDBX Classes
 90
        0
280
     0
281
     0
  0
CLASS
  1
CELLSTYLEMAP
  2
AcDbCellStyleMap
  3
ObjectDBX Classes
 90
     1152
280
     0
281
     0
  0
CLASS
  1
AMGSETTINGSOBJ
  2
AmgSettingsObj
  3
"AcadM|Product Description: AutoCAD Mechanical|Company: Autodesk, Inc."
 90
     1024
280
     0
281
     0
  0
CLASS
  1
ACME_DOCUMENT
  2
AcMeDbDoc
  3
AcMeServices
 90
     1024
280
     0
281
     0
  0
CLASS
  1
ACMESCOPE
  2
AcMeScope
  3
AcMeServices
 90
     1024
280
     0
281
     0
  0
CLASS
  1
ACMECOMMANDHISTORY
  2
AcMeCommandHistory
  3
AcMeServices
 90
     1024
280
     0
281
     0
  0
CLASS
  1
ACIMSYSVARMAN
  2
AcImSysVarManager
  3
AcMeServices
 90
     1024
280
     0
281
     0
  0
CLASS
  1
ACIMINTSYSVAR
  2
AcImIntSysVar
  3
AcMeServices
 90
     1024
280
     0
281
     0
  0
CLASS
  1
ACMESTATEMGR
  2
AcMeStateMgr
  3
AcMeServices
 90
     1024
280
     0
281
     0
  0
CLASS
  1
ACDBENTITYCACHE
  2
AcMeEntityCache
  3
AcMeServices
 90
     1024
280
     0
281
     0
  0
CLASS
  1
ACGREFMASTER
  2
AcGrefMaster
  3
AcAttribServices
 90
     1024
280
     0
281
     0
  0
CLASS
  1
AM_DRAWING_MGR
  2
AcDmDwgMgr
  3
AcMechDwgViewMgmt
 90
     1024
280
     0
281
     0
  0
CLASS
  1
AM_DWG_DOCUMENT
  2
AcDmDwgDocument
  3
AcMechDwgViewMgmt
 90
     1024
280
     0
281
     0
  0
CLASS
  1
AM_DWG_SHEET
  2
AcDmSheet
  3
AcMechDwgViewMgmt
 90
     1024
280
     0
281
     0
  0
CLASS
  1
AM_VIEWDIMPARMAP
  2
AcDmViewDimParMap
  3
AcMechDwgViewMgmt
 90
     1024
280
     0
281
     0
  0
CLASS
  1
AMDTINTERNALREACTOR
  2
AmdtInternalReactor
  3
AcMeServices
 90
     1024
280
     0
281
     0
  0
CLASS
  1
ACIMREALSYSVAR
  2
AcImRealSysVar
  3
AcMeServices
 90
     1024
280
     0
281
     0
  0
CLASS
  1
AM_DWGMGR_NAME
  2
AcDmDwgMgrName
  3
AcMechDwgViewMgmt
 90
     1024
280
     0
281
     0
  0
CLASS
  1
ACME_DATABASE
  2
AcMeDbDatabase
  3
AcMeServices
 90
     1024
280
     0
281
     0
  0
CLASS
  1
ACRFINSADJUSTERMGR
  2
AcRfInsAdjusterMgr
  3
AcMeServices
 90
     1024
280
     0
281
     0
  0
CLASS
  1
ACGREFACADMASTER
  2
AcGrefacadMaster
  3
AcGrefServices
 90
     1024
280
     0
281
     0
  0
CLASS
  1
AMDTMENUSTATEMGR
  2
AmdtMenuStateMgr
  3
McadcomServices
 90
     1024
280
     0
281
     0
  0
CLASS
  1
AMDTMCOMMENUSTATE
  2
AmdtMcomMenuState
  3
McadcomServices
 90
     1024
280
     0
281
     0
  0
CLASS
  1
AMIMASTER
  2
AmiMaster
  3
AmiServices
 90
     1024
280
     0
281
     0
  0
CLASS
  1
MAPIAMMOUDLE
  2
MApiAmModule
  3
MApiAmServices
 90
     1024
280
     0
281
     0
  0
CLASS
  1
ACIMSTRSYSVAR
  2
AcImStrSysVar
  3
AcMeServices
 90
     1024
280
     0
281
     0
  0
CLASS
  1
AMDTDMMENUSTATE
  2
AmdtDmMenuState
  3
AcMechDwgViewMgmt
 90
     1024
280
     0
281
     0
  0
CLASS
  1
AMDTAMMENUSTATE
  2
AmdtAmMenuState
  3
DesignerAssemblies
 90
     1024
280
     0
281
     0
  0
CLASS
  1
ACAMPROJECT
  2
AcAmProject
  3
DesignerAssemblies
 90
     1024
280
     0
281
     0
  0
CLASS
  1
ACAMGRCOMPDEF
  2
AcAmGrCompDef
  3
DesignerAssemblies
 90
     1024
280
     0
281
     0
  0
CLASS
  1
ACAMCOMPDEF
  2
AcAmCompDef
  3
DesignerAssemblies
 90
     1024
280
     0
281
     0
  0
CLASS
  1
ACAMCOMPDEFMGR
  2
AcAmCompDefMgr
  3
DesignerAssemblies
 90
     1024
280
     0
281
     0
  0
CLASS
  1
AMCONTEXTMGR
  2
AcAmContextMgr
  3
DesignerAssemblies
 90
     1024
280
     0
281
     0
  0
CLASS
  1
ACAMCONTEXTMODELER
  2
AcAmContextModeler
  3
DesignerAssemblies
 90
     1024
280
     0
281
     0
  0
CLASS
  1
ACMDATADICTIONARY
  2
AcmDataDictionary
  3
"AcmSymBB|Product Description: AutoCAD Mechanical|Company: Autodesk, Inc."
 90
     1024
280
     0
281
     0
  0
CLASS
  1
ACAMGRCOMPDEFSET
  2
AcAmGrCompDefSet
  3
DesignerAssemblies
 90
     1024
280
     0
281
     0
  0
CLASS
  1
AMDTBROWSERDBTAB
  2
AmdtBrowserDbTab
  3
McadcomServices
 90
     1024
280
     0
281
     0
  0
CLASS
  1
CBROWSERAPPOBJECT
  2
CBrowserAppObject
  3
McadcomServices
 90
     1024
280
     0
281
     0
  0
CLASS
  1
DM_PLACEHOLDER
  2
AcDmSelsetPlaceholder
  3
AcMechDwgViewMgmt
 90
     1024
280
     0
281
     0
  0
CLASS
  1
EXACXREFPANELOBJECT
  2
ExAcXREFPanelObject
  3
EXAC_ESW
 90
     1025
280
     0
281
     0
  0
CLASS
  1
NPOCOLLECTION
  2
AcDbImpNonPersistentObjectsCollection
  3
ObjectDBX Classes
 90
     1153
280
     0
281
     0
  0
CLASS
  1
ACMSTANDARDANSI
  2
AcmStandardANSI
  3
"Amdt_StdImp|Product Description: AutoCAD Mechanical|Company: Autodesk, Inc."
 90
     1024
280
     0
281
     0
  0
CLASS
  1
ACMSURFSTANDARDANSI
  2
AcmSurfTextStdANSI
  3
"Amdt_StdImp|Product Description: AutoCAD Mechanical|Company: Autodesk, Inc."
 90
     1024
280
     0
281
     0
  0
CLASS
  1
ACMFCFSTANDARDANSI
  2
AcmFCFStdANSI
  3
"Amdt_StdImp|Product Description: AutoCAD Mechanical|Company: Autodesk, Inc."
 90
     1024
280
     0
281
     0
  0
CLASS
  1
ACMWELDSTANDARDANSI
  2
AcmWeldingStdANSI
  3
"Amdt_StdImp|Product Description: AutoCAD Mechanical|Company: Autodesk, Inc."
 90
     1024
280
     0
281
     0
  0
CLASS
  1
ACMIDSTANDARDANSI
  2
AcmIdStdANSI
  3
"Amdt_StdImp|Product Description: AutoCAD Mechanical|Company: Autodesk, Inc."
 90
     1024
280
     0
281
     0
  0
CLASS
  1
ACMDATUMSTANDARDANSI
  2
AcmDatumStdANSI
  3
"Amdt_StdImp|Product Description: AutoCAD Mechanical|Company: Autodesk, Inc."
 90
     1024
280
     0
281
     0
  0
CLASS
  1
ACMBOMSTANDARDANSI
  2
AcmBOMStdANSI
  3
"Amdt_StdImp|Product Description: AutoCAD Mechanical|Company: Autodesk, Inc."
 90
     1024
280
     0
281
     0
  0
CLASS
  1
ACMDETAILSTANDARDANSI
  2
AmdtDetailSymStdANSI
  3
"Amdt_StdImp|Product Description: AutoCAD Mechanical|Company: Autodesk, Inc."
 90
     1024
280
     0
281
     0
  0
CLASS
  1
ACMSECTIONSTANDARDANSI
  2
AmdtSectionSymStdANSI
  3
"Amdt_StdImp|Product Description: AutoCAD Mechanical|Company: Autodesk, Inc."
 90
     1024
280
     0
281
     0
  0
CLASS
  1
ACMCENTERLINESTANDARDANSI
  2
AmdtCenterLineStdANSI
  3
"Amdt_StdImp|Product Description: AutoCAD Mechanical|Company: Autodesk, Inc."
 90
     1024
280
     0
281
     0
  0
CLASS
  1
ACMTHREADLINESTANDARDANSI
  2
AmdtThreadLineStdANSI
  3
"Amdt_StdImp|Product Description: AutoCAD Mechanical|Company: Autodesk, Inc."
 90
     1024
280
     0
281
     0
  0
CLASS
  1
ACMNOTESTANDARDANSI
  2
AmdtNoteStdANSI
  3
"Amdt_StdImp|Product Description: AutoCAD Mechanical|Company: Autodesk, Inc."
 90
     1024
280
     0
281
     0
  0
CLASS
  1
ACMTAPERSTANDARDANSI
  2
AcmTaperStdANSI
  3
"Amdt_StdImp|Product Description: AutoCAD Mechanical|Company: Autodesk, Inc."
 90
     1024
280
     0
281
     0
  0
CLASS
  1
ACMANOOTATIONVIEWSTANDARDANSI
  2
AmdtAnViewStdANSI
  3
"Amdt_StdImp|Product Description: AutoCAD Mechanical|Company: Autodesk, Inc."
 90
     1024
280
     0
281
     0
  0
CLASS
  1
ACAMGLAYSTD
  2
AcAmgLayStd
  3
"AmgLay|Product Description: AutoCAD Mechanical|Company: Autodesk, Inc."
 90
     1024
280
     0
281
     0
  0
CLASS
  1
ACAMGDIMSTD
  2
AcAmgDimStd
  3
"AmgDim|Product Description: AutoCAD Mechanical|Company: Autodesk, Inc."
 90
     1024
280
     0
281
     0
  0
CLASS
  1
AMGOBJPROPCFG
  2
AmgObjPropCfg
  3
"AmgLay|Product Description: AutoCAD Mechanical|Company: Autodesk, Inc."
 90
     1025
280
     0
281
     0
  0
CLASS
  1
ACAMGHOLECHARTSTDANSI
  2
AcAmgHoleChartStdANSI
  3
AmgDim|Product Description: AutoCAD Mechanical|Company: Autodesk, Inc.
 90
     1024
280
     0
281
     0
  0
CLASS
  1
ACAMGTITLESTD
  2
AcAmgTitleStd
  3
"AmgTitle|Product Description: AutoCAD Mechanical|Company: Autodesk, Inc."
 90
     4095
280
     0
281
     0
  0
CLASS
  1
AMDTNOTETEMPLATEDB
  2
AmdtNoteTemplateDB
  3
AcmSymBB|Product Description: AutoCAD Mechanical|Company: Autodesk, Inc.
 90
     1024
280
     0
281
     0
  0
CLASS
  1
ACAMGFILTERDAT
  2
AcAmgFilterDat
  3
"AcadM|Product Description: AutoCAD Mechanical|Company: Autodesk, Inc."
 90
     1024
280
     0
281
     0
  0
CLASS
  1
ACDBPLACEHOLDER
  2
AcDbPlaceHolder
  3
ObjectDBX Classes
 90
        0
280
     0
281
     0
  0
CLASS
  1
LAYOUT
  2
AcDbLayout
  3
ObjectDBX Classes
 90
        0
280
     0
281
     0
  0
ENDSEC
  0
SECTION
  2
TABLES
  0
TABLE
  2
VPORT
  5
24A
330
0
100
AcDbSymbolTable
 70
     1
  0
VPORT
  5
26B
330
24A
100
AcDbSymbolTableRecord
100
AcDbViewportTableRecord
  2
*Active
 70
     0
 10
0.0
 20
0.0
 11
1.0
 21
1.0
 12
4.770597435476929
 22
-15.46091889307024
 13
0.0
 23
0.0
 14
10.0
 24
10.0
 15
10.0
 25
10.0
 16
0.0
 26
0.0
 36
1.0
 17
0.0
 27
0.0
 37
0.0
 40
196.0810269192661
 41
1.670673076923077
 42
1.0
 43
0.0
 44
0.0
 50
0.0
 51
0.0000000000007958
 71
     0
 72
   100
 73
     1
 74
     3
 75
     0
 76
     0
 77
     0
 78
     1
281
     0
 65
     0
110
0.0
120
0.0
130
0.0
111
1.0
121
0.0
131
0.0
112
0.0
122
1.0
132
0.0
 79
     0
146
0.0
  0
ENDTAB
  0
TABLE
  2
LTYPE
  5
247
330
0
100
AcDbSymbolTable
 70
    37
  0
LTYPE
  5
256
330
247
100
AcDbSymbolTableRecord
100
AcDbLinetypeTableRecord
  2
ByBlock
 70
     0
  3

 72
    65
 73
     0
 40
0.0
  0
LTYPE
  5
257
330
247
100
AcDbSymbolTableRecord
100
AcDbLinetypeTableRecord
  2
ByLayer
 70
     0
  3

 72
    65
 73
     0
 40
0.0
  0
LTYPE
  5
258
330
247
100
AcDbSymbolTableRecord
100
AcDbLinetypeTableRecord
  2
Continuous
 70
     0
  3
Solid line
 72
    65
 73
     0
 40
0.0
  0
LTYPE
  5
273
330
247
100
AcDbSymbolTableRecord
100
AcDbLinetypeTableRecord
  2
CENTER
 70
     0
  3
Center ____ _ ____ _ ____ _ ____ _ ____ _ ____
 72
    65
 73
     4
 40
2.0
 49
1.25
 74
     0
 49
-0.25
 74
     0
 49
0.25
 74
     0
 49
-0.25
 74
     0
  0
LTYPE
  5
274
330
247
100
AcDbSymbolTableRecord
100
AcDbLinetypeTableRecord
  2
DASHDOT
 70
     0
  3
Dashdot __ . __ . __ . __ . __ . __ . __ . __
 72
    65
 73
     4
 40
1.0
 49
0.5
 74
     0
 49
-0.25
 74
     0
 49
0.0
 74
     0
 49
-0.25
 74
     0
  0
LTYPE
  5
275
330
247
100
AcDbSymbolTableRecord
100
AcDbLinetypeTableRecord
  2
DASHED
 70
     0
  3
Dashed __ __ __ __ __ __ __ __ __ __ __ __ __ _
 72
    65
 73
     2
 40
0.75
 49
0.5
 74
     0
 49
-0.25
 74
     0
  0
LTYPE
  5
276
330
247
100
AcDbSymbolTableRecord
100
AcDbLinetypeTableRecord
  2
HIDDEN
 70
     0
  3
Hidden __ __ __ __ __ __ __ __ __ __ __ __ __ __
 72
    65
 73
     2
 40
0.375
 49
0.25
 74
     0
 49
-0.125
 74
     0
  0
LTYPE
  5
277
330
247
100
AcDbSymbolTableRecord
100
AcDbLinetypeTableRecord
  2
HIDDEN2
 70
     0
  3
Hidden2 _ _ _ _ _ _ _ _ _ _ _ _ _ _ _ _ _
 72
    65
 73
     2
 40
0.1875
 49
0.125
 74
     0
 49
-0.0625
 74
     0
  0
LTYPE
  5
278
330
247
100
AcDbSymbolTableRecord
100
AcDbLinetypeTableRecord
  2
BORDER
 70
     0
  3
Border __ __ . __ __ . __ __ . __ __ . __ __ .
 72
    65
 73
     6
 40
1.75
 49
0.5
 74
     0
 49
-0.25
 74
     0
 49
0.5
 74
     0
 49
-0.25
 74
     0
 49
0.0
 74
     0
 49
-0.25
 74
     0
  0
LTYPE
  5
279
330
247
100
AcDbSymbolTableRecord
100
AcDbLinetypeTableRecord
  2
BORDER2
 70
     0
  3
Border2 __.__.__.__.__.__.__.__.__.__.__.
 72
    65
 73
     6
 40
0.875
 49
0.25
 74
     0
 49
-0.125
 74
     0
 49
0.25
 74
     0
 49
-0.125
 74
     0
 49
0.0
 74
     0
 49
-0.125
 74
     0
  0
LTYPE
  5
27A
330
247
100
AcDbSymbolTableRecord
100
AcDbLinetypeTableRecord
  2
BORDERX2
 70
     0
  3
Borderx2  ____  ____  .  ____  ____  .  ___
 72
    65
 73
     6
 40
3.5
 49
1.0
 74
     0
 49
-0.5
 74
     0
 49
1.0
 74
     0
 49
-0.5
 74
     0
 49
0.0
 74
     0
 49
-0.5
 74
     0
  0
LTYPE
  5
27B
330
247
100
AcDbSymbolTableRecord
100
AcDbLinetypeTableRecord
  2
CENTER2
 70
     0
  3
Center2  ___ _ ___ _ ___ _ ___ _ ___ _ ___
 72
    65
 73
     4
 40
1.125
 49
0.75
 74
     0
 49
-0.125
 74
     0
 49
0.125
 74
     0
 49
-0.125
 74
     0
  0
LTYPE
  5
27C
330
247
100
AcDbSymbolTableRecord
100
AcDbLinetypeTableRecord
  2
CENTERX2
 70
     0
  3
Centerx2  ________  __  ________  __  _____
 72
    65
 73
     4
 40
4.0
 49
2.5
 74
     0
 49
-0.5
 74
     0
 49
0.5
 74
     0
 49
-0.5
 74
     0
  0
LTYPE
  5
27D
330
247
100
AcDbSymbolTableRecord
100
AcDbLinetypeTableRecord
  2
DASHDOT2
 70
     0
  3
Dashdot2  _._._._._._._._._._._._._._._.
 72
    65
 73
     4
 40
0.5
 49
0.25
 74
     0
 49
-0.125
 74
     0
 49
0.0
 74
     0
 49
-0.125
 74
     0
  0
LTYPE
  5
27E
330
247
100
AcDbSymbolTableRecord
100
AcDbLinetypeTableRecord
  2
DASHDOTX2
 70
     0
  3
Dashdotx2 ____  .  ____  .  ____  .  ___
 72
    65
 73
     4
 40
2.0
 49
1.0
 74
     0
 49
-0.5
 74
     0
 49
0.0
 74
     0
 49
-0.5
 74
     0
  0
LTYPE
  5
27F
330
247
100
AcDbSymbolTableRecord
100
AcDbLinetypeTableRecord
  2
DASHED2
 70
     0
  3
Dashed2 _ _ _ _ _ _ _ _ _ _ _ _ _ _ _ _ _
 72
    65
 73
     2
 40
0.375
 49
0.25
 74
     0
 49
-0.125
 74
     0
  0
LTYPE
  5
280
330
247
100
AcDbSymbolTableRecord
100
AcDbLinetypeTableRecord
  2
DASHEDX2
 70
     0
  3
Dashedx2 ____  ____  ____  ____  ____  ___
 72
    65
 73
     2
 40
1.5
 49
1.0
 74
     0
 49
-0.5
 74
     0
  0
LTYPE
  5
281
330
247
100
AcDbSymbolTableRecord
100
AcDbLinetypeTableRecord
  2
DIVIDE
 70
     0
  3
Divide ____ . . ____ . . ____ . . ____ . . ____
 72
    65
 73
     6
 40
1.25
 49
0.5
 74
     0
 49
-0.25
 74
     0
 49
0.0
 74
     0
 49
-0.25
 74
     0
 49
0.0
 74
     0
 49
-0.25
 74
     0
  0
LTYPE
  5
282
330
247
100
AcDbSymbolTableRecord
100
AcDbLinetypeTableRecord
  2
DIVIDE2
 70
     0
  3
Divide2 __..__..__..__..__..__..__..__.._
 72
    65
 73
     6
 40
0.625
 49
0.25
 74
     0
 49
-0.125
 74
     0
 49
0.0
 74
     0
 49
-0.125
 74
     0
 49
0.0
 74
     0
 49
-0.125
 74
     0
  0
LTYPE
  5
283
330
247
100
AcDbSymbolTableRecord
100
AcDbLinetypeTableRecord
  2
DIVIDEX2
 70
     0
  3
Dividex2 ________  .  .  ________  .  .  _
 72
    65
 73
     6
 40
2.5
 49
1.0
 74
     0
 49
-0.5
 74
     0
 49
0.0
 74
     0
 49
-0.5
 74
     0
 49
0.0
 74
     0
 49
-0.5
 74
     0
  0
LTYPE
  5
284
330
247
100
AcDbSymbolTableRecord
100
AcDbLinetypeTableRecord
  2
DOT
 70
     0
  3
Dot . . . . . . . . . . . . . . . . . . . . . . . .
 72
    65
 73
     2
 40
0.25
 49
0.0
 74
     0
 49
-0.25
 74
     0
  0
LTYPE
  5
285
330
247
100
AcDbSymbolTableRecord
100
AcDbLinetypeTableRecord
  2
DOT2
 70
     0
  3
Dot2 ........................................
 72
    65
 73
     2
 40
0.125
 49
0.0
 74
     0
 49
-0.125
 74
     0
  0
LTYPE
  5
286
330
247
100
AcDbSymbolTableRecord
100
AcDbLinetypeTableRecord
  2
DOTX2
 70
     0
  3
Dotx2 .  .  .  .  .  .  .  .  .  .  .  .  .  .
 72
    65
 73
     2
 40
0.5
 49
0.0
 74
     0
 49
-0.5
 74
     0
  0
LTYPE
  5
287
330
247
100
AcDbSymbolTableRecord
100
AcDbLinetypeTableRecord
  2
HIDDENX2
 70
     0
  3
Hiddenx2 ____ ____ ____ ____ ____ ____ ____
 72
    65
 73
     2
 40
0.75
 49
0.5
 74
     0
 49
-0.25
 74
     0
  0
LTYPE
  5
288
330
247
100
AcDbSymbolTableRecord
100
AcDbLinetypeTableRecord
  2
PHANTOM
 70
     0
  3
Phantom ______  __  __  ______  __  __  ______
 72
    65
 73
     6
 40
2.5
 49
1.25
 74
     0
 49
-0.25
 74
     0
 49
0.25
 74
     0
 49
-0.25
 74
     0
 49
0.25
 74
     0
 49
-0.25
 74
     0
  0
LTYPE
  5
289
330
247
100
AcDbSymbolTableRecord
100
AcDbLinetypeTableRecord
  2
PHANTOM2
 70
     0
  3
Phantom2 ___ _ _ ___ _ _ ___ _ _ ___ _ _
 72
    65
 73
     6
 40
1.25
 49
0.625
 74
     0
 49
-0.125
 74
     0
 49
0.125
 74
     0
 49
-0.125
 74
     0
 49
0.125
 74
     0
 49
-0.125
 74
     0
  0
LTYPE
  5
28A
330
247
100
AcDbSymbolTableRecord
100
AcDbLinetypeTableRecord
  2
PHANTOMX2
 70
     0
  3
Phantomx2 ____________    ____    ____   _
 72
    65
 73
     6
 40
5.0
 49
2.5
 74
     0
 49
-0.5
 74
     0
 49
0.5
 74
     0
 49
-0.5
 74
     0
 49
0.5
 74
     0
 49
-0.5
 74
     0
  0
LTYPE
  5
F108B2
330
247
100
AcDbSymbolTableRecord
100
AcDbLinetypeTableRecord
  2
AM_ISO02W050
 70
     0
  3
__ __ __ __ __ __ __ __ __ __ __ __ __ __ __
 72
    65
 73
     2
 40
7.5
 49
6.0
 74
     0
 49
-1.5
 74
     0
  0
LTYPE
  5
F108B3
330
247
100
AcDbSymbolTableRecord
100
AcDbLinetypeTableRecord
  2
AM_ISO08W050
 70
     0
  3
____ . ____ . ____ . ____ . ____ . ____ . ____
 72
    65
 73
     4
 40
18.0
 49
12.0
 74
     0
 49
-1.5
 74
     0
 49
3.0
 74
     0
 49
-1.5
 74
     0
  0
LTYPE
  5
F108B4
330
247
100
AcDbSymbolTableRecord
100
AcDbLinetypeTableRecord
  2
AM_ISO09W050
 70
     0
  3
_____ . . _____ . . _____ . . ____ .. ____
 72
    65
 73
     6
 40
22.5
 49
12.0
 74
     0
 49
-1.5
 74
     0
 49
3.0
 74
     0
 49
-1.5
 74
     0
 49
3.0
 74
     0
 49
-1.5
 74
     0
  0
LTYPE
  5
F108B5
330
247
100
AcDbSymbolTableRecord
100
AcDbLinetypeTableRecord
  2
Amconstr
 70
     0
  3
_______________________
 72
    65
 73
     2
 40
9999.0
 49
9999.0
 74
     0
 49
0.0
 74
     0
  0
LTYPE
  5
F108B6
330
247
100
AcDbSymbolTableRecord
100
AcDbLinetypeTableRecord
  2
AM_ISO08W050x2
 70
     0
  3
__ . __ . __ . __ . __ . __
 72
    65
 73
     4
 40
9.0
 49
6.0
 74
     0
 49
-0.75
 74
     0
 49
1.5
 74
     0
 49
-0.75
 74
     0
  0
LTYPE
  5
F108B7
330
247
100
AcDbSymbolTableRecord
100
AcDbLinetypeTableRecord
  2
AM_ISO02W050x2
 70
     0
  3
 _ _ _ _ _ _ _ _ _ _ _ _
 72
    65
 73
     2
 40
3.75
 49
3.0
 74
     0
 49
-0.75
 74
     0
  0
LTYPE
  5
F108BA
330
247
100
AcDbSymbolTableRecord
100
AcDbLinetypeTableRecord
  2
Amzigzag
 70
     0
  3
/\/-/\/-/\/-/\/-/\/-/\/
 72
    65
 73
     2
 40
11.0001
 49
0.0001
 74
     4
 75
   136
340
F108B9
 46
0.04
 50
0.0
 44
0.0
 45
0.0
 49
-11.0
 74
     0
  0
LTYPE
  5
F108BB
330
247
100
AcDbSymbolTableRecord
100
AcDbLinetypeTableRecord
  2
Amzigzag2
 70
     0
  3
/\/-/\/-/\/-/\/-/\/-/\/
 72
    65
 73
     2
 40
0.4401
 49
0.0001
 74
     4
 75
   136
340
F108B9
 46
0.0016
 50
0.0
 44
0.0
 45
0.0
 49
-0.4400000000000001
 74
     0
  0
LTYPE
  5
F108C9
330
247
100
AcDbSymbolTableRecord
100
AcDbLinetypeTableRecord
  2
ACANSTGB
 70
     0
  3
__ . . __ . .
 72
    65
 73
     6
 40
0.35433070866
 49
0.15748031496
 74
     0
 49
-0.03937007874
 74
     0
 49
0.03937007874
 74
     0
 49
-0.03937007874
 74
     0
 49
0.03937007874
 74
     0
 49
-0.03937007874
 74
     0
  0
LTYPE
  5
F108CA
330
247
100
AcDbSymbolTableRecord
100
AcDbLinetypeTableRecord
  2
ACANSTGL
 70
     0
  3
_ _ _ _ _
 72
    65
 73
     2
 40
0.11811023622
 49
0.07874015748
 74
     0
 49
-0.03937007874
 74
     0
  0
ENDTAB
  0
TABLE
  2
LAYER
  5
244
330
0
100
AcDbSymbolTable
 70
     6
  0
LAYER
  5
252
102
{ACAD_XDICTIONARY
360
F10A91
102
}
330
244
100
AcDbSymbolTableRecord
100
AcDbLayerTableRecord
  2
0
 70
     0
 62
     7
  6
Continuous
370
     0
390
19
  0
LAYER
  5
23F
102
{ACAD_XDICTIONARY
360
F10A93
102
}
330
244
100
AcDbSymbolTableRecord
100
AcDbLayerTableRecord
  2
Bemassung
 70
     0
 62
     7
  6
Continuous
370
     0
390
19
  0
LAYER
  5
240
102
{ACAD_XDICTIONARY
360
F10A95
102
}
330
244
100
AcDbSymbolTableRecord
100
AcDbLayerTableRecord
  2
Rahmen
 70
     0
 62
     7
  6
Continuous
370
     0
390
19
  0
LAYER
  5
241
102
{ACAD_XDICTIONARY
360
F10A97
102
}
330
244
100
AcDbSymbolTableRecord
100
AcDbLayerTableRecord
  2
Geo
 70
     0
 62
     7
  6
Continuous
370
     0
390
19
  0
LAYER
  5
33A
330
244
100
AcDbSymbolTableRecord
100
AcDbLayerTableRecord
  2
Defpoints
 70
     0
 62
     7
  6
Continuous
290
     0
370
    -3
390
19
  0
LAYER
  5
57E
102
{ACAD_XDICTIONARY
360
F10A99
102
}
330
244
100
AcDbSymbolTableRecord
100
AcDbLayerTableRecord
  2
Text
 70
     0
 62
     7
  6
Continuous
370
     0
390
19
1001
AcAecLayerStandard
1000

1000

  0
ENDTAB
  0
TABLE
  2
STYLE
  5
245
330
0
100
AcDbSymbolTable
 70
     5
  0
STYLE
  5
253
330
245
100
AcDbSymbolTableRecord
100
AcDbTextStyleTableRecord
  2
Standard
 70
     0
 40
0.0
 41
1.0
 50
0.0
 71
     0
 42
0.2
  3
Arial
  4

1001
ACAD
1000
Arial
1071
        0
  0
STYLE
  5
132
330
245
100
AcDbSymbolTableRecord
100
AcDbTextStyleTableRecord
  2
Beschriftung
 70
     0
 40
0.0
 41
1.0
 50
0.0
 71
     0
 42
0.2
  3
Arial
  4

1001
ACAD
1000
Arial
1071
        0
1001
AcadAnnotative
1000
AnnotativeData
1070
     1
1070
     1
  0
STYLE
  5
F108B9
330
245
100
AcDbSymbolTableRecord
100
AcDbTextStyleTableRecord
  2

 70
     1
 40
0.0
 41
1.0
 50
0.0
 71
     0
 42
0.2
  3
genltshp.shx
  4

  0
STYLE
  5
F108C7
330
245
100
AcDbSymbolTableRecord
100
AcDbTextStyleTableRecord
  2
ACANSTS
 70
     0
 40
1.0
 41
1.0
 50
0.0
 71
     0
 42
0.2
  3
romans.shx
  4

  0
STYLE
  5
F108C8
330
245
100
AcDbSymbolTableRecord
100
AcDbTextStyleTableRecord
  2
ACANSGDT
 70
     0
 40
0.0
 41
1.0
 50
0.0
 71
     0
 42
0.2
  3
amgdt.shx
  4

  0
ENDTAB
  0
TABLE
  2
VIEW
  5
248
330
0
100
AcDbSymbolTable
 70
     0
  0
ENDTAB
  0
TABLE
  2
UCS
  5
249
330
0
100
AcDbSymbolTable
 70
     0
  0
ENDTAB
  0
TABLE
  2
APPID
  5
24B
330
0
100
AcDbSymbolTable
 70
    28
  0
APPID
  5
254
330
24B
100
AcDbSymbolTableRecord
100
AcDbRegAppTableRecord
  2
ACAD
 70
     0
  0
APPID
  5
26C
330
24B
100
AcDbSymbolTableRecord
100
AcDbRegAppTableRecord
  2
VD_INVISIBLE_NOT_FOR_READ
 70
     0
  0
APPID
  5
26D
330
24B
100
AcDbSymbolTableRecord
100
AcDbRegAppTableRecord
  2
VD_TEMPHATCH
 70
     0
  0
APPID
  5
26E
330
24B
100
AcDbSymbolTableRecord
100
AcDbRegAppTableRecord
  2
VDEXTRAPARAM
 70
     0
  0
APPID
  5
26F
330
24B
100
AcDbSymbolTableRecord
100
AcDbRegAppTableRecord
  2
PE_URL
 70
     0
  0
APPID
  5
270
330
24B
100
AcDbSymbolTableRecord
100
AcDbRegAppTableRecord
  2
VD_UNKNOWN
 70
     0
  0
APPID
  5
28F
330
24B
100
AcDbSymbolTableRecord
100
AcDbRegAppTableRecord
  2
AcadAnnotative
 70
     0
  0
APPID
  5
290
330
24B
100
AcDbSymbolTableRecord
100
AcDbRegAppTableRecord
  2
ACAD_DSTYLE_DIMJAG
 70
     0
  0
APPID
  5
291
330
24B
100
AcDbSymbolTableRecord
100
AcDbRegAppTableRecord
  2
ACAD_DSTYLE_DIMTALN
 70
     0
  0
APPID
  5
293
330
24B
100
AcDbSymbolTableRecord
100
AcDbRegAppTableRecord
  2
ACAD_PSEXT
 70
     0
  0
APPID
  5
42A
330
24B
100
AcDbSymbolTableRecord
100
AcDbRegAppTableRecord
  2
ACAD_MLEADERVER
 70
     0
  0
APPID
  5
532
330
24B
100
AcDbSymbolTableRecord
100
AcDbRegAppTableRecord
  2
ACAD_EXEMPT_FROM_CAD_STANDARDS
 70
     0
  0
APPID
  5
57F
330
24B
100
AcDbSymbolTableRecord
100
AcDbRegAppTableRecord
  2
AcAecLayerStandard
 70
     0
  0
APPID
  5
F1084C
330
24B
100
AcDbSymbolTableRecord
100
AcDbRegAppTableRecord
  2
MCAD_NO_VIS
 70
     0
  0
APPID
  5
F1084D
330
24B
100
AcDbSymbolTableRecord
100
AcDbRegAppTableRecord
  2
ACAD_TEMP_GRAPHIC
 70
     0
  0
APPID
  5
F10876
330
24B
100
AcDbSymbolTableRecord
100
AcDbRegAppTableRecord
  2
AD_DRAW
 70
     0
  0
APPID
  5
F10879
330
24B
100
AcDbSymbolTableRecord
100
AcDbRegAppTableRecord
  2
ACATTRIBSERVICES
 70
     0
  0
APPID
  5
F10892
330
24B
100
AcDbSymbolTableRecord
100
AcDbRegAppTableRecord
  2
DESIGNERASSEMBLIES
 70
     0
  0
APPID
  5
F10897
330
24B
100
AcDbSymbolTableRecord
100
AcDbRegAppTableRecord
  2
ACADM_DIM_EDIT
 70
     0
  0
APPID
  5
F10898
330
24B
100
AcDbSymbolTableRecord
100
AcDbRegAppTableRecord
  2
AMDT_DM_ADJ
 70
     0
  0
APPID
  5
F108B0
330
24B
100
AcDbSymbolTableRecord
100
AcDbRegAppTableRecord
  2
ACAD_DSTYLE_DIMBREAK
 70
     0
  0
APPID
  5
F108D1
330
24B
100
AcDbSymbolTableRecord
100
AcDbRegAppTableRecord
  2
GENIUS_GENSCREG_15
 70
     0
  0
APPID
  5
F108D2
330
24B
100
AcDbSymbolTableRecord
100
AcDbRegAppTableRecord
  2
GENIUS_GENOBJ-N-SDF_13
 70
     0
  0
APPID
  5
F108D3
330
24B
100
AcDbSymbolTableRecord
100
AcDbRegAppTableRecord
  2
GENIUS_GENODEF_13
 70
     0
  0
APPID
  5
F10AE9
330
24B
100
AcDbSymbolTableRecord
100
AcDbRegAppTableRecord
  2
ACAD_DSTYLE_DIMARC_LENGTH_SYMBOL
 70
     0
  0
APPID
  5
F10AEA
330
24B
100
AcDbSymbolTableRecord
100
AcDbRegAppTableRecord
  2
ACAD_DSTYLE_DIM_LINETYPE
 70
     0
  0
APPID
  5
F10AEB
330
24B
100
AcDbSymbolTableRecord
100
AcDbRegAppTableRecord
  2
ACAD_DSTYLE_DIM_EXT1_LINETYPE
 70
     0
  0
APPID
  5
F10AEC
330
24B
100
AcDbSymbolTableRecord
100
AcDbRegAppTableRecord
  2
ACAD_DSTYLE_DIM_EXT2_LINETYPE
 70
     0
  0
ENDTAB
  0
TABLE
  2
DIMSTYLE
  5
24C
330
0
100
AcDbSymbolTable
 70
    10
100
AcDbDimStyleTable
 71
     2
340
27
340
269
  0
DIMSTYLE
105
269
330
24C
100
AcDbSymbolTableRecord
100
AcDbDimStyleTableRecord
  2
Standard
 70
     0
172
     1
174
     1
288
     1
340
253
342
23C
  0
DIMSTYLE
105
137
330
24C
100
AcDbSymbolTableRecord
100
AcDbDimStyleTableRecord
  2
Beschriftung
 70
     0
 41
2.5
 42
0.625
 44
1.25
 73
     0
 74
     0
 77
     1
140
2.5
147
0.625
172
     1
174
     1
271
     2
288
     1
340
253
342
23C
1001
AcadAnnotative
1000
AnnotativeData
1070
     1
1070
     1
1001
ACAD_DSTYLE_DIMJAG
1070
   388
1040
1.5
1001
ACAD_DSTYLE_DIMTALN
1070
   392
1070
     0
  0
DIMSTYLE
105
27
102
{ACAD_REACTORS
330
F10017
330
F10021
330
F10026
330
F1002B
330
F10008
330
F10003
330
F1000D
330
F1001C
102
}
330
24C
100
AcDbSymbolTableRecord
100
AcDbDimStyleTableRecord
  2
BEM-ISBE
 70
     0
 41
2.5
 42
0.625
 44
1.25
 48
0.000000001
 71
     1
 73
     0
 74
     0
 77
     1
140
2.5
146
0.5
147
0.625
171
     3
172
     1
179
     3
271
     3
272
     3
274
     3
340
253
342
23C
1001
ACAD_DSTYLE_DIMJAG
1070
   388
1040
1.5
1001
ACAD_DSTYLE_DIMTALN
1070
   392
1070
     1
  0
DIMSTYLE
105
F108AF
102
{ACAD_REACTORS
330
F1089F
102
}
330
24C
100
AcDbSymbolTableRecord
100
AcDbDimStyleTableRecord
  2
AM_ANSI
 70
     0
  4
mm
 41
0.12
 42
0.05
 43
0.5
 44
0.1
 47
0.1
 48
0.1
 78
     7
 79
     2
140
0.12
141
0.0
146
0.71
147
0.06
176
   256
177
   256
178
     2
274
     4
284
     7
340
253
371
    -1
372
    -1
1001
ACAD_DSTYLE_DIMJAG
1070
   388
1040
1.5
1001
ACAD_DSTYLE_DIMBREAK
1070
   391
1040
0.125
1001
ACAD_DSTYLE_DIMARC_LENGTH_SYMBOL
1070
   379
1070
     1
1001
ACAD_DSTYLE_DIM_LINETYPE
1070
   380
1005
256
1001
ACAD_DSTYLE_DIM_EXT1_LINETYPE
1070
   381
1005
256
1001
ACAD_DSTYLE_DIM_EXT2_LINETYPE
1070
   382
1005
256
  0
DIMSTYLE
105
F108BC
330
24C
100
AcDbSymbolTableRecord
100
AcDbDimStyleTableRecord
  2
AM_ANSI$3
 70
     0
  4
mm
 41
0.12
 42
0.05
 43
0.5
 44
0.1
 47
0.1
 48
0.1
 78
     7
 79
     2
140
0.12
141
0.0
146
0.71
147
0.06
176
   256
177
   256
178
     2
274
     4
284
     7
288
     1
289
     0
340
253
371
    -1
372
    -1
1001
ACAD_DSTYLE_DIMBREAK
1070
   391
1040
0.125
1001
ACAD_DSTYLE_DIMJAG
1070
   388
1040
1.5
1001
ACAD_DSTYLE_DIMARC_LENGTH_SYMBOL
1070
   379
1070
     1
1001
ACAD_DSTYLE_DIM_LINETYPE
1070
   380
1005
256
1001
ACAD_DSTYLE_DIM_EXT1_LINETYPE
1070
   381
1005
256
1001
ACAD_DSTYLE_DIM_EXT2_LINETYPE
1070
   382
1005
256
  0
DIMSTYLE
105
F108BD
330
24C
100
AcDbSymbolTableRecord
100
AcDbDimStyleTableRecord
  2
AM_ANSI$4
 70
     0
  4
mm
 41
0.12
 42
0.05
 43
0.5
 44
0.1
 47
0.1
 48
0.1
 78
     7
 79
     2
140
0.12
141
0.0
146
0.71
147
0.06
176
   256
177
   256
178
     2
274
     4
284
     7
288
     1
289
     0
340
253
371
    -1
372
    -1
1001
ACAD_DSTYLE_DIMBREAK
1070
   391
1040
0.125
1001
ACAD_DSTYLE_DIMJAG
1070
   388
1040
1.5
1001
ACAD_DSTYLE_DIMARC_LENGTH_SYMBOL
1070
   379
1070
     1
1001
ACAD_DSTYLE_DIM_LINETYPE
1070
   380
1005
256
1001
ACAD_DSTYLE_DIM_EXT1_LINETYPE
1070
   381
1005
256
1001
ACAD_DSTYLE_DIM_EXT2_LINETYPE
1070
   382
1005
256
  0
DIMSTYLE
105
F108BE
330
24C
100
AcDbSymbolTableRecord
100
AcDbDimStyleTableRecord
  2
AM_ANSI$7
 70
     0
  4
mm
 41
0.12
 42
0.05
 43
0.5
 44
0.1
 47
0.1
 48
0.1
 78
     7
 79
     2
140
0.12
141
0.0
146
0.71
147
0.06
176
   256
177
   256
178
     2
274
     4
284
     7
340
253
371
    -1
372
    -1
1001
ACAD_DSTYLE_DIMBREAK
1070
   391
1040
0.125
1001
ACAD_DSTYLE_DIMJAG
1070
   388
1040
1.5
1001
ACAD_DSTYLE_DIMARC_LENGTH_SYMBOL
1070
   379
1070
     1
1001
ACAD_DSTYLE_DIM_LINETYPE
1070
   380
1005
256
1001
ACAD_DSTYLE_DIM_EXT1_LINETYPE
1070
   381
1005
256
1001
ACAD_DSTYLE_DIM_EXT2_LINETYPE
1070
   382
1005
256
  0
DIMSTYLE
105
F108BF
330
24C
100
AcDbSymbolTableRecord
100
AcDbDimStyleTableRecord
  2
AM_ANSI$SF
 70
     0
  4
mm
 41
0.12
 42
0.05
 43
0.5
 44
0.1
 47
0.1
 48
0.1
 75
     1
 76
     1
 78
     7
 79
     2
140
0.12
141
0.0
146
0.71
147
0.06
176
   256
177
   256
178
     2
274
     4
284
     7
340
253
371
    -1
372
    -1
1001
ACAD_DSTYLE_DIMBREAK
1070
   391
1040
0.125
1001
ACAD_DSTYLE_DIMJAG
1070
   388
1040
1.5
1001
ACAD_DSTYLE_DIMARC_LENGTH_SYMBOL
1070
   379
1070
     1
1001
ACAD_DSTYLE_DIM_LINETYPE
1070
   380
1005
256
1001
ACAD_DSTYLE_DIM_EXT1_LINETYPE
1070
   381
1005
256
1001
ACAD_DSTYLE_DIM_EXT2_LINETYPE
1070
   382
1005
256
  0
DIMSTYLE
105
F108C4
330
24C
100
AcDbSymbolTableRecord
100
AcDbDimStyleTableRecord
  2
AM_ANSI$SH
 70
     0
  4
mm
 41
0.12
 42
0.05
 43
0.5
 44
0.1
 47
0.1
 48
0.1
 75
     1
 76
     1
 78
     7
 79
     2
140
0.12
141
0.0
146
0.71
147
0.06
173
     1
176
   256
177
   256
178
     2
274
     4
284
     7
340
253
343
F108C0
371
    -1
372
    -1
1001
ACAD_DSTYLE_DIMBREAK
1070
   391
1040
0.125
1001
ACAD_DSTYLE_DIMJAG
1070
   388
1040
1.5
1001
ACAD_DSTYLE_DIMARC_LENGTH_SYMBOL
1070
   379
1070
     1
1001
ACAD_DSTYLE_DIM_LINETYPE
1070
   380
1005
256
1001
ACAD_DSTYLE_DIM_EXT1_LINETYPE
1070
   381
1005
256
1001
ACAD_DSTYLE_DIM_EXT2_LINETYPE
1070
   382
1005
256
  0
ENDTAB
  0
TABLE
  2
BLOCK_RECORD
  5
243
330
0
100
AcDbSymbolTable
 70
    15
  0
BLOCK_RECORD
  5
261
330
243
100
AcDbSymbolTableRecord
100
AcDbBlockTableRecord
  2
*Model_Space
340
FD0
  0
BLOCK_RECORD
  5
25D
330
243
100
AcDbSymbolTableRecord
100
AcDbBlockTableRecord
  2
*Paper_Space
340
FD1
  0
BLOCK_RECORD
  5
265
330
243
100
AcDbSymbolTableRecord
100
AcDbBlockTableRecord
  2
*Paper_Space0
340
0
  0
BLOCK_RECORD
  5
23C
330
243
100
AcDbSymbolTableRecord
100
AcDbBlockTableRecord
  2
VDDIM_DEFAULT
340
0
102
{BLKREFS
331
F108F3
331
F108F4
331
F10A4A
331
F10A4B
331
F10A53
331
F10A5B
331
F10A5C
331
F10A64
331
F10A65
331
F10A6F
331
F10A70
331
F10A78
331
F10A79
331
F10A81
331
F10A82
331
F10A8A
331
F10A8B
102
}
  0
BLOCK_RECORD
  5
23E
330
243
100
AcDbSymbolTableRecord
100
AcDbBlockTableRecord
  2
VDDIM_NONE
340
0
  0
BLOCK_RECORD
  5
F10016
330
243
100
AcDbSymbolTableRecord
100
AcDbBlockTableRecord
  2
*D3
340
0
  0
BLOCK_RECORD
  5
F10020
330
243
100
AcDbSymbolTableRecord
100
AcDbBlockTableRecord
  2
*D4
340
0
  0
BLOCK_RECORD
  5
F10025
330
243
100
AcDbSymbolTableRecord
100
AcDbBlockTableRecord
  2
*D5
340
0
  0
BLOCK_RECORD
  5
F1002A
330
243
100
AcDbSymbolTableRecord
100
AcDbBlockTableRecord
  2
*D6
340
0
  0
BLOCK_RECORD
  5
F10011
330
243
100
AcDbSymbolTableRecord
100
AcDbBlockTableRecord
  2
*D7
340
0
  0
BLOCK_RECORD
  5
F10007
330
243
100
AcDbSymbolTableRecord
100
AcDbBlockTableRecord
  2
*D8
340
0
  0
BLOCK_RECORD
  5
F10002
330
243
100
AcDbSymbolTableRecord
100
AcDbBlockTableRecord
  2
*D9
340
0
  0
BLOCK_RECORD
  5
F1000C
330
243
100
AcDbSymbolTableRecord
100
AcDbBlockTableRecord
  2
*D10
340
0
  0
BLOCK_RECORD
  5
F1001B
330
243
100
AcDbSymbolTableRecord
100
AcDbBlockTableRecord
  2
*D11
340
0
  0
BLOCK_RECORD
  5
F108C0
330
243
100
AcDbSymbolTableRecord
100
AcDbBlockTableRecord
  2
GENAXEH
340
0
  0
ENDTAB
  0
ENDSEC
  0
SECTION
  2
BLOCKS
  0
BLOCK
  5
262
330
261
100
AcDbEntity
  8
0
100
AcDbBlockBegin
  2
*Model_Space
 70
     0
 10
0.0
 20
0.0
 30
0.0
  3
*Model_Space
  1

  0
ENDBLK
  5
263
330
261
100
AcDbEntity
  8
0
100
AcDbBlockEnd
  0
BLOCK
  5
25E
330
25D
100
AcDbEntity
 67
     1
  8
0
100
AcDbBlockBegin
  2
*Paper_Space
 70
     0
 10
0.0
 20
0.0
 30
0.0
  3
*Paper_Space
  1

  0
ENDBLK
  5
25F
330
25D
100
AcDbEntity
 67
     1
  8
0
100
AcDbBlockEnd
  0
BLOCK
  5
266
330
265
100
AcDbEntity
  8
0
100
AcDbBlockBegin
  2
*Paper_Space0
 70
     0
 10
0.0
 20
0.0
 30
0.0
  3
*Paper_Space0
  1

  0
VIEWPORT
  5
296
102
{ACAD_XDICTIONARY
360
F10AAC
102
}
330
265
100
AcDbEntity
  8
0
 60
     1
100
AcDbViewport
 10
0.0
 20
0.0
 30
0.0
 40
10.0
 41
10.0
 69
     0
 12
0.0
 22
0.0
 13
0.0
 23
0.0
 14
1.0
 24
1.0
 15
0.0
 25
0.0
 16
0.0
 26
0.0
 36
1.0
 17
0.0
 27
0.0
 37
0.0
 42
0.0
 43
0.0
 44
0.0
 45
10.0
 50
0.0
 51
0.0000000000007958
 72
   100
 90
   163872
  1

281
     0
 71
     0
 74
     0
110
0.0
120
0.0
130
0.0
111
1.0
121
0.0
131
0.0
112
0.0
122
1.0
132
0.0
 79
     0
146
0.0
1001
VD_INVISIBLE_NOT_FOR_READ
1000
VD_INVISIBLE_NOT_FOR_READ
  0
VIEWPORT
  5
297
102
{ACAD_XDICTIONARY
360
F10AAE
102
}
330
265
100
AcDbEntity
  8
0
 60
     1
100
AcDbViewport
 10
0.0
 20
0.0
 30
0.0
 40
10.0
 41
10.0
 69
     0
 12
0.0
 22
0.0
 13
0.0
 23
0.0
 14
1.0
 24
1.0
 15
0.0
 25
0.0
 16
0.0
 26
0.0
 36
1.0
 17
0.0
 27
0.0
 37
0.0
 42
0.0
 43
0.0
 44
0.0
 45
10.0
 50
0.0
 51
0.0000000000007958
 72
   100
 90
   163872
  1

281
     0
 71
     0
 74
     0
110
0.0
120
0.0
130
0.0
111
1.0
121
0.0
131
0.0
112
0.0
122
1.0
132
0.0
 79
     0
146
0.0
1001
VD_INVISIBLE_NOT_FOR_READ
1000
VD_INVISIBLE_NOT_FOR_READ
  0
ENDBLK
  5
267
330
265
100
AcDbEntity
  8
0
100
AcDbBlockEnd
  0
BLOCK
  5
28B
330
23C
100
AcDbEntity
  8
0
100
AcDbBlockBegin
  2
VDDIM_DEFAULT
 70
     0
 10
0.0
 20
0.0
 30
0.0
  3
VDDIM_DEFAULT
  1

  0
LWPOLYLINE
  5
23D
330
23C
100
AcDbEntity
  8
0
  6
Continuous
 62
     0
100
AcDbPolyline
 90
        4
 70
     0
 43
0.0
 10
0.0
 20
0.0
 10
-1.0
 20
-0.1665
 10
-1.0
 20
0.1665
 10
0.0
 20
0.0
1001
VDEXTRAPARAM
1071
        1
1071
        0
1071
        0
1040
1.0
1000

1000

1040
0.0
1040
0.0
  0
HATCH
  5
292
330
23C
100
AcDbEntity
  8
0
  6
Continuous
 62
     0
100
AcDbHatch
 10
0.0
 20
0.0
 30
0.0
210
0.0
220
0.0
230
1.0
  2
SOLID
 70
     1
 71
     0
 91
        1
 92
        2
 72
     0
 73
     1
 93
        3
 10
0.0
 20
0.0
 10
-1.0
 20
-0.1665
 10
-1.0
 20
0.1665
 97
        0
 75
     0
 76
     1
 98
        1
 10
0.0
 20
0.0
1001
VDEXTRAPARAM
1071
        1
1071
        0
1071
        0
1040
1.0
1000

1000

1040
0.0
1040
0.0
1001
VD_TEMPHATCH
1000
VD_TEMPHATCH
  0
ENDBLK
  5
28C
330
23C
100
AcDbEntity
  8
0
100
AcDbBlockEnd
  0
BLOCK
  5
28D
330
23E
100
AcDbEntity
  8
0
100
AcDbBlockBegin
  2
VDDIM_NONE
 70
     0
 10
0.0
 20
0.0
 30
0.0
  3
VDDIM_NONE
  1

  0
ENDBLK
  5
28E
330
23E
100
AcDbEntity
  8
0
100
AcDbBlockEnd
  0
BLOCK
  5
F1002F
330
F10016
100
AcDbEntity
  8
0
100
AcDbBlockBegin
  2
*D3
 70
     1
 10
0.0
 20
0.0
 30
0.0
  3
*D3
  1

  0
LINE
  5
F10A61
330
F10016
100
AcDbEntity
  8
Bemassung
 62
     0
370
    -2
100
AcDbLine
 10
-21.82127981039976
 20
-0.8658024107570234
 30
0.0
 11
-21.82127981039976
 21
19.75919758924297
 31
0.0
  0
LINE
  5
F10A62
330
F10016
100
AcDbEntity
  8
Bemassung
 62
     0
370
    -2
100
AcDbLine
 10
14.17872018960025
 20
-1.365802410757023
 30
0.0
 11
14.17872018960025
 21
19.75919758924297
 31
0.0
  0
LINE
  5
F10A63
330
F10016
100
AcDbEntity
  8
Bemassung
 62
     0
370
    -2
100
AcDbLine
 10
-19.32127981039976
 20
18.50919758924297
 30
0.0
 11
11.67872018960025
 21
18.50919758924297
 31
0.0
  0
INSERT
  5
F10A64
330
F10016
100
AcDbEntity
  8
Bemassung
 62
     0
370
    -2
100
AcDbBlockReference
  2
VDDIM_DEFAULT
 10
-21.82127981039976
 20
18.50919758924297
 30
0.0
 41
2.5
 42
2.5
 43
2.5
 50
180.0
  0
INSERT
  5
F10A65
330
F10016
100
AcDbEntity
  8
Bemassung
 62
     0
370
    -2
100
AcDbBlockReference
  2
VDDIM_DEFAULT
 10
14.17872018960025
 20
18.50919758924297
 30
0.0
 41
2.5
 42
2.5
 43
2.5
  0
MTEXT
  5
F10A66
330
F10016
100
AcDbEntity
  8
Bemassung
 62
     0
100
AcDbMText
 10
-3.821279810399754
 20
19.13419758924297
 30
0.0
 40
2.5
 41
0.0
 71
     8
 72
     1
  1
\A1;36
 73
     1
 44
1.0
1001
ACAD
1000
MTEXTBEGIN
1070
    73
1070
     1
1070
    44
1040
1.0
1070
    74
1070
     0
1000
MTEXTEND
  0
POINT
  5
F10A67
330
F10016
100
AcDbEntity
  8
Defpoints
 62
     0
100
AcDbPoint
 10
-21.82127981039976
 20
-1.490802410757023
 30
0.0
  0
POINT
  5
F10A68
330
F10016
100
AcDbEntity
  8
Defpoints
 62
     0
100
AcDbPoint
 10
14.17872018960025
 20
-1.990802410757023
 30
0.0
  0
POINT
  5
F10A69
330
F10016
100
AcDbEntity
  8
Defpoints
 62
     0
100
AcDbPoint
 10
14.17872018960025
 20
18.50919758924297
 30
0.0
  0
ENDBLK
  5
F10038
330
F10016
100
AcDbEntity
  8
0
100
AcDbBlockEnd
  0
BLOCK
  5
F10039
330
F10020
100
AcDbEntity
  8
0
100
AcDbBlockBegin
  2
*D4
 70
     1
 10
0.0
 20
0.0
 30
0.0
  3
*D4
  1

  0
LINE
  5
F10A75
330
F10020
100
AcDbEntity
  8
Bemassung
 62
     0
370
    -2
100
AcDbLine
 10
-29.82127981039976
 20
-6.115802410757015
 30
0.0
 11
-29.82127981039976
 21
8.735023927861494
 31
0.0
  0
LINE
  5
F10A76
330
F10020
100
AcDbEntity
  8
Bemassung
 62
     0
370
    -2
100
AcDbLine
 10
-42.82127981039976
 20
-3.865802410757016
 30
0.0
 11
-42.82127981039976
 21
8.735023927861494
 31
0.0
  0
LINE
  5
F10A77
330
F10020
100
AcDbEntity
  8
Bemassung
 62
     0
370
    -2
100
AcDbLine
 10
-32.32127981039976
 20
7.485023927861494
 30
0.0
 11
-40.32127981039976
 21
7.485023927861494
 31
0.0
  0
INSERT
  5
F10A78
330
F10020
100
AcDbEntity
  8
Bemassung
 62
     0
370
    -2
100
AcDbBlockReference
  2
VDDIM_DEFAULT
 10
-29.82127981039976
 20
7.485023927861494
 30
0.0
 41
2.5
 42
2.5
 43
2.5
  0
INSERT
  5
F10A79
330
F10020
100
AcDbEntity
  8
Bemassung
 62
     0
370
    -2
100
AcDbBlockReference
  2
VDDIM_DEFAULT
 10
-42.82127981039976
 20
7.485023927861494
 30
0.0
 41
2.5
 42
2.5
 43
2.5
 50
180.0
  0
MTEXT
  5
F10A7A
330
F10020
100
AcDbEntity
  8
Bemassung
 62
     0
100
AcDbMText
 10
-36.17648468601989
 20
8.110023927861494
 30
0.0
 40
2.5
 41
0.0
 71
     8
 72
     1
  1
\A1;13
 73
     1
 44
1.0
1001
ACAD
1000
MTEXTBEGIN
1070
    73
1070
     1
1070
    44
1040
1.0
1070
    74
1070
     0
1000
MTEXTEND
  0
POINT
  5
F10A7B
330
F10020
100
AcDbEntity
  8
Defpoints
 62
     0
100
AcDbPoint
 10
-29.82127981039976
 20
-6.740802410757015
 30
0.0
  0
POINT
  5
F10A7C
330
F10020
100
AcDbEntity
  8
Defpoints
 62
     0
100
AcDbPoint
 10
-42.82127981039976
 20
-4.490802410757016
 30
0.0
  0
POINT
  5
F10A7D
330
F10020
100
AcDbEntity
  8
Defpoints
 62
     0
100
AcDbPoint
 10
-42.82127981039976
 20
7.485023927861494
 30
0.0
  0
ENDBLK
  5
F10042
330
F10020
100
AcDbEntity
  8
0
100
AcDbBlockEnd
  0
BLOCK
  5
F10043
330
F10025
100
AcDbEntity
  8
0
100
AcDbBlockBegin
  2
*D5
 70
     1
 10
0.0
 20
0.0
 30
0.0
  3
*D5
  1

  0
LINE
  5
F10A7E
330
F10025
100
AcDbEntity
  8
Bemassung
 62
     0
370
    -2
100
AcDbLine
 10
14.17872018960025
 20
-1.365802410757023
 30
0.0
 11
14.17872018960025
 21
34.75919758924297
 31
0.0
  0
LINE
  5
F10A7F
330
F10025
100
AcDbEntity
  8
Bemassung
 62
     0
370
    -2
100
AcDbLine
 10
-42.82127981039976
 20
-3.865802410757018
 30
0.0
 11
-42.82127981039976
 21
34.75919758924297
 31
0.0
  0
LINE
  5
F10A80
330
F10025
100
AcDbEntity
  8
Bemassung
 62
     0
370
    -2
100
AcDbLine
 10
11.67872018960025
 20
33.50919758924297
 30
0.0
 11
-40.32127981039976
 21
33.50919758924297
 31
0.0
  0
INSERT
  5
F10A81
330
F10025
100
AcDbEntity
  8
Bemassung
 62
     0
370
    -2
100
AcDbBlockReference
  2
VDDIM_DEFAULT
 10
14.17872018960025
 20
33.50919758924297
 30
0.0
 41
2.5
 42
2.5
 43
2.5
  0
INSERT
  5
F10A82
330
F10025
100
AcDbEntity
  8
Bemassung
 62
     0
370
    -2
100
AcDbBlockReference
  2
VDDIM_DEFAULT
 10
-42.82127981039976
 20
33.50919758924297
 30
0.0
 41
2.5
 42
2.5
 43
2.5
 50
180.0
  0
MTEXT
  5
F10A83
330
F10025
100
AcDbEntity
  8
Bemassung
 62
     0
100
AcDbMText
 10
-14.32127981039975
 20
34.13419758924297
 30
0.0
 40
2.5
 41
0.0
 71
     8
 72
     1
  1
\A1;57
 73
     1
 44
1.0
1001
ACAD
1000
MTEXTBEGIN
1070
    73
1070
     1
1070
    44
1040
1.0
1070
    74
1070
     0
1000
MTEXTEND
  0
POINT
  5
F10A84
330
F10025
100
AcDbEntity
  8
Defpoints
 62
     0
100
AcDbPoint
 10
14.17872018960025
 20
-1.990802410757023
 30
0.0
  0
POINT
  5
F10A85
330
F10025
100
AcDbEntity
  8
Defpoints
 62
     0
100
AcDbPoint
 10
-42.82127981039976
 20
-4.490802410757018
 30
0.0
  0
POINT
  5
F10A86
330
F10025
100
AcDbEntity
  8
Defpoints
 62
     0
100
AcDbPoint
 10
-42.82127981039976
 20
33.50919758924297
 30
0.0
  0
ENDBLK
  5
F1004C
330
F10025
100
AcDbEntity
  8
0
100
AcDbBlockEnd
  0
BLOCK
  5
F1004D
330
F1002A
100
AcDbEntity
  8
0
100
AcDbBlockBegin
  2
*D6
 70
     1
 10
0.0
 20
0.0
 30
0.0
  3
*D6
  1

  0
LINE
  5
F10A87
330
F1002A
100
AcDbEntity
  8
Bemassung
 62
     0
370
    -2
100
AcDbLine
 10
-42.82127981039976
 20
-3.865802410757016
 30
0.0
 11
-42.82127981039976
 21
19.66888921919887
 31
0.0
  0
LINE
  5
F10A88
330
F1002A
100
AcDbEntity
  8
Bemassung
 62
     0
370
    -2
100
AcDbLine
 10
-23.82127981039976
 20
-1.615802410757023
 30
0.0
 11
-23.82127981039976
 21
19.66888921919887
 31
0.0
  0
LINE
  5
F10A89
330
F1002A
100
AcDbEntity
  8
Bemassung
 62
     0
370
    -2
100
AcDbLine
 10
-40.32127981039976
 20
18.41888921919887
 30
0.0
 11
-26.32127981039976
 21
18.41888921919887
 31
0.0
  0
INSERT
  5
F10A8A
330
F1002A
100
AcDbEntity
  8
Bemassung
 62
     0
370
    -2
100
AcDbBlockReference
  2
VDDIM_DEFAULT
 10
-42.82127981039976
 20
18.41888921919887
 30
0.0
 41
2.5
 42
2.5
 43
2.5
 50
180.0
  0
INSERT
  5
F10A8B
330
F1002A
100
AcDbEntity
  8
Bemassung
 62
     0
370
    -2
100
AcDbBlockReference
  2
VDDIM_DEFAULT
 10
-23.82127981039976
 20
18.41888921919887
 30
0.0
 41
2.5
 42
2.5
 43
2.5
  0
MTEXT
  5
F10A8C
330
F1002A
100
AcDbEntity
  8
Bemassung
 62
     0
100
AcDbMText
 10
-33.32127981039976
 20
19.04388921919887
 30
0.0
 40
2.5
 41
0.0
 71
     8
 72
     1
  1
\A1;19
 73
     1
 44
1.0
1001
ACAD
1000
MTEXTBEGIN
1070
    73
1070
     1
1070
    44
1040
1.0
1070
    74
1070
     0
1000
MTEXTEND
  0
POINT
  5
F10A8D
330
F1002A
100
AcDbEntity
  8
Defpoints
 62
     0
100
AcDbPoint
 10
-42.82127981039976
 20
-4.490802410757016
 30
0.0
  0
POINT
  5
F10A8E
330
F1002A
100
AcDbEntity
  8
Defpoints
 62
     0
100
AcDbPoint
 10
-23.82127981039976
 20
-2.240802410757023
 30
0.0
  0
POINT
  5
F10A8F
330
F1002A
100
AcDbEntity
  8
Defpoints
 62
     0
100
AcDbPoint
 10
-23.82127981039976
 20
18.41888921919887
 30
0.0
  0
ENDBLK
  5
F10056
330
F1002A
100
AcDbEntity
  8
0
100
AcDbBlockEnd
  0
BLOCK
  5
F10057
330
F10011
100
AcDbEntity
  8
0
100
AcDbBlockBegin
  2
*D7
 70
     1
 10
0.0
 20
0.0
 30
0.0
  3
*D7
  1

  0
ARC
  5
F108F0
330
F10011
100
AcDbEntity
  8
Bemassung
 62
     0
370
    -2
100
AcDbCircle
 10
-70.14317180616751
 20
12.4823788546254
 30
0.0
 40
12.14984692090558
100
AcDbArc
 50
348.1896988522868
 51
0.0
  0
LINE
  5
F108F1
330
F10011
100
AcDbEntity
  8
Bemassung
 62
     0
370
    -2
100
AcDbLine
 10
-58.25052977190318
 20
9.995644923082286
 30
0.0
 11
-60.06409714880111
 21
1.322377813607936
 31
0.0
  0
ARC
  5
F108F2
330
F10011
100
AcDbEntity
  8
Bemassung
 62
     0
370
    -2
100
AcDbCircle
 10
-70.14317180616751
 20
12.4823788546254
 30
0.0
 40
12.14984692090558
100
AcDbArc
 50
11.8103011477132
 51
18.18969885228666
  0
INSERT
  5
F108F3
330
F10011
100
AcDbEntity
  8
Bemassung
 62
     0
370
    -2
100
AcDbBlockReference
  2
VDDIM_DEFAULT
 10
-57.99332488526193
 20
12.48237885462539
 30
0.0
 41
2.5
 42
2.5
 43
2.5
 50
275.9051505738566
  0
INSERT
  5
F108F4
330
F10011
100
AcDbEntity
  8
Bemassung
 62
     0
370
    -2
100
AcDbBlockReference
  2
VDDIM_DEFAULT
 10
-59.62109572057112
 20
18.55730231507817
 30
0.0
 41
2.5
 42
2.5
 43
2.5
 50
114.0948494261432
  0
MTEXT
  5
F108F5
102
{ACAD_XDICTIONARY
360
F10AA4
102
}
330
F10011
100
AcDbEntity
  8
Bemassung
 62
     0
100
AcDbMText
 10
-58.54554433109456
 20
5.53109134455121
 30
0.0
 40
2.5
 41
0.0
 71
     8
 72
     1
  1
\A1;30\U+00B0{\H0.5x;\S+5°^ +5°;}
 11
-0.2046720380702352
 21
-0.9788306068121165
 31
0.0
 73
     1
 44
1.0
1001
ACAD
1000
MTEXTBEGIN
1070
    73
1070
     1
1070
    44
1040
1.0
1070
    74
1070
     0
1000
MTEXTEND
  0
POINT
  5
F108F6
330
F10011
100
AcDbEntity
  8
Defpoints
 62
     0
100
AcDbPoint
 10
-58.72605031091413
 20
16.63787123989844
 30
0.0
  0
POINT
  5
F108F7
330
F10011
100
AcDbEntity
  8
Defpoints
 62
     0
100
AcDbPoint
 10
-57.88904491300221
 20
19.5573023150782
 30
0.0
  0
POINT
  5
F108F8
330
F10011
100
AcDbEntity
  8
Defpoints
 62
     0
100
AcDbPoint
 10
-70.14317180616751
 20
12.4823788546254
 30
0.0
  0
POINT
  5
F108F9
330
F10011
100
AcDbEntity
  8
Defpoints
 62
     0
100
AcDbPoint
 10
-55.99332488526191
 20
12.4823788546254
 30
0.0
  0
POINT
  5
F108FA
330
F10011
100
AcDbEntity
  8
Defpoints
 62
     0
100
AcDbPoint
 10
-70.14317180616751
 20
12.4823788546254
 30
0.0
  0
ENDBLK
  5
F10062
330
F10011
100
AcDbEntity
  8
0
100
AcDbBlockEnd
  0
BLOCK
  5
F10063
330
F10007
100
AcDbEntity
  8
0
100
AcDbBlockBegin
  2
*D8
 70
     1
 10
0.0
 20
0.0
 30
0.0
  3
*D8
  1

  0
LINE
  5
F10A50
330
F10007
100
AcDbEntity
  8
Bemassung
 62
     0
370
    -2
100
AcDbLine
 10
-52.42617016017691
 20
8.427323599982937
 30
0.0
 11
-44.20314143986337
 21
-0.4262878020856001
 31
0.0
  0
MTEXT
  5
F10A51
330
F10007
100
AcDbEntity
  8
Bemassung
 62
     0
100
AcDbMText
 10
-50.3353623660172
 20
7.094581557884791
 30
0.0
 40
2.5
 41
0.0
 71
     8
 72
     1
  1
\A1;R1
 11
0.6805318941324576
 21
-0.7327184596203985
 31
0.0
 73
     1
 44
1.0
1001
ACAD
1000
MTEXTBEGIN
1070
    73
1070
     1
1070
    44
1040
1.0
1070
    74
1070
     0
1000
MTEXTEND
  0
LINE
  5
F10A52
330
F10007
100
AcDbEntity
  8
Bemassung
 62
     0
370
    -2
100
AcDbLine
 10
-41.82127981039974
 20
-2.990802410757027
 30
0.0
 11
-42.50181170453223
 21
-2.258083951136594
 31
0.0
  0
INSERT
  5
F10A53
330
F10007
100
AcDbEntity
  8
Bemassung
 62
     0
370
    -2
100
AcDbBlockReference
  2
VDDIM_DEFAULT
 10
-42.50181170453223
 20
-2.258083951136594
 30
0.0
 41
2.5
 42
2.5
 43
2.5
 50
312.8852211213129
  0
POINT
  5
F10A54
330
F10007
100
AcDbEntity
  8
Defpoints
 62
     0
100
AcDbPoint
 10
-42.50181170453223
 20
-2.258083951136594
 30
0.0
  0
POINT
  5
F10A55
330
F10007
100
AcDbEntity
  8
Defpoints
 62
     0
100
AcDbPoint
 10
-41.82127981039974
 20
-2.990802410757027
 30
0.0
  0
ENDBLK
  5
F10069
330
F10007
100
AcDbEntity
  8
0
100
AcDbBlockEnd
  0
BLOCK
  5
F1006A
330
F10002
100
AcDbEntity
  8
0
100
AcDbBlockBegin
  2
*D9
 70
     1
 10
0.0
 20
0.0
 30
0.0
  3
*D9
  1

  0
LINE
  5
F10A45
330
F10002
100
AcDbEntity
  8
Bemassung
 62
     0
370
    -2
100
AcDbLine
 10
-42.44627981039975
 20
-6.990802410757014
 30
0.0
 11
-52.48849366092814
 21
-6.990802410757011
 31
0.0
  0
LINE
  5
F10A46
330
F10002
100
AcDbEntity
  8
Bemassung
 62
     0
370
    -2
100
AcDbLine
 10
-42.44627981039975
 20
-1.990802410757023
 30
0.0
 11
-52.48849366092814
 21
-1.99080241075702
 31
0.0
  0
LINE
  5
F10A47
330
F10002
100
AcDbEntity
  8
Bemassung
 62
     0
370
    -2
100
AcDbLine
 10
-51.23849366092814
 20
0.5091975892429792
 30
0.0
 11
-51.23849366092814
 21
3.009197589242979
 31
0.0
  0
LINE
  5
F10A48
330
F10002
100
AcDbEntity
  8
Bemassung
 62
     0
370
    -2
100
AcDbLine
 10
-51.23849366092814
 20
-9.490802410757012
 30
0.0
 11
-51.23849366092815
 21
-17.61836039165743
 31
0.0
  0
LINE
  5
F10A49
330
F10002
100
AcDbEntity
  8
Bemassung
 62
     0
370
    -2
100
AcDbLine
 10
-51.23849366092814
 20
-1.99080241075702
 30
0.0
 11
-51.23849366092814
 21
-6.990802410757011
 31
0.0
  0
INSERT
  5
F10A4A
330
F10002
100
AcDbEntity
  8
Bemassung
 62
     0
370
    -2
100
AcDbBlockReference
  2
VDDIM_DEFAULT
 10
-51.23849366092814
 20
-1.99080241075702
 30
0.0
 41
2.5
 42
2.5
 43
2.5
 50
270.0
  0
INSERT
  5
F10A4B
330
F10002
100
AcDbEntity
  8
Bemassung
 62
     0
370
    -2
100
AcDbBlockReference
  2
VDDIM_DEFAULT
 10
-51.23849366092814
 20
-6.990802410757011
 30
0.0
 41
2.5
 42
2.5
 43
2.5
 50
90.0
  0
MTEXT
  5
F10A4C
330
F10002
100
AcDbEntity
  8
Bemassung
 62
     0
100
AcDbMText
 10
-51.86349366092814
 20
-14.80458140120723
 30
0.0
 40
2.5
 41
0.0
 71
     8
 72
     1
  1
\A1;%%c5
 11
0.0000000000000001
 21
1.0
 31
0.0
 73
     1
 44
1.0
1001
ACAD
1000
MTEXTBEGIN
1070
    73
1070
     1
1070
    44
1040
1.0
1070
    74
1070
     0
1000
MTEXTEND
  0
POINT
  5
F10A4D
330
F10002
100
AcDbEntity
  8
Defpoints
 62
     0
100
AcDbPoint
 10
-41.82127981039975
 20
-6.990802410757015
 30
0.0
  0
POINT
  5
F10A4E
330
F10002
100
AcDbEntity
  8
Defpoints
 62
     0
100
AcDbPoint
 10
-41.82127981039975
 20
-1.990802410757023
 30
0.0
  0
POINT
  5
F10A4F
330
F10002
100
AcDbEntity
  8
Defpoints
 62
     0
100
AcDbPoint
 10
-51.23849366092814
 20
-1.99080241075702
 30
0.0
  0
ENDBLK
  5
F10073
330
F10002
100
AcDbEntity
  8
0
100
AcDbBlockEnd
  0
BLOCK
  5
F10074
330
F1000C
100
AcDbEntity
  8
0
100
AcDbBlockBegin
  2
*D10
 70
     1
 10
0.0
 20
0.0
 30
0.0
  3
*D10
  1

  0
LINE
  5
F10A56
330
F1000C
100
AcDbEntity
  8
Bemassung
 62
     0
370
    -2
100
AcDbLine
 10
-26.04099346678756
 20
-6.740802410757015
 30
0.0
 11
-25.36214265817704
 21
-6.740802410757016
 31
0.0
  0
LINE
  5
F10A57
330
F1000C
100
AcDbEntity
  8
Bemassung
 62
     0
370
    -2
100
AcDbLine
 10
-26.04099346678756
 20
-2.240802410757023
 30
0.0
 11
-25.36214265817704
 21
-2.240802410757023
 31
0.0
  0
LINE
  5
F10A58
330
F1000C
100
AcDbEntity
  8
Bemassung
 62
     0
370
    -2
100
AcDbLine
 10
-26.61214265817704
 20
0.2591975892429766
 30
0.0
 11
-26.61214265817704
 21
2.759197589242976
 31
0.0
  0
LINE
  5
F10A59
330
F1000C
100
AcDbEntity
  8
Bemassung
 62
     0
370
    -2
100
AcDbLine
 10
-26.61214265817704
 20
-9.240802410757016
 30
0.0
 11
-26.61214265817704
 21
-20.28104797692346
 31
0.0
  0
LINE
  5
F10A5A
330
F1000C
100
AcDbEntity
  8
Bemassung
 62
     0
370
    -2
100
AcDbLine
 10
-26.61214265817704
 20
-2.240802410757023
 30
0.0
 11
-26.61214265817704
 21
-6.740802410757015
 31
0.0
  0
INSERT
  5
F10A5B
330
F1000C
100
AcDbEntity
  8
Bemassung
 62
     0
370
    -2
100
AcDbBlockReference
  2
VDDIM_DEFAULT
 10
-26.61214265817704
 20
-2.240802410757023
 30
0.0
 41
2.5
 42
2.5
 43
2.5
 50
270.0
  0
INSERT
  5
F10A5C
330
F1000C
100
AcDbEntity
  8
Bemassung
 62
     0
370
    -2
100
AcDbBlockReference
  2
VDDIM_DEFAULT
 10
-26.61214265817704
 20
-6.740802410757015
 30
0.0
 41
2.5
 42
2.5
 43
2.5
 50
90.0
  0
MTEXT
  5
F10A5D
330
F1000C
100
AcDbEntity
  8
Bemassung
 62
     0
100
AcDbMText
 10
-27.23714265817704
 20
-16.01092519384025
 30
0.0
 40
2.5
 41
0.0
 71
     8
 72
     1
  1
\A1;%%c4.5
 11
0.0000000000000001
 21
1.0
 31
0.0
 73
     1
 44
1.0
1001
ACAD
1000
MTEXTBEGIN
1070
    73
1070
     1
1070
    44
1040
1.0
1070
    74
1070
     0
1000
MTEXTEND
  0
POINT
  5
F10A5E
330
F1000C
100
AcDbEntity
  8
Defpoints
 62
     0
100
AcDbPoint
 10
-26.66599346678756
 20
-6.740802410757015
 30
0.0
  0
POINT
  5
F10A5F
330
F1000C
100
AcDbEntity
  8
Defpoints
 62
     0
100
AcDbPoint
 10
-26.66599346678756
 20
-2.240802410757023
 30
0.0
  0
POINT
  5
F10A60
330
F1000C
100
AcDbEntity
  8
Defpoints
 62
     0
100
AcDbPoint
 10
-26.61214265817704
 20
-2.240802410757023
 30
0.0
  0
ENDBLK
  5
F1007D
330
F1000C
100
AcDbEntity
  8
0
100
AcDbBlockEnd
  0
BLOCK
  5
F1007E
330
F1001B
100
AcDbEntity
  8
0
100
AcDbBlockBegin
  2
*D11
 70
     1
 10
0.0
 20
0.0
 30
0.0
  3
*D11
  1

  0
LINE
  5
F10A6A
330
F1001B
100
AcDbEntity
  8
Bemassung
 62
     0
370
    -2
100
AcDbLine
 10
14.30372018960025
 20
-7.490802410757016
 30
0.0
 11
25.42872018960025
 21
-7.490802410757019
 31
0.0
  0
LINE
  5
F10A6B
330
F1001B
100
AcDbEntity
  8
Bemassung
 62
     0
370
    -2
100
AcDbLine
 10
14.30372018960025
 20
-1.490802410757023
 30
0.0
 11
25.42872018960025
 21
-1.490802410757026
 31
0.0
  0
LINE
  5
F10A6C
330
F1001B
100
AcDbEntity
  8
Bemassung
 62
     0
370
    -2
100
AcDbLine
 10
24.17872018960024
 20
-9.990802410757018
 30
0.0
 11
24.17872018960024
 21
-12.49080241075702
 31
0.0
  0
LINE
  5
F10A6D
330
F1001B
100
AcDbEntity
  8
Bemassung
 62
     0
370
    -2
100
AcDbLine
 10
24.17872018960025
 20
1.009197589242973
 30
0.0
 11
24.17872018960025
 21
13.97133947191691
 31
0.0
  0
LINE
  5
F10A6E
330
F1001B
100
AcDbEntity
  8
Bemassung
 62
     0
370
    -2
100
AcDbLine
 10
24.17872018960025
 20
-7.490802410757019
 30
0.0
 11
24.17872018960025
 21
-1.490802410757026
 31
0.0
  0
INSERT
  5
F10A6F
330
F1001B
100
AcDbEntity
  8
Bemassung
 62
     0
370
    -2
100
AcDbBlockReference
  2
VDDIM_DEFAULT
 10
24.17872018960025
 20
-7.490802410757019
 30
0.0
 41
2.5
 42
2.5
 43
2.5
 50
90.0
  0
INSERT
  5
F10A70
330
F1001B
100
AcDbEntity
  8
Bemassung
 62
     0
370
    -2
100
AcDbBlockReference
  2
VDDIM_DEFAULT
 10
24.17872018960025
 20
-1.490802410757026
 30
0.0
 41
2.5
 42
2.5
 43
2.5
 50
270.0
  0
MTEXT
  5
F10A71
330
F1001B
100
AcDbEntity
  8
Bemassung
 62
     0
100
AcDbMText
 10
23.55372018960025
 20
8.740268530579948
 30
0.0
 40
2.5
 41
0.0
 71
     8
 72
     1
  1
\A1;%%c6 h6
 11
0.0000000000000001
 21
1.0
 31
0.0
 73
     1
 44
1.0
1001
ACAD
1000
MTEXTBEGIN
1070
    73
1070
     1
1070
    44
1040
1.0
1070
    74
1070
     0
1000
MTEXTEND
  0
POINT
  5
F10A72
330
F1001B
100
AcDbEntity
  8
Defpoints
 62
     0
100
AcDbPoint
 10
13.67872018960025
 20
-7.490802410757015
 30
0.0
  0
POINT
  5
F10A73
330
F1001B
100
AcDbEntity
  8
Defpoints
 62
     0
100
AcDbPoint
 10
13.67872018960025
 20
-1.490802410757023
 30
0.0
  0
POINT
  5
F10A74
330
F1001B
100
AcDbEntity
  8
Defpoints
 62
     0
100
AcDbPoint
 10
24.17872018960025
 20
-1.490802410757026
 30
0.0
  0
ENDBLK
  5
F10087
330
F1001B
100
AcDbEntity
  8
0
100
AcDbBlockEnd
  0
BLOCK
  5
F108C2
330
F108C0
100
AcDbEntity
  8
0
100
AcDbBlockBegin
  2
GENAXEH
 70
     0
 10
0.0
 20
0.0
 30
0.0
  3
GENAXEH
  1

  0
LINE
  5
F108C1
330
F108C0
100
AcDbEntity
  8
0
100
AcDbLine
 10
-1.0
 20
0.0
 30
0.0
 11
1.0
 21
0.0
 31
0.0
  0
ENDBLK
  5
F108C3
330
F108C0
100
AcDbEntity
  8
0
100
AcDbBlockEnd
  0
ENDSEC
  0
SECTION
  2
ENTITIES
  0
DIMENSION
  5
F10017
330
261
100
AcDbEntity
  8
Bemassung
100
AcDbDimension
  2
*D3
 10
14.17872018960025
 20
18.50919758924297
 30
0.0
 11
-3.821279810399754
 21
20.41148271884734
 31
0.0
 70
    32
  1
<>
 71
     8
 42
36.00000000000001
  3
BEM-ISBE
100
AcDbAlignedDimension
 13
-21.82127981039976
 23
-1.490802410757023
 33
0.0
 14
14.17872018960025
 24
-1.990802410757023
 34
0.0
100
AcDbRotatedDimension
1001
ACAD
1000
DSTYLE
1002
{
1070
   147
1040
0.625
1070
    72
1070
     0
1070
    71
1070
     0
1070
   284
1070
     8
1070
    78
1070
     8
1070
   144
1040
1.0
1070
    47
1040
2.0
1070
    48
1040
0.0
1002
}
  0
DIMENSION
  5
F10021
330
261
100
AcDbEntity
  8
Bemassung
100
AcDbDimension
  2
*D4
 10
-42.82127981039976
 20
7.485023927861494
 30
0.0
 11
-36.17648468601989
 21
7.485023927861494
 31
0.0
 70
   160
  1
<>
 71
     8
 42
13.0
  3
BEM-ISBE
100
AcDbAlignedDimension
 13
-29.82127981039976
 23
-6.740802410757015
 33
0.0
 14
-42.82127981039976
 24
-4.490802410757016
 34
0.0
100
AcDbRotatedDimension
1001
ACAD
1000
DSTYLE
1002
{
1070
   147
1040
0.625
1070
    72
1070
     0
1070
    71
1070
     0
1070
   284
1070
     8
1070
    78
1070
     8
1070
   144
1040
1.0
1070
    47
1040
1.5
1070
    48
1040
0.0
1002
}
  0
DIMENSION
  5
F10026
330
261
100
AcDbEntity
  8
Bemassung
100
AcDbDimension
  2
*D5
 10
-42.82127981039976
 20
33.50919758924297
 30
0.0
 11
-14.32127981039975
 21
35.40551409674639
 31
0.0
 70
    32
  1
<>
 71
     8
 42
57.00000000000001
  3
BEM-ISBE
100
AcDbAlignedDimension
 13
14.17872018960025
 23
-1.990802410757023
 33
0.0
 14
-42.82127981039976
 24
-4.490802410757018
 34
0.0
100
AcDbRotatedDimension
1001
ACAD
1000
DSTYLE
1002
{
1070
   147
1040
0.625
1070
    72
1070
     0
1070
    71
1070
     0
1070
   284
1070
     8
1070
    78
1070
     8
1070
   144
1040
1.0
1070
    47
1040
2.0
1070
    48
1040
0.0
1002
}
  0
DIMENSION
  5
F1002B
330
261
100
AcDbEntity
  8
Bemassung
100
AcDbDimension
  2
*D6
 10
-23.82127981039976
 20
18.41888921919887
 30
0.0
 11
-33.32127981039976
 21
20.3203216885031
 31
0.0
 70
    32
  1
<>
 71
     8
 42
19.0
  3
BEM-ISBE
100
AcDbAlignedDimension
 13
-42.82127981039976
 23
-4.490802410757016
 33
0.0
 14
-23.82127981039976
 24
-2.240802410757023
 34
0.0
100
AcDbRotatedDimension
1001
ACAD
1000
DSTYLE
1002
{
1070
   147
1040
0.625
1070
    72
1070
     0
1070
    71
1070
     0
1070
   284
1070
     8
1070
    78
1070
     8
1070
   144
1040
1.0
1070
    47
1040
0.5
1070
    48
1040
0.0
1002
}
  0
DIMENSION
  5
F10008
330
261
100
AcDbEntity
  8
Bemassung
100
AcDbDimension
  2
*D8
 10
-41.82127981039974
 20
-2.990802410757027
 30
0.0
 11
-50.79331140327996
 21
6.669249124052004
 31
0.0
 70
   164
  1
<>
 71
     8
 42
1.000000000000042
  3
BEM-ISBE
100
AcDbRadialDimension
 15
-42.50181170453223
 25
-2.258083951136594
 35
0.0
 40
0.0
1001
ACAD
1000
DSTYLE
1002
{
1070
   284
1070
     8
1070
    78
1070
     8
1070
   144
1040
1.0
1070
   147
1040
0.625
1070
    72
1070
     0
1070
    71
1070
     0
1002
}
  0
DIMENSION
  5
F10003
330
261
100
AcDbEntity
  8
Bemassung
100
AcDbDimension
  2
*D9
 10
-51.23849366092814
 20
-1.99080241075702
 30
0.0
 11
-51.23849366092814
 21
-14.80458140120723
 31
0.0
 70
   160
  1
%%c<>
 71
     8
 42
4.999999999999991
  3
BEM-ISBE
100
AcDbAlignedDimension
 13
-41.82127981039975
 23
-6.990802410757015
 33
0.0
 14
-41.82127981039975
 24
-1.990802410757023
 34
0.0
 50
90.0
100
AcDbRotatedDimension
1001
ACAD
1000
DSTYLE
1002
{
1070
   147
1040
0.625
1070
    72
1070
     0
1070
    71
1070
     0
1070
   284
1070
     8
1070
    78
1070
     8
1070
   144
1040
1.0
1070
    47
1040
0.0
1070
    48
1040
-0.048
1002
}
  0
DIMENSION
  5
F1000D
330
261
100
AcDbEntity
  8
Bemassung
100
AcDbDimension
  2
*D10
 10
-26.61214265817704
 20
-2.240802410757023
 30
0.0
 11
-26.61214265817704
 21
-16.01092519384025
 31
0.0
 70
   160
  1
%%c<>
 71
     8
 42
4.499999999999992
  3
BEM-ISBE
100
AcDbAlignedDimension
 13
-26.66599346678756
 23
-6.740802410757015
 33
0.0
 14
-26.66599346678756
 24
-2.240802410757023
 34
0.0
 50
90.0
100
AcDbRotatedDimension
1001
ACAD
1000
DSTYLE
1002
{
1070
   147
1040
0.625
1070
    72
1070
     0
1070
    71
1070
     0
1070
   284
1070
     8
1070
    78
1070
     8
1070
   144
1040
1.0
1070
    47
1040
0.1
1070
    48
1040
-0.1
1002
}
  0
DIMENSION
  5
F1001C
330
261
100
AcDbEntity
  8
Bemassung
100
AcDbDimension
  2
*D11
 10
24.17872018960025
 20
-1.490802410757026
 30
0.0
 11
22.20736957568483
 21
8.740268530579948
 31
0.0
 70
    32
  1
%%c<> h6
 71
     8
 42
5.999999999999992
  3
BEM-ISBE
100
AcDbAlignedDimension
 13
13.67872018960025
 23
-7.490802410757015
 33
0.0
 14
13.67872018960025
 24
-1.490802410757023
 34
0.0
 50
90.0
100
AcDbRotatedDimension
1001
ACAD
1000
DSTYLE
1002
{
1070
   284
1070
     8
1070
    78
1070
     8
1070
   144
1040
1.0
1070
   147
1040
0.625
1070
    72
1070
     0
1070
    71
1070
     0
1002
}
  0
LINE
  5
F10088
330
261
100
AcDbEntity
  8
Geo
100
AcDbLine
 10
-42.82127981039976
 20
-4.490802410757016
 30
0.0
 11
-42.82127981039976
 21
-2.990802410757023
 31
0.0
  0
ARC
  5
F1008A
330
261
100
AcDbEntity
  8
Geo
100
AcDbCircle
 10
-41.82127981039975
 20
-2.990802410757023
 30
0.0
 40
1.0
100
AcDbArc
 50
90.0
 51
180.0
  0
LINE
  5
F1008C
330
261
100
AcDbEntity
  8
Geo
100
AcDbLine
 10
-41.82127981039975
 20
-1.990802410757023
 30
0.0
 11
-29.82127981039976
 21
-1.990802410757023
 31
0.0
  0
LINE
  5
F1008E
330
261
100
AcDbEntity
  8
Geo
100
AcDbLine
 10
-29.82127981039976
 20
-1.990802410757023
 30
0.0
 11
-29.82127981039976
 21
-2.240802410757023
 31
0.0
  0
LINE
  5
F10090
330
261
100
AcDbEntity
  8
Geo
100
AcDbLine
 10
-29.82127981039976
 20
-2.240802410757023
 30
0.0
 11
-23.82127981039976
 21
-2.240802410757023
 31
0.0
  0
LINE
  5
F10092
330
261
100
AcDbEntity
  8
Geo
100
AcDbLine
 10
-23.82127981039976
 20
-2.240802410757023
 30
0.0
 11
-21.82127981039976
 21
-1.490802410757023
 31
0.0
  0
LINE
  5
F10094
330
261
100
AcDbEntity
  8
Geo
100
AcDbLine
 10
-21.82127981039976
 20
-1.490802410757023
 30
0.0
 11
-6.821279810399751
 21
-1.490802410757023
 31
0.0
  0
LINE
  5
F10096
330
261
100
AcDbEntity
  8
Geo
100
AcDbLine
 10
-6.821279810399751
 20
-1.490802410757023
 30
0.0
 11
-5.921279810399752
 21
-2.390802410757023
 31
0.0
  0
LINE
  5
F10098
330
261
100
AcDbEntity
  8
Geo
100
AcDbLine
 10
-5.921279810399752
 20
-2.390802410757023
 30
0.0
 11
-1.721279810399757
 21
-2.390802410757023
 31
0.0
  0
LINE
  5
F1009A
330
261
100
AcDbEntity
  8
Geo
100
AcDbLine
 10
-1.721279810399757
 20
-2.390802410757023
 30
0.0
 11
-0.8212798103997513
 21
-1.490802410757023
 31
0.0
  0
LINE
  5
F1009C
330
261
100
AcDbEntity
  8
Geo
100
AcDbLine
 10
-0.8212798103997513
 20
-1.490802410757023
 30
0.0
 11
13.67872018960025
 21
-1.490802410757023
 31
0.0
  0
LINE
  5
F1009E
330
261
100
AcDbEntity
  8
Geo
100
AcDbLine
 10
13.67872018960025
 20
-1.490802410757023
 30
0.0
 11
14.17872018960025
 21
-1.990802410757023
 31
0.0
  0
LINE
  5
F100A0
330
261
100
AcDbEntity
  8
Geo
100
AcDbLine
 10
-41.42127981039976
 20
-1.991493271454926
 30
0.0
 11
-41.32127981039976
 21
-1.990877324964726
 31
0.0
  0
LINE
  5
F100A2
330
261
100
AcDbEntity
  8
Geo
100
AcDbLine
 10
-41.32127981039976
 20
-1.990877324964726
 30
0.0
 11
-41.22127981039976
 21
-1.992702735524124
 31
0.0
  0
LINE
  5
F100A4
330
261
100
AcDbEntity
  8
Geo
100
AcDbLine
 10
-41.22127981039976
 20
-1.992702735524124
 30
0.0
 11
-41.12127981039977
 21
-1.996967720488227
 31
0.0
  0
LINE
  5
F100A6
330
261
100
AcDbEntity
  8
Geo
100
AcDbLine
 10
-41.12127981039977
 20
-1.996967720488227
 30
0.0
 11
-41.02127981039976
 21
-2.003668114791826
 31
0.0
  0
LINE
  5
F100A8
330
261
100
AcDbEntity
  8
Geo
100
AcDbLine
 10
-41.02127981039976
 20
-2.003668114791826
 30
0.0
 11
-40.92127981039976
 21
-2.012797375016825
 31
0.0
  0
LINE
  5
F100AA
330
261
100
AcDbEntity
  8
Geo
100
AcDbLine
 10
-40.92127981039976
 20
-2.012797375016825
 30
0.0
 11
-40.82127981039976
 21
-2.024346585782526
 31
0.0
  0
LINE
  5
F100AC
330
261
100
AcDbEntity
  8
Geo
100
AcDbLine
 10
-40.82127981039976
 20
-2.024346585782526
 30
0.0
 11
-40.72127981039976
 21
-2.038304468452226
 31
0.0
  0
LINE
  5
F100AE
330
261
100
AcDbEntity
  8
Geo
100
AcDbLine
 10
-40.72127981039976
 20
-2.038304468452226
 30
0.0
 11
-40.62127981039977
 21
-2.054657392147225
 31
0.0
  0
LINE
  5
F100B0
330
261
100
AcDbEntity
  8
Geo
100
AcDbLine
 10
-40.62127981039977
 20
-2.054657392147225
 30
0.0
 11
-40.52127981039975
 21
-2.073389387058925
 31
0.0
  0
LINE
  5
F100B2
330
261
100
AcDbEntity
  8
Geo
100
AcDbLine
 10
-40.52127981039975
 20
-2.073389387058925
 30
0.0
 11
-40.42127981039977
 21
-2.094482160043826
 31
0.0
  0
LINE
  5
F100B4
330
261
100
AcDbEntity
  8
Geo
100
AcDbLine
 10
-40.42127981039977
 20
-2.094482160043826
 30
0.0
 11
-40.32127981039976
 21
-2.117915112488825
 31
0.0
  0
LINE
  5
F100B6
330
261
100
AcDbEntity
  8
Geo
100
AcDbLine
 10
-40.32127981039976
 20
-2.117915112488825
 30
0.0
 11
-40.22127981039976
 21
-2.143665360426624
 31
0.0
  0
LINE
  5
F100B8
330
261
100
AcDbEntity
  8
Geo
100
AcDbLine
 10
-40.22127981039976
 20
-2.143665360426624
 30
0.0
 11
-40.12127981039976
 21
-2.171707756884027
 31
0.0
  0
LINE
  5
F100BA
330
261
100
AcDbEntity
  8
Geo
100
AcDbLine
 10
-40.12127981039976
 20
-2.171707756884027
 30
0.0
 11
-40.02127981039976
 21
-2.202014916439425
 31
0.0
  0
LINE
  5
F100BC
330
261
100
AcDbEntity
  8
Geo
100
AcDbLine
 10
-40.02127981039976
 20
-2.202014916439425
 30
0.0
 11
-39.92127981039977
 21
-2.234557241966925
 31
0.0
  0
LINE
  5
F100BE
330
261
100
AcDbEntity
  8
Geo
100
AcDbLine
 10
-39.92127981039977
 20
-2.234557241966925
 30
0.0
 11
-39.82127981039976
 21
-2.269302953539826
 31
0.0
  0
LINE
  5
F100C0
330
261
100
AcDbEntity
  8
Geo
100
AcDbLine
 10
-39.82127981039976
 20
-2.269302953539826
 30
0.0
 11
-39.72127981039977
 21
-2.306218119466326
 31
0.0
  0
LINE
  5
F100C2
330
261
100
AcDbEntity
  8
Geo
100
AcDbLine
 10
-39.72127981039977
 20
-2.306218119466326
 30
0.0
 11
-39.62127981039977
 21
-2.345266689425725
 31
0.0
  0
LINE
  5
F100C4
330
261
100
AcDbEntity
  8
Geo
100
AcDbLine
 10
-39.62127981039977
 20
-2.345266689425725
 30
0.0
 11
-39.52127981039976
 21
-2.386410529674826
 31
0.0
  0
LINE
  5
F100C6
330
261
100
AcDbEntity
  8
Geo
100
AcDbLine
 10
-39.52127981039976
 20
-2.386410529674826
 30
0.0
 11
-39.42127981039977
 21
-2.429609460287725
 31
0.0
  0
LINE
  5
F100C8
330
261
100
AcDbEntity
  8
Geo
100
AcDbLine
 10
-39.42127981039977
 20
-2.429609460287725
 30
0.0
 11
-39.32127981039976
 21
-2.474821294394924
 31
0.0
  0
LINE
  5
F100CA
330
261
100
AcDbEntity
  8
Geo
100
AcDbLine
 10
-39.32127981039976
 20
-2.474821294394924
 30
0.0
 11
-39.22127981039976
 21
-2.522001879381125
 31
0.0
  0
LINE
  5
F100CC
330
261
100
AcDbEntity
  8
Geo
100
AcDbLine
 10
-39.22127981039976
 20
-2.522001879381125
 30
0.0
 11
-39.12127981039977
 21
-2.571105140004425
 31
0.0
  0
LINE
  5
F100CE
330
261
100
AcDbEntity
  8
Geo
100
AcDbLine
 10
-39.12127981039977
 20
-2.571105140004425
 30
0.0
 11
-39.02127981039976
 21
-2.622083123391227
 31
0.0
  0
LINE
  5
F100D0
330
261
100
AcDbEntity
  8
Geo
100
AcDbLine
 10
-39.02127981039976
 20
-2.622083123391227
 30
0.0
 11
-38.92127981039977
 21
-2.674886045865926
 31
0.0
  0
LINE
  5
F100D2
330
261
100
AcDbEntity
  8
Geo
100
AcDbLine
 10
-38.92127981039977
 20
-2.674886045865926
 30
0.0
 11
-38.82127981039976
 21
-2.729462341568524
 31
0.0
  0
LINE
  5
F100D4
330
261
100
AcDbEntity
  8
Geo
100
AcDbLine
 10
-38.82127981039976
 20
-2.729462341568524
 30
0.0
 11
-38.72127981039977
 21
-2.785758712812425
 31
0.0
  0
LINE
  5
F100D6
330
261
100
AcDbEntity
  8
Geo
100
AcDbLine
 10
-38.72127981039977
 20
-2.785758712812425
 30
0.0
 11
-38.62127981039977
 21
-2.843720182132924
 31
0.0
  0
LINE
  5
F100D8
330
261
100
AcDbEntity
  8
Geo
100
AcDbLine
 10
-38.62127981039977
 20
-2.843720182132924
 30
0.0
 11
-38.52127981039976
 21
-2.903290145977125
 31
0.0
  0
LINE
  5
F100DA
330
261
100
AcDbEntity
  8
Geo
100
AcDbLine
 10
-38.52127981039976
 20
-2.903290145977125
 30
0.0
 11
-38.42127981039977
 21
-2.964410429981326
 31
0.0
  0
LINE
  5
F100DC
330
261
100
AcDbEntity
  8
Geo
100
AcDbLine
 10
-38.42127981039977
 20
-2.964410429981326
 30
0.0
 11
-38.32127981039976
 21
-3.027021345782525
 31
0.0
  0
LINE
  5
F100DE
330
261
100
AcDbEntity
  8
Geo
100
AcDbLine
 10
-38.32127981039976
 20
-3.027021345782525
 30
0.0
 11
-38.22127981039976
 21
-3.091061749308225
 31
0.0
  0
LINE
  5
F100E0
330
261
100
AcDbEntity
  8
Geo
100
AcDbLine
 10
-38.22127981039976
 20
-3.091061749308225
 30
0.0
 11
-38.12127981039977
 21
-3.156469100488026
 31
0.0
  0
LINE
  5
F100E2
330
261
100
AcDbEntity
  8
Geo
100
AcDbLine
 10
-38.12127981039977
 20
-3.156469100488026
 30
0.0
 11
-38.02127981039976
 21
-3.223179524328728
 31
0.0
  0
LINE
  5
F100E4
330
261
100
AcDbEntity
  8
Geo
100
AcDbLine
 10
-38.02127981039976
 20
-3.223179524328728
 30
0.0
 11
-37.92127981039977
 21
-3.291127873292825
 31
0.0
  0
LINE
  5
F100E6
330
261
100
AcDbEntity
  8
Geo
100
AcDbLine
 10
-37.92127981039977
 20
-3.291127873292825
 30
0.0
 11
-37.82127981039976
 21
-3.360247790919425
 31
0.0
  0
LINE
  5
F100E8
330
261
100
AcDbEntity
  8
Geo
100
AcDbLine
 10
-37.82127981039976
 20
-3.360247790919425
 30
0.0
 11
-37.72127981039977
 21
-3.430471776626726
 31
0.0
  0
LINE
  5
F100EA
330
261
100
AcDbEntity
  8
Geo
100
AcDbLine
 10
-37.72127981039977
 20
-3.430471776626726
 30
0.0
 11
-37.62127981039977
 21
-3.501731251630625
 31
0.0
  0
LINE
  5
F100EC
330
261
100
AcDbEntity
  8
Geo
100
AcDbLine
 10
-37.62127981039977
 20
-3.501731251630625
 30
0.0
 11
-37.52127981039976
 21
-3.573956625917226
 31
0.0
  0
LINE
  5
F100EE
330
261
100
AcDbEntity
  8
Geo
100
AcDbLine
 10
-37.52127981039976
 20
-3.573956625917226
 30
0.0
 11
-37.42127981039975
 21
-3.647077366202125
 31
0.0
  0
LINE
  5
F100F0
330
261
100
AcDbEntity
  8
Geo
100
AcDbLine
 10
-37.42127981039975
 20
-3.647077366202125
 30
0.0
 11
-37.32127981039976
 21
-3.721022064811727
 31
0.0
  0
LINE
  5
F100F2
330
261
100
AcDbEntity
  8
Geo
100
AcDbLine
 10
-37.32127981039976
 20
-3.721022064811727
 30
0.0
 11
-37.22127981039975
 21
-3.795718509417623
 31
0.0
  0
LINE
  5
F100F4
330
261
100
AcDbEntity
  8
Geo
100
AcDbLine
 10
-37.22127981039975
 20
-3.795718509417623
 30
0.0
 11
-37.12127981039976
 21
-3.871093753557227
 31
0.0
  0
LINE
  5
F100F6
330
261
100
AcDbEntity
  8
Geo
100
AcDbLine
 10
-37.12127981039976
 20
-3.871093753557227
 30
0.0
 11
-37.02127981039976
 21
-3.947074187871425
 31
0.0
  0
LINE
  5
F100F8
330
261
100
AcDbEntity
  8
Geo
100
AcDbLine
 10
-37.02127981039976
 20
-3.947074187871425
 30
0.0
 11
-36.92127981039976
 21
-4.023585611989116
 31
0.0
  0
LINE
  5
F100FA
330
261
100
AcDbEntity
  8
Geo
100
AcDbLine
 10
-36.92127981039976
 20
-4.023585611989116
 30
0.0
 11
-36.82127981039976
 21
-4.100553306989434
 31
0.0
  0
LINE
  5
F100FC
330
261
100
AcDbEntity
  8
Geo
100
AcDbLine
 10
-36.82127981039976
 20
-4.100553306989434
 30
0.0
 11
-36.72127981039975
 21
-4.177902108370115
 31
0.0
  0
LINE
  5
F100FE
330
261
100
AcDbEntity
  8
Geo
100
AcDbLine
 10
-36.72127981039975
 20
-4.177902108370115
 30
0.0
 11
-36.62127981039976
 21
-4.255556479451035
 31
0.0
  0
LINE
  5
F10100
330
261
100
AcDbEntity
  8
Geo
100
AcDbLine
 10
-36.62127981039976
 20
-4.255556479451035
 30
0.0
 11
-36.52127981039976
 21
-4.333440585141225
 31
0.0
  0
LINE
  5
F10102
330
261
100
AcDbEntity
  8
Geo
100
AcDbLine
 10
-36.52127981039976
 20
-4.333440585141225
 30
0.0
 11
-36.42127981039975
 21
-4.411478365997336
 31
0.0
  0
LINE
  5
F10104
330
261
100
AcDbEntity
  8
Geo
100
AcDbLine
 10
-36.42127981039975
 20
-4.411478365997336
 30
0.0
 11
-36.32127981039976
 21
-4.489593612501105
 31
0.0
  0
LINE
  5
F10106
330
261
100
AcDbEntity
  8
Geo
100
AcDbLine
 10
-36.32127981039976
 20
-4.489593612501105
 30
0.0
 11
-36.22127981039975
 21
-4.567710039483506
 31
0.0
  0
LINE
  5
F10108
330
261
100
AcDbEntity
  8
Geo
100
AcDbLine
 10
-36.22127981039975
 20
-4.567710039483506
 30
0.0
 11
-36.12127981039976
 21
-4.645751360622675
 31
0.0
  0
LINE
  5
F1010A
330
261
100
AcDbEntity
  8
Geo
100
AcDbLine
 10
-36.12127981039976
 20
-4.645751360622675
 30
0.0
 11
-36.02127981039976
 21
-4.723641362943045
 31
0.0
  0
LINE
  5
F1010C
330
261
100
AcDbEntity
  8
Geo
100
AcDbLine
 10
-36.02127981039976
 20
-4.723641362943045
 30
0.0
 11
-35.92127981039975
 21
-4.801303981242746
 31
0.0
  0
LINE
  5
F1010E
330
261
100
AcDbEntity
  8
Geo
100
AcDbLine
 10
-35.92127981039975
 20
-4.801303981242746
 30
0.0
 11
-35.82127981039976
 21
-4.878663372376816
 31
0.0
  0
LINE
  5
F10110
330
261
100
AcDbEntity
  8
Geo
100
AcDbLine
 10
-35.82127981039976
 20
-4.878663372376816
 30
0.0
 11
-35.72127981039975
 21
-4.955643989323485
 31
0.0
  0
LINE
  5
F10112
330
261
100
AcDbEntity
  8
Geo
100
AcDbLine
 10
-35.72127981039975
 20
-4.955643989323485
 30
0.0
 11
-35.62127981039976
 21
-5.032170654961264
 31
0.0
  0
LINE
  5
F10114
330
261
100
AcDbEntity
  8
Geo
100
AcDbLine
 10
-35.62127981039976
 20
-5.032170654961264
 30
0.0
 11
-35.52127981039976
 21
-5.108168635484835
 31
0.0
  0
LINE
  5
F10116
330
261
100
AcDbEntity
  8
Geo
100
AcDbLine
 10
-35.52127981039976
 20
-5.108168635484835
 30
0.0
 11
-35.42127981039975
 21
-5.183563713388036
 31
0.0
  0
LINE
  5
F10118
330
261
100
AcDbEntity
  8
Geo
100
AcDbLine
 10
-35.42127981039975
 20
-5.183563713388036
 30
0.0
 11
-35.32127981039976
 21
-5.258282259942536
 31
0.0
  0
LINE
  5
F1011A
330
261
100
AcDbEntity
  8
Geo
100
AcDbLine
 10
-35.32127981039976
 20
-5.258282259942536
 30
0.0
 11
-35.22127981039975
 21
-5.332251307101644
 31
0.0
  0
LINE
  5
F1011C
330
261
100
AcDbEntity
  8
Geo
100
AcDbLine
 10
-35.22127981039975
 20
-5.332251307101644
 30
0.0
 11
-35.12127981039976
 21
-5.405398618758866
 31
0.0
  0
LINE
  5
F1011E
330
261
100
AcDbEntity
  8
Geo
100
AcDbLine
 10
-35.12127981039976
 20
-5.405398618758866
 30
0.0
 11
-35.02127981039976
 21
-5.477652761291656
 31
0.0
  0
LINE
  5
F10120
330
261
100
AcDbEntity
  8
Geo
100
AcDbLine
 10
-35.02127981039976
 20
-5.477652761291656
 30
0.0
 11
-34.92127981039975
 21
-5.548943173321495
 31
0.0
  0
LINE
  5
F10122
330
261
100
AcDbEntity
  8
Geo
100
AcDbLine
 10
-34.92127981039975
 20
-5.548943173321495
 30
0.0
 11
-34.82127981039976
 21
-5.619200234622175
 31
0.0
  0
LINE
  5
F10124
330
261
100
AcDbEntity
  8
Geo
100
AcDbLine
 10
-34.82127981039976
 20
-5.619200234622175
 30
0.0
 11
-34.72127981039975
 21
-5.688355334108944
 31
0.0
  0
LINE
  5
F10126
330
261
100
AcDbEntity
  8
Geo
100
AcDbLine
 10
-34.72127981039975
 20
-5.688355334108944
 30
0.0
 11
-34.62127981039976
 21
-5.756340936842224
 31
0.0
  0
LINE
  5
F10128
330
261
100
AcDbEntity
  8
Geo
100
AcDbLine
 10
-34.62127981039976
 20
-5.756340936842224
 30
0.0
 11
-34.52127981039976
 21
-5.823090649980304
 31
0.0
  0
LINE
  5
F1012A
330
261
100
AcDbEntity
  8
Geo
100
AcDbLine
 10
-34.52127981039976
 20
-5.823090649980304
 30
0.0
 11
-34.42127981039976
 21
-5.888539287616746
 31
0.0
  0
LINE
  5
F1012C
330
261
100
AcDbEntity
  8
Geo
100
AcDbLine
 10
-34.42127981039976
 20
-5.888539287616746
 30
0.0
 11
-34.32127981039976
 21
-5.952622934439126
 31
0.0
  0
LINE
  5
F1012E
330
261
100
AcDbEntity
  8
Geo
100
AcDbLine
 10
-34.32127981039976
 20
-5.952622934439126
 30
0.0
 11
-34.22127981039975
 21
-6.015279008146944
 31
0.0
  0
LINE
  5
F10130
330
261
100
AcDbEntity
  8
Geo
100
AcDbLine
 10
-34.22127981039975
 20
-6.015279008146944
 30
0.0
 11
-34.12127981039976
 21
-6.076446320567765
 31
0.0
  0
LINE
  5
F10132
330
261
100
AcDbEntity
  8
Geo
100
AcDbLine
 10
-34.12127981039976
 20
-6.076446320567765
 30
0.0
 11
-34.02127981039976
 21
-6.136065137411855
 31
0.0
  0
LINE
  5
F10134
330
261
100
AcDbEntity
  8
Geo
100
AcDbLine
 10
-34.02127981039976
 20
-6.136065137411855
 30
0.0
 11
-33.92127981039975
 21
-6.194077236607014
 31
0.0
  0
LINE
  5
F10136
330
261
100
AcDbEntity
  8
Geo
100
AcDbLine
 10
-33.92127981039975
 20
-6.194077236607014
 30
0.0
 11
-33.82127981039976
 21
-6.250425965156675
 31
0.0
  0
LINE
  5
F10138
330
261
100
AcDbEntity
  8
Geo
100
AcDbLine
 10
-33.82127981039976
 20
-6.250425965156675
 30
0.0
 11
-33.72127981039975
 21
-6.305056294465595
 31
0.0
  0
LINE
  5
F1013A
330
261
100
AcDbEntity
  8
Geo
100
AcDbLine
 10
-33.72127981039975
 20
-6.305056294465595
 30
0.0
 11
-33.62127981039976
 21
-6.357914874079246
 31
0.0
  0
LINE
  5
F1013C
330
261
100
AcDbEntity
  8
Geo
100
AcDbLine
 10
-33.62127981039976
 20
-6.357914874079246
 30
0.0
 11
-33.52127981039976
 21
-6.408950083784415
 31
0.0
  0
LINE
  5
F1013E
330
261
100
AcDbEntity
  8
Geo
100
AcDbLine
 10
-33.52127981039976
 20
-6.408950083784415
 30
0.0
 11
-33.42127981039975
 21
-6.458112084020015
 31
0.0
  0
LINE
  5
F10140
330
261
100
AcDbEntity
  8
Geo
100
AcDbLine
 10
-33.42127981039975
 20
-6.458112084020015
 30
0.0
 11
-33.32127981039976
 21
-6.505352864549054
 31
0.0
  0
LINE
  5
F10142
330
261
100
AcDbEntity
  8
Geo
100
AcDbLine
 10
-33.32127981039976
 20
-6.505352864549054
 30
0.0
 11
-33.22127981039975
 21
-6.550626291344065
 31
0.0
  0
LINE
  5
F10144
330
261
100
AcDbEntity
  8
Geo
100
AcDbLine
 10
-33.22127981039975
 20
-6.550626291344065
 30
0.0
 11
-33.12127981039976
 21
-6.593888151640305
 31
0.0
  0
LINE
  5
F10146
330
261
100
AcDbEntity
  8
Geo
100
AcDbLine
 10
-33.12127981039976
 20
-6.593888151640305
 30
0.0
 11
-33.02127981039976
 21
-6.635096197112735
 31
0.0
  0
LINE
  5
F10148
330
261
100
AcDbEntity
  8
Geo
100
AcDbLine
 10
-33.02127981039976
 20
-6.635096197112735
 30
0.0
 11
-32.92127981039975
 21
-6.674210185134525
 31
0.0
  0
LINE
  5
F1014A
330
261
100
AcDbEntity
  8
Geo
100
AcDbLine
 10
-32.92127981039975
 20
-6.674210185134525
 30
0.0
 11
-32.82127981039976
 21
-6.711191918076906
 31
0.0
  0
LINE
  5
F1014C
330
261
100
AcDbEntity
  8
Geo
100
AcDbLine
 10
-32.82127981039976
 20
-6.711191918076906
 30
0.0
 11
-32.72127981039975
 21
-6.746005280611866
 31
0.0
  0
LINE
  5
F1014E
330
261
100
AcDbEntity
  8
Geo
100
AcDbLine
 10
-32.72127981039975
 20
-6.746005280611866
 30
0.0
 11
-32.62127981039976
 21
-6.778616274981445
 31
0.0
  0
LINE
  5
F10150
330
261
100
AcDbEntity
  8
Geo
100
AcDbLine
 10
-32.62127981039976
 20
-6.778616274981445
 30
0.0
 11
-32.52127981039976
 21
-6.808993054198915
 31
0.0
  0
LINE
  5
F10152
330
261
100
AcDbEntity
  8
Geo
100
AcDbLine
 10
-32.52127981039976
 20
-6.808993054198915
 30
0.0
 11
-32.42127981039975
 21
-6.837105953149695
 31
0.0
  0
LINE
  5
F10154
330
261
100
AcDbEntity
  8
Geo
100
AcDbLine
 10
-32.42127981039975
 20
-6.837105953149695
 30
0.0
 11
-32.32127981039976
 21
-6.862927517561496
 31
0.0
  0
LINE
  5
F10156
330
261
100
AcDbEntity
  8
Geo
100
AcDbLine
 10
-32.32127981039976
 20
-6.862927517561496
 30
0.0
 11
-32.22127981039975
 21
-6.886432530815355
 31
0.0
  0
LINE
  5
F10158
330
261
100
AcDbEntity
  8
Geo
100
AcDbLine
 10
-32.22127981039975
 20
-6.886432530815355
 30
0.0
 11
-32.12127981039976
 21
-6.907598038571505
 31
0.0
  0
LINE
  5
F1015A
330
261
100
AcDbEntity
  8
Geo
100
AcDbLine
 10
-32.12127981039976
 20
-6.907598038571505
 30
0.0
 11
-32.02127981039976
 21
-6.926403371185944
 31
0.0
  0
LINE
  5
F1015C
330
261
100
AcDbEntity
  8
Geo
100
AcDbLine
 10
-32.02127981039976
 20
-6.926403371185944
 30
0.0
 11
-31.92127981039976
 21
-6.942830163895806
 31
0.0
  0
LINE
  5
F1015E
330
261
100
AcDbEntity
  8
Geo
100
AcDbLine
 10
-31.92127981039976
 20
-6.942830163895806
 30
0.0
 11
-31.82127981039976
 21
-6.956862374753925
 31
0.0
  0
LINE
  5
F10160
330
261
100
AcDbEntity
  8
Geo
100
AcDbLine
 10
-31.82127981039976
 20
-6.956862374753925
 30
0.0
 11
-31.72127981039975
 21
-6.968486300294895
 31
0.0
  0
LINE
  5
F10162
330
261
100
AcDbEntity
  8
Geo
100
AcDbLine
 10
-31.72127981039975
 20
-6.968486300294895
 30
0.0
 11
-31.62127981039976
 21
-6.977690588917535
 31
0.0
  0
LINE
  5
F10164
330
261
100
AcDbEntity
  8
Geo
100
AcDbLine
 10
-31.62127981039976
 20
-6.977690588917535
 30
0.0
 11
-31.52127981039976
 21
-6.984466251970525
 31
0.0
  0
LINE
  5
F10166
330
261
100
AcDbEntity
  8
Geo
100
AcDbLine
 10
-31.52127981039976
 20
-6.984466251970525
 30
0.0
 11
-31.42127981039975
 21
-6.988806672530484
 31
0.0
  0
LINE
  5
F10168
330
261
100
AcDbEntity
  8
Geo
100
AcDbLine
 10
-31.42127981039975
 20
-6.988806672530484
 30
0.0
 11
-31.32127981039976
 21
-6.990707611863855
 31
0.0
  0
LINE
  5
F1016A
330
261
100
AcDbEntity
  8
Geo
100
AcDbLine
 10
-42.82127981039976
 20
-3.430142238977225
 30
0.0
 11
-42.72127981039976
 21
-3.165362459136225
 31
0.0
  0
LINE
  5
F1016C
330
261
100
AcDbEntity
  8
Geo
100
AcDbLine
 10
-42.72127981039976
 20
-3.165362459136225
 30
0.0
 11
-42.62127981039976
 21
-3.101529312361225
 31
0.0
  0
LINE
  5
F1016E
330
261
100
AcDbEntity
  8
Geo
100
AcDbLine
 10
-42.62127981039976
 20
-3.101529312361225
 30
0.0
 11
-42.52127981039976
 21
-3.078612886318126
 31
0.0
  0
LINE
  5
F10170
330
261
100
AcDbEntity
  8
Geo
100
AcDbLine
 10
-42.52127981039976
 20
-3.078612886318126
 30
0.0
 11
-42.42127981039977
 21
-3.079920661295926
 31
0.0
  0
LINE
  5
F10172
330
261
100
AcDbEntity
  8
Geo
100
AcDbLine
 10
-42.42127981039977
 20
-3.079920661295926
 30
0.0
 11
-42.32127981039975
 21
-3.098513636049124
 31
0.0
  0
LINE
  5
F10174
330
261
100
AcDbEntity
  8
Geo
100
AcDbLine
 10
-42.32127981039975
 20
-3.098513636049124
 30
0.0
 11
-42.22127981039976
 21
-3.130547392793726
 31
0.0
  0
LINE
  5
F10176
330
261
100
AcDbEntity
  8
Geo
100
AcDbLine
 10
-42.22127981039976
 20
-3.130547392793726
 30
0.0
 11
-42.12127981039976
 21
-3.173531057569125
 31
0.0
  0
LINE
  5
F10178
330
261
100
AcDbEntity
  8
Geo
100
AcDbLine
 10
-42.12127981039976
 20
-3.173531057569125
 30
0.0
 11
-42.02127981039976
 21
-3.225675709884624
 31
0.0
  0
LINE
  5
F1017A
330
261
100
AcDbEntity
  8
Geo
100
AcDbLine
 10
-42.02127981039976
 20
-3.225675709884624
 30
0.0
 11
-41.92127981039976
 21
-3.285597408608625
 31
0.0
  0
LINE
  5
F1017C
330
261
100
AcDbEntity
  8
Geo
100
AcDbLine
 10
-41.92127981039976
 20
-3.285597408608625
 30
0.0
 11
-41.82127981039975
 21
-3.352163401524425
 31
0.0
  0
LINE
  5
F1017E
330
261
100
AcDbEntity
  8
Geo
100
AcDbLine
 10
-41.82127981039975
 20
-3.352163401524425
 30
0.0
 11
-41.72127981039976
 21
-3.422262678668825
 31
0.0
  0
LINE
  5
F10180
330
261
100
AcDbEntity
  8
Geo
100
AcDbLine
 10
-41.72127981039976
 20
-3.422262678668825
 30
0.0
 11
-41.62127981039977
 21
-3.493405461885727
 31
0.0
  0
LINE
  5
F10182
330
261
100
AcDbEntity
  8
Geo
100
AcDbLine
 10
-41.62127981039977
 20
-3.493405461885727
 30
0.0
 11
-41.52127981039976
 21
-3.565522275119125
 31
0.0
  0
LINE
  5
F10184
330
261
100
AcDbEntity
  8
Geo
100
AcDbLine
 10
-41.52127981039976
 20
-3.565522275119125
 30
0.0
 11
-41.42127981039976
 21
-3.638542691102326
 31
0.0
  0
LINE
  5
F10186
330
261
100
AcDbEntity
  8
Geo
100
AcDbLine
 10
-41.42127981039976
 20
-3.638542691102326
 30
0.0
 11
-41.32127981039976
 21
-3.712395400135726
 31
0.0
  0
LINE
  5
F10188
330
261
100
AcDbEntity
  8
Geo
100
AcDbLine
 10
-41.32127981039976
 20
-3.712395400135726
 30
0.0
 11
-41.22127981039976
 21
-3.787008279725325
 31
0.0
  0
LINE
  5
F1018A
330
261
100
AcDbEntity
  8
Geo
100
AcDbLine
 10
-41.22127981039976
 20
-3.787008279725325
 30
0.0
 11
-41.12127981039977
 21
-3.862308465015825
 31
0.0
  0
LINE
  5
F1018C
330
261
100
AcDbEntity
  8
Geo
100
AcDbLine
 10
-41.12127981039977
 20
-3.862308465015825
 30
0.0
 11
-41.02127981039976
 21
-3.938222419948425
 31
0.0
  0
LINE
  5
F1018E
330
261
100
AcDbEntity
  8
Geo
100
AcDbLine
 10
-41.02127981039976
 20
-3.938222419948425
 30
0.0
 11
-40.92127981039976
 21
-4.014676009073985
 31
0.0
  0
LINE
  5
F10190
330
261
100
AcDbEntity
  8
Geo
100
AcDbLine
 10
-40.92127981039976
 20
-4.014676009073985
 30
0.0
 11
-40.82127981039976
 21
-4.091594569951624
 31
0.0
  0
LINE
  5
F10192
330
261
100
AcDbEntity
  8
Geo
100
AcDbLine
 10
-40.82127981039976
 20
-4.091594569951624
 30
0.0
 11
-40.72127981039976
 21
-4.168902986062125
 31
0.0
  0
LINE
  5
F10194
330
261
100
AcDbEntity
  8
Geo
100
AcDbLine
 10
-40.72127981039976
 20
-4.168902986062125
 30
0.0
 11
-40.62127981039977
 21
-4.246525760164486
 31
0.0
  0
LINE
  5
F10196
330
261
100
AcDbEntity
  8
Geo
100
AcDbLine
 10
-40.62127981039977
 20
-4.246525760164486
 30
0.0
 11
-40.52127981039975
 21
-4.324387088024463
 31
0.0
  0
LINE
  5
F10198
330
261
100
AcDbEntity
  8
Geo
100
AcDbLine
 10
-40.52127981039975
 20
-4.324387088024463
 30
0.0
 11
-40.42127981039977
 21
-4.402410932442906
 31
0.0
  0
LINE
  5
F1019A
330
261
100
AcDbEntity
  8
Geo
100
AcDbLine
 10
-40.42127981039977
 20
-4.402410932442906
 30
0.0
 11
-40.32127981039976
 21
-4.480521097511486
 31
0.0
  0
LINE
  5
F1019C
330
261
100
AcDbEntity
  8
Geo
100
AcDbLine
 10
-40.32127981039976
 20
-4.480521097511486
 30
0.0
 11
-40.22127981039976
 21
-4.558641303023565
 31
0.0
  0
LINE
  5
F1019E
330
261
100
AcDbEntity
  8
Geo
100
AcDbLine
 10
-40.22127981039976
 20
-4.558641303023565
 30
0.0
 11
-40.12127981039976
 21
-4.636695258967275
 31
0.0
  0
LINE
  5
F101A0
330
261
100
AcDbEntity
  8
Geo
100
AcDbLine
 10
-40.12127981039976
 20
-4.636695258967275
 30
0.0
 11
-40.02127981039976
 21
-4.714606740028246
 31
0.0
  0
LINE
  5
F101A2
330
261
100
AcDbEntity
  8
Geo
100
AcDbLine
 10
-40.02127981039976
 20
-4.714606740028246
 30
0.0
 11
-39.92127981039977
 21
-4.792299660029065
 31
0.0
  0
LINE
  5
F101A4
330
261
100
AcDbEntity
  8
Geo
100
AcDbLine
 10
-39.92127981039977
 20
-4.792299660029065
 30
0.0
 11
-39.82127981039976
 21
-4.869698146232995
 31
0.0
  0
LINE
  5
F101A6
330
261
100
AcDbEntity
  8
Geo
100
AcDbLine
 10
-39.82127981039976
 20
-4.869698146232995
 30
0.0
 11
-39.72127981039977
 21
-4.946726613439086
 31
0.0
  0
LINE
  5
F101A8
330
261
100
AcDbEntity
  8
Geo
100
AcDbLine
 10
-39.72127981039977
 20
-4.946726613439086
 30
0.0
 11
-39.62127981039977
 21
-5.023309837796624
 31
0.0
  0
LINE
  5
F101AA
330
261
100
AcDbEntity
  8
Geo
100
AcDbLine
 10
-39.62127981039977
 20
-5.023309837796624
 30
0.0
 11
-39.52127981039976
 21
-5.099373030266654
 31
0.0
  0
LINE
  5
F101AC
330
261
100
AcDbEntity
  8
Geo
100
AcDbLine
 10
-39.52127981039976
 20
-5.099373030266654
 30
0.0
 11
-39.42127981039977
 21
-5.174841909658827
 31
0.0
  0
LINE
  5
F101AE
330
261
100
AcDbEntity
  8
Geo
100
AcDbLine
 10
-39.42127981039977
 20
-5.174841909658827
 30
0.0
 11
-39.32127981039976
 21
-5.249642775172326
 31
0.0
  0
LINE
  5
F101B0
330
261
100
AcDbEntity
  8
Geo
100
AcDbLine
 10
-39.32127981039976
 20
-5.249642775172326
 30
0.0
 11
-39.22127981039976
 21
-5.323702578370085
 31
0.0
  0
LINE
  5
F101B2
330
261
100
AcDbEntity
  8
Geo
100
AcDbLine
 10
-39.22127981039976
 20
-5.323702578370085
 30
0.0
 11
-39.12127981039977
 21
-5.396948994515785
 31
0.0
  0
LINE
  5
F101B4
330
261
100
AcDbEntity
  8
Geo
100
AcDbLine
 10
-39.12127981039977
 20
-5.396948994515785
 30
0.0
 11
-39.02127981039976
 21
-5.469310493204206
 31
0.0
  0
LINE
  5
F101B6
330
261
100
AcDbEntity
  8
Geo
100
AcDbLine
 10
-39.02127981039976
 20
-5.469310493204206
 30
0.0
 11
-38.92127981039977
 21
-5.540716408215805
 31
0.0
  0
LINE
  5
F101B8
330
261
100
AcDbEntity
  8
Geo
100
AcDbLine
 10
-38.92127981039977
 20
-5.540716408215805
 30
0.0
 11
-38.82127981039976
 21
-5.611097006527376
 31
0.0
  0
LINE
  5
F101BA
330
261
100
AcDbEntity
  8
Geo
100
AcDbLine
 10
-38.82127981039976
 20
-5.611097006527376
 30
0.0
 11
-38.72127981039977
 21
-5.680383556411394
 31
0.0
  0
LINE
  5
F101BC
330
261
100
AcDbEntity
  8
Geo
100
AcDbLine
 10
-38.72127981039977
 20
-5.680383556411394
 30
0.0
 11
-38.62127981039977
 21
-5.748508394557475
 31
0.0
  0
LINE
  5
F101BE
330
261
100
AcDbEntity
  8
Geo
100
AcDbLine
 10
-38.62127981039977
 20
-5.748508394557475
 30
0.0
 11
-38.52127981039976
 21
-5.815404992150485
 31
0.0
  0
LINE
  5
F101C0
330
261
100
AcDbEntity
  8
Geo
100
AcDbLine
 10
-38.52127981039976
 20
-5.815404992150485
 30
0.0
 11
-38.42127981039977
 21
-5.881008019840734
 31
0.0
  0
LINE
  5
F101C2
330
261
100
AcDbEntity
  8
Geo
100
AcDbLine
 10
-38.42127981039977
 20
-5.881008019840734
 30
0.0
 11
-38.32127981039976
 21
-5.945253411542795
 31
0.0
  0
LINE
  5
F101C4
330
261
100
AcDbEntity
  8
Geo
100
AcDbLine
 10
-38.32127981039976
 20
-5.945253411542795
 30
0.0
 11
-38.22127981039976
 21
-6.008078427000626
 31
0.0
  0
LINE
  5
F101C6
330
261
100
AcDbEntity
  8
Geo
100
AcDbLine
 10
-38.22127981039976
 20
-6.008078427000626
 30
0.0
 11
-38.12127981039977
 21
-6.069421713057985
 31
0.0
  0
LINE
  5
F101C8
330
261
100
AcDbEntity
  8
Geo
100
AcDbLine
 10
-38.12127981039977
 20
-6.069421713057985
 30
0.0
 11
-38.02127981039976
 21
-6.129223363574205
 31
0.0
  0
LINE
  5
F101CA
330
261
100
AcDbEntity
  8
Geo
100
AcDbLine
 10
-38.02127981039976
 20
-6.129223363574205
 30
0.0
 11
-37.92127981039977
 21
-6.187424977926835
 31
0.0
  0
LINE
  5
F101CC
330
261
100
AcDbEntity
  8
Geo
100
AcDbLine
 10
-37.92127981039977
 20
-6.187424977926835
 30
0.0
 11
-37.82127981039976
 21
-6.243969718044075
 31
0.0
  0
LINE
  5
F101CE
330
261
100
AcDbEntity
  8
Geo
100
AcDbLine
 10
-37.82127981039976
 20
-6.243969718044075
 30
0.0
 11
-37.72127981039977
 21
-6.298802363911275
 31
0.0
  0
LINE
  5
F101D0
330
261
100
AcDbEntity
  8
Geo
100
AcDbLine
 10
-37.72127981039977
 20
-6.298802363911275
 30
0.0
 11
-37.62127981039977
 21
-6.351869367497195
 31
0.0
  0
LINE
  5
F101D2
330
261
100
AcDbEntity
  8
Geo
100
AcDbLine
 10
-37.62127981039977
 20
-6.351869367497195
 30
0.0
 11
-37.52127981039976
 21
-6.403118905047595
 31
0.0
  0
LINE
  5
F101D4
330
261
100
AcDbEntity
  8
Geo
100
AcDbLine
 10
-37.52127981039976
 20
-6.403118905047595
 30
0.0
 11
-37.42127981039975
 21
-6.452500927694796
 31
0.0
  0
LINE
  5
F101D6
330
261
100
AcDbEntity
  8
Geo
100
AcDbLine
 10
-37.42127981039975
 20
-6.452500927694796
 30
0.0
 11
-37.32127981039976
 21
-6.499967210334054
 31
0.0
  0
LINE
  5
F101D8
330
261
100
AcDbEntity
  8
Geo
100
AcDbLine
 10
-37.32127981039976
 20
-6.499967210334054
 30
0.0
 11
-37.22127981039975
 21
-6.545471398718835
 31
0.0
  0
LINE
  5
F101DA
330
261
100
AcDbEntity
  8
Geo
100
AcDbLine
 10
-37.22127981039975
 20
-6.545471398718835
 30
0.0
 11
-37.12127981039976
 21
-6.588969054729095
 31
0.0
  0
LINE
  5
F101DC
330
261
100
AcDbEntity
  8
Geo
100
AcDbLine
 10
-37.12127981039976
 20
-6.588969054729095
 30
0.0
 11
-37.02127981039976
 21
-6.630417699768256
 31
0.0
  0
LINE
  5
F101DE
330
261
100
AcDbEntity
  8
Geo
100
AcDbLine
 10
-37.02127981039976
 20
-6.630417699768256
 30
0.0
 11
-36.92127981039976
 21
-6.669776856246675
 31
0.0
  0
LINE
  5
F101E0
330
261
100
AcDbEntity
  8
Geo
100
AcDbLine
 10
-36.92127981039976
 20
-6.669776856246675
 30
0.0
 11
-36.82127981039976
 21
-6.707008087110907
 31
0.0
  0
LINE
  5
F101E2
330
261
100
AcDbEntity
  8
Geo
100
AcDbLine
 10
-36.82127981039976
 20
-6.707008087110907
 30
0.0
 11
-36.72127981039975
 21
-6.742075033380255
 31
0.0
  0
LINE
  5
F101E4
330
261
100
AcDbEntity
  8
Geo
100
AcDbLine
 10
-36.72127981039975
 20
-6.742075033380255
 30
0.0
 11
-36.62127981039976
 21
-6.774943449653944
 31
0.0
  0
LINE
  5
F101E6
330
261
100
AcDbEntity
  8
Geo
100
AcDbLine
 10
-36.62127981039976
 20
-6.774943449653944
 30
0.0
 11
-36.52127981039976
 21
-6.805581237554205
 31
0.0
  0
LINE
  5
F101E8
330
261
100
AcDbEntity
  8
Geo
100
AcDbLine
 10
-36.52127981039976
 20
-6.805581237554205
 30
0.0
 11
-36.42127981039975
 21
-6.833958477072665
 31
0.0
  0
LINE
  5
F101EA
330
261
100
AcDbEntity
  8
Geo
100
AcDbLine
 10
-36.42127981039975
 20
-6.833958477072665
 30
0.0
 11
-36.32127981039976
 21
-6.860047455789415
 31
0.0
  0
LINE
  5
F101EC
330
261
100
AcDbEntity
  8
Geo
100
AcDbLine
 10
-36.32127981039976
 20
-6.860047455789415
 30
0.0
 11
-36.22127981039975
 21
-6.883822695936156
 31
0.0
  0
LINE
  5
F101EE
330
261
100
AcDbEntity
  8
Geo
100
AcDbLine
 10
-36.22127981039975
 20
-6.883822695936156
 30
0.0
 11
-36.12127981039976
 21
-6.905260979277076
 31
0.0
  0
LINE
  5
F101F0
330
261
100
AcDbEntity
  8
Geo
100
AcDbLine
 10
-36.12127981039976
 20
-6.905260979277076
 30
0.0
 11
-36.02127981039976
 21
-6.924341369783135
 31
0.0
  0
LINE
  5
F101F2
330
261
100
AcDbEntity
  8
Geo
100
AcDbLine
 10
-36.02127981039976
 20
-6.924341369783135
 30
0.0
 11
-35.92127981039975
 21
-6.941045234077636
 31
0.0
  0
LINE
  5
F101F4
330
261
100
AcDbEntity
  8
Geo
100
AcDbLine
 10
-35.92127981039975
 20
-6.941045234077636
 30
0.0
 11
-35.82127981039976
 21
-6.955356259633015
 31
0.0
  0
LINE
  5
F101F6
330
261
100
AcDbEntity
  8
Geo
100
AcDbLine
 10
-35.82127981039976
 20
-6.955356259633015
 30
0.0
 11
-35.72127981039975
 21
-6.967260470701226
 31
0.0
  0
LINE
  5
F101F8
330
261
100
AcDbEntity
  8
Geo
100
AcDbLine
 10
-35.72127981039975
 20
-6.967260470701226
 30
0.0
 11
-35.62127981039976
 21
-6.976746241962076
 31
0.0
  0
LINE
  5
F101FA
330
261
100
AcDbEntity
  8
Geo
100
AcDbLine
 10
-35.62127981039976
 20
-6.976746241962076
 30
0.0
 11
-35.52127981039976
 21
-6.983804309876145
 31
0.0
  0
LINE
  5
F101FC
330
261
100
AcDbEntity
  8
Geo
100
AcDbLine
 10
-35.52127981039976
 20
-6.983804309876145
 30
0.0
 11
-35.42127981039975
 21
-6.988427781731354
 31
0.0
  0
LINE
  5
F101FE
330
261
100
AcDbEntity
  8
Geo
100
AcDbLine
 10
-35.42127981039975
 20
-6.988427781731354
 30
0.0
 11
-35.32127981039976
 21
-6.990612142374166
 31
0.0
  0
LINE
  5
F10200
330
261
100
AcDbEntity
  8
Geo
100
AcDbLine
 10
-42.82127981039976
 20
-3.823496442554226
 30
0.0
 11
-42.72127981039976
 21
-3.684176403385325
 31
0.0
  0
LINE
  5
F10202
330
261
100
AcDbEntity
  8
Geo
100
AcDbLine
 10
-42.72127981039976
 20
-3.684176403385325
 30
0.0
 11
-42.62127981039976
 21
-3.675873951531924
 31
0.0
  0
LINE
  5
F10204
330
261
100
AcDbEntity
  8
Geo
100
AcDbLine
 10
-42.62127981039976
 20
-3.675873951531924
 30
0.0
 11
-42.52127981039976
 21
-3.695761260762624
 31
0.0
  0
LINE
  5
F10206
330
261
100
AcDbEntity
  8
Geo
100
AcDbLine
 10
-42.52127981039976
 20
-3.695761260762624
 30
0.0
 11
-42.42127981039977
 21
-3.732409178549225
 31
0.0
  0
LINE
  5
F10208
330
261
100
AcDbEntity
  8
Geo
100
AcDbLine
 10
-42.42127981039977
 20
-3.732409178549225
 30
0.0
 11
-42.32127981039975
 21
-3.780814133262326
 31
0.0
  0
LINE
  5
F1020A
330
261
100
AcDbEntity
  8
Geo
100
AcDbLine
 10
-42.32127981039975
 20
-3.780814133262326
 30
0.0
 11
-42.22127981039976
 21
-3.838044944949926
 31
0.0
  0
LINE
  5
F1020C
330
261
100
AcDbEntity
  8
Geo
100
AcDbLine
 10
-42.22127981039976
 20
-3.838044944949926
 30
0.0
 11
-42.12127981039976
 21
-3.902085709976425
 31
0.0
  0
LINE
  5
F1020E
330
261
100
AcDbEntity
  8
Geo
100
AcDbLine
 10
-42.12127981039976
 20
-3.902085709976425
 30
0.0
 11
-42.02127981039976
 21
-3.971394681190325
 31
0.0
  0
LINE
  5
F10210
330
261
100
AcDbEntity
  8
Geo
100
AcDbLine
 10
-42.02127981039976
 20
-3.971394681190325
 30
0.0
 11
-41.92127981039976
 21
-4.044697836263235
 31
0.0
  0
LINE
  5
F10212
330
261
100
AcDbEntity
  8
Geo
100
AcDbLine
 10
-41.92127981039976
 20
-4.044697836263235
 30
0.0
 11
-41.82127981039975
 21
-4.120876891388544
 31
0.0
  0
LINE
  5
F10214
330
261
100
AcDbEntity
  8
Geo
100
AcDbLine
 10
-41.82127981039975
 20
-4.120876891388544
 30
0.0
 11
-41.72127981039976
 21
-4.198313453343285
 31
0.0
  0
LINE
  5
F10216
330
261
100
AcDbEntity
  8
Geo
100
AcDbLine
 10
-41.72127981039976
 20
-4.198313453343285
 30
0.0
 11
-41.62127981039977
 21
-4.276035651848586
 31
0.0
  0
LINE
  5
F10218
330
261
100
AcDbEntity
  8
Geo
100
AcDbLine
 10
-41.62127981039977
 20
-4.276035651848586
 30
0.0
 11
-41.52127981039976
 21
-4.353967585575105
 31
0.0
  0
LINE
  5
F1021A
330
261
100
AcDbEntity
  8
Geo
100
AcDbLine
 10
-41.52127981039976
 20
-4.353967585575105
 30
0.0
 11
-41.42127981039976
 21
-4.432033148371955
 31
0.0
  0
LINE
  5
F1021C
330
261
100
AcDbEntity
  8
Geo
100
AcDbLine
 10
-41.42127981039976
 20
-4.432033148371955
 30
0.0
 11
-41.32127981039976
 21
-4.510156103589816
 31
0.0
  0
LINE
  5
F1021E
330
261
100
AcDbEntity
  8
Geo
100
AcDbLine
 10
-41.32127981039976
 20
-4.510156103589816
 30
0.0
 11
-41.22127981039976
 21
-4.588260158531534
 31
0.0
  0
LINE
  5
F10220
330
261
100
AcDbEntity
  8
Geo
100
AcDbLine
 10
-41.22127981039976
 20
-4.588260158531534
 30
0.0
 11
-41.12127981039977
 21
-4.666269038957464
 31
0.0
  0
LINE
  5
F10222
330
261
100
AcDbEntity
  8
Geo
100
AcDbLine
 10
-41.12127981039977
 20
-4.666269038957464
 30
0.0
 11
-41.02127981039976
 21
-4.744106563572694
 31
0.0
  0
LINE
  5
F10224
330
261
100
AcDbEntity
  8
Geo
100
AcDbLine
 10
-41.02127981039976
 20
-4.744106563572694
 30
0.0
 11
-40.92127981039976
 21
-4.821696718423655
 31
0.0
  0
LINE
  5
F10226
330
261
100
AcDbEntity
  8
Geo
100
AcDbLine
 10
-40.92127981039976
 20
-4.821696718423655
 30
0.0
 11
-40.82127981039976
 21
-4.898963731131145
 31
0.0
  0
LINE
  5
F10228
330
261
100
AcDbEntity
  8
Geo
100
AcDbLine
 10
-40.82127981039976
 20
-4.898963731131145
 30
0.0
 11
-40.72127981039976
 21
-4.975832144887576
 31
0.0
  0
LINE
  5
F1022A
330
261
100
AcDbEntity
  8
Geo
100
AcDbLine
 10
-40.72127981039976
 20
-4.975832144887576
 30
0.0
 11
-40.62127981039977
 21
-5.052226892145977
 31
0.0
  0
LINE
  5
F1022C
330
261
100
AcDbEntity
  8
Geo
100
AcDbLine
 10
-40.62127981039977
 20
-5.052226892145977
 30
0.0
 11
-40.52127981039975
 21
-5.128073367928845
 31
0.0
  0
LINE
  5
F1022E
330
261
100
AcDbEntity
  8
Geo
100
AcDbLine
 10
-40.52127981039975
 20
-5.128073367928845
 30
0.0
 11
-40.42127981039977
 21
-5.203297502685295
 31
0.0
  0
LINE
  5
F10230
330
261
100
AcDbEntity
  8
Geo
100
AcDbLine
 10
-40.42127981039977
 20
-5.203297502685295
 30
0.0
 11
-40.32127981039976
 21
-5.277825834625316
 31
0.0
  0
LINE
  5
F10232
330
261
100
AcDbEntity
  8
Geo
100
AcDbLine
 10
-40.32127981039976
 20
-5.277825834625316
 30
0.0
 11
-40.22127981039976
 21
-5.351585581460506
 31
0.0
  0
LINE
  5
F10234
330
261
100
AcDbEntity
  8
Geo
100
AcDbLine
 10
-40.22127981039976
 20
-5.351585581460506
 30
0.0
 11
-40.12127981039976
 21
-5.424504711481215
 31
0.0
  0
LINE
  5
F10236
330
261
100
AcDbEntity
  8
Geo
100
AcDbLine
 10
-40.12127981039976
 20
-5.424504711481215
 30
0.0
 11
-40.02127981039976
 21
-5.496512013900716
 31
0.0
  0
LINE
  5
F10238
330
261
100
AcDbEntity
  8
Geo
100
AcDbLine
 10
-40.02127981039976
 20
-5.496512013900716
 30
0.0
 11
-39.92127981039977
 21
-5.567537168397645
 31
0.0
  0
LINE
  5
F1023A
330
261
100
AcDbEntity
  8
Geo
100
AcDbLine
 10
-39.92127981039977
 20
-5.567537168397645
 30
0.0
 11
-39.82127981039976
 21
-5.637510813788905
 31
0.0
  0
LINE
  5
F1023C
330
261
100
AcDbEntity
  8
Geo
100
AcDbLine
 10
-39.82127981039976
 20
-5.637510813788905
 30
0.0
 11
-39.72127981039977
 21
-5.706364615765805
 31
0.0
  0
LINE
  5
F1023E
330
261
100
AcDbEntity
  8
Geo
100
AcDbLine
 10
-39.72127981039977
 20
-5.706364615765805
 30
0.0
 11
-39.62127981039977
 21
-5.774031333627505
 31
0.0
  0
LINE
  5
F10240
330
261
100
AcDbEntity
  8
Geo
100
AcDbLine
 10
-39.62127981039977
 20
-5.774031333627505
 30
0.0
 11
-39.52127981039976
 21
-5.840444885946366
 31
0.0
  0
LINE
  5
F10242
330
261
100
AcDbEntity
  8
Geo
100
AcDbLine
 10
-39.52127981039976
 20
-5.840444885946366
 30
0.0
 11
-39.42127981039977
 21
-5.905540415101196
 31
0.0
  0
LINE
  5
F10244
330
261
100
AcDbEntity
  8
Geo
100
AcDbLine
 10
-39.42127981039977
 20
-5.905540415101196
 30
0.0
 11
-39.32127981039976
 21
-5.969254350615486
 31
0.0
  0
LINE
  5
F10246
330
261
100
AcDbEntity
  8
Geo
100
AcDbLine
 10
-39.32127981039976
 20
-5.969254350615486
 30
0.0
 11
-39.22127981039976
 21
-6.031524471238475
 31
0.0
  0
LINE
  5
F10248
330
261
100
AcDbEntity
  8
Geo
100
AcDbLine
 10
-39.22127981039976
 20
-6.031524471238475
 30
0.0
 11
-39.12127981039977
 21
-6.092289965708715
 31
0.0
  0
LINE
  5
F1024A
330
261
100
AcDbEntity
  8
Geo
100
AcDbLine
 10
-39.12127981039977
 20
-6.092289965708715
 30
0.0
 11
-39.02127981039976
 21
-6.151491492140675
 31
0.0
  0
LINE
  5
F1024C
330
261
100
AcDbEntity
  8
Geo
100
AcDbLine
 10
-39.02127981039976
 20
-6.151491492140675
 30
0.0
 11
-38.92127981039977
 21
-6.209071235976336
 31
0.0
  0
LINE
  5
F1024E
330
261
100
AcDbEntity
  8
Geo
100
AcDbLine
 10
-38.92127981039977
 20
-6.209071235976336
 30
0.0
 11
-38.82127981039976
 21
-6.264972966445295
 31
0.0
  0
LINE
  5
F10250
330
261
100
AcDbEntity
  8
Geo
100
AcDbLine
 10
-38.82127981039976
 20
-6.264972966445295
 30
0.0
 11
-38.72127981039977
 21
-6.319142091478145
 31
0.0
  0
LINE
  5
F10252
330
261
100
AcDbEntity
  8
Geo
100
AcDbLine
 10
-38.72127981039977
 20
-6.319142091478145
 30
0.0
 11
-38.62127981039977
 21
-6.371525711019595
 31
0.0
  0
LINE
  5
F10254
330
261
100
AcDbEntity
  8
Geo
100
AcDbLine
 10
-38.62127981039977
 20
-6.371525711019595
 30
0.0
 11
-38.52127981039976
 21
-6.422072668689176
 31
0.0
  0
LINE
  5
F10256
330
261
100
AcDbEntity
  8
Geo
100
AcDbLine
 10
-38.52127981039976
 20
-6.422072668689176
 30
0.0
 11
-38.42127981039977
 21
-6.470733601739104
 31
0.0
  0
LINE
  5
F10258
330
261
100
AcDbEntity
  8
Geo
100
AcDbLine
 10
-38.42127981039977
 20
-6.470733601739104
 30
0.0
 11
-38.32127981039976
 21
-6.517460989260616
 31
0.0
  0
LINE
  5
F1025A
330
261
100
AcDbEntity
  8
Geo
100
AcDbLine
 10
-38.32127981039976
 20
-6.517460989260616
 30
0.0
 11
-38.22127981039976
 21
-6.562209198591515
 31
0.0
  0
LINE
  5
F1025C
330
261
100
AcDbEntity
  8
Geo
100
AcDbLine
 10
-38.22127981039976
 20
-6.562209198591515
 30
0.0
 11
-38.12127981039977
 21
-6.604934529879795
 31
0.0
  0
LINE
  5
F1025E
330
261
100
AcDbEntity
  8
Geo
100
AcDbLine
 10
-38.12127981039977
 20
-6.604934529879795
 30
0.0
 11
-38.02127981039976
 21
-6.645595258759635
 31
0.0
  0
LINE
  5
F10260
330
261
100
AcDbEntity
  8
Geo
100
AcDbLine
 10
-38.02127981039976
 20
-6.645595258759635
 30
0.0
 11
-37.92127981039977
 21
-6.684151677098345
 31
0.0
  0
LINE
  5
F10262
330
261
100
AcDbEntity
  8
Geo
100
AcDbLine
 10
-37.92127981039977
 20
-6.684151677098345
 30
0.0
 11
-37.82127981039976
 21
-6.720566131774106
 31
0.0
  0
LINE
  5
F10264
330
261
100
AcDbEntity
  8
Geo
100
AcDbLine
 10
-37.82127981039976
 20
-6.720566131774106
 30
0.0
 11
-37.72127981039977
 21
-6.754803061447065
 31
0.0
  0
LINE
  5
F10266
330
261
100
AcDbEntity
  8
Geo
100
AcDbLine
 10
-37.72127981039977
 20
-6.754803061447065
 30
0.0
 11
-37.62127981039977
 21
-6.786829031287465
 31
0.0
  0
LINE
  5
F10268
330
261
100
AcDbEntity
  8
Geo
100
AcDbLine
 10
-37.62127981039977
 20
-6.786829031287465
 30
0.0
 11
-37.52127981039976
 21
-6.816612765627225
 31
0.0
  0
LINE
  5
F1026A
330
261
100
AcDbEntity
  8
Geo
100
AcDbLine
 10
-37.52127981039976
 20
-6.816612765627225
 30
0.0
 11
-37.42127981039975
 21
-6.844125178502836
 31
0.0
  0
LINE
  5
F1026C
330
261
100
AcDbEntity
  8
Geo
100
AcDbLine
 10
-37.42127981039975
 20
-6.844125178502836
 30
0.0
 11
-37.32127981039976
 21
-6.869339402059925
 31
0.0
  0
LINE
  5
F1026E
330
261
100
AcDbEntity
  8
Geo
100
AcDbLine
 10
-37.32127981039976
 20
-6.869339402059925
 30
0.0
 11
-37.22127981039975
 21
-6.892230812791686
 31
0.0
  0
LINE
  5
F10270
330
261
100
AcDbEntity
  8
Geo
100
AcDbLine
 10
-37.22127981039975
 20
-6.892230812791686
 30
0.0
 11
-37.12127981039976
 21
-6.912777055585416
 31
0.0
  0
LINE
  5
F10272
330
261
100
AcDbEntity
  8
Geo
100
AcDbLine
 10
-37.12127981039976
 20
-6.912777055585416
 30
0.0
 11
-37.02127981039976
 21
-6.930958065553996
 31
0.0
  0
LINE
  5
F10274
330
261
100
AcDbEntity
  8
Geo
100
AcDbLine
 10
-37.02127981039976
 20
-6.930958065553996
 30
0.0
 11
-36.92127981039976
 21
-6.946756087630644
 31
0.0
  0
LINE
  5
F10276
330
261
100
AcDbEntity
  8
Geo
100
AcDbLine
 10
-36.92127981039976
 20
-6.946756087630644
 30
0.0
 11
-36.82127981039976
 21
-6.960155693908015
 31
0.0
  0
LINE
  5
F10278
330
261
100
AcDbEntity
  8
Geo
100
AcDbLine
 10
-36.82127981039976
 20
-6.960155693908015
 30
0.0
 11
-36.72127981039975
 21
-6.971143798704685
 31
0.0
  0
LINE
  5
F1027A
330
261
100
AcDbEntity
  8
Geo
100
AcDbLine
 10
-36.72127981039975
 20
-6.971143798704685
 30
0.0
 11
-36.62127981039976
 21
-6.979709671344275
 31
0.0
  0
LINE
  5
F1027C
330
261
100
AcDbEntity
  8
Geo
100
AcDbLine
 10
-36.62127981039976
 20
-6.979709671344275
 30
0.0
 11
-36.52127981039976
 21
-6.985844946634685
 31
0.0
  0
LINE
  5
F1027E
330
261
100
AcDbEntity
  8
Geo
100
AcDbLine
 10
-36.52127981039976
 20
-6.985844946634685
 30
0.0
 11
-36.42127981039975
 21
-6.989543633037335
 31
0.0
  0
LINE
  5
F10280
330
261
100
AcDbEntity
  8
Geo
100
AcDbLine
 10
-36.42127981039975
 20
-6.989543633037335
 30
0.0
 11
-36.32127981039976
 21
-6.990802118518354
 31
0.0
  0
LINE
  5
F10282
330
261
100
AcDbEntity
  8
Geo
100
AcDbLine
 10
-27.92127981039975
 20
-2.240802410757023
 30
0.0
 11
-27.82127981039976
 21
-2.240939815507225
 31
0.0
  0
LINE
  5
F10284
330
261
100
AcDbEntity
  8
Geo
100
AcDbLine
 10
-42.82127981039976
 20
-5.551462582536844
 30
0.0
 11
-42.72127981039976
 21
-5.901787392147515
 31
0.0
  0
LINE
  5
F10286
330
261
100
AcDbEntity
  8
Geo
100
AcDbLine
 10
-42.72127981039976
 20
-5.901787392147515
 30
0.0
 11
-42.62127981039976
 21
-6.065578667268964
 31
0.0
  0
LINE
  5
F10288
330
261
100
AcDbEntity
  8
Geo
100
AcDbLine
 10
-42.62127981039976
 20
-6.065578667268964
 30
0.0
 11
-42.52127981039976
 21
-6.196132078483485
 31
0.0
  0
LINE
  5
F1028A
330
261
100
AcDbEntity
  8
Geo
100
AcDbLine
 10
-42.52127981039976
 20
-6.196132078483485
 30
0.0
 11
-42.42127981039977
 21
-6.307230964000326
 31
0.0
  0
LINE
  5
F1028C
330
261
100
AcDbEntity
  8
Geo
100
AcDbLine
 10
-42.42127981039977
 20
-6.307230964000326
 30
0.0
 11
-42.32127981039975
 21
-6.403812650974155
 31
0.0
  0
LINE
  5
F1028E
330
261
100
AcDbEntity
  8
Geo
100
AcDbLine
 10
-42.32127981039975
 20
-6.403812650974155
 30
0.0
 11
-42.22127981039976
 21
-6.488113529005535
 31
0.0
  0
LINE
  5
F10290
330
261
100
AcDbEntity
  8
Geo
100
AcDbLine
 10
-42.22127981039976
 20
-6.488113529005535
 30
0.0
 11
-42.12127981039976
 21
-6.561216327422325
 31
0.0
  0
LINE
  5
F10292
330
261
100
AcDbEntity
  8
Geo
100
AcDbLine
 10
-42.12127981039976
 20
-6.561216327422325
 30
0.0
 11
-42.02127981039976
 21
-6.623603883487104
 31
0.0
  0
LINE
  5
F10294
330
261
100
AcDbEntity
  8
Geo
100
AcDbLine
 10
-42.02127981039976
 20
-6.623603883487104
 30
0.0
 11
-41.92127981039976
 21
-6.675394641384116
 31
0.0
  0
LINE
  5
F10296
330
261
100
AcDbEntity
  8
Geo
100
AcDbLine
 10
-41.92127981039976
 20
-6.675394641384116
 30
0.0
 11
-41.82127981039975
 21
-6.716448655480975
 31
0.0
  0
LINE
  5
F10298
330
261
100
AcDbEntity
  8
Geo
100
AcDbLine
 10
-41.82127981039975
 20
-6.716448655480975
 30
0.0
 11
-41.72127981039976
 21
-6.750940203226525
 31
0.0
  0
LINE
  5
F1029A
330
261
100
AcDbEntity
  8
Geo
100
AcDbLine
 10
-41.72127981039976
 20
-6.750940203226525
 30
0.0
 11
-41.62127981039977
 21
-6.783224563499015
 31
0.0
  0
LINE
  5
F1029C
330
261
100
AcDbEntity
  8
Geo
100
AcDbLine
 10
-41.62127981039977
 20
-6.783224563499015
 30
0.0
 11
-41.52127981039976
 21
-6.813270208293485
 31
0.0
  0
LINE
  5
F1029E
330
261
100
AcDbEntity
  8
Geo
100
AcDbLine
 10
-41.52127981039976
 20
-6.813270208293485
 30
0.0
 11
-41.42127981039976
 21
-6.841047795871984
 31
0.0
  0
LINE
  5
F102A0
330
261
100
AcDbEntity
  8
Geo
100
AcDbLine
 10
-41.42127981039976
 20
-6.841047795871984
 30
0.0
 11
-41.32127981039976
 21
-6.866530199417935
 31
0.0
  0
LINE
  5
F102A2
330
261
100
AcDbEntity
  8
Geo
100
AcDbLine
 10
-41.32127981039976
 20
-6.866530199417935
 30
0.0
 11
-41.22127981039976
 21
-6.889692533527416
 31
0.0
  0
LINE
  5
F102A4
330
261
100
AcDbEntity
  8
Geo
100
AcDbLine
 10
-41.22127981039976
 20
-6.889692533527416
 30
0.0
 11
-41.12127981039977
 21
-6.910512178511554
 31
0.0
  0
LINE
  5
F102A6
330
261
100
AcDbEntity
  8
Geo
100
AcDbLine
 10
-41.12127981039977
 20
-6.910512178511554
 30
0.0
 11
-41.02127981039976
 21
-6.928968802486266
 31
0.0
  0
LINE
  5
F102A8
330
261
100
AcDbEntity
  8
Geo
100
AcDbLine
 10
-41.02127981039976
 20
-6.928968802486266
 30
0.0
 11
-40.92127981039976
 21
-6.945044381227814
 31
0.0
  0
LINE
  5
F102AA
330
261
100
AcDbEntity
  8
Geo
100
AcDbLine
 10
-40.92127981039976
 20
-6.945044381227814
 30
0.0
 11
-40.82127981039976
 21
-6.958723215774775
 31
0.0
  0
LINE
  5
F102AC
330
261
100
AcDbEntity
  8
Geo
100
AcDbLine
 10
-40.82127981039976
 20
-6.958723215774775
 30
0.0
 11
-40.72127981039976
 21
-6.969991947759195
 31
0.0
  0
LINE
  5
F102AE
330
261
100
AcDbEntity
  8
Geo
100
AcDbLine
 10
-40.72127981039976
 20
-6.969991947759195
 30
0.0
 11
-40.62127981039977
 21
-6.978839572452015
 31
0.0
  0
LINE
  5
F102B0
330
261
100
AcDbEntity
  8
Geo
100
AcDbLine
 10
-40.62127981039977
 20
-6.978839572452015
 30
0.0
 11
-40.52127981039975
 21
-6.985257449509934
 31
0.0
  0
LINE
  5
F102B2
330
261
100
AcDbEntity
  8
Geo
100
AcDbLine
 10
-40.52127981039975
 20
-6.985257449509934
 30
0.0
 11
-40.42127981039977
 21
-6.989239311413395
 31
0.0
  0
LINE
  5
F102B4
330
261
100
AcDbEntity
  8
Geo
100
AcDbLine
 10
-40.42127981039977
 20
-6.989239311413395
 30
0.0
 11
-40.32127981039976
 21
-6.990781269587216
 31
0.0
  0
LINE
  5
F102B6
330
261
100
AcDbEntity
  8
Geo
100
AcDbLine
 10
-30.32127981039976
 20
-1.991330922124326
 30
0.0
 11
-30.22127981039975
 21
-1.990945220867025
 31
0.0
  0
LINE
  5
F102B8
330
261
100
AcDbEntity
  8
Geo
100
AcDbLine
 10
-30.22127981039975
 20
-1.990945220867025
 30
0.0
 11
-30.12127981039976
 21
-1.993000810354224
 31
0.0
  0
LINE
  5
F102BA
330
261
100
AcDbEntity
  8
Geo
100
AcDbLine
 10
-30.12127981039976
 20
-1.993000810354224
 30
0.0
 11
-30.02127981039976
 21
-1.997495683154625
 31
0.0
  0
LINE
  5
F102BC
330
261
100
AcDbEntity
  8
Geo
100
AcDbLine
 10
-30.02127981039976
 20
-1.997495683154625
 30
0.0
 11
-29.92127981039975
 21
-2.004425449700825
 31
0.0
  0
LINE
  5
F102BE
330
261
100
AcDbEntity
  8
Geo
100
AcDbLine
 10
-29.92127981039975
 20
-2.004425449700825
 30
0.0
 11
-29.82127981039976
 21
-2.013783342576326
 31
0.0
  0
LINE
  5
F102C0
330
261
100
AcDbEntity
  8
Geo
100
AcDbLine
 10
-29.82127981039976
 20
-2.013783342576326
 30
0.0
 11
-29.72127981039975
 21
-2.260282004078526
 31
0.0
  0
LINE
  5
F102C2
330
261
100
AcDbEntity
  8
Geo
100
AcDbLine
 10
-29.72127981039975
 20
-2.260282004078526
 30
0.0
 11
-29.62127981039976
 21
-2.259047777990424
 31
0.0
  0
LINE
  5
F102C4
330
261
100
AcDbEntity
  8
Geo
100
AcDbLine
 10
-29.62127981039976
 20
-2.259047777990424
 30
0.0
 11
-29.52127981039976
 21
-2.257789234583626
 31
0.0
  0
LINE
  5
F102C6
330
261
100
AcDbEntity
  8
Geo
100
AcDbLine
 10
-29.52127981039976
 20
-2.257789234583626
 30
0.0
 11
-29.42127981039975
 21
-2.256513409753226
 31
0.0
  0
LINE
  5
F102C8
330
261
100
AcDbEntity
  8
Geo
100
AcDbLine
 10
-29.42127981039975
 20
-2.256513409753226
 30
0.0
 11
-29.32127981039976
 21
-2.255227712395123
 31
0.0
  0
LINE
  5
F102CA
330
261
100
AcDbEntity
  8
Geo
100
AcDbLine
 10
-29.32127981039976
 20
-2.255227712395123
 30
0.0
 11
-29.22127981039975
 21
-2.253939924900727
 31
0.0
  0
LINE
  5
F102CC
330
261
100
AcDbEntity
  8
Geo
100
AcDbLine
 10
-29.22127981039975
 20
-2.253939924900727
 30
0.0
 11
-29.12127981039976
 21
-2.252658203574624
 31
0.0
  0
LINE
  5
F102CE
330
261
100
AcDbEntity
  8
Geo
100
AcDbLine
 10
-29.12127981039976
 20
-2.252658203574624
 30
0.0
 11
-29.02127981039976
 21
-2.251391078959025
 31
0.0
  0
LINE
  5
F102D0
330
261
100
AcDbEntity
  8
Geo
100
AcDbLine
 10
-29.02127981039976
 20
-2.251391078959025
 30
0.0
 11
-28.92127981039975
 21
-2.250147456049226
 31
0.0
  0
LINE
  5
F102D2
330
261
100
AcDbEntity
  8
Geo
100
AcDbLine
 10
-28.92127981039975
 20
-2.250147456049226
 30
0.0
 11
-28.82127981039976
 21
-2.248936614384726
 31
0.0
  0
LINE
  5
F102D4
330
261
100
AcDbEntity
  8
Geo
100
AcDbLine
 10
-28.82127981039976
 20
-2.248936614384726
 30
0.0
 11
-28.72127981039975
 21
-2.247768207998126
 31
0.0
  0
LINE
  5
F102D6
330
261
100
AcDbEntity
  8
Geo
100
AcDbLine
 10
-28.72127981039975
 20
-2.247768207998126
 30
0.0
 11
-28.62127981039975
 21
-2.246652265203525
 31
0.0
  0
LINE
  5
F102D8
330
261
100
AcDbEntity
  8
Geo
100
AcDbLine
 10
-28.62127981039975
 20
-2.246652265203525
 30
0.0
 11
-28.52127981039976
 21
-2.245599188207425
 31
0.0
  0
LINE
  5
F102DA
330
261
100
AcDbEntity
  8
Geo
100
AcDbLine
 10
-28.52127981039976
 20
-2.245599188207425
 30
0.0
 11
-28.42127981039975
 21
-2.244619752520925
 31
0.0
  0
LINE
  5
F102DC
330
261
100
AcDbEntity
  8
Geo
100
AcDbLine
 10
-28.42127981039975
 20
-2.244619752520925
 30
0.0
 11
-28.32127981039976
 21
-2.243725106155325
 31
0.0
  0
LINE
  5
F102DE
330
261
100
AcDbEntity
  8
Geo
100
AcDbLine
 10
-28.32127981039976
 20
-2.243725106155325
 30
0.0
 11
-28.22127981039975
 21
-2.242926768578824
 31
0.0
  0
LINE
  5
F102E0
330
261
100
AcDbEntity
  8
Geo
100
AcDbLine
 10
-28.22127981039975
 20
-2.242926768578824
 30
0.0
 11
-28.12127981039976
 21
-2.242236629413726
 31
0.0
  0
LINE
  5
F102E2
330
261
100
AcDbEntity
  8
Geo
100
AcDbLine
 10
-28.12127981039976
 20
-2.242236629413726
 30
0.0
 11
-28.02127981039976
 21
-2.241666946852726
 31
0.0
  0
LINE
  5
F102E4
330
261
100
AcDbEntity
  8
Geo
100
AcDbLine
 10
-28.02127981039976
 20
-2.241666946852726
 30
0.0
 11
-27.92127981039975
 21
-2.241230345770224
 31
0.0
  0
LINE
  5
F102E6
330
261
100
AcDbEntity
  8
Geo
100
AcDbLine
 10
-27.92127981039975
 20
-2.241230345770224
 30
0.0
 11
-27.82127981039976
 21
-2.240939815507225
 31
0.0
  0
LINE
  5
F102E8
330
261
100
AcDbEntity
  8
Geo
100
AcDbLine
 10
-42.82127981039976
 20
-5.834194663526465
 30
0.0
 11
-42.72127981039976
 21
-6.250638814316684
 31
0.0
  0
LINE
  5
F102EA
330
261
100
AcDbEntity
  8
Geo
100
AcDbLine
 10
-42.72127981039976
 20
-6.250638814316684
 30
0.0
 11
-42.62127981039976
 21
-6.426233010480236
 31
0.0
  0
LINE
  5
F102EC
330
261
100
AcDbEntity
  8
Geo
100
AcDbLine
 10
-42.62127981039976
 20
-6.426233010480236
 30
0.0
 11
-42.52127981039976
 21
-6.557282049751416
 31
0.0
  0
LINE
  5
F102EE
330
261
100
AcDbEntity
  8
Geo
100
AcDbLine
 10
-42.52127981039976
 20
-6.557282049751416
 30
0.0
 11
-42.42127981039977
 21
-6.662170575150456
 31
0.0
  0
LINE
  5
F102F0
330
261
100
AcDbEntity
  8
Geo
100
AcDbLine
 10
-42.42127981039977
 20
-6.662170575150456
 30
0.0
 11
-42.32127981039975
 21
-6.747789973233475
 31
0.0
  0
LINE
  5
F102F2
330
261
100
AcDbEntity
  8
Geo
100
AcDbLine
 10
-42.32127981039975
 20
-6.747789973233475
 30
0.0
 11
-42.22127981039976
 21
-6.817485265768985
 31
0.0
  0
LINE
  5
F102F4
330
261
100
AcDbEntity
  8
Geo
100
AcDbLine
 10
-42.22127981039976
 20
-6.817485265768985
 30
0.0
 11
-42.12127981039976
 21
-6.873076586932564
 31
0.0
  0
LINE
  5
F102F6
330
261
100
AcDbEntity
  8
Geo
100
AcDbLine
 10
-42.12127981039976
 20
-6.873076586932564
 30
0.0
 11
-42.02127981039976
 21
-6.915591742184825
 31
0.0
  0
LINE
  5
F102F8
330
261
100
AcDbEntity
  8
Geo
100
AcDbLine
 10
-42.02127981039976
 20
-6.915591742184825
 30
0.0
 11
-41.92127981039976
 21
-6.945584075169465
 31
0.0
  0
LINE
  5
F102FA
330
261
100
AcDbEntity
  8
Geo
100
AcDbLine
 10
-41.92127981039976
 20
-6.945584075169465
 30
0.0
 11
-41.82127981039975
 21
-6.963281957713865
 31
0.0
  0
LINE
  5
F102FC
330
261
100
AcDbEntity
  8
Geo
100
AcDbLine
 10
-41.82127981039975
 20
-6.963281957713865
 30
0.0
 11
-41.72127981039976
 21
-6.973633498404945
 31
0.0
  0
LINE
  5
F102FE
330
261
100
AcDbEntity
  8
Geo
100
AcDbLine
 10
-41.72127981039976
 20
-6.973633498404945
 30
0.0
 11
-41.62127981039977
 21
-6.981560375567716
 31
0.0
  0
LINE
  5
F10300
330
261
100
AcDbEntity
  8
Geo
100
AcDbLine
 10
-41.62127981039977
 20
-6.981560375567716
 30
0.0
 11
-41.52127981039976
 21
-6.987054848035235
 31
0.0
  0
LINE
  5
F10302
330
261
100
AcDbEntity
  8
Geo
100
AcDbLine
 10
-41.52127981039976
 20
-6.987054848035235
 30
0.0
 11
-41.42127981039976
 21
-6.990111550059054
 31
0.0
  0
LINE
  5
F10304
330
261
100
AcDbEntity
  8
Geo
100
AcDbLine
 10
-31.32127981039976
 20
-1.990897209650224
 30
0.0
 11
-31.22127981039975
 21
-1.991437607947625
 31
0.0
  0
LINE
  5
F10306
330
261
100
AcDbEntity
  8
Geo
100
AcDbLine
 10
-31.22127981039975
 20
-1.991437607947625
 30
0.0
 11
-31.12127981039976
 21
-1.994418816138123
 31
0.0
  0
LINE
  5
F10308
330
261
100
AcDbEntity
  8
Geo
100
AcDbLine
 10
-31.12127981039976
 20
-1.994418816138123
 30
0.0
 11
-31.02127981039976
 21
-1.999837922856926
 31
0.0
  0
LINE
  5
F1030A
330
261
100
AcDbEntity
  8
Geo
100
AcDbLine
 10
-31.02127981039976
 20
-1.999837922856926
 30
0.0
 11
-30.92127981039975
 21
-2.007689635955523
 31
0.0
  0
LINE
  5
F1030C
330
261
100
AcDbEntity
  8
Geo
100
AcDbLine
 10
-30.92127981039975
 20
-2.007689635955523
 30
0.0
 11
-30.82127981039976
 21
-2.017966287670425
 31
0.0
  0
LINE
  5
F1030E
330
261
100
AcDbEntity
  8
Geo
100
AcDbLine
 10
-30.82127981039976
 20
-2.017966287670425
 30
0.0
 11
-30.72127981039975
 21
-2.030657842110125
 31
0.0
  0
LINE
  5
F10310
330
261
100
AcDbEntity
  8
Geo
100
AcDbLine
 10
-30.72127981039975
 20
-2.030657842110125
 30
0.0
 11
-30.62127981039976
 21
-2.045751905057125
 31
0.0
  0
LINE
  5
F10312
330
261
100
AcDbEntity
  8
Geo
100
AcDbLine
 10
-30.62127981039976
 20
-2.045751905057125
 30
0.0
 11
-30.52127981039976
 21
-2.063233736070726
 31
0.0
  0
LINE
  5
F10314
330
261
100
AcDbEntity
  8
Geo
100
AcDbLine
 10
-30.52127981039976
 20
-2.063233736070726
 30
0.0
 11
-30.42127981039975
 21
-2.083086262882925
 31
0.0
  0
LINE
  5
F10316
330
261
100
AcDbEntity
  8
Geo
100
AcDbLine
 10
-30.42127981039975
 20
-2.083086262882925
 30
0.0
 11
-30.32127981039976
 21
-2.105290098070124
 31
0.0
  0
LINE
  5
F10318
330
261
100
AcDbEntity
  8
Geo
100
AcDbLine
 10
-30.32127981039976
 20
-2.105290098070124
 30
0.0
 11
-30.22127981039975
 21
-2.129823557986924
 31
0.0
  0
LINE
  5
F1031A
330
261
100
AcDbEntity
  8
Geo
100
AcDbLine
 10
-30.22127981039975
 20
-2.129823557986924
 30
0.0
 11
-30.12127981039976
 21
-2.156662683941025
 31
0.0
  0
LINE
  5
F1031C
330
261
100
AcDbEntity
  8
Geo
100
AcDbLine
 10
-30.12127981039976
 20
-2.156662683941025
 30
0.0
 11
-30.02127981039976
 21
-2.185781265591426
 31
0.0
  0
LINE
  5
F1031E
330
261
100
AcDbEntity
  8
Geo
100
AcDbLine
 10
-30.02127981039976
 20
-2.185781265591426
 30
0.0
 11
-29.92127981039975
 21
-2.217150866544125
 31
0.0
  0
LINE
  5
F10320
330
261
100
AcDbEntity
  8
Geo
100
AcDbLine
 10
-29.92127981039975
 20
-2.217150866544125
 30
0.0
 11
-29.82127981039976
 21
-2.250740852122623
 31
0.0
  0
LINE
  5
F10322
330
261
100
AcDbEntity
  8
Geo
100
AcDbLine
 10
-29.82127981039976
 20
-2.250740852122623
 30
0.0
 11
-29.72127981039975
 21
-2.512126576851425
 31
0.0
  0
LINE
  5
F10324
330
261
100
AcDbEntity
  8
Geo
100
AcDbLine
 10
-29.72127981039975
 20
-2.512126576851425
 30
0.0
 11
-29.62127981039976
 21
-2.554491641012125
 31
0.0
  0
LINE
  5
F10326
330
261
100
AcDbEntity
  8
Geo
100
AcDbLine
 10
-29.62127981039976
 20
-2.554491641012125
 30
0.0
 11
-29.52127981039976
 21
-2.602251849855425
 31
0.0
  0
LINE
  5
F10328
330
261
100
AcDbEntity
  8
Geo
100
AcDbLine
 10
-29.52127981039976
 20
-2.602251849855425
 30
0.0
 11
-29.42127981039975
 21
-2.655815542415925
 31
0.0
  0
LINE
  5
F1032A
330
261
100
AcDbEntity
  8
Geo
100
AcDbLine
 10
-29.42127981039975
 20
-2.655815542415925
 30
0.0
 11
-29.32127981039976
 21
-2.715584062841728
 31
0.0
  0
LINE
  5
F1032C
330
261
100
AcDbEntity
  8
Geo
100
AcDbLine
 10
-29.32127981039976
 20
-2.715584062841728
 30
0.0
 11
-29.22127981039975
 21
-2.781945386620927
 31
0.0
  0
LINE
  5
F1032E
330
261
100
AcDbEntity
  8
Geo
100
AcDbLine
 10
-29.22127981039975
 20
-2.781945386620927
 30
0.0
 11
-29.12127981039976
 21
-2.855267036806623
 31
0.0
  0
LINE
  5
F10330
330
261
100
AcDbEntity
  8
Geo
100
AcDbLine
 10
-29.12127981039976
 20
-2.855267036806623
 30
0.0
 11
-29.02127981039976
 21
-2.935888280937126
 31
0.0
  0
LINE
  5
F10332
330
261
100
AcDbEntity
  8
Geo
100
AcDbLine
 10
-29.02127981039976
 20
-2.935888280937126
 30
0.0
 11
-28.92127981039975
 21
-3.024111613328425
 31
0.0
  0
LINE
  5
F10334
330
261
100
AcDbEntity
  8
Geo
100
AcDbLine
 10
-28.92127981039975
 20
-3.024111613328425
 30
0.0
 11
-28.82127981039976
 21
-3.120193544094123
 31
0.0
  0
LINE
  5
F10336
330
261
100
AcDbEntity
  8
Geo
100
AcDbLine
 10
-28.82127981039976
 20
-3.120193544094123
 30
0.0
 11
-28.72127981039975
 21
-3.224334735765426
 31
0.0
  0
LINE
  5
F10338
330
261
100
AcDbEntity
  8
Geo
100
AcDbLine
 10
-28.72127981039975
 20
-3.224334735765426
 30
0.0
 11
-28.62127981039975
 21
-3.336669550814026
 31
0.0
  0
LINE
  5
F1033A
330
261
100
AcDbEntity
  8
Geo
100
AcDbLine
 10
-28.62127981039975
 20
-3.336669550814026
 30
0.0
 11
-28.52127981039976
 21
-3.457255098765024
 31
0.0
  0
LINE
  5
F1033C
330
261
100
AcDbEntity
  8
Geo
100
AcDbLine
 10
-28.52127981039976
 20
-3.457255098765024
 30
0.0
 11
-28.42127981039975
 21
-3.586059899844624
 31
0.0
  0
LINE
  5
F1033E
330
261
100
AcDbEntity
  8
Geo
100
AcDbLine
 10
-28.42127981039975
 20
-3.586059899844624
 30
0.0
 11
-28.32127981039976
 21
-3.722952313095726
 31
0.0
  0
LINE
  5
F10340
330
261
100
AcDbEntity
  8
Geo
100
AcDbLine
 10
-28.32127981039976
 20
-3.722952313095726
 30
0.0
 11
-28.22127981039975
 21
-3.867688910324327
 31
0.0
  0
LINE
  5
F10342
330
261
100
AcDbEntity
  8
Geo
100
AcDbLine
 10
-28.22127981039975
 20
-3.867688910324327
 30
0.0
 11
-28.12127981039976
 21
-4.019903012707006
 31
0.0
  0
LINE
  5
F10344
330
261
100
AcDbEntity
  8
Geo
100
AcDbLine
 10
-28.12127981039976
 20
-4.019903012707006
 30
0.0
 11
-28.02127981039976
 21
-4.179093643808606
 31
0.0
  0
LINE
  5
F10346
330
261
100
AcDbEntity
  8
Geo
100
AcDbLine
 10
-28.02127981039976
 20
-4.179093643808606
 30
0.0
 11
-27.92127981039975
 21
-4.344615190401386
 31
0.0
  0
LINE
  5
F10348
330
261
100
AcDbEntity
  8
Geo
100
AcDbLine
 10
-27.92127981039975
 20
-4.344615190401386
 30
0.0
 11
-27.82127981039976
 21
-4.515668099890246
 31
0.0
  0
LINE
  5
F1034A
330
261
100
AcDbEntity
  8
Geo
100
AcDbLine
 10
-35.32127981039976
 20
-1.990992679139825
 30
0.0
 11
-35.22127981039975
 21
-1.991249562895124
 31
0.0
  0
LINE
  5
F1034C
330
261
100
AcDbEntity
  8
Geo
100
AcDbLine
 10
-35.22127981039975
 20
-1.991249562895124
 30
0.0
 11
-35.12127981039976
 21
-1.993947440182825
 31
0.0
  0
LINE
  5
F1034E
330
261
100
AcDbEntity
  8
Geo
100
AcDbLine
 10
-35.12127981039976
 20
-1.993947440182825
 30
0.0
 11
-35.02127981039976
 21
-1.999083676331524
 31
0.0
  0
LINE
  5
F10350
330
261
100
AcDbEntity
  8
Geo
100
AcDbLine
 10
-35.02127981039976
 20
-1.999083676331524
 30
0.0
 11
-34.92127981039975
 21
-2.006653255436123
 31
0.0
  0
LINE
  5
F10352
330
261
100
AcDbEntity
  8
Geo
100
AcDbLine
 10
-34.92127981039975
 20
-2.006653255436123
 30
0.0
 11
-34.82127981039976
 21
-2.016648785257228
 31
0.0
  0
LINE
  5
F10354
330
261
100
AcDbEntity
  8
Geo
100
AcDbLine
 10
-34.82127981039976
 20
-2.016648785257228
 30
0.0
 11
-34.72127981039975
 21
-2.029060504439325
 31
0.0
  0
LINE
  5
F10356
330
261
100
AcDbEntity
  8
Geo
100
AcDbLine
 10
-34.72127981039975
 20
-2.029060504439325
 30
0.0
 11
-34.62127981039976
 21
-2.043876292044023
 31
0.0
  0
LINE
  5
F10358
330
261
100
AcDbEntity
  8
Geo
100
AcDbLine
 10
-34.62127981039976
 20
-2.043876292044023
 30
0.0
 11
-34.52127981039976
 21
-2.061081679386624
 31
0.0
  0
LINE
  5
F1035A
330
261
100
AcDbEntity
  8
Geo
100
AcDbLine
 10
-34.52127981039976
 20
-2.061081679386624
 30
0.0
 11
-34.42127981039976
 21
-2.080659864166326
 31
0.0
  0
LINE
  5
F1035C
330
261
100
AcDbEntity
  8
Geo
100
AcDbLine
 10
-34.42127981039976
 20
-2.080659864166326
 30
0.0
 11
-34.32127981039976
 21
-2.102591726874324
 31
0.0
  0
LINE
  5
F1035E
330
261
100
AcDbEntity
  8
Geo
100
AcDbLine
 10
-34.32127981039976
 20
-2.102591726874324
 30
0.0
 11
-34.22127981039975
 21
-2.126855849465824
 31
0.0
  0
LINE
  5
F10360
330
261
100
AcDbEntity
  8
Geo
100
AcDbLine
 10
-34.22127981039975
 20
-2.126855849465824
 30
0.0
 11
-34.12127981039976
 21
-2.153428536276026
 31
0.0
  0
LINE
  5
F10362
330
261
100
AcDbEntity
  8
Geo
100
AcDbLine
 10
-34.12127981039976
 20
-2.153428536276026
 30
0.0
 11
-34.02127981039976
 21
-2.182283837160724
 31
0.0
  0
LINE
  5
F10364
330
261
100
AcDbEntity
  8
Geo
100
AcDbLine
 10
-34.02127981039976
 20
-2.182283837160724
 30
0.0
 11
-33.92127981039975
 21
-2.213393572838825
 31
0.0
  0
LINE
  5
F10366
330
261
100
AcDbEntity
  8
Geo
100
AcDbLine
 10
-33.92127981039975
 20
-2.213393572838825
 30
0.0
 11
-33.82127981039976
 21
-2.246727362410727
 31
0.0
  0
LINE
  5
F10368
330
261
100
AcDbEntity
  8
Geo
100
AcDbLine
 10
-33.82127981039976
 20
-2.246727362410727
 30
0.0
 11
-33.72127981039975
 21
-2.282252653028224
 31
0.0
  0
LINE
  5
F1036A
330
261
100
AcDbEntity
  8
Geo
100
AcDbLine
 10
-33.72127981039975
 20
-2.282252653028224
 30
0.0
 11
-33.62127981039976
 21
-2.319934751684227
 31
0.0
  0
LINE
  5
F1036C
330
261
100
AcDbEntity
  8
Geo
100
AcDbLine
 10
-33.62127981039976
 20
-2.319934751684227
 30
0.0
 11
-33.52127981039976
 21
-2.359736859093024
 31
0.0
  0
LINE
  5
F1036E
330
261
100
AcDbEntity
  8
Geo
100
AcDbLine
 10
-33.52127981039976
 20
-2.359736859093024
 30
0.0
 11
-33.42127981039975
 21
-2.401620105627825
 31
0.0
  0
LINE
  5
F10370
330
261
100
AcDbEntity
  8
Geo
100
AcDbLine
 10
-33.42127981039975
 20
-2.401620105627825
 30
0.0
 11
-33.32127981039976
 21
-2.445543589279226
 31
0.0
  0
LINE
  5
F10372
330
261
100
AcDbEntity
  8
Geo
100
AcDbLine
 10
-33.32127981039976
 20
-2.445543589279226
 30
0.0
 11
-33.22127981039975
 21
-2.491464415599226
 31
0.0
  0
LINE
  5
F10374
330
261
100
AcDbEntity
  8
Geo
100
AcDbLine
 10
-33.22127981039975
 20
-2.491464415599226
 30
0.0
 11
-33.12127981039976
 21
-2.539337739590825
 31
0.0
  0
LINE
  5
F10376
330
261
100
AcDbEntity
  8
Geo
100
AcDbLine
 10
-33.12127981039976
 20
-2.539337739590825
 30
0.0
 11
-33.02127981039976
 21
-2.589116809502325
 31
0.0
  0
LINE
  5
F10378
330
261
100
AcDbEntity
  8
Geo
100
AcDbLine
 10
-33.02127981039976
 20
-2.589116809502325
 30
0.0
 11
-32.92127981039975
 21
-2.640753012483624
 31
0.0
  0
LINE
  5
F1037A
330
261
100
AcDbEntity
  8
Geo
100
AcDbLine
 10
-32.92127981039975
 20
-2.640753012483624
 30
0.0
 11
-32.82127981039976
 21
-2.694195922060425
 31
0.0
  0
LINE
  5
F1037C
330
261
100
AcDbEntity
  8
Geo
100
AcDbLine
 10
-32.82127981039976
 20
-2.694195922060425
 30
0.0
 11
-32.72127981039975
 21
-2.749393347379227
 31
0.0
  0
LINE
  5
F1037E
330
261
100
AcDbEntity
  8
Geo
100
AcDbLine
 10
-32.72127981039975
 20
-2.749393347379227
 30
0.0
 11
-32.62127981039976
 21
-2.806291384175226
 31
0.0
  0
LINE
  5
F10380
330
261
100
AcDbEntity
  8
Geo
100
AcDbLine
 10
-32.62127981039976
 20
-2.806291384175226
 30
0.0
 11
-32.52127981039976
 21
-2.864834467414226
 31
0.0
  0
LINE
  5
F10382
330
261
100
AcDbEntity
  8
Geo
100
AcDbLine
 10
-32.52127981039976
 20
-2.864834467414226
 30
0.0
 11
-32.42127981039975
 21
-2.924965425555424
 31
0.0
  0
LINE
  5
F10384
330
261
100
AcDbEntity
  8
Geo
100
AcDbLine
 10
-32.42127981039975
 20
-2.924965425555424
 30
0.0
 11
-32.32127981039976
 21
-2.986625536383726
 31
0.0
  0
LINE
  5
F10386
330
261
100
AcDbEntity
  8
Geo
100
AcDbLine
 10
-32.32127981039976
 20
-2.986625536383726
 30
0.0
 11
-32.22127981039975
 21
-3.049754584356227
 31
0.0
  0
LINE
  5
F10388
330
261
100
AcDbEntity
  8
Geo
100
AcDbLine
 10
-32.22127981039975
 20
-3.049754584356227
 30
0.0
 11
-32.12127981039976
 21
-3.114290919407023
 31
0.0
  0
LINE
  5
F1038A
330
261
100
AcDbEntity
  8
Geo
100
AcDbLine
 10
-32.12127981039976
 20
-3.114290919407023
 30
0.0
 11
-32.02127981039976
 21
-3.180171517152926
 31
0.0
  0
LINE
  5
F1038C
330
261
100
AcDbEntity
  8
Geo
100
AcDbLine
 10
-32.02127981039976
 20
-3.180171517152926
 30
0.0
 11
-31.92127981039976
 21
-3.247332040441325
 31
0.0
  0
LINE
  5
F1038E
330
261
100
AcDbEntity
  8
Geo
100
AcDbLine
 10
-31.92127981039976
 20
-3.247332040441325
 30
0.0
 11
-31.82127981039976
 21
-3.315706902180025
 31
0.0
  0
LINE
  5
F10390
330
261
100
AcDbEntity
  8
Geo
100
AcDbLine
 10
-31.82127981039976
 20
-3.315706902180025
 30
0.0
 11
-31.72127981039975
 21
-3.385229329387925
 31
0.0
  0
LINE
  5
F10392
330
261
100
AcDbEntity
  8
Geo
100
AcDbLine
 10
-31.72127981039975
 20
-3.385229329387925
 30
0.0
 11
-31.62127981039976
 21
-3.455831428403424
 31
0.0
  0
LINE
  5
F10394
330
261
100
AcDbEntity
  8
Geo
100
AcDbLine
 10
-31.62127981039976
 20
-3.455831428403424
 30
0.0
 11
-31.52127981039976
 21
-3.527444251187525
 31
0.0
  0
LINE
  5
F10396
330
261
100
AcDbEntity
  8
Geo
100
AcDbLine
 10
-31.52127981039976
 20
-3.527444251187525
 30
0.0
 11
-31.42127981039975
 21
-3.599997862656625
 31
0.0
  0
LINE
  5
F10398
330
261
100
AcDbEntity
  8
Geo
100
AcDbLine
 10
-31.42127981039975
 20
-3.599997862656625
 30
0.0
 11
-31.32127981039976
 21
-3.673421408979425
 31
0.0
  0
LINE
  5
F1039A
330
261
100
AcDbEntity
  8
Geo
100
AcDbLine
 10
-31.32127981039976
 20
-3.673421408979425
 30
0.0
 11
-31.22127981039975
 21
-3.747643186770025
 31
0.0
  0
LINE
  5
F1039C
330
261
100
AcDbEntity
  8
Geo
100
AcDbLine
 10
-31.22127981039975
 20
-3.747643186770025
 30
0.0
 11
-31.12127981039976
 21
-3.822590713112525
 31
0.0
  0
LINE
  5
F1039E
330
261
100
AcDbEntity
  8
Geo
100
AcDbLine
 10
-31.12127981039976
 20
-3.822590713112525
 30
0.0
 11
-31.02127981039976
 21
-3.898190796344726
 31
0.0
  0
LINE
  5
F103A0
330
261
100
AcDbEntity
  8
Geo
100
AcDbLine
 10
-31.02127981039976
 20
-3.898190796344726
 30
0.0
 11
-30.92127981039975
 21
-3.974369607535955
 31
0.0
  0
LINE
  5
F103A2
330
261
100
AcDbEntity
  8
Geo
100
AcDbLine
 10
-30.92127981039975
 20
-3.974369607535955
 30
0.0
 11
-30.82127981039976
 21
-4.051052752585835
 31
0.0
  0
LINE
  5
F103A4
330
261
100
AcDbEntity
  8
Geo
100
AcDbLine
 10
-30.82127981039976
 20
-4.051052752585835
 30
0.0
 11
-30.72127981039975
 21
-4.128165344875636
 31
0.0
  0
LINE
  5
F103A6
330
261
100
AcDbEntity
  8
Geo
100
AcDbLine
 10
-30.72127981039975
 20
-4.128165344875636
 30
0.0
 11
-30.62127981039976
 21
-4.205632078400416
 31
0.0
  0
LINE
  5
F103A8
330
261
100
AcDbEntity
  8
Geo
100
AcDbLine
 10
-30.62127981039976
 20
-4.205632078400416
 30
0.0
 11
-30.52127981039976
 21
-4.283377301310835
 31
0.0
  0
LINE
  5
F103AA
330
261
100
AcDbEntity
  8
Geo
100
AcDbLine
 10
-30.52127981039976
 20
-4.283377301310835
 30
0.0
 11
-30.42127981039975
 21
-4.361325089792567
 31
0.0
  0
LINE
  5
F103AC
330
261
100
AcDbEntity
  8
Geo
100
AcDbLine
 10
-30.42127981039975
 20
-4.361325089792567
 30
0.0
 11
-30.32127981039976
 21
-4.439399322211396
 31
0.0
  0
LINE
  5
F103AE
330
261
100
AcDbEntity
  8
Geo
100
AcDbLine
 10
-30.32127981039976
 20
-4.439399322211396
 30
0.0
 11
-30.22127981039975
 21
-4.517523753451506
 31
0.0
  0
LINE
  5
F103B0
330
261
100
AcDbEntity
  8
Geo
100
AcDbLine
 10
-30.22127981039975
 20
-4.517523753451506
 30
0.0
 11
-30.12127981039976
 21
-4.595622089374305
 31
0.0
  0
LINE
  5
F103B2
330
261
100
AcDbEntity
  8
Geo
100
AcDbLine
 10
-30.12127981039976
 20
-4.595622089374305
 30
0.0
 11
-30.02127981039976
 21
-4.673618061325166
 31
0.0
  0
LINE
  5
F103B4
330
261
100
AcDbEntity
  8
Geo
100
AcDbLine
 10
-30.02127981039976
 20
-4.673618061325166
 30
0.0
 11
-29.92127981039975
 21
-4.751435500615245
 31
0.0
  0
LINE
  5
F103B6
330
261
100
AcDbEntity
  8
Geo
100
AcDbLine
 10
-29.92127981039975
 20
-4.751435500615245
 30
0.0
 11
-29.82127981039976
 21
-4.828998412905756
 31
0.0
  0
LINE
  5
F103B8
330
261
100
AcDbEntity
  8
Geo
100
AcDbLine
 10
-29.82127981039976
 20
-4.828998412905756
 30
0.0
 11
-29.72127981039975
 21
-4.786232123871645
 31
0.0
  0
LINE
  5
F103BA
330
261
100
AcDbEntity
  8
Geo
100
AcDbLine
 10
-29.72127981039975
 20
-4.786232123871645
 30
0.0
 11
-29.62127981039976
 21
-4.776759154207555
 31
0.0
  0
LINE
  5
F103BC
330
261
100
AcDbEntity
  8
Geo
100
AcDbLine
 10
-29.62127981039976
 20
-4.776759154207555
 30
0.0
 11
-29.52127981039976
 21
-4.766759209977175
 31
0.0
  0
LINE
  5
F103BE
330
261
100
AcDbEntity
  8
Geo
100
AcDbLine
 10
-29.52127981039976
 20
-4.766759209977175
 30
0.0
 11
-29.42127981039975
 21
-4.756231610344295
 31
0.0
  0
LINE
  5
F103C0
330
261
100
AcDbEntity
  8
Geo
100
AcDbLine
 10
-29.42127981039975
 20
-4.756231610344295
 30
0.0
 11
-29.32127981039976
 21
-4.745175695604526
 31
0.0
  0
LINE
  5
F103C2
330
261
100
AcDbEntity
  8
Geo
100
AcDbLine
 10
-29.32127981039976
 20
-4.745175695604526
 30
0.0
 11
-29.22127981039975
 21
-4.733590835869996
 31
0.0
  0
LINE
  5
F103C4
330
261
100
AcDbEntity
  8
Geo
100
AcDbLine
 10
-29.22127981039975
 20
-4.733590835869996
 30
0.0
 11
-29.12127981039976
 21
-4.721476440192756
 31
0.0
  0
LINE
  5
F103C6
330
261
100
AcDbEntity
  8
Geo
100
AcDbLine
 10
-29.12127981039976
 20
-4.721476440192756
 30
0.0
 11
-29.02127981039976
 21
-4.708831966126874
 31
0.0
  0
LINE
  5
F103C8
330
261
100
AcDbEntity
  8
Geo
100
AcDbLine
 10
-29.02127981039976
 20
-4.708831966126874
 30
0.0
 11
-28.92127981039975
 21
-4.695656929729254
 31
0.0
  0
LINE
  5
F103CA
330
261
100
AcDbEntity
  8
Geo
100
AcDbLine
 10
-28.92127981039975
 20
-4.695656929729254
 30
0.0
 11
-28.82127981039976
 21
-4.681950915998784
 31
0.0
  0
LINE
  5
F103CC
330
261
100
AcDbEntity
  8
Geo
100
AcDbLine
 10
-28.82127981039976
 20
-4.681950915998784
 30
0.0
 11
-28.72127981039975
 21
-4.667713589753255
 31
0.0
  0
LINE
  5
F103CE
330
261
100
AcDbEntity
  8
Geo
100
AcDbLine
 10
-28.72127981039975
 20
-4.667713589753255
 30
0.0
 11
-28.62127981039975
 21
-4.652944706942964
 31
0.0
  0
LINE
  5
F103D0
330
261
100
AcDbEntity
  8
Geo
100
AcDbLine
 10
-28.62127981039975
 20
-4.652944706942964
 30
0.0
 11
-28.52127981039976
 21
-4.637644126399795
 31
0.0
  0
LINE
  5
F103D2
330
261
100
AcDbEntity
  8
Geo
100
AcDbLine
 10
-28.52127981039976
 20
-4.637644126399795
 30
0.0
 11
-28.42127981039975
 21
-4.621811822020015
 31
0.0
  0
LINE
  5
F103D4
330
261
100
AcDbEntity
  8
Geo
100
AcDbLine
 10
-28.42127981039975
 20
-4.621811822020015
 30
0.0
 11
-28.32127981039976
 21
-4.605447895378425
 31
0.0
  0
LINE
  5
F103D6
330
261
100
AcDbEntity
  8
Geo
100
AcDbLine
 10
-28.32127981039976
 20
-4.605447895378425
 30
0.0
 11
-28.22127981039975
 21
-4.588552588771454
 31
0.0
  0
LINE
  5
F103D8
330
261
100
AcDbEntity
  8
Geo
100
AcDbLine
 10
-28.22127981039975
 20
-4.588552588771454
 30
0.0
 11
-28.12127981039976
 21
-4.571126298685754
 31
0.0
  0
LINE
  5
F103DA
330
261
100
AcDbEntity
  8
Geo
100
AcDbLine
 10
-28.12127981039976
 20
-4.571126298685754
 30
0.0
 11
-28.02127981039976
 21
-4.553169589688556
 31
0.0
  0
LINE
  5
F103DC
330
261
100
AcDbEntity
  8
Geo
100
AcDbLine
 10
-28.02127981039976
 20
-4.553169589688556
 30
0.0
 11
-27.92127981039975
 21
-4.534683208735435
 31
0.0
  0
LINE
  5
F103DE
330
261
100
AcDbEntity
  8
Geo
100
AcDbLine
 10
-27.92127981039975
 20
-4.534683208735435
 30
0.0
 11
-27.82127981039976
 21
-4.515668099890246
 31
0.0
  0
LINE
  5
F103E0
330
261
100
AcDbEntity
  8
Geo
100
AcDbLine
 10
-36.32127981039976
 20
-1.990802702995727
 30
0.0
 11
-36.22127981039975
 21
-1.991985647438125
 31
0.0
  0
LINE
  5
F103E2
330
261
100
AcDbEntity
  8
Geo
100
AcDbLine
 10
-36.22127981039975
 20
-1.991985647438125
 30
0.0
 11
-36.12127981039976
 21
-1.995608866573427
 31
0.0
  0
LINE
  5
F103E4
330
261
100
AcDbEntity
  8
Geo
100
AcDbLine
 10
-36.12127981039976
 20
-1.995608866573427
 30
0.0
 11
-36.02127981039976
 21
-2.001668822067024
 31
0.0
  0
LINE
  5
F103E6
330
261
100
AcDbEntity
  8
Geo
100
AcDbLine
 10
-36.02127981039976
 20
-2.001668822067024
 30
0.0
 11
-35.92127981039975
 21
-2.010159595935425
 31
0.0
  0
LINE
  5
F103E8
330
261
100
AcDbEntity
  8
Geo
100
AcDbLine
 10
-35.92127981039975
 20
-2.010159595935425
 30
0.0
 11
-35.82127981039976
 21
-2.021072896326025
 31
0.0
  0
LINE
  5
F103EA
330
261
100
AcDbEntity
  8
Geo
100
AcDbLine
 10
-35.82127981039976
 20
-2.021072896326025
 30
0.0
 11
-35.72127981039975
 21
-2.034398065614325
 31
0.0
  0
LINE
  5
F103EC
330
261
100
AcDbEntity
  8
Geo
100
AcDbLine
 10
-35.72127981039975
 20
-2.034398065614325
 30
0.0
 11
-35.62127981039976
 21
-2.050122090811925
 31
0.0
  0
LINE
  5
F103EE
330
261
100
AcDbEntity
  8
Geo
100
AcDbLine
 10
-35.62127981039976
 20
-2.050122090811925
 30
0.0
 11
-35.52127981039976
 21
-2.068229616274827
 31
0.0
  0
LINE
  5
F103F0
330
261
100
AcDbEntity
  8
Geo
100
AcDbLine
 10
-35.52127981039976
 20
-2.068229616274827
 30
0.0
 11
-35.42127981039975
 21
-2.088702958699123
 31
0.0
  0
LINE
  5
F103F2
330
261
100
AcDbEntity
  8
Geo
100
AcDbLine
 10
-35.42127981039975
 20
-2.088702958699123
 30
0.0
 11
-35.32127981039976
 21
-2.111522124390125
 31
0.0
  0
LINE
  5
F103F4
330
261
100
AcDbEntity
  8
Geo
100
AcDbLine
 10
-35.32127981039976
 20
-2.111522124390125
 30
0.0
 11
-35.22127981039975
 21
-2.136664828787727
 31
0.0
  0
LINE
  5
F103F6
330
261
100
AcDbEntity
  8
Geo
100
AcDbLine
 10
-35.22127981039975
 20
-2.136664828787727
 30
0.0
 11
-35.12127981039976
 21
-2.164106518228622
 31
0.0
  0
LINE
  5
F103F8
330
261
100
AcDbEntity
  8
Geo
100
AcDbLine
 10
-35.12127981039976
 20
-2.164106518228622
 30
0.0
 11
-35.02127981039976
 21
-2.193820393925024
 31
0.0
  0
LINE
  5
F103FA
330
261
100
AcDbEntity
  8
Geo
100
AcDbLine
 10
-35.02127981039976
 20
-2.193820393925024
 30
0.0
 11
-34.92127981039975
 21
-2.225777438135425
 31
0.0
  0
LINE
  5
F103FC
330
261
100
AcDbEntity
  8
Geo
100
AcDbLine
 10
-34.92127981039975
 20
-2.225777438135425
 30
0.0
 11
-34.82127981039976
 21
-2.259946442502624
 31
0.0
  0
LINE
  5
F103FE
330
261
100
AcDbEntity
  8
Geo
100
AcDbLine
 10
-34.82127981039976
 20
-2.259946442502624
 30
0.0
 11
-34.72127981039975
 21
-2.296294038530726
 31
0.0
  0
LINE
  5
F10400
330
261
100
AcDbEntity
  8
Geo
100
AcDbLine
 10
-34.72127981039975
 20
-2.296294038530726
 30
0.0
 11
-34.62127981039976
 21
-2.334784730172225
 31
0.0
  0
LINE
  5
F10402
330
261
100
AcDbEntity
  8
Geo
100
AcDbLine
 10
-34.62127981039976
 20
-2.334784730172225
 30
0.0
 11
-34.52127981039976
 21
-2.375380928492226
 31
0.0
  0
LINE
  5
F10404
330
261
100
AcDbEntity
  8
Geo
100
AcDbLine
 10
-34.52127981039976
 20
-2.375380928492226
 30
0.0
 11
-34.42127981039976
 21
-2.418042988376727
 31
0.0
  0
LINE
  5
F10406
330
261
100
AcDbEntity
  8
Geo
100
AcDbLine
 10
-34.42127981039976
 20
-2.418042988376727
 30
0.0
 11
-34.32127981039976
 21
-2.462729247248926
 31
0.0
  0
LINE
  5
F10408
330
261
100
AcDbEntity
  8
Geo
100
AcDbLine
 10
-34.32127981039976
 20
-2.462729247248926
 30
0.0
 11
-34.22127981039975
 21
-2.509396065755925
 31
0.0
  0
LINE
  5
F1040A
330
261
100
AcDbEntity
  8
Geo
100
AcDbLine
 10
-34.22127981039975
 20
-2.509396065755925
 30
0.0
 11
-34.12127981039976
 21
-2.557997870385724
 31
0.0
  0
LINE
  5
F1040C
330
261
100
AcDbEntity
  8
Geo
100
AcDbLine
 10
-34.12127981039976
 20
-2.557997870385724
 30
0.0
 11
-34.02127981039976
 21
-2.608487197972426
 31
0.0
  0
LINE
  5
F1040E
330
261
100
AcDbEntity
  8
Geo
100
AcDbLine
 10
-34.02127981039976
 20
-2.608487197972426
 30
0.0
 11
-33.92127981039975
 21
-2.660814742048424
 31
0.0
  0
LINE
  5
F10410
330
261
100
AcDbEntity
  8
Geo
100
AcDbLine
 10
-33.92127981039975
 20
-2.660814742048424
 30
0.0
 11
-33.82127981039976
 21
-2.714929400994824
 31
0.0
  0
LINE
  5
F10412
330
261
100
AcDbEntity
  8
Geo
100
AcDbLine
 10
-33.82127981039976
 20
-2.714929400994824
 30
0.0
 11
-33.72127981039975
 21
-2.770778327946427
 31
0.0
  0
LINE
  5
F10414
330
261
100
AcDbEntity
  8
Geo
100
AcDbLine
 10
-33.72127981039975
 20
-2.770778327946427
 30
0.0
 11
-33.62127981039976
 21
-2.828306982400325
 31
0.0
  0
LINE
  5
F10416
330
261
100
AcDbEntity
  8
Geo
100
AcDbLine
 10
-33.62127981039976
 20
-2.828306982400325
 30
0.0
 11
-33.52127981039976
 21
-2.887459183478624
 31
0.0
  0
LINE
  5
F10418
330
261
100
AcDbEntity
  8
Geo
100
AcDbLine
 10
-33.52127981039976
 20
-2.887459183478624
 30
0.0
 11
-33.42127981039975
 21
-2.948177164792925
 31
0.0
  0
LINE
  5
F1041A
330
261
100
AcDbEntity
  8
Geo
100
AcDbLine
 10
-33.42127981039975
 20
-2.948177164792925
 30
0.0
 11
-33.32127981039976
 21
-3.010401630857824
 31
0.0
  0
LINE
  5
F1041C
330
261
100
AcDbEntity
  8
Geo
100
AcDbLine
 10
-33.32127981039976
 20
-3.010401630857824
 30
0.0
 11
-33.22127981039975
 21
-3.074071814996726
 31
0.0
  0
LINE
  5
F1041E
330
261
100
AcDbEntity
  8
Geo
100
AcDbLine
 10
-33.22127981039975
 20
-3.074071814996726
 30
0.0
 11
-33.12127981039976
 21
-3.139125538685325
 31
0.0
  0
LINE
  5
F10420
330
261
100
AcDbEntity
  8
Geo
100
AcDbLine
 10
-33.12127981039976
 20
-3.139125538685325
 30
0.0
 11
-33.02127981039976
 21
-3.205499272273225
 31
0.0
  0
LINE
  5
F10422
330
261
100
AcDbEntity
  8
Geo
100
AcDbLine
 10
-33.02127981039976
 20
-3.205499272273225
 30
0.0
 11
-32.92127981039975
 21
-3.273128197025025
 31
0.0
  0
LINE
  5
F10424
330
261
100
AcDbEntity
  8
Geo
100
AcDbLine
 10
-32.92127981039975
 20
-3.273128197025025
 30
0.0
 11
-32.82127981039976
 21
-3.341946268420725
 31
0.0
  0
LINE
  5
F10426
330
261
100
AcDbEntity
  8
Geo
100
AcDbLine
 10
-32.82127981039976
 20
-3.341946268420725
 30
0.0
 11
-32.72127981039975
 21
-3.411886280653124
 31
0.0
  0
LINE
  5
F10428
330
261
100
AcDbEntity
  8
Geo
100
AcDbLine
 10
-32.72127981039975
 20
-3.411886280653124
 30
0.0
 11
-32.62127981039976
 21
-3.482879932258525
 31
0.0
  0
LINE
  5
F1042A
330
261
100
AcDbEntity
  8
Geo
100
AcDbLine
 10
-32.62127981039976
 20
-3.482879932258525
 30
0.0
 11
-32.52127981039976
 21
-3.554857892818924
 31
0.0
  0
LINE
  5
F1042C
330
261
100
AcDbEntity
  8
Geo
100
AcDbLine
 10
-32.52127981039976
 20
-3.554857892818924
 30
0.0
 11
-32.42127981039975
 21
-3.627749870667125
 31
0.0
  0
LINE
  5
F1042E
330
261
100
AcDbEntity
  8
Geo
100
AcDbLine
 10
-32.42127981039975
 20
-3.627749870667125
 30
0.0
 11
-32.32127981039976
 21
-3.701484681532726
 31
0.0
  0
LINE
  5
F10430
330
261
100
AcDbEntity
  8
Geo
100
AcDbLine
 10
-32.32127981039976
 20
-3.701484681532726
 30
0.0
 11
-32.22127981039975
 21
-3.775990318057624
 31
0.0
  0
LINE
  5
F10432
330
261
100
AcDbEntity
  8
Geo
100
AcDbLine
 10
-32.22127981039975
 20
-3.775990318057624
 30
0.0
 11
-32.12127981039976
 21
-3.851194020117326
 31
0.0
  0
LINE
  5
F10434
330
261
100
AcDbEntity
  8
Geo
100
AcDbLine
 10
-32.12127981039976
 20
-3.851194020117326
 30
0.0
 11
-32.02127981039976
 21
-3.927022345875624
 31
0.0
  0
LINE
  5
F10436
330
261
100
AcDbEntity
  8
Geo
100
AcDbLine
 10
-32.02127981039976
 20
-3.927022345875624
 30
0.0
 11
-31.92127981039976
 21
-4.003401243506544
 31
0.0
  0
LINE
  5
F10438
330
261
100
AcDbEntity
  8
Geo
100
AcDbLine
 10
-31.92127981039976
 20
-4.003401243506544
 30
0.0
 11
-31.82127981039976
 21
-4.080256123510906
 31
0.0
  0
LINE
  5
F1043A
330
261
100
AcDbEntity
  8
Geo
100
AcDbLine
 10
-31.82127981039976
 20
-4.080256123510906
 30
0.0
 11
-31.72127981039975
 21
-4.157511931558387
 31
0.0
  0
LINE
  5
F1043C
330
261
100
AcDbEntity
  8
Geo
100
AcDbLine
 10
-31.72127981039975
 20
-4.157511931558387
 30
0.0
 11
-31.62127981039976
 21
-4.235093221783555
 31
0.0
  0
LINE
  5
F1043E
330
261
100
AcDbEntity
  8
Geo
100
AcDbLine
 10
-31.62127981039976
 20
-4.235093221783555
 30
0.0
 11
-31.52127981039976
 21
-4.312924230464176
 31
0.0
  0
LINE
  5
F10440
330
261
100
AcDbEntity
  8
Geo
100
AcDbLine
 10
-31.52127981039976
 20
-4.312924230464176
 30
0.0
 11
-31.42127981039975
 21
-4.390928950009936
 31
0.0
  0
LINE
  5
F10442
330
261
100
AcDbEntity
  8
Geo
100
AcDbLine
 10
-31.42127981039975
 20
-4.390928950009936
 30
0.0
 11
-31.32127981039976
 21
-4.469031203189354
 31
0.0
  0
LINE
  5
F10444
330
261
100
AcDbEntity
  8
Geo
100
AcDbLine
 10
-31.32127981039976
 20
-4.469031203189354
 30
0.0
 11
-31.22127981039975
 21
-4.547154717522305
 31
0.0
  0
LINE
  5
F10446
330
261
100
AcDbEntity
  8
Geo
100
AcDbLine
 10
-31.22127981039975
 20
-4.547154717522305
 30
0.0
 11
-31.12127981039976
 21
-4.625223199765624
 31
0.0
  0
LINE
  5
F10448
330
261
100
AcDbEntity
  8
Geo
100
AcDbLine
 10
-31.12127981039976
 20
-4.625223199765624
 30
0.0
 11
-31.02127981039976
 21
-4.703160410418954
 31
0.0
  0
LINE
  5
F1044A
330
261
100
AcDbEntity
  8
Geo
100
AcDbLine
 10
-31.02127981039976
 20
-4.703160410418954
 30
0.0
 11
-30.92127981039975
 21
-4.780890238178095
 31
0.0
  0
LINE
  5
F1044C
330
261
100
AcDbEntity
  8
Geo
100
AcDbLine
 10
-30.92127981039975
 20
-4.780890238178095
 30
0.0
 11
-30.82127981039976
 21
-4.858336774263214
 31
0.0
  0
LINE
  5
F1044E
330
261
100
AcDbEntity
  8
Geo
100
AcDbLine
 10
-30.82127981039976
 20
-4.858336774263214
 30
0.0
 11
-30.72127981039975
 21
-4.935424386549195
 31
0.0
  0
LINE
  5
F10450
330
261
100
AcDbEntity
  8
Geo
100
AcDbLine
 10
-30.72127981039975
 20
-4.935424386549195
 30
0.0
 11
-30.62127981039976
 21
-5.012077793425886
 31
0.0
  0
LINE
  5
F10452
330
261
100
AcDbEntity
  8
Geo
100
AcDbLine
 10
-30.62127981039976
 20
-5.012077793425886
 30
0.0
 11
-30.52127981039976
 21
-5.088222137316034
 31
0.0
  0
LINE
  5
F10454
330
261
100
AcDbEntity
  8
Geo
100
AcDbLine
 10
-30.52127981039976
 20
-5.088222137316034
 30
0.0
 11
-30.42127981039975
 21
-5.163783057779085
 31
0.0
  0
LINE
  5
F10456
330
261
100
AcDbEntity
  8
Geo
100
AcDbLine
 10
-30.42127981039975
 20
-5.163783057779085
 30
0.0
 11
-30.32127981039976
 21
-5.238686764129484
 31
0.0
  0
LINE
  5
F10458
330
261
100
AcDbEntity
  8
Geo
100
AcDbLine
 10
-30.32127981039976
 20
-5.238686764129484
 30
0.0
 11
-30.22127981039975
 21
-5.312860107498684
 31
0.0
  0
LINE
  5
F1045A
330
261
100
AcDbEntity
  8
Geo
100
AcDbLine
 10
-30.22127981039975
 20
-5.312860107498684
 30
0.0
 11
-30.12127981039976
 21
-5.386230652270194
 31
0.0
  0
LINE
  5
F1045C
330
261
100
AcDbEntity
  8
Geo
100
AcDbLine
 10
-30.12127981039976
 20
-5.386230652270194
 30
0.0
 11
-30.02127981039976
 21
-5.458726746818244
 31
0.0
  0
LINE
  5
F1045E
330
261
100
AcDbEntity
  8
Geo
100
AcDbLine
 10
-30.02127981039976
 20
-5.458726746818244
 30
0.0
 11
-29.92127981039975
 21
-5.530277593480715
 31
0.0
  0
LINE
  5
F10460
330
261
100
AcDbEntity
  8
Geo
100
AcDbLine
 10
-29.92127981039975
 20
-5.530277593480715
 30
0.0
 11
-29.82127981039976
 21
-5.600813317698255
 31
0.0
  0
LINE
  5
F10462
330
261
100
AcDbEntity
  8
Geo
100
AcDbLine
 10
-29.82127981039976
 20
-5.600813317698255
 30
0.0
 11
-29.72127981039975
 21
-5.561942898423394
 31
0.0
  0
LINE
  5
F10464
330
261
100
AcDbEntity
  8
Geo
100
AcDbLine
 10
-29.72127981039975
 20
-5.561942898423394
 30
0.0
 11
-29.62127981039976
 21
-5.636752061906655
 31
0.0
  0
LINE
  5
F10466
330
261
100
AcDbEntity
  8
Geo
100
AcDbLine
 10
-29.62127981039976
 20
-5.636752061906655
 30
0.0
 11
-29.52127981039976
 21
-5.713862825829906
 31
0.0
  0
LINE
  5
F10468
330
261
100
AcDbEntity
  8
Geo
100
AcDbLine
 10
-29.52127981039976
 20
-5.713862825829906
 30
0.0
 11
-29.42127981039975
 21
-5.792848182999925
 31
0.0
  0
LINE
  5
F1046A
330
261
100
AcDbEntity
  8
Geo
100
AcDbLine
 10
-29.42127981039975
 20
-5.792848182999925
 30
0.0
 11
-29.32127981039976
 21
-5.873227749509524
 31
0.0
  0
LINE
  5
F1046C
330
261
100
AcDbEntity
  8
Geo
100
AcDbLine
 10
-29.32127981039976
 20
-5.873227749509524
 30
0.0
 11
-29.22127981039975
 21
-5.954464827798906
 31
0.0
  0
LINE
  5
F1046E
330
261
100
AcDbEntity
  8
Geo
100
AcDbLine
 10
-29.22127981039975
 20
-5.954464827798906
 30
0.0
 11
-29.12127981039976
 21
-6.035963904115246
 31
0.0
  0
LINE
  5
F10470
330
261
100
AcDbEntity
  8
Geo
100
AcDbLine
 10
-29.12127981039976
 20
-6.035963904115246
 30
0.0
 11
-29.02127981039976
 21
-6.117068701647475
 31
0.0
  0
LINE
  5
F10472
330
261
100
AcDbEntity
  8
Geo
100
AcDbLine
 10
-29.02127981039976
 20
-6.117068701647475
 30
0.0
 11
-28.92127981039975
 21
-6.197060921281785
 31
0.0
  0
LINE
  5
F10474
330
261
100
AcDbEntity
  8
Geo
100
AcDbLine
 10
-28.92127981039975
 20
-6.197060921281785
 30
0.0
 11
-28.82127981039976
 21
-6.275159811791125
 31
0.0
  0
LINE
  5
F10476
330
261
100
AcDbEntity
  8
Geo
100
AcDbLine
 10
-28.82127981039976
 20
-6.275159811791125
 30
0.0
 11
-28.72127981039975
 21
-6.350522719889944
 31
0.0
  0
LINE
  5
F10478
330
261
100
AcDbEntity
  8
Geo
100
AcDbLine
 10
-28.72127981039975
 20
-6.350522719889944
 30
0.0
 11
-28.62127981039975
 21
-6.422246777442175
 31
0.0
  0
LINE
  5
F1047A
330
261
100
AcDbEntity
  8
Geo
100
AcDbLine
 10
-28.62127981039975
 20
-6.422246777442175
 30
0.0
 11
-28.52127981039976
 21
-6.489371887626435
 31
0.0
  0
LINE
  5
F1047C
330
261
100
AcDbEntity
  8
Geo
100
AcDbLine
 10
-28.52127981039976
 20
-6.489371887626435
 30
0.0
 11
-28.42127981039975
 21
-6.550885173402246
 31
0.0
  0
LINE
  5
F1047E
330
261
100
AcDbEntity
  8
Geo
100
AcDbLine
 10
-28.42127981039975
 20
-6.550885173402246
 30
0.0
 11
-28.32127981039976
 21
-6.605727049490395
 31
0.0
  0
LINE
  5
F10480
330
261
100
AcDbEntity
  8
Geo
100
AcDbLine
 10
-28.32127981039976
 20
-6.605727049490395
 30
0.0
 11
-28.22127981039975
 21
-6.652799072544104
 31
0.0
  0
LINE
  5
F10482
330
261
100
AcDbEntity
  8
Geo
100
AcDbLine
 10
-28.22127981039975
 20
-6.652799072544104
 30
0.0
 11
-28.12127981039976
 21
-6.690973712477894
 31
0.0
  0
LINE
  5
F10484
330
261
100
AcDbEntity
  8
Geo
100
AcDbLine
 10
-28.12127981039976
 20
-6.690973712477894
 30
0.0
 11
-28.02127981039976
 21
-6.719106170258285
 31
0.0
  0
LINE
  5
F10486
330
261
100
AcDbEntity
  8
Geo
100
AcDbLine
 10
-28.02127981039976
 20
-6.719106170258285
 30
0.0
 11
-27.92127981039975
 21
-6.736048343078175
 31
0.0
  0
LINE
  5
F10488
330
261
100
AcDbEntity
  8
Geo
100
AcDbLine
 10
-27.92127981039975
 20
-6.736048343078175
 30
0.0
 11
-27.82127981039976
 21
-6.740802410757015
 31
0.0
  0
LINE
  5
F1048A
330
261
100
AcDbEntity
  8
Geo
100
AcDbLine
 10
-40.32127981039976
 20
-1.990823551926824
 30
0.0
 11
-40.22127981039976
 21
-1.991723003315925
 31
0.0
  0
LINE
  5
F1048C
330
261
100
AcDbEntity
  8
Geo
100
AcDbLine
 10
-40.22127981039976
 20
-1.991723003315925
 30
0.0
 11
-40.12127981039976
 21
-1.995062985888925
 31
0.0
  0
LINE
  5
F1048E
330
261
100
AcDbEntity
  8
Geo
100
AcDbLine
 10
-40.12127981039976
 20
-1.995062985888925
 30
0.0
 11
-40.02127981039976
 21
-2.000840237911925
 31
0.0
  0
LINE
  5
F10490
330
261
100
AcDbEntity
  8
Geo
100
AcDbLine
 10
-40.02127981039976
 20
-2.000840237911925
 30
0.0
 11
-39.92127981039977
 21
-2.009049117482025
 31
0.0
  0
LINE
  5
F10492
330
261
100
AcDbEntity
  8
Geo
100
AcDbLine
 10
-39.92127981039977
 20
-2.009049117482025
 30
0.0
 11
-39.82127981039976
 21
-2.019681608036524
 31
0.0
  0
LINE
  5
F10494
330
261
100
AcDbEntity
  8
Geo
100
AcDbLine
 10
-39.82127981039976
 20
-2.019681608036524
 30
0.0
 11
-39.72127981039977
 21
-2.032727326181927
 31
0.0
  0
LINE
  5
F10496
330
261
100
AcDbEntity
  8
Geo
100
AcDbLine
 10
-39.72127981039977
 20
-2.032727326181927
 30
0.0
 11
-39.62127981039977
 21
-2.048173531834224
 31
0.0
  0
LINE
  5
F10498
330
261
100
AcDbEntity
  8
Geo
100
AcDbLine
 10
-39.62127981039977
 20
-2.048173531834224
 30
0.0
 11
-39.52127981039976
 21
-2.066005140660026
 31
0.0
  0
LINE
  5
F1049A
330
261
100
AcDbEntity
  8
Geo
100
AcDbLine
 10
-39.52127981039976
 20
-2.066005140660026
 30
0.0
 11
-39.42127981039977
 21
-2.086204738808124
 31
0.0
  0
LINE
  5
F1049C
330
261
100
AcDbEntity
  8
Geo
100
AcDbLine
 10
-39.42127981039977
 20
-2.086204738808124
 30
0.0
 11
-39.32127981039976
 21
-2.108752599914726
 31
0.0
  0
LINE
  5
F1049E
330
261
100
AcDbEntity
  8
Geo
100
AcDbLine
 10
-39.32127981039976
 20
-2.108752599914726
 30
0.0
 11
-39.22127981039976
 21
-2.133626704368124
 31
0.0
  0
LINE
  5
F104A0
330
261
100
AcDbEntity
  8
Geo
100
AcDbLine
 10
-39.22127981039976
 20
-2.133626704368124
 30
0.0
 11
-39.12127981039977
 21
-2.160802760812325
 31
0.0
  0
LINE
  5
F104A2
330
261
100
AcDbEntity
  8
Geo
100
AcDbLine
 10
-39.12127981039977
 20
-2.160802760812325
 30
0.0
 11
-39.02127981039976
 21
-2.190254229869324
 31
0.0
  0
LINE
  5
F104A4
330
261
100
AcDbEntity
  8
Geo
100
AcDbLine
 10
-39.02127981039976
 20
-2.190254229869324
 30
0.0
 11
-38.92127981039977
 21
-2.221952350056623
 31
0.0
  0
LINE
  5
F104A6
330
261
100
AcDbEntity
  8
Geo
100
AcDbLine
 10
-38.92127981039977
 20
-2.221952350056623
 30
0.0
 11
-38.82127981039976
 21
-2.255866165874923
 31
0.0
  0
LINE
  5
F104A8
330
261
100
AcDbEntity
  8
Geo
100
AcDbLine
 10
-38.82127981039976
 20
-2.255866165874923
 30
0.0
 11
-38.72127981039977
 21
-2.291962558038425
 31
0.0
  0
LINE
  5
F104AA
330
261
100
AcDbEntity
  8
Geo
100
AcDbLine
 10
-38.72127981039977
 20
-2.291962558038425
 30
0.0
 11
-38.62127981039977
 21
-2.330206275818225
 31
0.0
  0
LINE
  5
F104AC
330
261
100
AcDbEntity
  8
Geo
100
AcDbLine
 10
-38.62127981039977
 20
-2.330206275818225
 30
0.0
 11
-38.52127981039976
 21
-2.370559971467125
 31
0.0
  0
LINE
  5
F104AE
330
261
100
AcDbEntity
  8
Geo
100
AcDbLine
 10
-38.52127981039976
 20
-2.370559971467125
 30
0.0
 11
-38.42127981039977
 21
-2.412984236692624
 31
0.0
  0
LINE
  5
F104B0
330
261
100
AcDbEntity
  8
Geo
100
AcDbLine
 10
-38.42127981039977
 20
-2.412984236692624
 30
0.0
 11
-38.32127981039976
 21
-2.457437641141524
 31
0.0
  0
LINE
  5
F104B2
330
261
100
AcDbEntity
  8
Geo
100
AcDbLine
 10
-38.32127981039976
 20
-2.457437641141524
 30
0.0
 11
-38.22127981039976
 21
-2.503876772860124
 31
0.0
  0
LINE
  5
F104B4
330
261
100
AcDbEntity
  8
Geo
100
AcDbLine
 10
-38.22127981039976
 20
-2.503876772860124
 30
0.0
 11
-38.12127981039977
 21
-2.552256280688727
 31
0.0
  0
LINE
  5
F104B6
330
261
100
AcDbEntity
  8
Geo
100
AcDbLine
 10
-38.12127981039977
 20
-2.552256280688727
 30
0.0
 11
-38.02127981039976
 21
-2.602528918550524
 31
0.0
  0
LINE
  5
F104B8
330
261
100
AcDbEntity
  8
Geo
100
AcDbLine
 10
-38.02127981039976
 20
-2.602528918550524
 30
0.0
 11
-37.92127981039977
 21
-2.654645591590925
 31
0.0
  0
LINE
  5
F104BA
330
261
100
AcDbEntity
  8
Geo
100
AcDbLine
 10
-37.92127981039977
 20
-2.654645591590925
 30
0.0
 11
-37.82127981039976
 21
-2.708555404121925
 31
0.0
  0
LINE
  5
F104BC
330
261
100
AcDbEntity
  8
Geo
100
AcDbLine
 10
-37.82127981039976
 20
-2.708555404121925
 30
0.0
 11
-37.72127981039977
 21
-2.764205709325525
 31
0.0
  0
LINE
  5
F104BE
330
261
100
AcDbEntity
  8
Geo
100
AcDbLine
 10
-37.72127981039977
 20
-2.764205709325525
 30
0.0
 11
-37.62127981039977
 21
-2.821542160667226
 31
0.0
  0
LINE
  5
F104C0
330
261
100
AcDbEntity
  8
Geo
100
AcDbLine
 10
-37.62127981039977
 20
-2.821542160667226
 30
0.0
 11
-37.52127981039976
 21
-2.880508764969324
 31
0.0
  0
LINE
  5
F104C2
330
261
100
AcDbEntity
  8
Geo
100
AcDbLine
 10
-37.52127981039976
 20
-2.880508764969324
 30
0.0
 11
-37.42127981039975
 21
-2.941047937092225
 31
0.0
  0
LINE
  5
F104C4
330
261
100
AcDbEntity
  8
Geo
100
AcDbLine
 10
-37.42127981039975
 20
-2.941047937092225
 30
0.0
 11
-37.32127981039976
 21
-3.003100556170325
 31
0.0
  0
LINE
  5
F104C6
330
261
100
AcDbEntity
  8
Geo
100
AcDbLine
 10
-37.32127981039976
 20
-3.003100556170325
 30
0.0
 11
-37.22127981039975
 21
-3.066606023348326
 31
0.0
  0
LINE
  5
F104C8
330
261
100
AcDbEntity
  8
Geo
100
AcDbLine
 10
-37.22127981039975
 20
-3.066606023348326
 30
0.0
 11
-37.12127981039976
 21
-3.131502320959725
 31
0.0
  0
LINE
  5
F104CA
330
261
100
AcDbEntity
  8
Geo
100
AcDbLine
 10
-37.12127981039976
 20
-3.131502320959725
 30
0.0
 11
-37.02127981039976
 21
-3.197726073091926
 31
0.0
  0
LINE
  5
F104CC
330
261
100
AcDbEntity
  8
Geo
100
AcDbLine
 10
-37.02127981039976
 20
-3.197726073091926
 30
0.0
 11
-36.92127981039976
 21
-3.265212607477327
 31
0.0
  0
LINE
  5
F104CE
330
261
100
AcDbEntity
  8
Geo
100
AcDbLine
 10
-36.92127981039976
 20
-3.265212607477327
 30
0.0
 11
-36.82127981039976
 21
-3.333896018650525
 31
0.0
  0
LINE
  5
F104D0
330
261
100
AcDbEntity
  8
Geo
100
AcDbLine
 10
-36.82127981039976
 20
-3.333896018650525
 30
0.0
 11
-36.72127981039975
 21
-3.403709232309525
 31
0.0
  0
LINE
  5
F104D2
330
261
100
AcDbEntity
  8
Geo
100
AcDbLine
 10
-36.72127981039975
 20
-3.403709232309525
 30
0.0
 11
-36.62127981039976
 21
-3.474584070818726
 31
0.0
  0
LINE
  5
F104D4
330
261
100
AcDbEntity
  8
Geo
100
AcDbLine
 10
-36.62127981039976
 20
-3.474584070818726
 30
0.0
 11
-36.52127981039976
 21
-3.546451319789525
 31
0.0
  0
LINE
  5
F104D6
330
261
100
AcDbEntity
  8
Geo
100
AcDbLine
 10
-36.52127981039976
 20
-3.546451319789525
 30
0.0
 11
-36.42127981039975
 21
-3.619240795672826
 31
0.0
  0
LINE
  5
F104D8
330
261
100
AcDbEntity
  8
Geo
100
AcDbLine
 10
-36.42127981039975
 20
-3.619240795672826
 30
0.0
 11
-36.32127981039976
 21
-3.692881414298426
 31
0.0
  0
LINE
  5
F104DA
330
261
100
AcDbEntity
  8
Geo
100
AcDbLine
 10
-36.32127981039976
 20
-3.692881414298426
 30
0.0
 11
-36.22127981039975
 21
-3.767301260294125
 31
0.0
  0
LINE
  5
F104DC
330
261
100
AcDbEntity
  8
Geo
100
AcDbLine
 10
-36.22127981039975
 20
-3.767301260294125
 30
0.0
 11
-36.12127981039976
 21
-3.842427657315726
 31
0.0
  0
LINE
  5
F104DE
330
261
100
AcDbEntity
  8
Geo
100
AcDbLine
 10
-36.12127981039976
 20
-3.842427657315726
 30
0.0
 11
-36.02127981039976
 21
-3.918187239021124
 31
0.0
  0
LINE
  5
F104E0
330
261
100
AcDbEntity
  8
Geo
100
AcDbLine
 10
-36.02127981039976
 20
-3.918187239021124
 30
0.0
 11
-35.92127981039975
 21
-3.994506020717944
 31
0.0
  0
LINE
  5
F104E2
330
261
100
AcDbEntity
  8
Geo
100
AcDbLine
 10
-35.92127981039975
 20
-3.994506020717944
 30
0.0
 11
-35.82127981039976
 21
-4.071309471614405
 31
0.0
  0
LINE
  5
F104E4
330
261
100
AcDbEntity
  8
Geo
100
AcDbLine
 10
-35.82127981039976
 20
-4.071309471614405
 30
0.0
 11
-35.72127981039975
 21
-4.148522587604464
 31
0.0
  0
LINE
  5
F104E6
330
261
100
AcDbEntity
  8
Geo
100
AcDbLine
 10
-35.72127981039975
 20
-4.148522587604464
 30
0.0
 11
-35.62127981039976
 21
-4.226069964514566
 31
0.0
  0
LINE
  5
F104E8
330
261
100
AcDbEntity
  8
Geo
100
AcDbLine
 10
-35.62127981039976
 20
-4.226069964514566
 30
0.0
 11
-35.52127981039976
 21
-4.303875871741276
 31
0.0
  0
LINE
  5
F104EA
330
261
100
AcDbEntity
  8
Geo
100
AcDbLine
 10
-35.52127981039976
 20
-4.303875871741276
 30
0.0
 11
-35.42127981039975
 21
-4.381864326207654
 31
0.0
  0
LINE
  5
F104EC
330
261
100
AcDbEntity
  8
Geo
100
AcDbLine
 10
-35.42127981039975
 20
-4.381864326207654
 30
0.0
 11
-35.32127981039976
 21
-4.459959166566235
 31
0.0
  0
LINE
  5
F104EE
330
261
100
AcDbEntity
  8
Geo
100
AcDbLine
 10
-35.32127981039976
 20
-4.459959166566235
 30
0.0
 11
-35.22127981039975
 21
-4.538084127576066
 31
0.0
  0
LINE
  5
F104F0
330
261
100
AcDbEntity
  8
Geo
100
AcDbLine
 10
-35.22127981039975
 20
-4.538084127576066
 30
0.0
 11
-35.12127981039976
 21
-4.616162914581185
 31
0.0
  0
LINE
  5
F104F2
330
261
100
AcDbEntity
  8
Geo
100
AcDbLine
 10
-35.12127981039976
 20
-4.616162914581185
 30
0.0
 11
-35.02127981039976
 21
-4.694119278017895
 31
0.0
  0
LINE
  5
F104F4
330
261
100
AcDbEntity
  8
Geo
100
AcDbLine
 10
-35.02127981039976
 20
-4.694119278017895
 30
0.0
 11
-34.92127981039975
 21
-4.771877087877925
 31
0.0
  0
LINE
  5
F104F6
330
261
100
AcDbEntity
  8
Geo
100
AcDbLine
 10
-34.92127981039975
 20
-4.771877087877925
 30
0.0
 11
-34.82127981039976
 21
-4.849360408054886
 31
0.0
  0
LINE
  5
F104F8
330
261
100
AcDbEntity
  8
Geo
100
AcDbLine
 10
-34.82127981039976
 20
-4.849360408054886
 30
0.0
 11
-34.72127981039975
 21
-4.926493570501365
 31
0.0
  0
LINE
  5
F104FA
330
261
100
AcDbEntity
  8
Geo
100
AcDbLine
 10
-34.72127981039975
 20
-4.926493570501365
 30
0.0
 11
-34.62127981039976
 21
-5.003201249124204
 31
0.0
  0
LINE
  5
F104FC
330
261
100
AcDbEntity
  8
Geo
100
AcDbLine
 10
-34.62127981039976
 20
-5.003201249124204
 30
0.0
 11
-34.52127981039976
 21
-5.079408533345855
 31
0.0
  0
LINE
  5
F104FE
330
261
100
AcDbEntity
  8
Geo
100
AcDbLine
 10
-34.52127981039976
 20
-5.079408533345855
 30
0.0
 11
-34.42127981039976
 21
-5.155041001259995
 31
0.0
  0
LINE
  5
F10500
330
261
100
AcDbEntity
  8
Geo
100
AcDbLine
 10
-34.42127981039976
 20
-5.155041001259995
 30
0.0
 11
-34.32127981039976
 21
-5.230024792309846
 31
0.0
  0
LINE
  5
F10502
330
261
100
AcDbEntity
  8
Geo
100
AcDbLine
 10
-34.32127981039976
 20
-5.230024792309846
 30
0.0
 11
-34.22127981039975
 21
-5.304286679418355
 31
0.0
  0
LINE
  5
F10504
330
261
100
AcDbEntity
  8
Geo
100
AcDbLine
 10
-34.22127981039975
 20
-5.304286679418355
 30
0.0
 11
-34.12127981039976
 21
-5.377754140499694
 31
0.0
  0
LINE
  5
F10506
330
261
100
AcDbEntity
  8
Geo
100
AcDbLine
 10
-34.12127981039976
 20
-5.377754140499694
 30
0.0
 11
-34.02127981039976
 21
-5.450355429282344
 31
0.0
  0
LINE
  5
F10508
330
261
100
AcDbEntity
  8
Geo
100
AcDbLine
 10
-34.02127981039976
 20
-5.450355429282344
 30
0.0
 11
-33.92127981039975
 21
-5.522019645374426
 31
0.0
  0
LINE
  5
F1050A
330
261
100
AcDbEntity
  8
Geo
100
AcDbLine
 10
-33.92127981039975
 20
-5.522019645374426
 30
0.0
 11
-33.82127981039976
 21
-5.592676803503126
 31
0.0
  0
LINE
  5
F1050C
330
261
100
AcDbEntity
  8
Geo
100
AcDbLine
 10
-33.82127981039976
 20
-5.592676803503126
 30
0.0
 11
-33.72127981039975
 21
-5.662257901860316
 31
0.0
  0
LINE
  5
F1050E
330
261
100
AcDbEntity
  8
Geo
100
AcDbLine
 10
-33.72127981039975
 20
-5.662257901860316
 30
0.0
 11
-33.62127981039976
 21
-5.730694989487805
 31
0.0
  0
LINE
  5
F10510
330
261
100
AcDbEntity
  8
Geo
100
AcDbLine
 10
-33.62127981039976
 20
-5.730694989487805
 30
0.0
 11
-33.52127981039976
 21
-5.797921232636326
 31
0.0
  0
LINE
  5
F10512
330
261
100
AcDbEntity
  8
Geo
100
AcDbLine
 10
-33.52127981039976
 20
-5.797921232636326
 30
0.0
 11
-33.42127981039975
 21
-5.863870980033556
 31
0.0
  0
LINE
  5
F10514
330
261
100
AcDbEntity
  8
Geo
100
AcDbLine
 10
-33.42127981039975
 20
-5.863870980033556
 30
0.0
 11
-33.32127981039976
 21
-5.928479826997245
 31
0.0
  0
LINE
  5
F10516
330
261
100
AcDbEntity
  8
Geo
100
AcDbLine
 10
-33.32127981039976
 20
-5.928479826997245
 30
0.0
 11
-33.22127981039975
 21
-5.991684678331125
 31
0.0
  0
LINE
  5
F10518
330
261
100
AcDbEntity
  8
Geo
100
AcDbLine
 10
-33.22127981039975
 20
-5.991684678331125
 30
0.0
 11
-33.12127981039976
 21
-6.053423809941826
 31
0.0
  0
LINE
  5
F1051A
330
261
100
AcDbEntity
  8
Geo
100
AcDbLine
 10
-33.12127981039976
 20
-6.053423809941826
 30
0.0
 11
-33.02127981039976
 21
-6.113636929116965
 31
0.0
  0
LINE
  5
F1051C
330
261
100
AcDbEntity
  8
Geo
100
AcDbLine
 10
-33.02127981039976
 20
-6.113636929116965
 30
0.0
 11
-32.92127981039975
 21
-6.172265233405285
 31
0.0
  0
LINE
  5
F1051E
330
261
100
AcDbEntity
  8
Geo
100
AcDbLine
 10
-32.92127981039975
 20
-6.172265233405285
 30
0.0
 11
-32.82127981039976
 21
-6.229251468041505
 31
0.0
  0
LINE
  5
F10520
330
261
100
AcDbEntity
  8
Geo
100
AcDbLine
 10
-32.82127981039976
 20
-6.229251468041505
 30
0.0
 11
-32.72127981039975
 21
-6.284539981859755
 31
0.0
  0
LINE
  5
F10522
330
261
100
AcDbEntity
  8
Geo
100
AcDbLine
 10
-32.72127981039975
 20
-6.284539981859755
 30
0.0
 11
-32.62127981039976
 21
-6.338076781640895
 31
0.0
  0
LINE
  5
F10524
330
261
100
AcDbEntity
  8
Geo
100
AcDbLine
 10
-32.62127981039976
 20
-6.338076781640895
 30
0.0
 11
-32.52127981039976
 21
-6.389809584840814
 31
0.0
  0
LINE
  5
F10526
330
261
100
AcDbEntity
  8
Geo
100
AcDbLine
 10
-32.52127981039976
 20
-6.389809584840814
 30
0.0
 11
-32.42127981039975
 21
-6.439687870648095
 31
0.0
  0
LINE
  5
F10528
330
261
100
AcDbEntity
  8
Geo
100
AcDbLine
 10
-32.42127981039975
 20
-6.439687870648095
 30
0.0
 11
-32.32127981039976
 21
-6.487662929321255
 31
0.0
  0
LINE
  5
F1052A
330
261
100
AcDbEntity
  8
Geo
100
AcDbLine
 10
-32.32127981039976
 20
-6.487662929321255
 30
0.0
 11
-32.22127981039975
 21
-6.533687909757285
 31
0.0
  0
LINE
  5
F1052C
330
261
100
AcDbEntity
  8
Geo
100
AcDbLine
 10
-32.22127981039975
 20
-6.533687909757285
 30
0.0
 11
-32.12127981039976
 21
-6.577717865245145
 31
0.0
  0
LINE
  5
F1052E
330
261
100
AcDbEntity
  8
Geo
100
AcDbLine
 10
-32.12127981039976
 20
-6.577717865245145
 30
0.0
 11
-32.02127981039976
 21
-6.619709797359475
 31
0.0
  0
LINE
  5
F10530
330
261
100
AcDbEntity
  8
Geo
100
AcDbLine
 10
-32.02127981039976
 20
-6.619709797359475
 30
0.0
 11
-31.92127981039976
 21
-6.659622697951635
 31
0.0
  0
LINE
  5
F10532
330
261
100
AcDbEntity
  8
Geo
100
AcDbLine
 10
-31.92127981039976
 20
-6.659622697951635
 30
0.0
 11
-31.82127981039976
 21
-6.697417589197125
 31
0.0
  0
LINE
  5
F10534
330
261
100
AcDbEntity
  8
Geo
100
AcDbLine
 10
-31.82127981039976
 20
-6.697417589197125
 30
0.0
 11
-31.72127981039975
 21
-6.733057561660256
 31
0.0
  0
LINE
  5
F10536
330
261
100
AcDbEntity
  8
Geo
100
AcDbLine
 10
-31.72127981039975
 20
-6.733057561660256
 30
0.0
 11
-31.62127981039976
 21
-6.766507810338875
 31
0.0
  0
LINE
  5
F10538
330
261
100
AcDbEntity
  8
Geo
100
AcDbLine
 10
-31.62127981039976
 20
-6.766507810338875
 30
0.0
 11
-31.52127981039976
 21
-6.797735668653925
 31
0.0
  0
LINE
  5
F1053A
330
261
100
AcDbEntity
  8
Geo
100
AcDbLine
 10
-31.52127981039976
 20
-6.797735668653925
 30
0.0
 11
-31.42127981039975
 21
-6.826710640350754
 31
0.0
  0
LINE
  5
F1053C
330
261
100
AcDbEntity
  8
Geo
100
AcDbLine
 10
-31.42127981039975
 20
-6.826710640350754
 30
0.0
 11
-31.32127981039976
 21
-6.853404429280876
 31
0.0
  0
LINE
  5
F1053E
330
261
100
AcDbEntity
  8
Geo
100
AcDbLine
 10
-31.32127981039976
 20
-6.853404429280876
 30
0.0
 11
-31.22127981039975
 21
-6.877790967035215
 31
0.0
  0
LINE
  5
F10540
330
261
100
AcDbEntity
  8
Geo
100
AcDbLine
 10
-31.22127981039975
 20
-6.877790967035215
 30
0.0
 11
-31.12127981039976
 21
-6.899846438401804
 31
0.0
  0
LINE
  5
F10542
330
261
100
AcDbEntity
  8
Geo
100
AcDbLine
 10
-31.12127981039976
 20
-6.899846438401804
 30
0.0
 11
-31.02127981039976
 21
-6.919549304622996
 31
0.0
  0
LINE
  5
F10544
330
261
100
AcDbEntity
  8
Geo
100
AcDbLine
 10
-31.02127981039976
 20
-6.919549304622996
 30
0.0
 11
-30.92127981039975
 21
-6.936880324429686
 31
0.0
  0
LINE
  5
F10546
330
261
100
AcDbEntity
  8
Geo
100
AcDbLine
 10
-30.92127981039975
 20
-6.936880324429686
 30
0.0
 11
-30.82127981039976
 21
-6.951822572831746
 31
0.0
  0
LINE
  5
F10548
330
261
100
AcDbEntity
  8
Geo
100
AcDbLine
 10
-30.82127981039976
 20
-6.951822572831746
 30
0.0
 11
-30.72127981039975
 21
-6.964361457646524
 31
0.0
  0
LINE
  5
F1054A
330
261
100
AcDbEntity
  8
Geo
100
AcDbLine
 10
-30.72127981039975
 20
-6.964361457646524
 30
0.0
 11
-30.62127981039976
 21
-6.974484733749156
 31
0.0
  0
LINE
  5
F1054C
330
261
100
AcDbEntity
  8
Geo
100
AcDbLine
 10
-30.62127981039976
 20
-6.974484733749156
 30
0.0
 11
-30.52127981039976
 21
-6.982182515030794
 31
0.0
  0
LINE
  5
F1054E
330
261
100
AcDbEntity
  8
Geo
100
AcDbLine
 10
-30.52127981039976
 20
-6.982182515030794
 30
0.0
 11
-30.42127981039975
 21
-6.987447284053145
 31
0.0
  0
LINE
  5
F10550
330
261
100
AcDbEntity
  8
Geo
100
AcDbLine
 10
-30.42127981039975
 20
-6.987447284053145
 30
0.0
 11
-30.32127981039976
 21
-6.990273899389755
 31
0.0
  0
LINE
  5
F10552
330
261
100
AcDbEntity
  8
Geo
100
AcDbLine
 10
-42.82127981039976
 20
-3.716845454478326
 30
0.0
 11
-42.72127981039976
 21
-3.458198438648926
 31
0.0
  0
LINE
  5
F10554
330
261
100
AcDbEntity
  8
Geo
100
AcDbLine
 10
-42.82127981039976
 20
-5.752214335259704
 30
0.0
 11
-42.72127981039976
 21
-6.093482694914145
 31
0.0
  0
LINE
  5
F10556
330
261
100
AcDbEntity
  8
Geo
100
AcDbLine
 10
-42.72127981039976
 20
-3.458198438648926
 30
0.0
 11
-42.62127981039976
 21
-3.400212080443026
 31
0.0
  0
LINE
  5
F10558
330
261
100
AcDbEntity
  8
Geo
100
AcDbLine
 10
-42.72127981039976
 20
-6.093482694914145
 30
0.0
 11
-42.62127981039976
 21
-6.248030315798126
 31
0.0
  0
LINE
  5
F1055A
330
261
100
AcDbEntity
  8
Geo
100
AcDbLine
 10
-42.62127981039976
 20
-3.400212080443026
 30
0.0
 11
-42.52127981039976
 21
-3.382850757715825
 31
0.0
  0
LINE
  5
F1055C
330
261
100
AcDbEntity
  8
Geo
100
AcDbLine
 10
-42.62127981039976
 20
-6.248030315798126
 30
0.0
 11
-42.52127981039976
 21
-6.369161895588645
 31
0.0
  0
LINE
  5
F1055E
330
261
100
AcDbEntity
  8
Geo
100
AcDbLine
 10
-42.52127981039976
 20
-3.382850757715825
 30
0.0
 11
-42.42127981039977
 21
-3.389416525797425
 31
0.0
  0
LINE
  5
F10560
330
261
100
AcDbEntity
  8
Geo
100
AcDbLine
 10
-42.52127981039976
 20
-6.369161895588645
 30
0.0
 11
-42.42127981039977
 21
-6.470669973592475
 31
0.0
  0
LINE
  5
F10562
330
261
100
AcDbEntity
  8
Geo
100
AcDbLine
 10
-42.42127981039977
 20
-3.389416525797425
 30
0.0
 11
-42.32127981039975
 21
-3.412965248633225
 31
0.0
  0
LINE
  5
F10564
330
261
100
AcDbEntity
  8
Geo
100
AcDbLine
 10
-42.42127981039977
 20
-6.470669973592475
 30
0.0
 11
-42.32127981039975
 21
-6.557501243079165
 31
0.0
  0
LINE
  5
F10566
330
261
100
AcDbEntity
  8
Geo
100
AcDbLine
 10
-42.32127981039975
 20
-3.412965248633225
 30
0.0
 11
-42.22127981039976
 21
-3.449647668794025
 31
0.0
  0
LINE
  5
F10568
330
261
100
AcDbEntity
  8
Geo
100
AcDbLine
 10
-42.32127981039975
 20
-6.557501243079165
 30
0.0
 11
-42.22127981039976
 21
-6.631901615634806
 31
0.0
  0
LINE
  5
F1056A
330
261
100
AcDbEntity
  8
Geo
100
AcDbLine
 10
-42.22127981039976
 20
-3.449647668794025
 30
0.0
 11
-42.12127981039976
 21
-3.496968372564225
 31
0.0
  0
LINE
  5
F1056C
330
261
100
AcDbEntity
  8
Geo
100
AcDbLine
 10
-42.22127981039976
 20
-6.631901615634806
 30
0.0
 11
-42.12127981039976
 21
-6.694963489144496
 31
0.0
  0
LINE
  5
F1056E
330
261
100
AcDbEntity
  8
Geo
100
AcDbLine
 10
-42.12127981039976
 20
-3.496968372564225
 30
0.0
 11
-42.02127981039976
 21
-3.553134204022024
 31
0.0
  0
LINE
  5
F10570
330
261
100
AcDbEntity
  8
Geo
100
AcDbLine
 10
-42.12127981039976
 20
-6.694963489144496
 30
0.0
 11
-42.02127981039976
 21
-6.747179506557795
 31
0.0
  0
LINE
  5
F10572
330
261
100
AcDbEntity
  8
Geo
100
AcDbLine
 10
-42.02127981039976
 20
-3.553134204022024
 30
0.0
 11
-41.92127981039976
 21
-3.616757295064227
 31
0.0
  0
LINE
  5
F10574
330
261
100
AcDbEntity
  8
Geo
100
AcDbLine
 10
-42.02127981039976
 20
-6.747179506557795
 30
0.0
 11
-41.92127981039976
 21
-6.788678045299636
 31
0.0
  0
LINE
  5
F10576
330
261
100
AcDbEntity
  8
Geo
100
AcDbLine
 10
-41.92127981039976
 20
-3.616757295064227
 30
0.0
 11
-41.82127981039975
 21
-3.686701278798125
 31
0.0
  0
LINE
  5
F10578
330
261
100
AcDbEntity
  8
Geo
100
AcDbLine
 10
-41.92127981039976
 20
-6.788678045299636
 30
0.0
 11
-41.82127981039975
 21
-6.819329210831535
 31
0.0
  0
LINE
  5
F1057A
330
261
100
AcDbEntity
  8
Geo
100
AcDbLine
 10
-41.82127981039975
 20
-3.686701278798125
 30
0.0
 11
-41.72127981039976
 21
-3.759851846408725
 31
0.0
  0
LINE
  5
F1057C
330
261
100
AcDbEntity
  8
Geo
100
AcDbLine
 10
-41.82127981039975
 20
-6.819329210831535
 30
0.0
 11
-41.72127981039976
 21
-6.843317439733815
 31
0.0
  0
LINE
  5
F1057E
330
261
100
AcDbEntity
  8
Geo
100
AcDbLine
 10
-41.72127981039976
 20
-3.759851846408725
 30
0.0
 11
-41.62127981039977
 21
-3.833716239934826
 31
0.0
  0
LINE
  5
F10580
330
261
100
AcDbEntity
  8
Geo
100
AcDbLine
 10
-41.72127981039976
 20
-6.843317439733815
 30
0.0
 11
-41.62127981039977
 21
-6.865008268132726
 31
0.0
  0
LINE
  5
F10582
330
261
100
AcDbEntity
  8
Geo
100
AcDbLine
 10
-41.62127981039977
 20
-3.833716239934826
 30
0.0
 11
-41.52127981039976
 21
-3.908222325471925
 31
0.0
  0
LINE
  5
F10584
330
261
100
AcDbEntity
  8
Geo
100
AcDbLine
 10
-41.62127981039977
 20
-6.865008268132726
 30
0.0
 11
-41.52127981039976
 21
-6.884380513370774
 31
0.0
  0
LINE
  5
F10586
330
261
100
AcDbEntity
  8
Geo
100
AcDbLine
 10
-41.52127981039976
 20
-3.908222325471925
 30
0.0
 11
-41.42127981039976
 21
-3.983297342456674
 31
0.0
  0
LINE
  5
F10588
330
261
100
AcDbEntity
  8
Geo
100
AcDbLine
 10
-41.52127981039976
 20
-6.884380513370774
 30
0.0
 11
-41.42127981039976
 21
-6.901415257054065
 31
0.0
  0
LINE
  5
F1058A
330
261
100
AcDbEntity
  8
Geo
100
AcDbLine
 10
-41.42127981039976
 20
-3.983297342456674
 30
0.0
 11
-41.32127981039976
 21
-4.058867974723396
 31
0.0
  0
LINE
  5
F1058C
330
261
100
AcDbEntity
  8
Geo
100
AcDbLine
 10
-41.42127981039976
 20
-6.901415257054065
 30
0.0
 11
-41.32127981039976
 21
-6.916095863527465
 31
0.0
  0
LINE
  5
F1058E
330
261
100
AcDbEntity
  8
Geo
100
AcDbLine
 10
-41.32127981039976
 20
-4.058867974723396
 30
0.0
 11
-41.22127981039976
 21
-4.134860422102265
 31
0.0
  0
LINE
  5
F10590
330
261
100
AcDbEntity
  8
Geo
100
AcDbLine
 10
-41.32127981039976
 20
-6.916095863527465
 30
0.0
 11
-41.22127981039976
 21
-6.928407996120525
 31
0.0
  0
LINE
  5
F10592
330
261
100
AcDbEntity
  8
Geo
100
AcDbLine
 10
-41.22127981039976
 20
-4.134860422102265
 30
0.0
 11
-41.12127981039977
 21
-4.211200472490604
 31
0.0
  0
LINE
  5
F10594
330
261
100
AcDbEntity
  8
Geo
100
AcDbLine
 10
-41.22127981039976
 20
-6.928407996120525
 30
0.0
 11
-41.12127981039977
 21
-6.938339631148265
 31
0.0
  0
LINE
  5
F10596
330
261
100
AcDbEntity
  8
Geo
100
AcDbLine
 10
-41.12127981039977
 20
-4.211200472490604
 30
0.0
 11
-41.02127981039976
 21
-4.287813574326355
 31
0.0
  0
LINE
  5
F10598
330
261
100
AcDbEntity
  8
Geo
100
AcDbLine
 10
-41.12127981039977
 20
-6.938339631148265
 30
0.0
 11
-41.02127981039976
 21
-6.945881069653185
 31
0.0
  0
LINE
  5
F1059A
330
261
100
AcDbEntity
  8
Geo
100
AcDbLine
 10
-41.02127981039976
 20
-4.287813574326355
 30
0.0
 11
-40.92127981039976
 21
-4.364624909393045
 31
0.0
  0
LINE
  5
F1059C
330
261
100
AcDbEntity
  8
Geo
100
AcDbLine
 10
-41.02127981039976
 20
-6.945881069653185
 30
0.0
 11
-40.92127981039976
 21
-6.951024946876955
 31
0.0
  0
LINE
  5
F1059E
330
261
100
AcDbEntity
  8
Geo
100
AcDbLine
 10
-40.92127981039976
 20
-4.364624909393045
 30
0.0
 11
-40.82127981039976
 21
-4.441559465885125
 31
0.0
  0
LINE
  5
F105A0
330
261
100
AcDbEntity
  8
Geo
100
AcDbLine
 10
-40.92127981039976
 20
-6.951024946876955
 30
0.0
 11
-40.82127981039976
 21
-6.953766239452685
 31
0.0
  0
LINE
  5
F105A2
330
261
100
AcDbEntity
  8
Geo
100
AcDbLine
 10
-40.82127981039976
 20
-4.441559465885125
 30
0.0
 11
-40.72127981039976
 21
-4.518542111662476
 31
0.0
  0
LINE
  5
F105A4
330
261
100
AcDbEntity
  8
Geo
100
AcDbLine
 10
-40.72127981039976
 20
-4.518542111662476
 30
0.0
 11
-40.62127981039977
 21
-4.595497667622316
 31
0.0
  0
LINE
  5
F105A6
330
261
100
AcDbEntity
  8
Geo
100
AcDbLine
 10
-40.72127981039976
 20
-2.027502551203424
 30
0.0
 11
-40.62127981039977
 21
-2.029572110221826
 31
0.0
  0
LINE
  5
F105A8
330
261
100
AcDbEntity
  8
Geo
100
AcDbLine
 10
-40.62127981039977
 20
-4.595497667622316
 30
0.0
 11
-40.52127981039975
 21
-4.672350981117034
 31
0.0
  0
LINE
  5
F105AA
330
261
100
AcDbEntity
  8
Geo
100
AcDbLine
 10
-40.62127981039977
 20
-2.029572110221826
 30
0.0
 11
-40.52127981039975
 21
-2.034045238042725
 31
0.0
  0
LINE
  5
F105AC
330
261
100
AcDbEntity
  8
Geo
100
AcDbLine
 10
-40.52127981039975
 20
-4.672350981117034
 30
0.0
 11
-40.42127981039977
 21
-4.749026999346124
 31
0.0
  0
LINE
  5
F105AE
330
261
100
AcDbEntity
  8
Geo
100
AcDbLine
 10
-40.52127981039975
 20
-2.034045238042725
 30
0.0
 11
-40.42127981039977
 21
-2.040917566334526
 31
0.0
  0
LINE
  5
F105B0
330
261
100
AcDbEntity
  8
Geo
100
AcDbLine
 10
-40.42127981039977
 20
-4.749026999346124
 30
0.0
 11
-40.32127981039976
 21
-4.825450842650726
 31
0.0
  0
LINE
  5
F105B2
330
261
100
AcDbEntity
  8
Geo
100
AcDbLine
 10
-40.42127981039977
 20
-2.040917566334526
 30
0.0
 11
-40.32127981039976
 21
-2.050182383773327
 31
0.0
  0
LINE
  5
F105B4
330
261
100
AcDbEntity
  8
Geo
100
AcDbLine
 10
-40.32127981039976
 20
-4.825450842650726
 30
0.0
 11
-40.22127981039976
 21
-4.901547877638936
 31
0.0
  0
LINE
  5
F105B6
330
261
100
AcDbEntity
  8
Geo
100
AcDbLine
 10
-40.32127981039976
 20
-2.050182383773327
 30
0.0
 11
-40.22127981039976
 21
-2.061830642596927
 31
0.0
  0
LINE
  5
F105B8
330
261
100
AcDbEntity
  8
Geo
100
AcDbLine
 10
-40.22127981039976
 20
-4.901547877638936
 30
0.0
 11
-40.12127981039976
 21
-4.977243790070755
 31
0.0
  0
LINE
  5
F105BA
330
261
100
AcDbEntity
  8
Geo
100
AcDbLine
 10
-40.22127981039976
 20
-2.061830642596927
 30
0.0
 11
-40.12127981039976
 21
-2.075850967441024
 31
0.0
  0
LINE
  5
F105BC
330
261
100
AcDbEntity
  8
Geo
100
AcDbLine
 10
-40.12127981039976
 20
-4.977243790070755
 30
0.0
 11
-40.02127981039976
 21
-5.052464657431265
 31
0.0
  0
LINE
  5
F105BE
330
261
100
AcDbEntity
  8
Geo
100
AcDbLine
 10
-40.12127981039976
 20
-2.075850967441024
 30
0.0
 11
-40.02127981039976
 21
-2.092229666447625
 31
0.0
  0
LINE
  5
F105C0
330
261
100
AcDbEntity
  8
Geo
100
AcDbLine
 10
-40.02127981039976
 20
-5.052464657431265
 30
0.0
 11
-39.92127981039977
 21
-5.127137021121306
 31
0.0
  0
LINE
  5
F105C2
330
261
100
AcDbEntity
  8
Geo
100
AcDbLine
 10
-40.02127981039976
 20
-2.092229666447625
 30
0.0
 11
-39.92127981039977
 21
-2.110950744636726
 31
0.0
  0
LINE
  5
F105C4
330
261
100
AcDbEntity
  8
Geo
100
AcDbLine
 10
-39.92127981039977
 20
-5.127137021121306
 30
0.0
 11
-39.82127981039976
 21
-5.201187958195076
 31
0.0
  0
LINE
  5
F105C6
330
261
100
AcDbEntity
  8
Geo
100
AcDbLine
 10
-39.92127981039977
 20
-2.110950744636726
 30
0.0
 11
-39.82127981039976
 21
-2.131995919525925
 31
0.0
  0
LINE
  5
F105C8
330
261
100
AcDbEntity
  8
Geo
100
AcDbLine
 10
-39.82127981039976
 20
-5.201187958195076
 30
0.0
 11
-39.72127981039977
 21
-5.274545152574676
 31
0.0
  0
LINE
  5
F105CA
330
261
100
AcDbEntity
  8
Geo
100
AcDbLine
 10
-39.82127981039976
 20
-2.131995919525925
 30
0.0
 11
-39.72127981039977
 21
-2.155344638984825
 31
0.0
  0
LINE
  5
F105CC
330
261
100
AcDbEntity
  8
Geo
100
AcDbLine
 10
-39.72127981039977
 20
-5.274545152574676
 30
0.0
 11
-39.62127981039977
 21
-5.347136965671955
 31
0.0
  0
LINE
  5
F105CE
330
261
100
AcDbEntity
  8
Geo
100
AcDbLine
 10
-39.72127981039977
 20
-2.155344638984825
 30
0.0
 11
-39.62127981039977
 21
-2.180974101305926
 31
0.0
  0
LINE
  5
F105D0
330
261
100
AcDbEntity
  8
Geo
100
AcDbLine
 10
-39.62127981039977
 20
-5.347136965671955
 30
0.0
 11
-39.52127981039976
 21
-5.418892506348734
 31
0.0
  0
LINE
  5
F105D2
330
261
100
AcDbEntity
  8
Geo
100
AcDbLine
 10
-39.62127981039977
 20
-2.180974101305926
 30
0.0
 11
-39.52127981039976
 21
-2.208859277471825
 31
0.0
  0
LINE
  5
F105D4
330
261
100
AcDbEntity
  8
Geo
100
AcDbLine
 10
-39.52127981039976
 20
-5.418892506348734
 30
0.0
 11
-39.42127981039977
 21
-5.489741700147165
 31
0.0
  0
LINE
  5
F105D6
330
261
100
AcDbEntity
  8
Geo
100
AcDbLine
 10
-39.52127981039976
 20
-2.208859277471825
 30
0.0
 11
-39.42127981039977
 21
-2.238972935597825
 31
0.0
  0
LINE
  5
F105D8
330
261
100
AcDbEntity
  8
Geo
100
AcDbLine
 10
-39.42127981039977
 20
-5.489741700147165
 30
0.0
 11
-39.32127981039976
 21
-5.559615357722446
 31
0.0
  0
LINE
  5
F105DA
330
261
100
AcDbEntity
  8
Geo
100
AcDbLine
 10
-39.42127981039977
 20
-2.238972935597825
 30
0.0
 11
-39.32127981039976
 21
-2.271285667526225
 31
0.0
  0
LINE
  5
F105DC
330
261
100
AcDbEntity
  8
Geo
100
AcDbLine
 10
-39.32127981039976
 20
-5.559615357722446
 30
0.0
 11
-39.22127981039976
 21
-5.628445242411194
 31
0.0
  0
LINE
  5
F105DE
330
261
100
AcDbEntity
  8
Geo
100
AcDbLine
 10
-39.32127981039976
 20
-2.271285667526225
 30
0.0
 11
-39.22127981039976
 21
-2.305765917544924
 31
0.0
  0
LINE
  5
F105E0
330
261
100
AcDbEntity
  8
Geo
100
AcDbLine
 10
-39.22127981039976
 20
-5.628445242411194
 30
0.0
 11
-39.12127981039977
 21
-5.696164136869525
 31
0.0
  0
LINE
  5
F105E2
330
261
100
AcDbEntity
  8
Geo
100
AcDbLine
 10
-39.22127981039976
 20
-2.305765917544924
 30
0.0
 11
-39.12127981039977
 21
-2.342380013204326
 31
0.0
  0
LINE
  5
F105E4
330
261
100
AcDbEntity
  8
Geo
100
AcDbLine
 10
-39.12127981039977
 20
-5.696164136869525
 30
0.0
 11
-39.02127981039976
 21
-5.762705908715584
 31
0.0
  0
LINE
  5
F105E6
330
261
100
AcDbEntity
  8
Geo
100
AcDbLine
 10
-39.12127981039977
 20
-2.342380013204326
 30
0.0
 11
-39.02127981039976
 21
-2.381092198200926
 31
0.0
  0
LINE
  5
F105E8
330
261
100
AcDbEntity
  8
Geo
100
AcDbLine
 10
-39.02127981039976
 20
-5.762705908715584
 30
0.0
 11
-38.92127981039977
 21
-5.828005575112594
 31
0.0
  0
LINE
  5
F105EA
330
261
100
AcDbEntity
  8
Geo
100
AcDbLine
 10
-39.02127981039976
 20
-2.381092198200926
 30
0.0
 11
-38.92127981039977
 21
-2.421864667295327
 31
0.0
  0
LINE
  5
F105EC
330
261
100
AcDbEntity
  8
Geo
100
AcDbLine
 10
-38.92127981039977
 20
-5.828005575112594
 30
0.0
 11
-38.82127981039976
 21
-5.891999366229295
 31
0.0
  0
LINE
  5
F105EE
330
261
100
AcDbEntity
  8
Geo
100
AcDbLine
 10
-38.92127981039977
 20
-2.421864667295327
 30
0.0
 11
-38.82127981039976
 21
-2.464657603232623
 31
0.0
  0
LINE
  5
F105F0
330
261
100
AcDbEntity
  8
Geo
100
AcDbLine
 10
-38.82127981039976
 20
-5.891999366229295
 30
0.0
 11
-38.72127981039977
 21
-5.954624787515745
 31
0.0
  0
LINE
  5
F105F2
330
261
100
AcDbEntity
  8
Geo
100
AcDbLine
 10
-38.82127981039976
 20
-2.464657603232623
 30
0.0
 11
-38.72127981039977
 21
-2.509429215626125
 31
0.0
  0
LINE
  5
F105F4
330
261
100
AcDbEntity
  8
Geo
100
AcDbLine
 10
-38.72127981039977
 20
-5.954624787515745
 30
0.0
 11
-38.62127981039977
 21
-6.015820680733815
 31
0.0
  0
LINE
  5
F105F6
330
261
100
AcDbEntity
  8
Geo
100
AcDbLine
 10
-38.72127981039977
 20
-2.509429215626125
 30
0.0
 11
-38.62127981039977
 21
-2.556135781769025
 31
0.0
  0
LINE
  5
F105F8
330
261
100
AcDbEntity
  8
Geo
100
AcDbLine
 10
-38.62127981039977
 20
-6.015820680733815
 30
0.0
 11
-38.52127981039976
 21
-6.075527283682565
 31
0.0
  0
LINE
  5
F105FA
330
261
100
AcDbEntity
  8
Geo
100
AcDbLine
 10
-38.62127981039977
 20
-2.556135781769025
 30
0.0
 11
-38.52127981039976
 21
-2.604731689332725
 31
0.0
  0
LINE
  5
F105FC
330
261
100
AcDbEntity
  8
Geo
100
AcDbLine
 10
-38.52127981039976
 20
-6.075527283682565
 30
0.0
 11
-38.42127981039977
 21
-6.133686288560325
 31
0.0
  0
LINE
  5
F105FE
330
261
100
AcDbEntity
  8
Geo
100
AcDbLine
 10
-38.52127981039976
 20
-2.604731689332725
 30
0.0
 11
-38.42127981039977
 21
-2.655169480910524
 31
0.0
  0
LINE
  5
F10600
330
261
100
AcDbEntity
  8
Geo
100
AcDbLine
 10
-38.42127981039977
 20
-6.133686288560325
 30
0.0
 11
-38.32127981039976
 21
-6.190240898906554
 31
0.0
  0
LINE
  5
F10602
330
261
100
AcDbEntity
  8
Geo
100
AcDbLine
 10
-38.42127981039977
 20
-2.655169480910524
 30
0.0
 11
-38.32127981039976
 21
-2.707399900363226
 31
0.0
  0
LINE
  5
F10604
330
261
100
AcDbEntity
  8
Geo
100
AcDbLine
 10
-38.32127981039976
 20
-6.190240898906554
 30
0.0
 11
-38.22127981039976
 21
-6.245135885067585
 31
0.0
  0
LINE
  5
F10606
330
261
100
AcDbEntity
  8
Geo
100
AcDbLine
 10
-38.32127981039976
 20
-2.707399900363226
 30
0.0
 11
-38.22127981039976
 21
-2.761371940921225
 31
0.0
  0
LINE
  5
F10608
330
261
100
AcDbEntity
  8
Geo
100
AcDbLine
 10
-38.22127981039976
 20
-6.245135885067585
 30
0.0
 11
-38.12127981039977
 21
-6.298317638132406
 31
0.0
  0
LINE
  5
F1060A
330
261
100
AcDbEntity
  8
Geo
100
AcDbLine
 10
-38.22127981039976
 20
-2.761371940921225
 30
0.0
 11
-38.12127981039977
 21
-2.817032894996525
 31
0.0
  0
LINE
  5
F1060C
330
261
100
AcDbEntity
  8
Geo
100
AcDbLine
 10
-38.12127981039977
 20
-6.298317638132406
 30
0.0
 11
-38.02127981039976
 21
-6.349734222285616
 31
0.0
  0
LINE
  5
F1060E
330
261
100
AcDbEntity
  8
Geo
100
AcDbLine
 10
-38.12127981039977
 20
-2.817032894996525
 30
0.0
 11
-38.02127981039976
 21
-2.874328405655226
 31
0.0
  0
LINE
  5
F10610
330
261
100
AcDbEntity
  8
Geo
100
AcDbLine
 10
-38.02127981039976
 20
-6.349734222285616
 30
0.0
 11
-37.92127981039977
 21
-6.399335425526505
 31
0.0
  0
LINE
  5
F10612
330
261
100
AcDbEntity
  8
Geo
100
AcDbLine
 10
-38.02127981039976
 20
-2.874328405655226
 30
0.0
 11
-37.92127981039977
 21
-2.933202519701024
 31
0.0
  0
LINE
  5
F10614
330
261
100
AcDbEntity
  8
Geo
100
AcDbLine
 10
-37.92127981039977
 20
-6.399335425526505
 30
0.0
 11
-37.82127981039976
 21
-6.447072808704675
 31
0.0
  0
LINE
  5
F10616
330
261
100
AcDbEntity
  8
Geo
100
AcDbLine
 10
-37.92127981039977
 20
-2.933202519701024
 30
0.0
 11
-37.82127981039976
 21
-2.993597742317726
 31
0.0
  0
LINE
  5
F10618
330
261
100
AcDbEntity
  8
Geo
100
AcDbLine
 10
-37.82127981039976
 20
-6.447072808704675
 30
0.0
 11
-37.72127981039977
 21
-6.492899752824385
 31
0.0
  0
LINE
  5
F1061A
330
261
100
AcDbEntity
  8
Geo
100
AcDbLine
 10
-37.82127981039976
 20
-2.993597742317726
 30
0.0
 11
-37.72127981039977
 21
-3.055455093216924
 31
0.0
  0
LINE
  5
F1061C
330
261
100
AcDbEntity
  8
Geo
100
AcDbLine
 10
-37.72127981039977
 20
-6.492899752824385
 30
0.0
 11
-37.62127981039977
 21
-6.536771504571325
 31
0.0
  0
LINE
  5
F1061E
330
261
100
AcDbEntity
  8
Geo
100
AcDbLine
 10
-37.72127981039977
 20
-3.055455093216924
 30
0.0
 11
-37.62127981039977
 21
-3.118714164236624
 31
0.0
  0
LINE
  5
F10620
330
261
100
AcDbEntity
  8
Geo
100
AcDbLine
 10
-37.62127981039977
 20
-6.536771504571325
 30
0.0
 11
-37.52127981039976
 21
-6.578645220017476
 31
0.0
  0
LINE
  5
F10622
330
261
100
AcDbEntity
  8
Geo
100
AcDbLine
 10
-37.62127981039977
 20
-3.118714164236624
 30
0.0
 11
-37.52127981039976
 21
-3.183313178333925
 31
0.0
  0
LINE
  5
F10624
330
261
100
AcDbEntity
  8
Geo
100
AcDbLine
 10
-37.52127981039976
 20
-6.578645220017476
 30
0.0
 11
-37.42127981039975
 21
-6.618480006461314
 31
0.0
  0
LINE
  5
F10626
330
261
100
AcDbEntity
  8
Geo
100
AcDbLine
 10
-37.52127981039976
 20
-3.183313178333925
 30
0.0
 11
-37.42127981039975
 21
-3.249189049915226
 31
0.0
  0
LINE
  5
F10628
330
261
100
AcDbEntity
  8
Geo
100
AcDbLine
 10
-37.42127981039975
 20
-6.618480006461314
 30
0.0
 11
-37.32127981039976
 21
-6.656236962362445
 31
0.0
  0
LINE
  5
F1062A
330
261
100
AcDbEntity
  8
Geo
100
AcDbLine
 10
-37.42127981039975
 20
-3.249189049915226
 30
0.0
 11
-37.32127981039976
 21
-3.316277446443226
 31
0.0
  0
LINE
  5
F1062C
330
261
100
AcDbEntity
  8
Geo
100
AcDbLine
 10
-37.32127981039976
 20
-6.656236962362445
 30
0.0
 11
-37.22127981039975
 21
-6.691879215331764
 31
0.0
  0
LINE
  5
F1062E
330
261
100
AcDbEntity
  8
Geo
100
AcDbLine
 10
-37.32127981039976
 20
-3.316277446443226
 30
0.0
 11
-37.22127981039975
 21
-3.384512851262826
 31
0.0
  0
LINE
  5
F10630
330
261
100
AcDbEntity
  8
Geo
100
AcDbLine
 10
-37.22127981039975
 20
-6.691879215331764
 30
0.0
 11
-37.12127981039976
 21
-6.725371958140035
 31
0.0
  0
LINE
  5
F10632
330
261
100
AcDbEntity
  8
Geo
100
AcDbLine
 10
-37.22127981039975
 20
-3.384512851262826
 30
0.0
 11
-37.12127981039976
 21
-3.453828627582426
 31
0.0
  0
LINE
  5
F10634
330
261
100
AcDbEntity
  8
Geo
100
AcDbLine
 10
-37.12127981039976
 20
-6.725371958140035
 30
0.0
 11
-37.02127981039976
 21
-6.756682482709625
 31
0.0
  0
LINE
  5
F10636
330
261
100
AcDbEntity
  8
Geo
100
AcDbLine
 10
-37.12127981039976
 20
-3.453828627582426
 30
0.0
 11
-37.02127981039976
 21
-3.524157083550125
 31
0.0
  0
LINE
  5
F10638
330
261
100
AcDbEntity
  8
Geo
100
AcDbLine
 10
-37.02127981039976
 20
-6.756682482709625
 30
0.0
 11
-36.92127981039976
 21
-6.785780212056325
 31
0.0
  0
LINE
  5
F1063A
330
261
100
AcDbEntity
  8
Geo
100
AcDbLine
 10
-37.02127981039976
 20
-3.524157083550125
 30
0.0
 11
-36.92127981039976
 21
-3.595429538359026
 31
0.0
  0
LINE
  5
F1063C
330
261
100
AcDbEntity
  8
Geo
100
AcDbLine
 10
-36.92127981039976
 20
-6.785780212056325
 30
0.0
 11
-36.82127981039976
 21
-6.812636730149964
 31
0.0
  0
LINE
  5
F1063E
330
261
100
AcDbEntity
  8
Geo
100
AcDbLine
 10
-36.92127981039976
 20
-3.595429538359026
 30
0.0
 11
-36.82127981039976
 21
-3.667576389319425
 31
0.0
  0
LINE
  5
F10640
330
261
100
AcDbEntity
  8
Geo
100
AcDbLine
 10
-36.82127981039976
 20
-6.812636730149964
 30
0.0
 11
-36.72127981039975
 21
-6.837225809664706
 31
0.0
  0
LINE
  5
F10642
330
261
100
AcDbEntity
  8
Geo
100
AcDbLine
 10
-36.82127981039976
 20
-3.667576389319425
 30
0.0
 11
-36.72127981039975
 21
-3.740527179830825
 31
0.0
  0
LINE
  5
F10644
330
261
100
AcDbEntity
  8
Geo
100
AcDbLine
 10
-36.72127981039975
 20
-6.837225809664706
 30
0.0
 11
-36.62127981039976
 21
-6.859523437591935
 31
0.0
  0
LINE
  5
F10646
330
261
100
AcDbEntity
  8
Geo
100
AcDbLine
 10
-36.72127981039975
 20
-3.740527179830825
 30
0.0
 11
-36.62127981039976
 21
-3.814210668187726
 31
0.0
  0
LINE
  5
F10648
330
261
100
AcDbEntity
  8
Geo
100
AcDbLine
 10
-36.62127981039976
 20
-6.859523437591935
 30
0.0
 11
-36.52127981039976
 21
-6.879507838690695
 31
0.0
  0
LINE
  5
F1064A
330
261
100
AcDbEntity
  8
Geo
100
AcDbLine
 10
-36.62127981039976
 20
-3.814210668187726
 30
0.0
 11
-36.52127981039976
 21
-3.888554897152326
 31
0.0
  0
LINE
  5
F1064C
330
261
100
AcDbEntity
  8
Geo
100
AcDbLine
 10
-36.52127981039976
 20
-6.879507838690695
 30
0.0
 11
-36.42127981039975
 21
-6.897159496752765
 31
0.0
  0
LINE
  5
F1064E
330
261
100
AcDbEntity
  8
Geo
100
AcDbLine
 10
-36.52127981039976
 20
-3.888554897152326
 30
0.0
 11
-36.42127981039975
 21
-3.963487264226126
 31
0.0
  0
LINE
  5
F10650
330
261
100
AcDbEntity
  8
Geo
100
AcDbLine
 10
-36.42127981039975
 20
-6.897159496752765
 30
0.0
 11
-36.32127981039976
 21
-6.912461173661645
 31
0.0
  0
LINE
  5
F10652
330
261
100
AcDbEntity
  8
Geo
100
AcDbLine
 10
-36.42127981039975
 20
-3.963487264226126
 30
0.0
 11
-36.32127981039976
 21
-4.038934592551195
 31
0.0
  0
LINE
  5
F10654
330
261
100
AcDbEntity
  8
Geo
100
AcDbLine
 10
-36.32127981039976
 20
-6.912461173661645
 30
0.0
 11
-36.22127981039975
 21
-6.925397926226845
 31
0.0
  0
LINE
  5
F10656
330
261
100
AcDbEntity
  8
Geo
100
AcDbLine
 10
-36.32127981039976
 20
-4.038934592551195
 30
0.0
 11
-36.22127981039975
 21
-4.114823202372996
 31
0.0
  0
LINE
  5
F10658
330
261
100
AcDbEntity
  8
Geo
100
AcDbLine
 10
-36.22127981039975
 20
-6.925397926226845
 30
0.0
 11
-36.12127981039976
 21
-6.935957120776955
 31
0.0
  0
LINE
  5
F1065A
330
261
100
AcDbEntity
  8
Geo
100
AcDbLine
 10
-36.22127981039975
 20
-4.114823202372996
 30
0.0
 11
-36.12127981039976
 21
-4.191078982993696
 31
0.0
  0
LINE
  5
F1065C
330
261
100
AcDbEntity
  8
Geo
100
AcDbLine
 10
-36.12127981039976
 20
-6.935957120776955
 30
0.0
 11
-36.02127981039976
 21
-6.944128445497345
 31
0.0
  0
LINE
  5
F1065E
330
261
100
AcDbEntity
  8
Geo
100
AcDbLine
 10
-36.12127981039976
 20
-4.191078982993696
 30
0.0
 11
-36.02127981039976
 21
-4.267627465146725
 31
0.0
  0
LINE
  5
F10660
330
261
100
AcDbEntity
  8
Geo
100
AcDbLine
 10
-36.02127981039976
 20
-6.944128445497345
 30
0.0
 11
-35.92127981039975
 21
-6.949903920500426
 31
0.0
  0
LINE
  5
F10662
330
261
100
AcDbEntity
  8
Geo
100
AcDbLine
 10
-36.02127981039976
 20
-4.267627465146725
 30
0.0
 11
-35.92127981039975
 21
-4.344393893721376
 31
0.0
  0
LINE
  5
F10664
330
261
100
AcDbEntity
  8
Geo
100
AcDbLine
 10
-35.92127981039975
 20
-6.949903920500426
 30
0.0
 11
-35.82127981039976
 21
-6.953277905618516
 31
0.0
  0
LINE
  5
F10666
330
261
100
AcDbEntity
  8
Geo
100
AcDbLine
 10
-35.92127981039975
 20
-4.344393893721376
 30
0.0
 11
-35.82127981039976
 21
-4.421303300766567
 31
0.0
  0
LINE
  5
F10668
330
261
100
AcDbEntity
  8
Geo
100
AcDbLine
 10
-35.82127981039976
 20
-4.421303300766567
 30
0.0
 11
-35.72127981039975
 21
-4.498280578702395
 31
0.0
  0
LINE
  5
F1066A
330
261
100
AcDbEntity
  8
Geo
100
AcDbLine
 10
-35.72127981039975
 20
-2.027357715602025
 30
0.0
 11
-35.62127981039976
 21
-2.028794246627226
 31
0.0
  0
LINE
  5
F1066C
330
261
100
AcDbEntity
  8
Geo
100
AcDbLine
 10
-35.72127981039975
 20
-4.498280578702395
 30
0.0
 11
-35.62127981039976
 21
-4.575250553668176
 31
0.0
  0
LINE
  5
F1066E
330
261
100
AcDbEntity
  8
Geo
100
AcDbLine
 10
-35.62127981039976
 20
-2.028794246627226
 30
0.0
 11
-35.52127981039976
 21
-2.032635106094925
 31
0.0
  0
LINE
  5
F10670
330
261
100
AcDbEntity
  8
Geo
100
AcDbLine
 10
-35.62127981039976
 20
-4.575250553668176
 30
0.0
 11
-35.52127981039976
 21
-4.652138058935076
 31
0.0
  0
LINE
  5
F10672
330
261
100
AcDbEntity
  8
Geo
100
AcDbLine
 10
-35.52127981039976
 20
-2.032635106094925
 30
0.0
 11
-35.42127981039975
 21
-2.038876543128926
 31
0.0
  0
LINE
  5
F10674
330
261
100
AcDbEntity
  8
Geo
100
AcDbLine
 10
-35.52127981039976
 20
-4.652138058935076
 30
0.0
 11
-35.42127981039975
 21
-4.728868008311895
 31
0.0
  0
LINE
  5
F10676
330
261
100
AcDbEntity
  8
Geo
100
AcDbLine
 10
-35.42127981039975
 20
-2.038876543128926
 30
0.0
 11
-35.32127981039976
 21
-2.047512462516227
 31
0.0
  0
LINE
  5
F10678
330
261
100
AcDbEntity
  8
Geo
100
AcDbLine
 10
-35.42127981039975
 20
-4.728868008311895
 30
0.0
 11
-35.32127981039976
 21
-4.805365469472095
 31
0.0
  0
LINE
  5
F1067A
330
261
100
AcDbEntity
  8
Geo
100
AcDbLine
 10
-35.32127981039976
 20
-2.047512462516227
 30
0.0
 11
-35.22127981039975
 21
-2.058534430658827
 31
0.0
  0
LINE
  5
F1067C
330
261
100
AcDbEntity
  8
Geo
100
AcDbLine
 10
-35.32127981039976
 20
-4.805365469472095
 30
0.0
 11
-35.22127981039975
 21
-4.881555737130646
 31
0.0
  0
LINE
  5
F1067E
330
261
100
AcDbEntity
  8
Geo
100
AcDbLine
 10
-35.22127981039975
 20
-2.058534430658827
 30
0.0
 11
-35.12127981039976
 21
-2.071931683810523
 31
0.0
  0
LINE
  5
F10680
330
261
100
AcDbEntity
  8
Geo
100
AcDbLine
 10
-35.22127981039975
 20
-4.881555737130646
 30
0.0
 11
-35.12127981039976
 21
-4.957364405999104
 31
0.0
  0
LINE
  5
F10682
330
261
100
AcDbEntity
  8
Geo
100
AcDbLine
 10
-35.12127981039976
 20
-2.071931683810523
 30
0.0
 11
-35.02127981039976
 21
-2.087691138587825
 31
0.0
  0
LINE
  5
F10684
330
261
100
AcDbEntity
  8
Geo
100
AcDbLine
 10
-35.12127981039976
 20
-4.957364405999104
 30
0.0
 11
-35.02127981039976
 21
-5.032717443447785
 31
0.0
  0
LINE
  5
F10686
330
261
100
AcDbEntity
  8
Geo
100
AcDbLine
 10
-35.02127981039976
 20
-2.087691138587825
 30
0.0
 11
-34.92127981039975
 21
-2.105797404747125
 31
0.0
  0
LINE
  5
F10688
330
261
100
AcDbEntity
  8
Geo
100
AcDbLine
 10
-35.02127981039976
 20
-5.032717443447785
 30
0.0
 11
-34.92127981039975
 21
-5.107541261803886
 31
0.0
  0
LINE
  5
F1068A
330
261
100
AcDbEntity
  8
Geo
100
AcDbLine
 10
-34.92127981039975
 20
-2.105797404747125
 30
0.0
 11
-34.82127981039976
 21
-2.126232800214326
 31
0.0
  0
LINE
  5
F1068C
330
261
100
AcDbEntity
  8
Geo
100
AcDbLine
 10
-34.92127981039975
 20
-5.107541261803886
 30
0.0
 11
-34.82127981039976
 21
-5.181762790215236
 31
0.0
  0
LINE
  5
F1068E
330
261
100
AcDbEntity
  8
Geo
100
AcDbLine
 10
-34.82127981039976
 20
-2.126232800214326
 30
0.0
 11
-34.72127981039975
 21
-2.148977368352825
 31
0.0
  0
LINE
  5
F10690
330
261
100
AcDbEntity
  8
Geo
100
AcDbLine
 10
-34.82127981039976
 20
-5.181762790215236
 30
0.0
 11
-34.72127981039975
 21
-5.255309546009176
 31
0.0
  0
LINE
  5
F10692
330
261
100
AcDbEntity
  8
Geo
100
AcDbLine
 10
-34.72127981039975
 20
-2.148977368352825
 30
0.0
 11
-34.62127981039976
 21
-2.174008897452225
 31
0.0
  0
LINE
  5
F10694
330
261
100
AcDbEntity
  8
Geo
100
AcDbLine
 10
-34.72127981039975
 20
-5.255309546009176
 30
0.0
 11
-34.62127981039976
 21
-5.328109705477174
 31
0.0
  0
LINE
  5
F10696
330
261
100
AcDbEntity
  8
Geo
100
AcDbLine
 10
-34.62127981039976
 20
-2.174008897452225
 30
0.0
 11
-34.52127981039976
 21
-2.201302942419925
 31
0.0
  0
LINE
  5
F10698
330
261
100
AcDbEntity
  8
Geo
100
AcDbLine
 10
-34.62127981039976
 20
-5.328109705477174
 30
0.0
 11
-34.52127981039976
 21
-5.400092174015826
 31
0.0
  0
LINE
  5
F1069A
330
261
100
AcDbEntity
  8
Geo
100
AcDbLine
 10
-34.52127981039976
 20
-2.201302942419925
 30
0.0
 11
-34.42127981039976
 21
-2.230832848653726
 31
0.0
  0
LINE
  5
F1069C
330
261
100
AcDbEntity
  8
Geo
100
AcDbLine
 10
-34.52127981039976
 20
-5.400092174015826
 30
0.0
 11
-34.42127981039976
 21
-5.471186655555825
 31
0.0
  0
LINE
  5
F1069E
330
261
100
AcDbEntity
  8
Geo
100
AcDbLine
 10
-34.42127981039976
 20
-2.230832848653726
 30
0.0
 11
-34.32127981039976
 21
-2.262569778071524
 31
0.0
  0
LINE
  5
F106A0
330
261
100
AcDbEntity
  8
Geo
100
AcDbLine
 10
-34.42127981039976
 20
-5.471186655555825
 30
0.0
 11
-34.32127981039976
 21
-5.541323721211226
 31
0.0
  0
LINE
  5
F106A2
330
261
100
AcDbEntity
  8
Geo
100
AcDbLine
 10
-34.32127981039976
 20
-2.262569778071524
 30
0.0
 11
-34.22127981039975
 21
-2.296482737274024
 31
0.0
  0
LINE
  5
F106A4
330
261
100
AcDbEntity
  8
Geo
100
AcDbLine
 10
-34.32127981039976
 20
-5.541323721211226
 30
0.0
 11
-34.22127981039975
 21
-5.610434877081695
 31
0.0
  0
LINE
  5
F106A6
330
261
100
AcDbEntity
  8
Geo
100
AcDbLine
 10
-34.22127981039975
 20
-2.296482737274024
 30
0.0
 11
-34.12127981039976
 21
-2.332538607811924
 31
0.0
  0
LINE
  5
F106A8
330
261
100
AcDbEntity
  8
Geo
100
AcDbLine
 10
-34.22127981039975
 20
-5.610434877081695
 30
0.0
 11
-34.12127981039976
 21
-5.678452631141725
 31
0.0
  0
LINE
  5
F106AA
330
261
100
AcDbEntity
  8
Geo
100
AcDbLine
 10
-34.12127981039976
 20
-2.332538607811924
 30
0.0
 11
-34.02127981039976
 21
-2.370702178528725
 31
0.0
  0
LINE
  5
F106AC
330
261
100
AcDbEntity
  8
Geo
100
AcDbLine
 10
-34.12127981039976
 20
-5.678452631141725
 30
0.0
 11
-34.02127981039976
 21
-5.745310559151535
 31
0.0
  0
LINE
  5
F106AE
330
261
100
AcDbEntity
  8
Geo
100
AcDbLine
 10
-34.02127981039976
 20
-2.370702178528725
 30
0.0
 11
-33.92127981039975
 21
-2.410936179946524
 31
0.0
  0
LINE
  5
F106B0
330
261
100
AcDbEntity
  8
Geo
100
AcDbLine
 10
-34.02127981039976
 20
-5.745310559151535
 30
0.0
 11
-33.92127981039975
 21
-5.810943369525064
 31
0.0
  0
LINE
  5
F106B2
330
261
100
AcDbEntity
  8
Geo
100
AcDbLine
 10
-33.92127981039975
 20
-2.410936179946524
 30
0.0
 11
-33.82127981039976
 21
-2.453201320662824
 31
0.0
  0
LINE
  5
F106B4
330
261
100
AcDbEntity
  8
Geo
100
AcDbLine
 10
-33.92127981039975
 20
-5.810943369525064
 30
0.0
 11
-33.82127981039976
 21
-5.875286967091945
 31
0.0
  0
LINE
  5
F106B6
330
261
100
AcDbEntity
  8
Geo
100
AcDbLine
 10
-33.82127981039976
 20
-2.453201320662824
 30
0.0
 11
-33.72127981039975
 21
-2.497456325721126
 31
0.0
  0
LINE
  5
F106B8
330
261
100
AcDbEntity
  8
Geo
100
AcDbLine
 10
-33.82127981039976
 20
-5.875286967091945
 30
0.0
 11
-33.72127981039975
 21
-5.938278515691035
 31
0.0
  0
LINE
  5
F106BA
330
261
100
AcDbEntity
  8
Geo
100
AcDbLine
 10
-33.72127981039975
 20
-2.497456325721126
 30
0.0
 11
-33.62127981039976
 21
-2.543657976918826
 31
0.0
  0
LINE
  5
F106BC
330
261
100
AcDbEntity
  8
Geo
100
AcDbLine
 10
-33.72127981039975
 20
-5.938278515691035
 30
0.0
 11
-33.62127981039976
 21
-5.999856499534466
 31
0.0
  0
LINE
  5
F106BE
330
261
100
AcDbEntity
  8
Geo
100
AcDbLine
 10
-33.62127981039976
 20
-2.543657976918826
 30
0.0
 11
-33.52127981039976
 21
-2.591761155013227
 31
0.0
  0
LINE
  5
F106C0
330
261
100
AcDbEntity
  8
Geo
100
AcDbLine
 10
-33.62127981039976
 20
-5.999856499534466
 30
0.0
 11
-33.52127981039976
 21
-6.059960783282265
 31
0.0
  0
LINE
  5
F106C2
330
261
100
AcDbEntity
  8
Geo
100
AcDbLine
 10
-33.52127981039976
 20
-2.591761155013227
 30
0.0
 11
-33.42127981039975
 21
-2.641718883783525
 31
0.0
  0
LINE
  5
F106C4
330
261
100
AcDbEntity
  8
Geo
100
AcDbLine
 10
-33.52127981039976
 20
-6.059960783282265
 30
0.0
 11
-33.42127981039975
 21
-6.118532670768825
 31
0.0
  0
LINE
  5
F106C6
330
261
100
AcDbEntity
  8
Geo
100
AcDbLine
 10
-33.42127981039975
 20
-2.641718883783525
 30
0.0
 11
-33.32127981039976
 21
-2.693482375906325
 31
0.0
  0
LINE
  5
F106C8
330
261
100
AcDbEntity
  8
Geo
100
AcDbLine
 10
-33.42127981039975
 20
-6.118532670768825
 30
0.0
 11
-33.32127981039976
 21
-6.175514962323934
 31
0.0
  0
LINE
  5
F106CA
330
261
100
AcDbEntity
  8
Geo
100
AcDbLine
 10
-33.32127981039976
 20
-2.693482375906325
 30
0.0
 11
-33.22127981039975
 21
-2.747001080600325
 31
0.0
  0
LINE
  5
F106CC
330
261
100
AcDbEntity
  8
Geo
100
AcDbLine
 10
-33.32127981039976
 20
-6.175514962323934
 30
0.0
 11
-33.22127981039975
 21
-6.230852010632425
 31
0.0
  0
LINE
  5
F106CE
330
261
100
AcDbEntity
  8
Geo
100
AcDbLine
 10
-33.22127981039975
 20
-2.747001080600325
 30
0.0
 11
-33.12127981039976
 21
-2.802222732992525
 31
0.0
  0
LINE
  5
F106D0
330
261
100
AcDbEntity
  8
Geo
100
AcDbLine
 10
-33.22127981039975
 20
-6.230852010632425
 30
0.0
 11
-33.12127981039976
 21
-6.284489775077715
 31
0.0
  0
LINE
  5
F106D2
330
261
100
AcDbEntity
  8
Geo
100
AcDbLine
 10
-33.12127981039976
 20
-2.802222732992525
 30
0.0
 11
-33.02127981039976
 21
-2.859093405158924
 31
0.0
  0
LINE
  5
F106D4
330
261
100
AcDbEntity
  8
Geo
100
AcDbLine
 10
-33.12127981039976
 20
-6.284489775077715
 30
0.0
 11
-33.02127981039976
 21
-6.336375874516435
 31
0.0
  0
LINE
  5
F106D6
330
261
100
AcDbEntity
  8
Geo
100
AcDbLine
 10
-33.02127981039976
 20
-2.859093405158924
 30
0.0
 11
-32.92127981039975
 21
-2.917557558788626
 31
0.0
  0
LINE
  5
F106D8
330
261
100
AcDbEntity
  8
Geo
100
AcDbLine
 10
-33.02127981039976
 20
-6.336375874516435
 30
0.0
 11
-32.92127981039975
 21
-6.386459638432345
 31
0.0
  0
LINE
  5
F106DA
330
261
100
AcDbEntity
  8
Geo
100
AcDbLine
 10
-32.92127981039975
 20
-2.917557558788626
 30
0.0
 11
-32.82127981039976
 21
-2.977558099421226
 31
0.0
  0
LINE
  5
F106DC
330
261
100
AcDbEntity
  8
Geo
100
AcDbLine
 10
-32.92127981039975
 20
-6.386459638432345
 30
0.0
 11
-32.82127981039976
 21
-6.434692156419774
 31
0.0
  0
LINE
  5
F106DE
330
261
100
AcDbEntity
  8
Geo
100
AcDbLine
 10
-32.82127981039976
 20
-2.977558099421226
 30
0.0
 11
-32.72127981039975
 21
-3.039036432203925
 31
0.0
  0
LINE
  5
F106E0
330
261
100
AcDbEntity
  8
Geo
100
AcDbLine
 10
-32.82127981039976
 20
-6.434692156419774
 30
0.0
 11
-32.72127981039975
 21
-6.481026325948135
 31
0.0
  0
LINE
  5
F106E2
330
261
100
AcDbEntity
  8
Geo
100
AcDbLine
 10
-32.72127981039975
 20
-3.039036432203925
 30
0.0
 11
-32.62127981039976
 21
-3.101932519113026
 31
0.0
  0
LINE
  5
F106E4
330
261
100
AcDbEntity
  8
Geo
100
AcDbLine
 10
-32.72127981039975
 20
-6.481026325948135
 30
0.0
 11
-32.62127981039976
 21
-6.525416898360944
 31
0.0
  0
LINE
  5
F106E6
330
261
100
AcDbEntity
  8
Geo
100
AcDbLine
 10
-32.62127981039976
 20
-3.101932519113026
 30
0.0
 11
-32.52127981039976
 21
-3.166184937586026
 31
0.0
  0
LINE
  5
F106E8
330
261
100
AcDbEntity
  8
Geo
100
AcDbLine
 10
-32.62127981039976
 20
-6.525416898360944
 30
0.0
 11
-32.52127981039976
 21
-6.567820523064415
 31
0.0
  0
LINE
  5
F106EA
330
261
100
AcDbEntity
  8
Geo
100
AcDbLine
 10
-32.52127981039976
 20
-3.166184937586026
 30
0.0
 11
-32.42127981039975
 21
-3.231730940504624
 31
0.0
  0
LINE
  5
F106EC
330
261
100
AcDbEntity
  8
Geo
100
AcDbLine
 10
-32.52127981039976
 20
-6.567820523064415
 30
0.0
 11
-32.42127981039975
 21
-6.608195789862425
 31
0.0
  0
LINE
  5
F106EE
330
261
100
AcDbEntity
  8
Geo
100
AcDbLine
 10
-32.42127981039975
 20
-3.231730940504624
 30
0.0
 11
-32.32127981039976
 21
-3.298506517472326
 31
0.0
  0
LINE
  5
F106F0
330
261
100
AcDbEntity
  8
Geo
100
AcDbLine
 10
-32.42127981039975
 20
-6.608195789862425
 30
0.0
 11
-32.32127981039976
 21
-6.646503269396564
 31
0.0
  0
LINE
  5
F106F2
330
261
100
AcDbEntity
  8
Geo
100
AcDbLine
 10
-32.32127981039976
 20
-3.298506517472326
 30
0.0
 11
-32.22127981039975
 21
-3.366446457324625
 31
0.0
  0
LINE
  5
F106F4
330
261
100
AcDbEntity
  8
Geo
100
AcDbLine
 10
-32.32127981039976
 20
-6.646503269396564
 30
0.0
 11
-32.22127981039975
 21
-6.682705551651705
 31
0.0
  0
LINE
  5
F106F6
330
261
100
AcDbEntity
  8
Geo
100
AcDbLine
 10
-32.22127981039975
 20
-3.366446457324625
 30
0.0
 11
-32.12127981039976
 21
-3.435484411813025
 31
0.0
  0
LINE
  5
F106F8
330
261
100
AcDbEntity
  8
Geo
100
AcDbLine
 10
-32.22127981039975
 20
-6.682705551651705
 30
0.0
 11
-32.12127981039976
 21
-6.716767282489656
 31
0.0
  0
LINE
  5
F106FA
330
261
100
AcDbEntity
  8
Geo
100
AcDbLine
 10
-32.12127981039976
 20
-3.435484411813025
 30
0.0
 11
-32.02127981039976
 21
-3.505552960398425
 31
0.0
  0
LINE
  5
F106FC
330
261
100
AcDbEntity
  8
Geo
100
AcDbLine
 10
-32.12127981039976
 20
-6.716767282489656
 30
0.0
 11
-32.02127981039976
 21
-6.748655198174965
 31
0.0
  0
LINE
  5
F106FE
330
261
100
AcDbEntity
  8
Geo
100
AcDbLine
 10
-32.02127981039976
 20
-3.505552960398425
 30
0.0
 11
-31.92127981039976
 21
-3.576583676092326
 31
0.0
  0
LINE
  5
F10700
330
261
100
AcDbEntity
  8
Geo
100
AcDbLine
 10
-32.02127981039976
 20
-6.748655198174965
 30
0.0
 11
-31.92127981039976
 21
-6.778338157859354
 31
0.0
  0
LINE
  5
F10702
330
261
100
AcDbEntity
  8
Geo
100
AcDbLine
 10
-31.92127981039976
 20
-3.576583676092326
 30
0.0
 11
-31.82127981039976
 21
-3.648507192280826
 31
0.0
  0
LINE
  5
F10704
330
261
100
AcDbEntity
  8
Geo
100
AcDbLine
 10
-31.92127981039976
 20
-6.778338157859354
 30
0.0
 11
-31.82127981039976
 21
-6.805787173993055
 31
0.0
  0
LINE
  5
F10706
330
261
100
AcDbEntity
  8
Geo
100
AcDbLine
 10
-31.82127981039976
 20
-3.648507192280826
 30
0.0
 11
-31.72127981039975
 21
-3.721253270465727
 31
0.0
  0
LINE
  5
F10708
330
261
100
AcDbEntity
  8
Geo
100
AcDbLine
 10
-31.82127981039976
 20
-6.805787173993055
 30
0.0
 11
-31.72127981039975
 21
-6.830975440633186
 31
0.0
  0
LINE
  5
F1070A
330
261
100
AcDbEntity
  8
Geo
100
AcDbLine
 10
-31.72127981039975
 20
-3.721253270465727
 30
0.0
 11
-31.62127981039976
 21
-3.794750868857926
 31
0.0
  0
LINE
  5
F1070C
330
261
100
AcDbEntity
  8
Geo
100
AcDbLine
 10
-31.72127981039975
 20
-6.830975440633186
 30
0.0
 11
-31.62127981039976
 21
-6.853878359621715
 31
0.0
  0
LINE
  5
F1070E
330
261
100
AcDbEntity
  8
Geo
100
AcDbLine
 10
-31.62127981039976
 20
-3.794750868857926
 30
0.0
 11
-31.52127981039976
 21
-3.868928211754726
 31
0.0
  0
LINE
  5
F10710
330
261
100
AcDbEntity
  8
Geo
100
AcDbLine
 10
-31.62127981039976
 20
-6.853878359621715
 30
0.0
 11
-31.52127981039976
 21
-6.874473564607325
 31
0.0
  0
LINE
  5
F10712
330
261
100
AcDbEntity
  8
Geo
100
AcDbLine
 10
-31.52127981039976
 20
-3.868928211754726
 30
0.0
 11
-31.42127981039975
 21
-3.943712859633624
 31
0.0
  0
LINE
  5
F10714
330
261
100
AcDbEntity
  8
Geo
100
AcDbLine
 10
-31.52127981039976
 20
-6.874473564607325
 30
0.0
 11
-31.42127981039975
 21
-6.892740942887775
 31
0.0
  0
LINE
  5
F10716
330
261
100
AcDbEntity
  8
Geo
100
AcDbLine
 10
-31.42127981039975
 20
-3.943712859633624
 30
0.0
 11
-31.32127981039976
 21
-4.019031779895387
 31
0.0
  0
LINE
  5
F10718
330
261
100
AcDbEntity
  8
Geo
100
AcDbLine
 10
-31.42127981039975
 20
-6.892740942887775
 30
0.0
 11
-31.32127981039976
 21
-6.908662655051395
 31
0.0
  0
LINE
  5
F1071A
330
261
100
AcDbEntity
  8
Geo
100
AcDbLine
 10
-31.32127981039976
 20
-4.019031779895387
 30
0.0
 11
-31.22127981039975
 21
-4.094811418185075
 31
0.0
  0
LINE
  5
F1071C
330
261
100
AcDbEntity
  8
Geo
100
AcDbLine
 10
-31.32127981039976
 20
-6.908662655051395
 30
0.0
 11
-31.22127981039975
 21
-6.922223152398576
 31
0.0
  0
LINE
  5
F1071E
330
261
100
AcDbEntity
  8
Geo
100
AcDbLine
 10
-31.22127981039975
 20
-4.094811418185075
 30
0.0
 11
-31.12127981039976
 21
-4.170977770223446
 31
0.0
  0
LINE
  5
F10720
330
261
100
AcDbEntity
  8
Geo
100
AcDbLine
 10
-31.22127981039975
 20
-6.922223152398576
 30
0.0
 11
-31.12127981039976
 21
-6.933409192126145
 31
0.0
  0
LINE
  5
F10722
330
261
100
AcDbEntity
  8
Geo
100
AcDbLine
 10
-31.12127981039976
 20
-4.170977770223446
 30
0.0
 11
-31.02127981039976
 21
-4.247456454077374
 31
0.0
  0
LINE
  5
F10724
330
261
100
AcDbEntity
  8
Geo
100
AcDbLine
 10
-31.12127981039976
 20
-6.933409192126145
 30
0.0
 11
-31.02127981039976
 21
-6.942209850259996
 31
0.0
  0
LINE
  5
F10726
330
261
100
AcDbEntity
  8
Geo
100
AcDbLine
 10
-31.02127981039976
 20
-4.247456454077374
 30
0.0
 11
-30.92127981039975
 21
-4.324172782799246
 31
0.0
  0
LINE
  5
F10728
330
261
100
AcDbEntity
  8
Geo
100
AcDbLine
 10
-31.02127981039976
 20
-6.942209850259996
 30
0.0
 11
-30.92127981039975
 21
-6.948616532323076
 31
0.0
  0
LINE
  5
F1072A
330
261
100
AcDbEntity
  8
Geo
100
AcDbLine
 10
-30.92127981039975
 20
-4.324172782799246
 30
0.0
 11
-30.82127981039976
 21
-4.401051837364066
 31
0.0
  0
LINE
  5
F1072C
330
261
100
AcDbEntity
  8
Geo
100
AcDbLine
 10
-30.92127981039975
 20
-6.948616532323076
 30
0.0
 11
-30.82127981039976
 21
-6.952622981728524
 31
0.0
  0
LINE
  5
F1072E
330
261
100
AcDbEntity
  8
Geo
100
AcDbLine
 10
-30.82127981039976
 20
-4.401051837364066
 30
0.0
 11
-30.72127981039975
 21
-4.478018539833335
 31
0.0
  0
LINE
  5
F10730
330
261
100
AcDbEntity
  8
Geo
100
AcDbLine
 10
-30.82127981039976
 20
-6.952622981728524
 30
0.0
 11
-30.72127981039975
 21
-6.954225285889716
 31
0.0
  0
LINE
  5
F10732
330
261
100
AcDbEntity
  8
Geo
100
AcDbLine
 10
-30.72127981039975
 20
-4.478018539833335
 30
0.0
 11
-30.62127981039976
 21
-4.554997726674075
 31
0.0
  0
LINE
  5
F10734
330
261
100
AcDbEntity
  8
Geo
100
AcDbLine
 10
-30.62127981039976
 20
-2.028182941472925
 30
0.0
 11
-30.52127981039976
 21
-2.031391272747525
 31
0.0
  0
LINE
  5
F10736
330
261
100
AcDbEntity
  8
Geo
100
AcDbLine
 10
-30.62127981039976
 20
-4.554997726674075
 30
0.0
 11
-30.52127981039976
 21
-4.631914222161396
 31
0.0
  0
LINE
  5
F10738
330
261
100
AcDbEntity
  8
Geo
100
AcDbLine
 10
-30.52127981039976
 20
-2.031391272747525
 30
0.0
 11
-30.42127981039975
 21
-2.037001396281526
 31
0.0
  0
LINE
  5
F1073A
330
261
100
AcDbEntity
  8
Geo
100
AcDbLine
 10
-30.52127981039976
 20
-4.631914222161396
 30
0.0
 11
-30.42127981039975
 21
-4.708692911793043
 31
0.0
  0
LINE
  5
F1073C
330
261
100
AcDbEntity
  8
Geo
100
AcDbLine
 10
-30.42127981039975
 20
-2.037001396281526
 30
0.0
 11
-30.32127981039976
 21
-2.045007833384726
 31
0.0
  0
LINE
  5
F1073E
330
261
100
AcDbEntity
  8
Geo
100
AcDbLine
 10
-30.42127981039975
 20
-4.708692911793043
 30
0.0
 11
-30.32127981039976
 21
-4.785258815644114
 31
0.0
  0
LINE
  5
F10740
330
261
100
AcDbEntity
  8
Geo
100
AcDbLine
 10
-30.32127981039976
 20
-2.045007833384726
 30
0.0
 11
-30.22127981039975
 21
-2.055402765194227
 31
0.0
  0
LINE
  5
F10742
330
261
100
AcDbEntity
  8
Geo
100
AcDbLine
 10
-30.32127981039976
 20
-4.785258815644114
 30
0.0
 11
-30.22127981039975
 21
-4.861537161590355
 31
0.0
  0
LINE
  5
F10744
330
261
100
AcDbEntity
  8
Geo
100
AcDbLine
 10
-30.22127981039975
 20
-2.055402765194227
 30
0.0
 11
-30.12127981039976
 21
-2.068176040309827
 31
0.0
  0
LINE
  5
F10746
330
261
100
AcDbEntity
  8
Geo
100
AcDbLine
 10
-30.22127981039975
 20
-4.861537161590355
 30
0.0
 11
-30.12127981039976
 21
-4.937453458328544
 31
0.0
  0
LINE
  5
F10748
330
261
100
AcDbEntity
  8
Geo
100
AcDbLine
 10
-30.12127981039976
 20
-2.068176040309827
 30
0.0
 11
-30.02127981039976
 21
-2.083315184707624
 31
0.0
  0
LINE
  5
F1074A
330
261
100
AcDbEntity
  8
Geo
100
AcDbLine
 10
-30.12127981039976
 20
-4.937453458328544
 30
0.0
 11
-30.02127981039976
 21
-5.012933568122585
 31
0.0
  0
LINE
  5
F1074C
330
261
100
AcDbEntity
  8
Geo
100
AcDbLine
 10
-30.02127981039976
 20
-2.083315184707624
 30
0.0
 11
-29.92127981039975
 21
-2.100805413921825
 31
0.0
  0
LINE
  5
F1074E
330
261
100
AcDbEntity
  8
Geo
100
AcDbLine
 10
-30.02127981039976
 20
-5.012933568122585
 30
0.0
 11
-29.92127981039975
 21
-5.087903779204415
 31
0.0
  0
LINE
  5
F10750
330
261
100
AcDbEntity
  8
Geo
100
AcDbLine
 10
-29.92127981039975
 20
-2.100805413921825
 30
0.0
 11
-29.82127981039976
 21
-2.120629647482926
 31
0.0
  0
LINE
  5
F10752
330
261
100
AcDbEntity
  8
Geo
100
AcDbLine
 10
-29.92127981039975
 20
-5.087903779204415
 30
0.0
 11
-29.82127981039976
 21
-5.162290877758776
 31
0.0
  0
LINE
  5
F10754
330
261
100
AcDbEntity
  8
Geo
100
AcDbLine
 10
-42.82127981039976
 20
-4.490802410757016
 30
0.0
 11
-42.82127981039976
 21
-4.490802410757016
 31
0.0
  0
LINE
  5
F10756
330
261
100
AcDbEntity
  8
Geo
100
AcDbLine
 10
-42.82127981039976
 20
-4.490802410757016
 30
0.0
 11
-42.82127981039976
 21
-4.490802410757016
 31
0.0
  0
LINE
  5
F10758
330
261
100
AcDbEntity
  8
Geo
100
AcDbLine
 10
-43.82127981039976
 20
-4.490802410757016
 30
0.0
 11
-43.52127981039976
 21
-4.490802410757016
 31
0.0
  0
LINE
  5
F1075A
330
261
100
AcDbEntity
  8
Geo
100
AcDbLine
 10
-43.39377981039976
 20
-4.490802410757016
 30
0.0
 11
-43.30877981039977
 21
-4.490802410757016
 31
0.0
  0
LINE
  5
F1075C
330
261
100
AcDbEntity
  8
Geo
100
AcDbLine
 10
-43.09627981039976
 20
-4.490802410757016
 30
0.0
 11
-42.67127981039976
 21
-4.490802410757016
 31
0.0
  0
LINE
  5
F1075E
330
261
100
AcDbEntity
  8
Geo
100
AcDbLine
 10
-42.54377981039977
 20
-4.490802410757016
 30
0.0
 11
-42.45877981039976
 21
-4.490802410757016
 31
0.0
  0
LINE
  5
F10760
330
261
100
AcDbEntity
  8
Geo
100
AcDbLine
 10
-42.24627981039977
 20
-4.490802410757016
 30
0.0
 11
-41.82127981039975
 21
-4.490802410757016
 31
0.0
  0
LINE
  5
F10762
330
261
100
AcDbEntity
  8
Geo
100
AcDbLine
 10
14.17872018960025
 20
-1.990802410757023
 30
0.0
 11
14.17872018960025
 21
-4.490802410757016
 31
0.0
  0
LINE
  5
F10764
330
261
100
AcDbEntity
  8
Geo
100
AcDbLine
 10
-42.82127981039976
 20
-4.490802410757016
 30
0.0
 11
-42.82127981039976
 21
-5.990802410757015
 31
0.0
  0
ARC
  5
F10766
330
261
100
AcDbEntity
  8
Geo
100
AcDbCircle
 10
-41.82127981039975
 20
-5.990802410757015
 30
0.0
 40
1.0
100
AcDbArc
 50
180.0
 51
270.0
  0
LINE
  5
F10768
330
261
100
AcDbEntity
  8
Geo
100
AcDbLine
 10
-41.82127981039975
 20
-6.990802410757015
 30
0.0
 11
-29.82127981039976
 21
-6.990802410757015
 31
0.0
  0
LINE
  5
F1076A
330
261
100
AcDbEntity
  8
Geo
100
AcDbLine
 10
-29.82127981039976
 20
-6.990802410757015
 30
0.0
 11
-29.82127981039976
 21
-6.740802410757015
 31
0.0
  0
LINE
  5
F1076C
330
261
100
AcDbEntity
  8
Geo
100
AcDbLine
 10
-29.82127981039976
 20
-6.740802410757015
 30
0.0
 11
-23.82127981039976
 21
-6.740802410757015
 31
0.0
  0
LINE
  5
F1076E
330
261
100
AcDbEntity
  8
Geo
100
AcDbLine
 10
-23.82127981039976
 20
-6.740802410757015
 30
0.0
 11
-21.82127981039976
 21
-7.490802410757015
 31
0.0
  0
LINE
  5
F10770
330
261
100
AcDbEntity
  8
Geo
100
AcDbLine
 10
-21.82127981039976
 20
-7.490802410757015
 30
0.0
 11
13.67872018960025
 21
-7.490802410757015
 31
0.0
  0
LINE
  5
F10772
330
261
100
AcDbEntity
  8
Geo
100
AcDbLine
 10
13.67872018960025
 20
-7.490802410757015
 30
0.0
 11
14.17872018960025
 21
-6.990802410757015
 31
0.0
  0
LINE
  5
F10774
330
261
100
AcDbEntity
  8
Geo
100
AcDbLine
 10
-41.82127981039975
 20
-1.990802410757023
 30
0.0
 11
-41.82127981039975
 21
-6.990802410757015
 31
0.0
  0
LINE
  5
F10776
330
261
100
AcDbEntity
  8
Geo
100
AcDbLine
 10
-41.82127981039975
 20
-1.990802410757023
 30
0.0
 11
-41.82127981039975
 21
-6.990802410757015
 31
0.0
  0
LINE
  5
F10778
330
261
100
AcDbEntity
  8
Geo
100
AcDbLine
 10
-29.82127981039976
 20
-1.990802410757023
 30
0.0
 11
-29.82127981039976
 21
-6.990802410757015
 31
0.0
  0
LINE
  5
F1077A
330
261
100
AcDbEntity
  8
Geo
100
AcDbLine
 10
-29.82127981039976
 20
-2.240802410757023
 30
0.0
 11
-29.82127981039976
 21
-6.740802410757015
 31
0.0
  0
LINE
  5
F1077C
330
261
100
AcDbEntity
  8
Geo
100
AcDbLine
 10
-23.82127981039976
 20
-2.240802410757023
 30
0.0
 11
-23.82127981039976
 21
-6.740802410757015
 31
0.0
  0
LINE
  5
F1077E
330
261
100
AcDbEntity
  8
Geo
100
AcDbLine
 10
-21.82127981039976
 20
-1.490802410757023
 30
0.0
 11
-21.82127981039976
 21
-7.490802410757015
 31
0.0
  0
LINE
  5
F10780
330
261
100
AcDbEntity
  8
Geo
100
AcDbLine
 10
-21.82127981039976
 20
-1.490802410757023
 30
0.0
 11
-21.82127981039976
 21
-7.490802410757015
 31
0.0
  0
LINE
  5
F10782
330
261
100
AcDbEntity
  8
Geo
100
AcDbLine
 10
13.67872018960025
 20
-1.490802410757023
 30
0.0
 11
13.67872018960025
 21
-7.490802410757015
 31
0.0
  0
LINE
  5
F10784
330
261
100
AcDbEntity
  8
Geo
100
AcDbLine
 10
14.17872018960025
 20
-1.990802410757023
 30
0.0
 11
14.17872018960025
 21
-6.990802410757015
 31
0.0
  0
TEXT
  5
F107E8
330
261
100
AcDbEntity
  8
Text
100
AcDbText
 10
-4.35233160621763
 20
-67.67962003454229
 30
0.0
 40
2.0
  1

100
AcDbText
  0
LWPOLYLINE
  5
F107FE
330
261
100
AcDbEntity
  8
Rahmen
100
AcDbPolyline
 90
        4
 70
     1
 43
0.0
 10
-134.650259067358
 20
99.8316062176166
 10
143.354922279793
 20
99.8316062176166
 10
143.354922279793
 20
-100.103626943005
 10
-134.650259067358
 20
-100.103626943005
  0
LWPOLYLINE
  5
F10802
330
261
100
AcDbEntity
  8
Rahmen
100
AcDbPolyline
 90
        4
 70
     1
 43
0.0
 10
103.367875647668
 20
-97.11139896373062
 10
143.354922279793
 20
-97.11139896373062
 10
143.354922279793
 20
-100.103626943005
 10
103.367875647668
 20
-100.103626943005
  0
TEXT
  5
F10804
330
261
100
AcDbEntity
  8
Text
100
AcDbText
 10
104.455958549223
 20
-98.11139896373061
 30
0.0
 40
0.75
  1
Ers. durch:
100
AcDbText
  0
LWPOLYLINE
  5
F10808
330
261
100
AcDbEntity
  8
Rahmen
100
AcDbPolyline
 90
        4
 70
     1
 43
0.0
 10
63.380829015544
 20
-97.11139896373062
 10
103.367875647668
 20
-97.11139896373062
 10
103.367875647668
 20
-100.103626943005
 10
63.380829015544
 20
-100.103626943005
  0
TEXT
  5
F1080A
330
261
100
AcDbEntity
  8
Text
100
AcDbText
 10
64.46891191709839
 20
-98.11139896373061
 30
0.0
 40
0.75
  1
Ers. für:
100
AcDbText
  0
TEXT
  5
F1080C
330
261
100
AcDbEntity
  8
Text
100
AcDbText
 10
91.39896373056991
 20
-99.4715025906736
 30
0.0
 40
0.75
  1

100
AcDbText
  0
LWPOLYLINE
  5
F1080E
330
261
100
AcDbEntity
  8
Rahmen
100
AcDbPolyline
 90
        4
 70
     1
 43
0.0
 10
130.025906735751
 20
-94.119170984456
 10
143.354922279793
 20
-94.119170984456
 10
143.354922279793
 20
-97.11139896373062
 10
130.025906735751
 20
-97.11139896373062
  0
TEXT
  5
F10810
330
261
100
AcDbEntity
  8
Text
100
AcDbText
 10
131.113989637306
 20
-95.119170984456
 30
0.0
 40
0.75
  1
Blätter
100
AcDbText
  0
TEXT
  5
F10812
330
261
100
AcDbEntity
  8
Text
100
AcDbText
 10
141.178756476684
 20
-96.479274611399
 30
0.0
 40
0.75
  1

100
AcDbText
  0
LWPOLYLINE
  5
F10814
330
261
100
AcDbEntity
  8
Rahmen
100
AcDbPolyline
 90
        4
 70
     1
 43
0.0
 10
130.025906735751
 20
-91.12694300518128
 10
143.354922279793
 20
-91.12694300518128
 10
143.354922279793
 20
-94.119170984456
 10
130.025906735751
 20
-94.119170984456
  0
TEXT
  5
F10816
330
261
100
AcDbEntity
  8
Text
100
AcDbText
 10
131.113989637306
 20
-92.12694300518128
 30
0.0
 40
0.75
  1
Blatt
100
AcDbText
  0
TEXT
  5
F10818
330
261
100
AcDbEntity
  8
Text
100
AcDbText
 10
141.178756476684
 20
-93.48704663212428
 30
0.0
 40
0.75
  1

100
AcDbText
  0
LWPOLYLINE
  5
F1081A
330
261
100
AcDbEntity
  8
Rahmen
100
AcDbPolyline
 90
        4
 70
     1
 43
0.0
 10
63.380829015544
 20
-91.12694300518128
 10
130.025906735751
 20
-91.12694300518128
 10
130.025906735751
 20
-97.11139896373062
 10
63.380829015544
 20
-97.11139896373062
  0
TEXT
  5
F1081C
330
261
100
AcDbEntity
  8
Text
100
AcDbText
 10
64.46891191709839
 20
-92.12694300518128
 30
0.0
 40
0.75
  1
Datum:
100
AcDbText
  0
LWPOLYLINE
  5
F10820
330
261
100
AcDbEntity
  8
Rahmen
100
AcDbPolyline
 90
        4
 70
     1
 43
0.0
 10
63.380829015544
 20
-85.14248704663208
 10
143.354922279793
 20
-85.14248704663208
 10
143.354922279793
 20
-91.12694300518128
 10
63.380829015544
 20
-91.12694300518128
  0
TEXT
  5
F10822
330
261
100
AcDbEntity
  8
Text
100
AcDbText
 10
-208.09585492228
 20
103.0
 30
0.0
 40
1.5
  1

100
AcDbText
  0
TEXT
  5
F10824
330
261
100
AcDbEntity
  8
Text
100
AcDbText
 10
86.50259067357522
 20
-89.01986183074269
 30
0.0
 40
2.5
  1
7535-050-R1
100
AcDbText
  0
LWPOLYLINE
  5
F10826
330
261
100
AcDbEntity
  8
Rahmen
100
AcDbPolyline
 90
        4
 70
     1
 43
0.0
 10
103.367875647668
 20
-79.1580310880829
 10
143.354922279793
 20
-79.1580310880829
 10
143.354922279793
 20
-85.14248704663208
 10
103.367875647668
 20
-85.14248704663208
  0
TEXT
  5
F10828
330
261
100
AcDbEntity
  8
Text
100
AcDbText
 10
104.455958549223
 20
-80.1580310880829
 30
0.0
 40
0.75
  1
Zu bearb. Material:
100
AcDbText
  0
TEXT
  5
F1082A
330
261
100
AcDbEntity
  8
Text
100
AcDbText
 10
123.225388601036
 20
-84.5103626943005
 30
0.0
 40
0.75
  1

100
AcDbText
  0
LWPOLYLINE
  5
F1082C
330
261
100
AcDbEntity
  8
Rahmen
100
AcDbPolyline
 90
        4
 70
     1
 43
0.0
 10
63.380829015544
 20
-79.1580310880829
 10
103.367875647668
 20
-79.1580310880829
 10
103.367875647668
 20
-85.14248704663208
 10
63.380829015544
 20
-85.14248704663208
  0
TEXT
  5
F1082E
330
261
100
AcDbEntity
  8
Text
100
AcDbText
 10
64.46891191709839
 20
-80.1580310880829
 30
0.0
 40
0.75
  1
Werkstoff:
100
AcDbText
  0
LWPOLYLINE
  5
F10832
330
261
100
AcDbEntity
  8
Rahmen
100
AcDbPolyline
 90
        4
 70
     1
 43
0.0
 10
103.367875647668
 20
-76.16580310880831
 10
143.354922279793
 20
-76.16580310880831
 10
143.354922279793
 20
-79.1580310880829
 10
103.367875647668
 20
-79.1580310880829
  0
TEXT
  5
F10834
330
261
100
AcDbEntity
  8
Text
100
AcDbText
 10
-208.09585492228
 20
103.0
 30
0.0
 40
1.5
  1

100
AcDbText
  0
LWPOLYLINE
  5
F10838
330
261
100
AcDbEntity
  8
Rahmen
100
AcDbPolyline
 90
        4
 70
     1
 43
0.0
 10
63.380829015544
 20
-76.16580310880831
 10
103.367875647668
 20
-76.16580310880831
 10
103.367875647668
 20
-79.1580310880829
 10
63.380829015544
 20
-79.1580310880829
  0
TEXT
  5
F1083A
330
261
100
AcDbEntity
  8
Text
100
AcDbText
 10
64.46891191709839
 20
-77.1658031088083
 30
0.0
 40
0.75
  1
Maßstab:
100
AcDbText
  0
VIEWPORT
  5
294
102
{ACAD_XDICTIONARY
360
F10AA8
102
}
330
25D
100
AcDbEntity
 67
     1
  8
0
 60
     1
100
AcDbViewport
 10
0.0
 20
0.0
 30
0.0
 40
10.0
 41
10.0
 68
    -1
 69
     1
 12
0.0
 22
0.0
 13
0.0
 23
0.0
 14
1.0
 24
1.0
 15
0.0
 25
0.0
 16
0.0
 26
0.0
 36
1.0
 17
0.0
 27
0.0
 37
0.0
 42
0.0
 43
0.0
 44
0.0
 45
10.0
 50
0.0
 51
0.0000000000007958
 72
   100
 90
    32800
  1

281
     0
 71
     0
 74
     0
110
0.0
120
0.0
130
0.0
111
1.0
121
0.0
131
0.0
112
0.0
122
1.0
132
0.0
 79
     0
146
0.0
1001
VD_INVISIBLE_NOT_FOR_READ
1000
VD_INVISIBLE_NOT_FOR_READ
1001
GENIUS_GENSCREG_15
1000
PF
1040
1.0
1000
DF
1040
1.0
1000
MIN
1011
-5.0
1021
-5.0
1031
0.0
1000
MAX
1011
5.0
1021
5.0
1031
0.0
1000
FLAGS
1070
     4
1001
GENIUS_GENOBJ-N-SDF_13
1002
{
1000
OWNER
1000
GEN
1002
}
1001
GENIUS_GENODEF_13
1002
{
1000
HIER
1070
     0
1002
}
1002
{
1000
MANEDIT
1070
     0
1002
}
1002
{
1000
NOSEL
1070
     0
1002
}
1002
{
1000
BEHIND
1070
     0
1002
}
1002
{
1000
OTHER
1070
     0
1002
}
1002
{
1000
REACTOR
1002
}
  0
VIEWPORT
  5
295
102
{ACAD_XDICTIONARY
360
F10AAA
102
}
330
25D
100
AcDbEntity
 67
     1
  8
0
 60
     1
100
AcDbViewport
 10
0.0
 20
0.0
 30
0.0
 40
10.0
 41
10.0
 68
     0
 69
     2
 12
0.0
 22
0.0
 13
0.0
 23
0.0
 14
1.0
 24
1.0
 15
0.0
 25
0.0
 16
0.0
 26
0.0
 36
1.0
 17
0.0
 27
0.0
 37
0.0
 42
0.0
 43
0.0
 44
0.0
 45
10.0
 50
0.0
 51
0.0000000000007958
 72
   100
 90
   163872
  1

281
     0
 71
     0
 74
     0
110
0.0
120
0.0
130
0.0
111
1.0
121
0.0
131
0.0
112
0.0
122
1.0
132
0.0
 79
     0
146
0.0
1001
VD_INVISIBLE_NOT_FOR_READ
1000
VD_INVISIBLE_NOT_FOR_READ
1001
GENIUS_GENSCREG_15
1000
PF
1040
1.0
1000
DF
1040
1.0
1000
MIN
1011
-5.0
1021
-5.0
1031
0.0
1000
MAX
1011
5.0
1021
5.0
1031
0.0
1000
FLAGS
1070
     4
1001
GENIUS_GENOBJ-N-SDF_13
1002
{
1000
OWNER
1000
GEN
1002
}
1001
GENIUS_GENODEF_13
1002
{
1000
HIER
1070
     0
1002
}
1002
{
1000
MANEDIT
1070
     0
1002
}
1002
{
1000
NOSEL
1070
     0
1002
}
1002
{
1000
BEHIND
1070
     0
1002
}
1002
{
1000
OTHER
1070
     0
1002
}
1002
{
1000
REACTOR
1002
}
  0
ENDSEC
  0
SECTION
  2
OBJECTS
  0
DICTIONARY
  5
13
330
0
100
AcDbDictionary
281
     1
  3
ACAD_COLOR
350
FA7
  3
ACAD_GROUP
350
14
  3
ACAD_LAYOUT
350
FCF
  3
ACAD_MATERIAL
350
F7A
  3
ACAD_MLEADERSTYLE
350
FCD
  3
ACAD_MLINESTYLE
350
16
  3
ACAD_PLOTSETTINGS
350
17
  3
ACAD_PLOTSTYLENAME
350
18
  3
ACAD_SCALELIST
350
FAB
  3
ACAD_TABLESTYLE
350
FA8
  3
ACAD_VISUALSTYLE
350
F93
  3
ACDB_RECOMPOSE_DATA
350
F10AA6
  3
AcDbVariableDictionary
350
F10A9B
  3
AcmDictionary
350
F10893
  3
AMG
350
F10847
  3
AMGSNAPSETTINGS
350
F1092A
  3
DWGPROPS
350
F10AA7
  0
DICTIONARY
  5
F10A91
330
252
100
AcDbDictionary
280
     1
281
     1
  3
ADSK_XREC_LAYER_RECONCILED
360
F10A92
  0
DICTIONARY
  5
F10A93
330
23F
100
AcDbDictionary
280
     1
281
     1
  3
ADSK_XREC_LAYER_RECONCILED
360
F10A94
  0
DICTIONARY
  5
F10A95
330
240
100
AcDbDictionary
280
     1
281
     1
  3
ADSK_XREC_LAYER_RECONCILED
360
F10A96
  0
DICTIONARY
  5
F10A97
330
241
100
AcDbDictionary
280
     1
281
     1
  3
ADSK_XREC_LAYER_RECONCILED
360
F10A98
  0
DICTIONARY
  5
F10A99
330
57E
100
AcDbDictionary
280
     1
281
     1
  3
ADSK_XREC_LAYER_RECONCILED
360
F10A9A
  0
DICTIONARY
  5
F10AAC
330
296
100
AcDbDictionary
280
     1
281
     1
  3
ACAD_XREC_ROUNDTRIP
360
F10AAD
  0
DICTIONARY
  5
F10AAE
330
297
100
AcDbDictionary
280
     1
281
     1
  3
ACAD_XREC_ROUNDTRIP
360
F10AAF
  0
DICTIONARY
  5
F10AA4
330
F108F5
100
AcDbDictionary
280
     1
281
     1
  3
ACAD_MTEXT_2008_RT
360
F10AA5
  3
ACAD_MTEXT_RT
360
F10AED
  0
DICTIONARY
  5
F10AA8
330
294
100
AcDbDictionary
280
     1
281
     1
  3
ACAD_XREC_ROUNDTRIP
360
F10AA9
  0
DICTIONARY
  5
F10AAA
330
295
100
AcDbDictionary
280
     1
281
     1
  3
ACAD_XREC_ROUNDTRIP
360
F10AAB
  0
DICTIONARY
  5
FA7
102
{ACAD_REACTORS
330
13
102
}
330
13
100
AcDbDictionary
281
     1
  0
DICTIONARY
  5
14
330
13
100
AcDbDictionary
281
     1
  0
DICTIONARY
  5
FCF
102
{ACAD_REACTORS
330
13
102
}
330
13
100
AcDbDictionary
281
     1
  3
Layout1
350
FD1
  3
Model
350
FD0
  0
DICTIONARY
  5
F7A
102
{ACAD_REACTORS
330
13
102
}
330
13
100
AcDbDictionary
281
     1
  3
ByBlock
350
F83
  3
ByLayer
350
F7B
  3
Global
350
F8B
  0
DICTIONARY
  5
FCD
102
{ACAD_REACTORS
330
13
102
}
330
13
100
AcDbDictionary
281
     1
  3
Standard
350
FCE
  0
DICTIONARY
  5
16
330
13
100
AcDbDictionary
281
     1
  3
Standard
350
FAA
  0
DICTIONARY
  5
17
102
{ACAD_REACTORS
330
13
102
}
330
13
100
AcDbDictionary
281
     1
  0
ACDBDICTIONARYWDFLT
  5
18
102
{ACAD_REACTORS
330
13
102
}
330
13
100
AcDbDictionary
281
     1
  3
Normal
350
19
100
AcDbDictionaryWithDefault
340
19
  0
DICTIONARY
  5
FAB
102
{ACAD_REACTORS
330
13
102
}
330
13
100
AcDbDictionary
281
     1
  3
A0
350
FAC
  3
A1
350
FAD
  3
A2
350
FAE
  3
A3
350
FAF
  3
A4
350
FB0
  3
A5
350
FB1
  3
A6
350
FB2
  3
A7
350
FB3
  3
A8
350
FB4
  3
A9
350
FB5
  3
B0
350
FB6
  3
B1
350
FB7
  3
B2
350
FB8
  3
B3
350
FB9
  3
B4
350
FBA
  3
B5
350
FBB
  3
B6
350
FBC
  3
B7
350
FBD
  3
B8
350
FBE
  3
B9
350
FBF
  3
C0
350
FC0
  3
C1
350
FC1
  3
C2
350
FC2
  3
C3
350
FC3
  3
C4
350
FC4
  3
C5
350
FC5
  3
C6
350
FC6
  3
C7
350
FC7
  3
C8
350
FC8
  3
C9
350
FC9
  3
D0
350
FCA
  3
D1
350
FCB
  3
D2
350
FCC
  0
DICTIONARY
  5
FA8
102
{ACAD_REACTORS
330
13
102
}
330
13
100
AcDbDictionary
281
     1
  3
Standard
350
FA9
  0
DICTIONARY
  5
F93
102
{ACAD_REACTORS
330
13
102
}
330
13
100
AcDbDictionary
281
     1
  3
2dWireframe
350
F99
  3
3D Hidden
350
F9B
  3
3dWireframe
350
F9A
  3
Basic
350
F98
  3
Brighten
350
F9F
  3
ColorChange
350
FA3
  3
Conceptual
350
F9C
  3
Dim
350
F9E
  3
EdgeColorOff
350
FA6
  3
Facepattern
350
FA2
  3
Flat
350
F94
  3
FlatWithEdges
350
F95
  3
Gouraud
350
F96
  3
GouraudWithEdges
350
F97
  3
Hidden
350
F1083F
  3
JitterOff
350
FA4
  3
Linepattern
350
FA1
  3
OverhangOff
350
FA5
  3
Realistic
350
F9D
  3
Shaded
350
F10844
  3
Shaded with edges
350
F10843
  3
Shades of Gray
350
F10840
  3
Sketchy
350
F10841
  3
Thicken
350
FA0
  3
Wireframe
350
F1083E
  3
X-Ray
350
F10842
  0
XRECORD
  5
F10AA6
102
{ACAD_REACTORS
330
13
102
}
330
13
100
AcDbXrecord
280
     1
 90
        1
330
FA9
330
F108F5
  0
DICTIONARY
  5
F10A9B
102
{ACAD_REACTORS
330
13
102
}
330
13
100
AcDbDictionary
281
     1
  3
CANNOSCALE
350
F10A9E
  3
CMLEADERSTYLE
350
F10A9D
  3
CTABLESTYLE
350
F10A9C
  3
DIMASSOC
350
F10AA1
  3
INDEXCTL
350
F10AA0
  3
SORTENTS
350
F10A9F
  3
XCLIPFRAME
350
F10AA2
  0
DICTIONARY
  5
F10893
102
{ACAD_REACTORS
330
13
102
}
330
13
100
AcDbDictionary
281
     1
  3
AcmStdDictionary
350
F1089E
  0
DICTIONARY
  5
F10847
102
{ACAD_REACTORS
330
13
102
}
330
13
100
AcDbDictionary
281
     1
  0
DICTIONARY
  5
F1092A
102
{ACAD_REACTORS
330
13
102
}
330
13
100
AcDbDictionary
281
     1
  0
XRECORD
  5
F10AA7
102
{ACAD_REACTORS
330
13
102
}
330
13
100
AcDbXrecord
280
     1
  1
DWGPROPS COOKIE
  2

  3

  4

  6

  7

  8
Steigner
  9

300
=
301
=
302
=
303
=
304
=
305
=
306
=
307
=
308
=
309
=
 40
0.0032936226851852
 41
2457073.581119421
 42
2457073.584411979
  1

 90
        0
  0
XRECORD
  5
F10A92
102
{ACAD_REACTORS
330
F10A91
102
}
330
F10A91
100
AcDbXrecord
280
     1
290
     1
  0
XRECORD
  5
F10A94
102
{ACAD_REACTORS
330
F10A93
102
}
330
F10A93
100
AcDbXrecord
280
     1
290
     1
  0
XRECORD
  5
F10A96
102
{ACAD_REACTORS
330
F10A95
102
}
330
F10A95
100
AcDbXrecord
280
     1
290
     1
  0
XRECORD
  5
F10A98
102
{ACAD_REACTORS
330
F10A97
102
}
330
F10A97
100
AcDbXrecord
280
     1
290
     1
  0
XRECORD
  5
F10A9A
102
{ACAD_REACTORS
330
F10A99
102
}
330
F10A99
100
AcDbXrecord
280
     1
290
     1
  0
XRECORD
  5
F10AAD
102
{ACAD_REACTORS
330
F10AAC
102
}
330
F10AAC
100
AcDbXrecord
280
     1
102
SHADEPLOT
 70
     0
  0
XRECORD
  5
F10AAF
102
{ACAD_REACTORS
330
F10AAE
102
}
330
F10AAE
100
AcDbXrecord
280
     1
102
SHADEPLOT
 70
     0
  0
XRECORD
  5
F10AA5
102
{ACAD_REACTORS
330
F10AA4
102
}
330
F10AA4
100
AcDbXrecord
280
     1
 40
30518.0
  1
\A1;30\U+00B0{\H1.250000;\S+5\U+00B0~.+5\U+00B0;}
  0
XRECORD
  5
F10AED
102
{ACAD_REACTORS
330
F10AA4
102
}
330
F10AA4
100
AcDbXrecord
280
     1
 40
28745.0
  1
\A1;30°{\H0.5x;\S+5°^ +5°;}
  0
XRECORD
  5
F10AA9
102
{ACAD_REACTORS
330
F10AA8
102
}
330
F10AA8
100
AcDbXrecord
280
     1
102
SHADEPLOT
 70
     0
  0
XRECORD
  5
F10AAB
102
{ACAD_REACTORS
330
F10AAA
102
}
330
F10AAA
100
AcDbXrecord
280
     1
102
SHADEPLOT
 70
     0
  0
LAYOUT
  5
FD1
102
{ACAD_XDICTIONARY
360
F10AD9
102
}
102
{ACAD_REACTORS
330
FCF
102
}
330
FCF
100
AcDbPlotSettings
  1

  2
Microsoft XPS Document Writer
  4

  6

 40
0.0
 41
0.0
 42
0.0
 43
0.0
 44
0.0
 45
0.0
 46
0.0
 47
0.0
 48
0.0
 49
0.0
140
0.0
141
0.0
142
1.0
143
1.0
 70
   688
 72
     0
 73
     0
 74
     5
  7

 75
    16
147
1.0
148
0.0
149
0.0
100
AcDbLayout
  1
Layout1
 70
     1
 71
     1
 10
0.0
 20
0.0
 11
12.0
 21
9.0
 12
0.0
 22
0.0
 32
0.0
 14
1.000000000000000E+20
 24
1.000000000000000E+20
 34
1.000000000000000E+20
 15
-1.000000000000000E+20
 25
-1.000000000000000E+20
 35
-1.000000000000000E+20
146
0.0
 13
0.0
 23
0.0
 33
0.0
 16
1.0
 26
0.0
 36
0.0
 17
0.0
 27
1.0
 37
0.0
 76
     0
330
25D
  0
LAYOUT
  5
FD0
102
{ACAD_XDICTIONARY
360
F10AD7
102
}
102
{ACAD_REACTORS
330
FCF
102
}
330
FCF
100
AcDbPlotSettings
  1

  2
Microsoft XPS Document Writer
  4

  6

 40
0.0
 41
0.0
 42
0.0
 43
0.0
 44
0.0
 45
0.0
 46
0.0
 47
0.0
 48
0.0
 49
0.0
140
0.0
141
0.0
142
1.0
143
1.0
 70
  1712
 72
     0
 73
     0
 74
     0
  7

 75
     0
147
1.0
148
0.0
149
0.0
100
AcDbLayout
  1
Model
 70
     1
 71
     0
 10
0.0
 20
0.0
 11
12.0
 21
9.0
 12
0.0
 22
0.0
 32
0.0
 14
0.0
 24
0.0
 34
0.0
 15
0.0
 25
0.0
 35
0.0
146
0.0
 13
0.0
 23
0.0
 33
0.0
 16
1.0
 26
0.0
 36
0.0
 17
0.0
 27
1.0
 37
0.0
 76
     0
330
261
331
26B
  0
MATERIAL
  5
F83
102
{ACAD_XDICTIONARY
360
F84
102
}
102
{ACAD_REACTORS
330
F7A
102
}
330
F7A
100
AcDbMaterial
  1
ByBlock
 72
     0
 43
0.0208333333333333
 43
0.0
 43
0.0
 43
0.0
 43
0.0
 43
0.0208333333333333
 43
0.0
 43
0.0
 43
0.0
 43
0.0
 43
1.0
 43
0.0
 43
0.0
 43
0.0
 43
0.0
 43
1.0
 77
     0
 47
0.0208333333333333
 47
0.0
 47
0.0
 47
0.0
 47
0.0
 47
0.0208333333333333
 47
0.0
 47
0.0
 47
0.0
 47
0.0
 47
1.0
 47
0.0
 47
0.0
 47
0.0
 47
0.0
 47
1.0
171
     0
 49
0.0208333333333333
 49
0.0
 49
0.0
 49
0.0
 49
0.0
 49
0.0208333333333333
 49
0.0
 49
0.0
 49
0.0
 49
0.0
 49
1.0
 49
0.0
 49
0.0
 49
0.0
 49
0.0
 49
1.0
175
     0
142
0.0208333333333333
142
0.0
142
0.0
142
0.0
142
0.0
142
0.0208333333333333
142
0.0
142
0.0
142
0.0
142
0.0
142
1.0
142
0.0
142
0.0
142
0.0
142
0.0
142
1.0
179
     0
144
0.0208333333333333
144
0.0
144
0.0
144
0.0
144
0.0
144
0.0208333333333333
144
0.0
144
0.0
144
0.0
144
0.0
144
1.0
144
0.0
144
0.0
144
0.0
144
0.0
144
1.0
147
0.0208333333333333
147
0.0
147
0.0
147
0.0
147
0.0
147
0.0208333333333333
147
0.0
147
0.0
147
0.0
147
0.0
147
1.0
147
0.0
147
0.0
147
0.0
147
0.0
147
1.0
  0
MATERIAL
  5
F7B
102
{ACAD_XDICTIONARY
360
F7C
102
}
102
{ACAD_REACTORS
330
F7A
102
}
330
F7A
100
AcDbMaterial
  1
ByLayer
 72
     0
 43
0.0208333333333333
 43
0.0
 43
0.0
 43
0.0
 43
0.0
 43
0.0208333333333333
 43
0.0
 43
0.0
 43
0.0
 43
0.0
 43
1.0
 43
0.0
 43
0.0
 43
0.0
 43
0.0
 43
1.0
 77
     0
 47
0.0208333333333333
 47
0.0
 47
0.0
 47
0.0
 47
0.0
 47
0.0208333333333333
 47
0.0
 47
0.0
 47
0.0
 47
0.0
 47
1.0
 47
0.0
 47
0.0
 47
0.0
 47
0.0
 47
1.0
171
     0
 49
0.0208333333333333
 49
0.0
 49
0.0
 49
0.0
 49
0.0
 49
0.0208333333333333
 49
0.0
 49
0.0
 49
0.0
 49
0.0
 49
1.0
 49
0.0
 49
0.0
 49
0.0
 49
0.0
 49
1.0
175
     0
142
0.0208333333333333
142
0.0
142
0.0
142
0.0
142
0.0
142
0.0208333333333333
142
0.0
142
0.0
142
0.0
142
0.0
142
1.0
142
0.0
142
0.0
142
0.0
142
0.0
142
1.0
179
     0
144
0.0208333333333333
144
0.0
144
0.0
144
0.0
144
0.0
144
0.0208333333333333
144
0.0
144
0.0
144
0.0
144
0.0
144
1.0
144
0.0
144
0.0
144
0.0
144
0.0
144
1.0
147
0.0208333333333333
147
0.0
147
0.0
147
0.0
147
0.0
147
0.0208333333333333
147
0.0
147
0.0
147
0.0
147
0.0
147
1.0
147
0.0
147
0.0
147
0.0
147
0.0
147
1.0
  0
MATERIAL
  5
F8B
102
{ACAD_XDICTIONARY
360
F8C
102
}
102
{ACAD_REACTORS
330
F7A
102
}
330
F7A
100
AcDbMaterial
  1
Global
 72
     0
 43
0.0208333333333333
 43
0.0
 43
0.0
 43
0.0
 43
0.0
 43
0.0208333333333333
 43
0.0
 43
0.0
 43
0.0
 43
0.0
 43
1.0
 43
0.0
 43
0.0
 43
0.0
 43
0.0
 43
1.0
 77
     0
 47
0.0208333333333333
 47
0.0
 47
0.0
 47
0.0
 47
0.0
 47
0.0208333333333333
 47
0.0
 47
0.0
 47
0.0
 47
0.0
 47
1.0
 47
0.0
 47
0.0
 47
0.0
 47
0.0
 47
1.0
171
     0
 49
0.0208333333333333
 49
0.0
 49
0.0
 49
0.0
 49
0.0
 49
0.0208333333333333
 49
0.0
 49
0.0
 49
0.0
 49
0.0
 49
1.0
 49
0.0
 49
0.0
 49
0.0
 49
0.0
 49
1.0
175
     0
142
0.0208333333333333
142
0.0
142
0.0
142
0.0
142
0.0
142
0.0208333333333333
142
0.0
142
0.0
142
0.0
142
0.0
142
1.0
142
0.0
142
0.0
142
0.0
142
0.0
142
1.0
179
     0
144
0.0208333333333333
144
0.0
144
0.0
144
0.0
144
0.0
144
0.0208333333333333
144
0.0
144
0.0
144
0.0
144
0.0
144
1.0
144
0.0
144
0.0
144
0.0
144
0.0
144
1.0
147
0.0208333333333333
147
0.0
147
0.0
147
0.0
147
0.0
147
0.0208333333333333
147
0.0
147
0.0
147
0.0
147
0.0
147
1.0
147
0.0
147
0.0
147
0.0
147
0.0
147
1.0
  0
MLEADERSTYLE
  5
FCE
102
{ACAD_REACTORS
330
FCD
102
}
330
FCD
100
AcDbMLeaderStyle
170
     2
171
     1
172
     0
 90
        2
 40
0.0
 41
0.0
173
     1
 91
-1056964608
340
256
 92
       -2
290
     1
 42
0.09
291
     1
 43
0.36
  3
Standard
 44
0.18
300

342
253
174
     1
178
     6
175
     1
176
     0
 93
-1056964608
 45
0.18
292
     0
297
     0
 46
0.18
 94
-1056964608
 47
1.0
 49
1.0
140
1.0
293
     1
141
0.0
294
     1
177
     0
142
1.0
295
     0
296
     0
143
0.125
1001
ACAD_MLEADERVER
1070
     2
  0
MLINESTYLE
  5
FAA
102
{ACAD_REACTORS
330
16
102
}
330
16
100
AcDbMlineStyle
  2
STANDARD
 70
     0
  3

 62
   256
 51
90.0
 52
90.0
 71
     2
 49
0.5
 62
   256
  6
BYLAYER
 49
-0.5
 62
   256
  6
BYLAYER
  0
ACDBPLACEHOLDER
  5
19
102
{ACAD_REACTORS
330
18
102
}
330
18
  0
SCALE
  5
FAC
102
{ACAD_REACTORS
330
FAB
102
}
330
FAB
100
AcDbScale
 70
     0
300
1:1
140
1.0
141
1.0
290
     1
  0
SCALE
  5
FAD
102
{ACAD_REACTORS
330
FAB
102
}
330
FAB
100
AcDbScale
 70
     0
300
1:2
140
1.0
141
2.0
290
     0
  0
SCALE
  5
FAE
102
{ACAD_REACTORS
330
FAB
102
}
330
FAB
100
AcDbScale
 70
     0
300
1:4
140
1.0
141
4.0
290
     0
  0
SCALE
  5
FAF
102
{ACAD_REACTORS
330
FAB
102
}
330
FAB
100
AcDbScale
 70
     0
300
1:5
140
1.0
141
5.0
290
     0
  0
SCALE
  5
FB0
102
{ACAD_REACTORS
330
FAB
102
}
330
FAB
100
AcDbScale
 70
     0
300
1:8
140
1.0
141
8.0
290
     0
  0
SCALE
  5
FB1
102
{ACAD_REACTORS
330
FAB
102
}
330
FAB
100
AcDbScale
 70
     0
300
1:10
140
1.0
141
10.0
290
     0
  0
SCALE
  5
FB2
102
{ACAD_REACTORS
330
FAB
102
}
330
FAB
100
AcDbScale
 70
     0
300
1:16
140
1.0
141
16.0
290
     0
  0
SCALE
  5
FB3
102
{ACAD_REACTORS
330
FAB
102
}
330
FAB
100
AcDbScale
 70
     0
300
1:20
140
1.0
141
20.0
290
     0
  0
SCALE
  5
FB4
102
{ACAD_REACTORS
330
FAB
102
}
330
FAB
100
AcDbScale
 70
     0
300
1:30
140
1.0
141
30.0
290
     0
  0
SCALE
  5
FB5
102
{ACAD_REACTORS
330
FAB
102
}
330
FAB
100
AcDbScale
 70
     0
300
1:40
140
1.0
141
40.0
290
     0
  0
SCALE
  5
FB6
102
{ACAD_REACTORS
330
FAB
102
}
330
FAB
100
AcDbScale
 70
     0
300
1:50
140
1.0
141
50.0
290
     0
  0
SCALE
  5
FB7
102
{ACAD_REACTORS
330
FAB
102
}
330
FAB
100
AcDbScale
 70
     0
300
1:100
140
1.0
141
100.0
290
     0
  0
SCALE
  5
FB8
102
{ACAD_REACTORS
330
FAB
102
}
330
FAB
100
AcDbScale
 70
     0
300
2:1
140
2.0
141
1.0
290
     0
  0
SCALE
  5
FB9
102
{ACAD_REACTORS
330
FAB
102
}
330
FAB
100
AcDbScale
 70
     0
300
4:1
140
4.0
141
1.0
290
     0
  0
SCALE
  5
FBA
102
{ACAD_REACTORS
330
FAB
102
}
330
FAB
100
AcDbScale
 70
     0
300
8:1
140
8.0
141
1.0
290
     0
  0
SCALE
  5
FBB
102
{ACAD_REACTORS
330
FAB
102
}
330
FAB
100
AcDbScale
 70
     0
300
10:1
140
10.0
141
1.0
290
     0
  0
SCALE
  5
FBC
102
{ACAD_REACTORS
330
FAB
102
}
330
FAB
100
AcDbScale
 70
     0
300
100:1
140
100.0
141
1.0
290
     0
  0
SCALE
  5
FBD
102
{ACAD_REACTORS
330
FAB
102
}
330
FAB
100
AcDbScale
 70
     0
300
1/128" = 1'-0"
140
0.0078125
141
12.0
290
     0
  0
SCALE
  5
FBE
102
{ACAD_REACTORS
330
FAB
102
}
330
FAB
100
AcDbScale
 70
     0
300
1/64" = 1'-0"
140
0.015625
141
12.0
290
     0
  0
SCALE
  5
FBF
102
{ACAD_REACTORS
330
FAB
102
}
330
FAB
100
AcDbScale
 70
     0
300
1/32" = 1'-0"
140
0.03125
141
12.0
290
     0
  0
SCALE
  5
FC0
102
{ACAD_REACTORS
330
FAB
102
}
330
FAB
100
AcDbScale
 70
     0
300
1/16" = 1'-0"
140
0.0625
141
12.0
290
     0
  0
SCALE
  5
FC1
102
{ACAD_REACTORS
330
FAB
102
}
330
FAB
100
AcDbScale
 70
     0
300
3/32" = 1'-0"
140
0.09375
141
12.0
290
     0
  0
SCALE
  5
FC2
102
{ACAD_REACTORS
330
FAB
102
}
330
FAB
100
AcDbScale
 70
     0
300
1/8" = 1'-0"
140
0.125
141
12.0
290
     0
  0
SCALE
  5
FC3
102
{ACAD_REACTORS
330
FAB
102
}
330
FAB
100
AcDbScale
 70
     0
300
3/16" = 1'-0"
140
0.1875
141
12.0
290
     0
  0
SCALE
  5
FC4
102
{ACAD_REACTORS
330
FAB
102
}
330
FAB
100
AcDbScale
 70
     0
300
1/4" = 1'-0"
140
0.25
141
12.0
290
     0
  0
SCALE
  5
FC5
102
{ACAD_REACTORS
330
FAB
102
}
330
FAB
100
AcDbScale
 70
     0
300
3/8" = 1'-0"
140
0.375
141
12.0
290
     0
  0
SCALE
  5
FC6
102
{ACAD_REACTORS
330
FAB
102
}
330
FAB
100
AcDbScale
 70
     0
300
1/2" = 1'-0"
140
0.5
141
12.0
290
     0
  0
SCALE
  5
FC7
102
{ACAD_REACTORS
330
FAB
102
}
330
FAB
100
AcDbScale
 70
     0
300
3/4" = 1'-0"
140
0.75
141
12.0
290
     0
  0
SCALE
  5
FC8
102
{ACAD_REACTORS
330
FAB
102
}
330
FAB
100
AcDbScale
 70
     0
300
1" = 1'-0"
140
1.0
141
12.0
290
     0
  0
SCALE
  5
FC9
102
{ACAD_REACTORS
330
FAB
102
}
330
FAB
100
AcDbScale
 70
     0
300
1-1/2" = 1'-0"
140
1.5
141
12.0
290
     0
  0
SCALE
  5
FCA
102
{ACAD_REACTORS
330
FAB
102
}
330
FAB
100
AcDbScale
 70
     0
300
3" = 1'-0"
140
3.0
141
12.0
290
     0
  0
SCALE
  5
FCB
102
{ACAD_REACTORS
330
FAB
102
}
330
FAB
100
AcDbScale
 70
     0
300
6" = 1'-0"
140
6.0
141
12.0
290
     0
  0
SCALE
  5
FCC
102
{ACAD_REACTORS
330
FAB
102
}
330
FAB
100
AcDbScale
 70
     0
300
1'-0" = 1'-0"
140
12.0
141
12.0
290
     0
  0
TABLESTYLE
  5
FA9
102
{ACAD_XDICTIONARY
360
FF8
102
}
102
{ACAD_REACTORS
330
FA8
102
}
330
FA8
100
AcDbTableStyle
  3
Standard
 70
     0
 71
     0
 40
0.06
 41
0.06
280
     0
281
     0
  7
Standard
140
0.18
170
     2
 62
     0
 63
     7
283
     0
274
    -2
284
     1
 64
     0
275
    -2
285
     1
 65
     0
276
    -2
286
     1
 66
     0
277
    -2
287
     1
 67
     0
278
    -2
288
     1
 68
     0
279
    -2
289
     1
 69
     0
  7
Standard
140
0.25
170
     5
 62
     0
 63
     7
283
     0
274
    -2
284
     1
 64
     0
275
    -2
285
     1
 65
     0
276
    -2
286
     1
 66
     0
277
    -2
287
     1
 67
     0
278
    -2
288
     1
 68
     0
279
    -2
289
     1
 69
     0
  7
Standard
140
0.18
170
     5
 62
     0
 63
     7
283
     0
274
    -2
284
     1
 64
     0
275
    -2
285
     1
 65
     0
276
    -2
286
     1
 66
     0
277
    -2
287
     1
 67
     0
278
    -2
288
     1
 68
     0
279
    -2
289
     1
 69
     0
  0
VISUALSTYLE
  5
F99
102
{ACAD_XDICTIONARY
360
F10ABA
102
}
102
{ACAD_REACTORS
330
F93
102
}
330
F93
100
AcDbVisualStyle
  2

 70
     4
 71
     0
 72
     2
 73
     0
 90
        0
 40
-0.6
 41
-30.0
 62
     5
 63
     7
 74
     1
 91
        4
 64
     7
 65
   257
 75
     1
175
     1
 42
1.0
 92
        0
 66
   257
 43
1.0
 76
     1
 77
     6
 78
     2
 67
     7
 79
     5
170
     0
171
     0
290
     0
174
     0
 93
        1
 44
0.0
173
     0
291
     0
 45
0.0
1001
ACAD
1000
AcDbSavedByObjectVersion
1070
     0
  0
VISUALSTYLE
  5
F9B
102
{ACAD_XDICTIONARY
360
F10ABE
102
}
102
{ACAD_REACTORS
330
F93
102
}
330
F93
100
AcDbVisualStyle
  2

 70
     6
 71
     1
 72
     2
 73
     2
 90
        0
 40
-0.6
 41
-30.0
 62
     5
 63
     7
 74
     2
 91
        2
 64
     7
 65
   257
 75
     2
175
     1
 42
179.0
 92
        0
 66
   257
 43
1.0
 76
     1
 77
     6
 78
     2
 67
     7
 79
     3
170
     0
171
     0
290
     0
174
     0
 93
        1
 44
0.0
173
     0
291
     0
 45
0.0
1001
ACAD
1000
AcDbSavedByObjectVersion
1070
     0
  0
VISUALSTYLE
  5
F9A
102
{ACAD_XDICTIONARY
360
F10ABC
102
}
102
{ACAD_REACTORS
330
F93
102
}
330
F93
100
AcDbVisualStyle
  2

 70
     5
 71
     0
 72
     2
 73
     0
 90
        0
 40
-0.6
 41
-30.0
 62
     5
 63
     7
 74
     1
 91
        4
 64
     7
 65
   257
 75
     1
175
     1
 42
1.0
 92
        0
 66
   257
 43
1.0
 76
     1
 77
     6
 78
     2
 67
     7
 79
     5
170
     0
171
     0
290
     0
174
     0
 93
        1
 44
0.0
173
     0
291
     0
 45
0.0
1001
ACAD
1000
AcDbSavedByObjectVersion
1070
     0
  0
VISUALSTYLE
  5
F98
102
{ACAD_XDICTIONARY
360
F10AB8
102
}
102
{ACAD_REACTORS
330
F93
102
}
330
F93
100
AcDbVisualStyle
  2

 70
     7
 71
     1
 72
     0
 73
     1
 90
        0
 40
-0.6
 41
-30.0
 62
     5
 63
     7
 74
     0
 91
        4
 64
     7
 65
   257
 75
     1
175
     1
 42
1.0
 92
        8
 66
     7
 43
1.0
 76
     1
 77
     6
 78
     2
 67
     7
 79
     5
170
     0
171
     0
290
     0
174
     0
 93
        1
 44
0.0
173
     0
291
     1
 45
0.0
1001
ACAD
1000
AcDbSavedByObjectVersion
1070
     0
  0
VISUALSTYLE
  5
F9F
102
{ACAD_XDICTIONARY
360
F10AC6
102
}
102
{ACAD_REACTORS
330
F93
102
}
330
F93
100
AcDbVisualStyle
  2

 70
    12
 71
     2
 72
     2
 73
     0
 90
        0
 40
-0.6
 41
-30.0
 62
     5
 63
     7
 74
     1
 91
        4
 64
     7
 65
   257
 75
     1
175
     1
 42
1.0
 92
        8
 66
     7
 43
1.0
 76
     1
 77
     6
 78
     2
 67
     7
 79
     5
170
     0
171
     0
290
     0
174
     0
 93
        1
 44
50.0
173
     0
291
     1
 45
0.0
1001
ACAD
1000
AcDbSavedByObjectVersion
1070
     0
  0
VISUALSTYLE
  5
FA3
102
{ACAD_XDICTIONARY
360
F10ACE
102
}
102
{ACAD_REACTORS
330
F93
102
}
330
F93
100
AcDbVisualStyle
  2

 70
    16
 71
     2
 72
     2
 73
     3
 90
        0
 40
-0.6
 41
-30.0
 62
     5
 63
     8
 74
     1
 91
        4
 64
     7
 65
   257
 75
     1
175
     1
 42
1.0
 92
        8
 66
     8
 43
1.0
 76
     1
 77
     6
 78
     2
 67
     7
 79
     5
170
     0
171
     0
290
     0
174
     0
 93
        1
 44
0.0
173
     0
291
     1
 45
0.0
1001
ACAD
1000
AcDbSavedByObjectVersion
1070
     0
  0
VISUALSTYLE
  5
F9C
102
{ACAD_XDICTIONARY
360
F10AC0
102
}
102
{ACAD_REACTORS
330
F93
102
}
330
F93
100
AcDbVisualStyle
  2

 70
     9
 71
     3
 72
     2
 73
     0
 90
        0
 40
-0.6
 41
-30.0
 62
     5
 63
     7
 74
     2
 91
        2
 64
     7
 65
   257
 75
     1
175
     1
 42
179.0
 92
        8
 66
     7
 43
1.0
 76
     1
 77
     6
 78
     2
 67
     7
 79
     3
170
     0
171
     0
290
     0
174
     0
 93
        1
 44
0.0
173
     0
291
     0
 45
0.0
1001
ACAD
1000
AcDbSavedByObjectVersion
1070
     0
  0
VISUALSTYLE
  5
F9E
102
{ACAD_XDICTIONARY
360
F10AC4
102
}
102
{ACAD_REACTORS
330
F93
102
}
330
F93
100
AcDbVisualStyle
  2

 70
    11
 71
     2
 72
     2
 73
     0
 90
        0
 40
-0.6
 41
-30.0
 62
     5
 63
     7
 74
     1
 91
        4
 64
     7
 65
   257
 75
     1
175
     1
 42
1.0
 92
        8
 66
     7
 43
1.0
 76
     1
 77
     6
 78
     2
 67
     7
 79
     5
170
     0
171
     0
290
     0
174
     0
 93
        1
 44
-50.0
173
     0
291
     1
 45
0.0
1001
ACAD
1000
AcDbSavedByObjectVersion
1070
     0
  0
VISUALSTYLE
  5
FA6
102
{ACAD_XDICTIONARY
360
F10AD4
102
}
102
{ACAD_REACTORS
330
F93
102
}
330
F93
100
AcDbVisualStyle
  2

 70
    22
 71
     2
 72
     2
 73
     0
 90
        0
 40
-0.6
 41
-30.0
 62
     5
 63
     7
 74
     1
 91
        4
 64
     7
 65
   257
 75
     1
175
     1
 42
1.0
 92
        8
 66
     7
 43
1.0
 76
     1
 77
     6
 78
     2
 67
     7
 79
     5
170
     0
171
     0
290
     0
174
     0
 93
        1
 44
0.0
173
     0
291
     1
 45
0.0
1001
ACAD
1000
AcDbSavedByObjectVersion
1070
     0
  0
VISUALSTYLE
  5
FA2
102
{ACAD_XDICTIONARY
360
F10ACC
102
}
102
{ACAD_REACTORS
330
F93
102
}
330
F93
100
AcDbVisualStyle
  2

 70
    15
 71
     2
 72
     2
 73
     0
 90
        0
 40
-0.6
 41
-30.0
 62
     5
 63
     7
 74
     1
 91
        4
 64
     7
 65
   257
 75
     1
175
     1
 42
1.0
 92
        8
 66
     7
 43
1.0
 76
     1
 77
     6
 78
     2
 67
     7
 79
     5
170
     0
171
     0
290
     0
174
     0
 93
        1
 44
0.0
173
     0
291
     1
 45
0.0
1001
ACAD
1000
AcDbSavedByObjectVersion
1070
     0
  0
VISUALSTYLE
  5
F94
102
{ACAD_XDICTIONARY
360
F10AB0
102
}
102
{ACAD_REACTORS
330
F93
102
}
330
F93
100
AcDbVisualStyle
  2

 70
     0
 71
     2
 72
     1
 73
     1
 90
        2
 40
-0.6
 41
30.0
 62
     5
 63
     7
 74
     0
 91
        4
 64
     7
 65
   257
 75
     1
175
     1
 42
1.0
 92
        8
 66
     7
 43
1.0
 76
     1
 77
     6
 78
     2
 67
     7
 79
     5
170
     0
171
     0
290
     0
174
     0
 93
       13
 44
0.0
173
     0
291
     1
 45
0.0
1001
ACAD
1000
AcDbSavedByObjectVersion
1070
     0
  0
VISUALSTYLE
  5
F95
102
{ACAD_XDICTIONARY
360
F10AB2
102
}
102
{ACAD_REACTORS
330
F93
102
}
330
F93
100
AcDbVisualStyle
  2

 70
     1
 71
     2
 72
     1
 73
     1
 90
        2
 40
-0.6
 41
30.0
 62
     5
 63
     7
 74
     1
 91
        4
 64
     7
 65
   257
 75
     1
175
     1
 42
1.0
 92
        0
 66
   257
 43
1.0
 76
     1
 77
     6
 78
     2
 67
     7
 79
     5
170
     0
171
     0
290
     0
174
     0
 93
       13
 44
0.0
173
     0
291
     1
 45
0.0
1001
ACAD
1000
AcDbSavedByObjectVersion
1070
     0
  0
VISUALSTYLE
  5
F96
102
{ACAD_XDICTIONARY
360
F10AB4
102
}
102
{ACAD_REACTORS
330
F93
102
}
330
F93
100
AcDbVisualStyle
  2

 70
     2
 71
     2
 72
     2
 73
     1
 90
        2
 40
-0.6
 41
30.0
 62
     5
 63
     7
 74
     0
 91
        4
 64
     7
 65
   257
 75
     1
175
     1
 42
1.0
 92
        0
 66
     7
 43
1.0
 76
     1
 77
     6
 78
     2
 67
     7
 79
     5
170
     0
171
     0
290
     0
174
     0
 93
       13
 44
0.0
173
     0
291
     1
 45
0.0
1001
ACAD
1000
AcDbSavedByObjectVersion
1070
     0
  0
VISUALSTYLE
  5
F97
102
{ACAD_XDICTIONARY
360
F10AB6
102
}
102
{ACAD_REACTORS
330
F93
102
}
330
F93
100
AcDbVisualStyle
  2

 70
     3
 71
     2
 72
     2
 73
     1
 90
        2
 40
-0.6
 41
30.0
 62
     5
 63
     7
 74
     1
 91
        4
 64
     7
 65
   257
 75
     1
175
     1
 42
1.0
 92
        0
 66
   257
 43
1.0
 76
     1
 77
     6
 78
     2
 67
     7
 79
     5
170
     0
171
     0
290
     0
174
     0
 93
       13
 44
0.0
173
     0
291
     1
 45
0.0
1001
ACAD
1000
AcDbSavedByObjectVersion
1070
     0
  0
VISUALSTYLE
  5
F1083F
102
{ACAD_XDICTIONARY
360
F10ADD
102
}
102
{ACAD_REACTORS
330
F93
102
}
330
F93
100
AcDbVisualStyle
  2
Hidden
 70
     6
 71
     1
 72
     2
 73
     2
 90
        0
 40
-0.6
 41
-30.0
 62
     5
 63
     7
 74
     2
 91
        2
 64
     7
 65
   257
 75
     2
175
     1
 42
40.0
 92
        0
 66
   257
 43
1.0
 76
     1
 77
     6
 78
     2
 67
     7
 79
     3
170
     0
171
     0
290
     0
174
     0
 93
        1
 44
0.0
173
     0
291
     0
 45
0.0
1001
ACAD
1000
AcDbSavedByObjectVersion
1070
     0
  0
VISUALSTYLE
  5
FA4
102
{ACAD_XDICTIONARY
360
F10AD0
102
}
102
{ACAD_REACTORS
330
F93
102
}
330
F93
100
AcDbVisualStyle
  2

 70
    20
 71
     2
 72
     2
 73
     0
 90
        0
 40
-0.6
 41
-30.0
 62
     5
 63
     7
 74
     1
 91
        4
 64
     7
 65
   257
 75
     1
175
     1
 42
1.0
 92
       10
 66
     7
 43
1.0
 76
     1
 77
     6
 78
     2
 67
     7
 79
     5
170
     0
171
     0
290
     0
174
     0
 93
        1
 44
0.0
173
     0
291
     1
 45
0.0
1001
ACAD
1000
AcDbSavedByObjectVersion
1070
     0
  0
VISUALSTYLE
  5
FA1
102
{ACAD_XDICTIONARY
360
F10ACA
102
}
102
{ACAD_REACTORS
330
F93
102
}
330
F93
100
AcDbVisualStyle
  2

 70
    14
 71
     2
 72
     2
 73
     0
 90
        0
 40
-0.6
 41
-30.0
 62
     5
 63
     7
 74
     1
 91
        4
 64
     7
 65
   257
 75
     7
175
     7
 42
1.0
 92
        8
 66
     7
 43
1.0
 76
     1
 77
     6
 78
     2
 67
     7
 79
     5
170
     0
171
     0
290
     0
174
     0
 93
        1
 44
0.0
173
     0
291
     1
 45
0.0
1001
ACAD
1000
AcDbSavedByObjectVersion
1070
     0
  0
VISUALSTYLE
  5
FA5
102
{ACAD_XDICTIONARY
360
F10AD2
102
}
102
{ACAD_REACTORS
330
F93
102
}
330
F93
100
AcDbVisualStyle
  2

 70
    21
 71
     2
 72
     2
 73
     0
 90
        0
 40
-0.6
 41
-30.0
 62
     5
 63
     7
 74
     1
 91
        4
 64
     7
 65
   257
 75
     1
175
     1
 42
1.0
 92
        9
 66
     7
 43
1.0
 76
     1
 77
     6
 78
     2
 67
     7
 79
     5
170
     0
171
     0
290
     0
174
     0
 93
        1
 44
0.0
173
     0
291
     1
 45
0.0
1001
ACAD
1000
AcDbSavedByObjectVersion
1070
     0
  0
VISUALSTYLE
  5
F9D
102
{ACAD_XDICTIONARY
360
F10AC2
102
}
102
{ACAD_REACTORS
330
F93
102
}
330
F93
100
AcDbVisualStyle
  2

 70
     8
 71
     2
 72
     2
 73
     0
 90
        0
 40
-0.6
 41
-30.0
 62
     5
 63
     7
 74
     1
 91
        0
 64
     7
 65
   257
 75
     1
175
     1
 42
1.0
 92
        8
 66
     8
 43
1.0
 76
     1
 77
     6
 78
     2
 67
     7
 79
     5
170
     0
171
     0
290
     0
174
     0
 93
       13
 44
0.0
173
     0
291
     0
 45
0.0
1001
ACAD
1000
AcDbSavedByObjectVersion
1070
     0
  0
VISUALSTYLE
  5
F10844
102
{ACAD_XDICTIONARY
360
F10AE7
102
}
102
{ACAD_REACTORS
330
F93
102
}
330
F93
100
AcDbVisualStyle
  2
Shaded
 70
    27
 71
     2
 72
     2
 73
     1
 90
        2
 40
-0.6
 41
30.0
 62
     5
 63
     7
 74
     0
 91
        4
 64
     7
 65
   257
 75
     1
175
     1
 42
1.0
 92
        8
 66
   257
 43
1.0
 76
     1
 77
     6
 78
     2
 67
     8
 79
     3
170
     0
171
     0
290
     0
174
     0
 93
        5
 44
0.0
173
     0
291
     0
 45
0.0
1001
ACAD
1000
AcDbSavedByObjectVersion
1070
     0
  0
VISUALSTYLE
  5
F10843
102
{ACAD_XDICTIONARY
360
F10AE5
102
}
102
{ACAD_REACTORS
330
F93
102
}
330
F93
100
AcDbVisualStyle
  2
Shaded with edges
 70
    26
 71
     2
 72
     2
 73
     1
 90
        2
 40
-0.6
 41
30.0
 62
     5
 63
     7
 74
     1
 91
       10
 64
     7
 65
   257
 75
     2
175
     1
 42
1.0
 92
        8
 66
   257
 43
1.0
 76
     1
 77
     6
 78
     2
 67
     7
 79
     3
170
     0
171
     0
290
     0
174
     0
 93
        5
 44
0.0
173
     0
291
     0
 45
0.0
1001
ACAD
1000
AcDbSavedByObjectVersion
1070
     0
  0
VISUALSTYLE
  5
F10840
102
{ACAD_XDICTIONARY
360
F10ADF
102
}
102
{ACAD_REACTORS
330
F93
102
}
330
F93
100
AcDbVisualStyle
  2
Shades of Gray
 70
    23
 71
     2
 72
     2
 73
     3
 90
        0
 40
-0.6
 41
-30.0
 62
     5
 63
     7
 74
     2
 91
        2
 64
     7
 65
     7
 75
     1
175
     1
 42
40.0
 92
        8
 66
     7
 43
1.0
 76
     1
 77
     6
 78
     2
 67
     7
 79
     3
170
     0
171
     0
290
     0
174
     0
 93
        1
 44
0.0
173
     0
291
     0
 45
0.0
1001
ACAD
1000
AcDbSavedByObjectVersion
1070
     0
  0
VISUALSTYLE
  5
F10841
102
{ACAD_XDICTIONARY
360
F10AE1
102
}
102
{ACAD_REACTORS
330
F93
102
}
330
F93
100
AcDbVisualStyle
  2
Sketchy
 70
    24
 71
     1
 72
     2
 73
     2
 90
        0
 40
-0.6
 41
-30.0
 62
     5
 63
     7
 74
     2
 91
        2
 64
     7
 65
     7
 75
     1
175
     1
 42
40.0
 92
       11
 66
     7
 43
1.0
 76
     1
 77
     6
 78
     2
 67
     7
 79
     6
170
     0
171
     0
290
     0
174
     0
 93
        1
 44
0.0
173
     0
291
     0
 45
0.0
1001
ACAD
1000
AcDbSavedByObjectVersion
1070
     0
  0
VISUALSTYLE
  5
FA0
102
{ACAD_XDICTIONARY
360
F10AC8
102
}
102
{ACAD_REACTORS
330
F93
102
}
330
F93
100
AcDbVisualStyle
  2

 70
    13
 71
     2
 72
     2
 73
     0
 90
        0
 40
-0.6
 41
-30.0
 62
     5
 63
     7
 74
     1
 91
        4
 64
     7
 65
   257
 75
     1
175
     1
 42
1.0
 92
       12
 66
     7
 43
1.0
 76
     1
 77
     6
 78
     2
 67
     7
 79
     5
170
     0
171
     0
290
     0
174
     0
 93
        1
 44
0.0
173
     0
291
     1
 45
0.0
1001
ACAD
1000
AcDbSavedByObjectVersion
1070
     0
  0
VISUALSTYLE
  5
F1083E
102
{ACAD_XDICTIONARY
360
F10ADB
102
}
102
{ACAD_REACTORS
330
F93
102
}
330
F93
100
AcDbVisualStyle
  2
Wireframe
 70
     5
 71
     0
 72
     2
 73
     0
 90
        0
 40
-0.6
 41
-30.0
 62
     5
 63
     7
 74
     1
 91
        4
 64
     7
 65
   257
 75
     1
175
     1
 42
1.0
 92
        0
 66
   257
 43
1.0
 76
     1
 77
     6
 78
     2
 67
     7
 79
     3
170
     0
171
     0
290
     0
174
     0
 93
        1
 44
0.0
173
     0
291
     0
 45
0.0
1001
ACAD
1000
AcDbSavedByObjectVersion
1070
     0
  0
VISUALSTYLE
  5
F10842
102
{ACAD_XDICTIONARY
360
F10AE3
102
}
102
{ACAD_REACTORS
330
F93
102
}
330
F93
100
AcDbVisualStyle
  2
X-Ray
 70
    25
 71
     2
 72
     2
 73
     1
 90
        1
 40
0.5
 41
-30.0
 62
     5
 63
     7
 74
     1
 91
        0
 64
     7
 65
   257
 75
     1
175
     1
 42
1.0
 92
        8
 66
     7
 43
1.0
 76
     1
 77
     6
 78
     2
 67
     7
 79
     3
170
     0
171
     0
290
     0
174
     0
 93
       13
 44
0.0
173
     0
291
     0
 45
0.0
1001
ACAD
1000
AcDbSavedByObjectVersion
1070
     0
  0
DICTIONARYVAR
  5
F10A9E
102
{ACAD_REACTORS
330
F10A9B
102
}
330
F10A9B
100
DictionaryVariables
280
     0
  1
1:1
  0
DICTIONARYVAR
  5
F10A9D
102
{ACAD_REACTORS
330
F10A9B
102
}
330
F10A9B
100
DictionaryVariables
280
     0
  1
STANDARD
  0
DICTIONARYVAR
  5
F10A9C
102
{ACAD_REACTORS
330
F10A9B
102
}
330
F10A9B
100
DictionaryVariables
280
     0
  1
STANDARD
  0
DICTIONARYVAR
  5
F10AA1
102
{ACAD_REACTORS
330
F10A9B
102
}
330
F10A9B
100
DictionaryVariables
280
     0
  1
1
  0
DICTIONARYVAR
  5
F10AA0
102
{ACAD_REACTORS
330
F10A9B
102
}
330
F10A9B
100
DictionaryVariables
280
     0
  1
0
  0
DICTIONARYVAR
  5
F10A9F
102
{ACAD_REACTORS
330
F10A9B
102
}
330
F10A9B
100
DictionaryVariables
280
     0
  1
127
  0
DICTIONARYVAR
  5
F10AA2
102
{ACAD_REACTORS
330
F10A9B
102
}
330
F10A9B
100
DictionaryVariables
280
     0
  1
2
  0
DICTIONARY
  5
F1089E
102
{ACAD_REACTORS
330
F10893
102
}
330
F10893
100
AcDbDictionary
281
     1
  0
DICTIONARY
  5
F10AD9
330
FD1
100
AcDbDictionary
280
     1
281
     1
  3
ACAD_XREC_ROUNDTRIP
360
F10ADA
  0
DICTIONARY
  5
F10AD7
330
FD0
100
AcDbDictionary
280
     1
281
     1
  3
ACAD_XREC_ROUNDTRIP
360
F10AD8
  0
DICTIONARY
  5
F84
330
F83
100
AcDbDictionary
280
     1
281
     1
  3
ACAD_XREC_ROUNDTRIP
360
FFF
  3
BUMPTILE
360
F86
  3
DIFFUSETILE
360
F85
  3
OPACITYTILE
360
F89
  3
REFLECTIONTILE
360
F88
  3
REFRACTIONTILE
360
F8A
  3
SPECULARTILE
360
F87
  0
DICTIONARY
  5
F7C
330
F7B
100
AcDbDictionary
280
     1
281
     1
  3
ACAD_XREC_ROUNDTRIP
360
FFE
  3
BUMPTILE
360
F7E
  3
DIFFUSETILE
360
F7D
  3
OPACITYTILE
360
F81
  3
REFLECTIONTILE
360
F80
  3
REFRACTIONTILE
360
F82
  3
SPECULARTILE
360
F7F
  0
DICTIONARY
  5
F8C
330
F8B
100
AcDbDictionary
280
     1
281
     1
  3
ACAD_XREC_ROUNDTRIP
360
1000
  3
BUMPTILE
360
F8E
  3
DIFFUSETILE
360
F8D
  3
OPACITYTILE
360
F91
  3
REFLECTIONTILE
360
F90
  3
REFRACTIONTILE
360
F92
  3
SPECULARTILE
360
F8F
  0
DICTIONARY
  5
FF8
330
FA9
100
AcDbDictionary
280
     1
281
     1
  3
ACAD_ROUNDTRIP_2008_TABLESTYLE_CELLSTYLEMAP
360
F10AA3
  3
ACAD_XREC_ROUNDTRIP
360
F10AD6
  0
DICTIONARY
  5
F10ABA
330
F99
100
AcDbDictionary
280
     1
281
     1
  3
ACAD_XREC_ROUNDTRIP
360
F10ABB
  0
DICTIONARY
  5
F10ABE
330
F9B
100
AcDbDictionary
280
     1
281
     1
  3
ACAD_XREC_ROUNDTRIP
360
F10ABF
  0
DICTIONARY
  5
F10ABC
330
F9A
100
AcDbDictionary
280
     1
281
     1
  3
ACAD_XREC_ROUNDTRIP
360
F10ABD
  0
DICTIONARY
  5
F10AB8
330
F98
100
AcDbDictionary
280
     1
281
     1
  3
ACAD_XREC_ROUNDTRIP
360
F10AB9
  0
DICTIONARY
  5
F10AC6
330
F9F
100
AcDbDictionary
280
     1
281
     1
  3
ACAD_XREC_ROUNDTRIP
360
F10AC7
  0
DICTIONARY
  5
F10ACE
330
FA3
100
AcDbDictionary
280
     1
281
     1
  3
ACAD_XREC_ROUNDTRIP
360
F10ACF
  0
DICTIONARY
  5
F10AC0
330
F9C
100
AcDbDictionary
280
     1
281
     1
  3
ACAD_XREC_ROUNDTRIP
360
F10AC1
  0
DICTIONARY
  5
F10AC4
330
F9E
100
AcDbDictionary
280
     1
281
     1
  3
ACAD_XREC_ROUNDTRIP
360
F10AC5
  0
DICTIONARY
  5
F10AD4
330
FA6
100
AcDbDictionary
280
     1
281
     1
  3
ACAD_XREC_ROUNDTRIP
360
F10AD5
  0
DICTIONARY
  5
F10ACC
330
FA2
100
AcDbDictionary
280
     1
281
     1
  3
ACAD_XREC_ROUNDTRIP
360
F10ACD
  0
DICTIONARY
  5
F10AB0
330
F94
100
AcDbDictionary
280
     1
281
     1
  3
ACAD_XREC_ROUNDTRIP
360
F10AB1
  0
DICTIONARY
  5
F10AB2
330
F95
100
AcDbDictionary
280
     1
281
     1
  3
ACAD_XREC_ROUNDTRIP
360
F10AB3
  0
DICTIONARY
  5
F10AB4
330
F96
100
AcDbDictionary
280
     1
281
     1
  3
ACAD_XREC_ROUNDTRIP
360
F10AB5
  0
DICTIONARY
  5
F10AB6
330
F97
100
AcDbDictionary
280
     1
281
     1
  3
ACAD_XREC_ROUNDTRIP
360
F10AB7
  0
DICTIONARY
  5
F10ADD
330
F1083F
100
AcDbDictionary
280
     1
281
     1
  3
ACAD_XREC_ROUNDTRIP
360
F10ADE
  0
DICTIONARY
  5
F10AD0
330
FA4
100
AcDbDictionary
280
     1
281
     1
  3
ACAD_XREC_ROUNDTRIP
360
F10AD1
  0
DICTIONARY
  5
F10ACA
330
FA1
100
AcDbDictionary
280
     1
281
     1
  3
ACAD_XREC_ROUNDTRIP
360
F10ACB
  0
DICTIONARY
  5
F10AD2
330
FA5
100
AcDbDictionary
280
     1
281
     1
  3
ACAD_XREC_ROUNDTRIP
360
F10AD3
  0
DICTIONARY
  5
F10AC2
330
F9D
100
AcDbDictionary
280
     1
281
     1
  3
ACAD_XREC_ROUNDTRIP
360
F10AC3
  0
DICTIONARY
  5
F10AE7
330
F10844
100
AcDbDictionary
280
     1
281
     1
  3
ACAD_XREC_ROUNDTRIP
360
F10AE8
  0
DICTIONARY
  5
F10AE5
330
F10843
100
AcDbDictionary
280
     1
281
     1
  3
ACAD_XREC_ROUNDTRIP
360
F10AE6
  0
DICTIONARY
  5
F10ADF
330
F10840
100
AcDbDictionary
280
     1
281
     1
  3
ACAD_XREC_ROUNDTRIP
360
F10AE0
  0
DICTIONARY
  5
F10AE1
330
F10841
100
AcDbDictionary
280
     1
281
     1
  3
ACAD_XREC_ROUNDTRIP
360
F10AE2
  0
DICTIONARY
  5
F10AC8
330
FA0
100
AcDbDictionary
280
     1
281
     1
  3
ACAD_XREC_ROUNDTRIP
360
F10AC9
  0
DICTIONARY
  5
F10ADB
330
F1083E
100
AcDbDictionary
280
     1
281
     1
  3
ACAD_XREC_ROUNDTRIP
360
F10ADC
  0
DICTIONARY
  5
F10AE3
330
F10842
100
AcDbDictionary
280
     1
281
     1
  3
ACAD_XREC_ROUNDTRIP
360
F10AE4
  0
XRECORD
  5
F10ADA
102
{ACAD_REACTORS
330
F10AD9
102
}
330
F10AD9
100
AcDbXrecord
280
     1
102
SHADEPLOT
 70
     0
102
SHADEPLOTRESLEVEL
 70
     2
102
SHADEPLOTCUSTOMDPI
 70
   300
  0
XRECORD
  5
F10AD8
102
{ACAD_REACTORS
330
F10AD7
102
}
330
F10AD7
100
AcDbXrecord
280
     1
102
SHADEPLOT
 70
     0
102
SHADEPLOTRESLEVEL
 70
     2
102
SHADEPLOTCUSTOMDPI
 70
   300
  0
XRECORD
  5
FFF
102
{ACAD_REACTORS
330
F84
102
}
330
F84
100
AcDbXrecord
280
     1
102
MATERIAL
148
0.0
149
0.0
149
0.0
 93
        0
 94
      127
282
     0
 72
     0
 77
     0
171
     0
175
     0
179
     0
273
     0
  0
XRECORD
  5
F86
102
{ACAD_REACTORS
330
F84
102
}
330
F84
100
AcDbXrecord
280
     1
270
     1
271
     1
  0
XRECORD
  5
F85
102
{ACAD_REACTORS
330
F84
102
}
330
F84
100
AcDbXrecord
280
     1
270
     1
271
     1
  0
XRECORD
  5
F89
102
{ACAD_REACTORS
330
F84
102
}
330
F84
100
AcDbXrecord
280
     1
270
     1
271
     1
  0
XRECORD
  5
F88
102
{ACAD_REACTORS
330
F84
102
}
330
F84
100
AcDbXrecord
280
     1
270
     1
271
     1
  0
XRECORD
  5
F8A
102
{ACAD_REACTORS
330
F84
102
}
330
F84
100
AcDbXrecord
280
     1
270
     1
271
     1
  0
XRECORD
  5
F87
102
{ACAD_REACTORS
330
F84
102
}
330
F84
100
AcDbXrecord
280
     1
270
     1
271
     1
  0
XRECORD
  5
FFE
102
{ACAD_REACTORS
330
F7C
102
}
330
F7C
100
AcDbXrecord
280
     1
102
MATERIAL
148
0.0
149
0.0
149
0.0
 93
        0
 94
      127
282
     0
 72
     0
 77
     0
171
     0
175
     0
179
     0
273
     0
  0
XRECORD
  5
F7E
102
{ACAD_REACTORS
330
F7C
102
}
330
F7C
100
AcDbXrecord
280
     1
270
     1
271
     1
  0
XRECORD
  5
F7D
102
{ACAD_REACTORS
330
F7C
102
}
330
F7C
100
AcDbXrecord
280
     1
270
     1
271
     1
  0
XRECORD
  5
F81
102
{ACAD_REACTORS
330
F7C
102
}
330
F7C
100
AcDbXrecord
280
     1
270
     1
271
     1
  0
XRECORD
  5
F80
102
{ACAD_REACTORS
330
F7C
102
}
330
F7C
100
AcDbXrecord
280
     1
270
     1
271
     1
  0
XRECORD
  5
F82
102
{ACAD_REACTORS
330
F7C
102
}
330
F7C
100
AcDbXrecord
280
     1
270
     1
271
     1
  0
XRECORD
  5
F7F
102
{ACAD_REACTORS
330
F7C
102
}
330
F7C
100
AcDbXrecord
280
     1
270
     1
271
     1
  0
XRECORD
  5
1000
102
{ACAD_REACTORS
330
F8C
102
}
330
F8C
100
AcDbXrecord
280
     1
102
MATERIAL
148
0.0
149
0.0
149
0.0
 93
        0
 94
      127
282
     0
 72
     0
 77
     0
171
     0
175
     0
179
     0
273
     0
  0
XRECORD
  5
F8E
102
{ACAD_REACTORS
330
F8C
102
}
330
F8C
100
AcDbXrecord
280
     1
270
     1
271
     1
  0
XRECORD
  5
F8D
102
{ACAD_REACTORS
330
F8C
102
}
330
F8C
100
AcDbXrecord
280
     1
270
     1
271
     1
  0
XRECORD
  5
F91
102
{ACAD_REACTORS
330
F8C
102
}
330
F8C
100
AcDbXrecord
280
     1
270
     1
271
     1
  0
XRECORD
  5
F90
102
{ACAD_REACTORS
330
F8C
102
}
330
F8C
100
AcDbXrecord
280
     1
270
     1
271
     1
  0
XRECORD
  5
F92
102
{ACAD_REACTORS
330
F8C
102
}
330
F8C
100
AcDbXrecord
280
     1
270
     1
271
     1
  0
XRECORD
  5
F8F
102
{ACAD_REACTORS
330
F8C
102
}
330
F8C
100
AcDbXrecord
280
     1
270
     1
271
     1
  0
CELLSTYLEMAP
  5
F10AA3
102
{ACAD_REACTORS
330
FF8
102
}
330
FF8
100
AcDbCellStyleMap
 90
        3
300
CELLSTYLE
  1
TABLEFORMAT_BEGIN
 90
        5
170
     1
 91
        0
 92
    32768
 62
   257
 93
        1
300
CONTENTFORMAT
  1
CONTENTFORMAT_BEGIN
 90
        0
 91
        0
 92
      512
 93
        0
300

 40
0.0
140
1.0
 94
        5
 62
     0
340
253
144
0.25
309
CONTENTFORMAT_END
171
     1
301
MARGIN
  1
CELLMARGIN_BEGIN
 40
0.06
 40
0.06
 40
0.06
 40
0.06
 40
0.18
 40
0.18
309
CELLMARGIN_END
 94
        6
 95
        1
302
GRIDFORMAT
  1
GRIDFORMAT_BEGIN
 90
        0
 91
        1
 62
     0
 92
       -2
340
0
 93
        0
 40
0.045
309
GRIDFORMAT_END
 95
        2
302
GRIDFORMAT
  1
GRIDFORMAT_BEGIN
 90
        0
 91
        1
 62
     0
 92
       -2
340
0
 93
        0
 40
0.045
309
GRIDFORMAT_END
 95
        4
302
GRIDFORMAT
  1
GRIDFORMAT_BEGIN
 90
        0
 91
        1
 62
     0
 92
       -2
340
0
 93
        0
 40
0.045
309
GRIDFORMAT_END
 95
        8
302
GRIDFORMAT
  1
GRIDFORMAT_BEGIN
 90
        0
 91
        1
 62
     0
 92
       -2
340
0
 93
        0
 40
0.045
309
GRIDFORMAT_END
 95
       16
302
GRIDFORMAT
  1
GRIDFORMAT_BEGIN
 90
        0
 91
        1
 62
     0
 92
       -2
340
0
 93
        0
 40
0.045
309
GRIDFORMAT_END
 95
       32
302
GRIDFORMAT
  1
GRIDFORMAT_BEGIN
 90
        0
 91
        1
 62
     0
 92
       -2
340
0
 93
        0
 40
0.045
309
GRIDFORMAT_END
309
TABLEFORMAT_END
  1
CELLSTYLE_BEGIN
 90
        1
 91
        1
300
_TITLE
309
CELLSTYLE_END
300
CELLSTYLE
  1
TABLEFORMAT_BEGIN
 90
        5
170
     1
 91
        0
 92
        0
 62
   257
 93
        1
300
CONTENTFORMAT
  1
CONTENTFORMAT_BEGIN
 90
        0
 91
        0
 92
      512
 93
        0
300

 40
0.0
140
1.0
 94
        5
 62
     0
340
253
144
0.18
309
CONTENTFORMAT_END
171
     1
301
MARGIN
  1
CELLMARGIN_BEGIN
 40
0.06
 40
0.06
 40
0.06
 40
0.06
 40
0.18
 40
0.18
309
CELLMARGIN_END
 94
        6
 95
        1
302
GRIDFORMAT
  1
GRIDFORMAT_BEGIN
 90
        0
 91
        1
 62
     0
 92
       -2
340
0
 93
        0
 40
0.045
309
GRIDFORMAT_END
 95
        2
302
GRIDFORMAT
  1
GRIDFORMAT_BEGIN
 90
        0
 91
        1
 62
     0
 92
       -2
340
0
 93
        0
 40
0.045
309
GRIDFORMAT_END
 95
        4
302
GRIDFORMAT
  1
GRIDFORMAT_BEGIN
 90
        0
 91
        1
 62
     0
 92
       -2
340
0
 93
        0
 40
0.045
309
GRIDFORMAT_END
 95
        8
302
GRIDFORMAT
  1
GRIDFORMAT_BEGIN
 90
        0
 91
        1
 62
     0
 92
       -2
340
0
 93
        0
 40
0.045
309
GRIDFORMAT_END
 95
       16
302
GRIDFORMAT
  1
GRIDFORMAT_BEGIN
 90
        0
 91
        1
 62
     0
 92
       -2
340
0
 93
        0
 40
0.045
309
GRIDFORMAT_END
 95
       32
302
GRIDFORMAT
  1
GRIDFORMAT_BEGIN
 90
        0
 91
        1
 62
     0
 92
       -2
340
0
 93
        0
 40
0.045
309
GRIDFORMAT_END
309
TABLEFORMAT_END
  1
CELLSTYLE_BEGIN
 90
        2
 91
        1
300
_HEADER
309
CELLSTYLE_END
300
CELLSTYLE
  1
TABLEFORMAT_BEGIN
 90
        5
170
     1
 91
        0
 92
        0
 62
   257
 93
        1
300
CONTENTFORMAT
  1
CONTENTFORMAT_BEGIN
 90
        0
 91
        0
 92
      512
 93
        0
300

 40
0.0
140
1.0
 94
        2
 62
     0
340
253
144
0.18
309
CONTENTFORMAT_END
171
     1
301
MARGIN
  1
CELLMARGIN_BEGIN
 40
0.06
 40
0.06
 40
0.06
 40
0.06
 40
0.18
 40
0.18
309
CELLMARGIN_END
 94
        6
 95
        1
302
GRIDFORMAT
  1
GRIDFORMAT_BEGIN
 90
        0
 91
        1
 62
     0
 92
       -2
340
0
 93
        0
 40
0.045
309
GRIDFORMAT_END
 95
        2
302
GRIDFORMAT
  1
GRIDFORMAT_BEGIN
 90
        0
 91
        1
 62
     0
 92
       -2
340
0
 93
        0
 40
0.045
309
GRIDFORMAT_END
 95
        4
302
GRIDFORMAT
  1
GRIDFORMAT_BEGIN
 90
        0
 91
        1
 62
     0
 92
       -2
340
0
 93
        0
 40
0.045
309
GRIDFORMAT_END
 95
        8
302
GRIDFORMAT
  1
GRIDFORMAT_BEGIN
 90
        0
 91
        1
 62
     0
 92
       -2
340
0
 93
        0
 40
0.045
309
GRIDFORMAT_END
 95
       16
302
GRIDFORMAT
  1
GRIDFORMAT_BEGIN
 90
        0
 91
        1
 62
     0
 92
       -2
340
0
 93
        0
 40
0.045
309
GRIDFORMAT_END
 95
       32
302
GRIDFORMAT
  1
GRIDFORMAT_BEGIN
 90
        0
 91
        1
 62
     0
 92
       -2
340
0
 93
        0
 40
0.045
309
GRIDFORMAT_END
309
TABLEFORMAT_END
  1
CELLSTYLE_BEGIN
 90
        3
 91
        2
300
_DATA
309
CELLSTYLE_END
  0
XRECORD
  5
F10AD6
102
{ACAD_REACTORS
330
FF8
102
}
330
FF8
100
AcDbXrecord
280
     1
102
ACAD_ROUNDTRIP_PRE2007_TABLESTYLE
 90
      512
 91
        0
  1

 92
      512
 93
        0
  2

 94
      512
 95
        0
  3

  0
XRECORD
  5
F10ABB
102
{ACAD_REACTORS
330
F10ABA
102
}
330
F10ABA
100
AcDbXrecord
280
     1
102
RTVSPropertyOp0
 70
     1
102
RTVSPropertyOp1
 70
     1
102
RTVSPropertyOp2
 70
     1
102
RTVSPropertyOp3
 70
     1
102
RTVSPropertyOp4
 70
     1
102
RTVSPropertyOp5
 70
     1
102
RTVSPropertyOp6
 70
     1
102
RTVSPropertyOp7
 70
     1
102
RTVSPropertyOp8
 70
     1
102
RTVSPropertyOp9
 70
     1
102
RTVSPropertyOp10
 70
     1
102
RTVSPropertyOp11
 70
     1
102
RTVSPropertyOp12
 70
     1
102
RTVSPropertyOp13
 70
     1
102
RTVSPropertyOp14
 70
     1
102
RTVSPropertyOp15
 70
     1
102
RTVSPropertyOp16
 70
     1
102
RTVSPropertyOp17
 70
     1
102
RTVSPropertyOp18
 70
     1
102
RTVSPropertyOp19
 70
     1
102
RTVSPropertyOp20
 70
     1
102
RTVSPropertyOp21
 70
     1
102
RTVSPropertyOp22
 70
     1
102
RTVSPropertyOp23
 70
     1
102
RTVSPropertyOp24
 70
     1
102
RTVSPropertyOp25
 70
     1
102
RTVSPropertyOp26
 70
     1
102
RTVSPropertyOp27
 70
     1
102
RTVSPropertyOp28
 70
     1
102
RTVSPropertyOp29
 70
     1
102
RTVSPropertyOp30
 70
     1
102
RTVSPropertyOp31
 70
     1
102
RTVSPropertyOp32
 70
     1
  0
XRECORD
  5
F10ABF
102
{ACAD_REACTORS
330
F10ABE
102
}
330
F10ABE
100
AcDbXrecord
280
     1
102
RTVSPropertyOp0
 70
     1
102
RTVSPropertyOp1
 70
     1
102
RTVSPropertyOp2
 70
     1
102
RTVSPropertyOp3
 70
     1
102
RTVSPropertyOp4
 70
     1
102
RTVSPropertyOp5
 70
     1
102
RTVSPropertyOp6
 70
     1
102
RTVSPropertyOp7
 70
     1
102
RTVSPropertyOp8
 70
     1
102
RTVSPropertyOp9
 70
     1
102
RTVSPropertyOp10
 70
     1
102
RTVSPropertyOp11
 70
     1
102
RTVSPropertyOp12
 70
     1
102
RTVSPropertyOp13
 70
     1
102
RTVSPropertyOp14
 70
     1
102
RTVSPropertyOp15
 70
     1
102
RTVSPropertyOp16
 70
     1
102
RTVSPropertyOp17
 70
     1
102
RTVSPropertyOp18
 70
     1
102
RTVSPropertyOp19
 70
     1
102
RTVSPropertyOp20
 70
     1
102
RTVSPropertyOp21
 70
     1
102
RTVSPropertyOp22
 70
     1
102
RTVSPropertyOp23
 70
     1
102
RTVSPropertyOp24
 70
     1
102
RTVSPropertyOp25
 70
     1
102
RTVSPropertyOp26
 70
     1
102
RTVSPropertyOp27
 70
     1
102
RTVSPropertyOp28
 70
     1
102
RTVSPropertyOp29
 70
     1
102
RTVSPropertyOp30
 70
     1
102
RTVSPropertyOp31
 70
     1
102
RTVSPropertyOp32
 70
     1
  0
XRECORD
  5
F10ABD
102
{ACAD_REACTORS
330
F10ABC
102
}
330
F10ABC
100
AcDbXrecord
280
     1
102
RTVSPropertyOp0
 70
     1
102
RTVSPropertyOp1
 70
     1
102
RTVSPropertyOp2
 70
     1
102
RTVSPropertyOp3
 70
     1
102
RTVSPropertyOp4
 70
     1
102
RTVSPropertyOp5
 70
     1
102
RTVSPropertyOp6
 70
     1
102
RTVSPropertyOp7
 70
     1
102
RTVSPropertyOp8
 70
     1
102
RTVSPropertyOp9
 70
     1
102
RTVSPropertyOp10
 70
     1
102
RTVSPropertyOp11
 70
     1
102
RTVSPropertyOp12
 70
     1
102
RTVSPropertyOp13
 70
     1
102
RTVSPropertyOp14
 70
     1
102
RTVSPropertyOp15
 70
     1
102
RTVSPropertyOp16
 70
     1
102
RTVSPropertyOp17
 70
     1
102
RTVSPropertyOp18
 70
     1
102
RTVSPropertyOp19
 70
     1
102
RTVSPropertyOp20
 70
     1
102
RTVSPropertyOp21
 70
     1
102
RTVSPropertyOp22
 70
     1
102
RTVSPropertyOp23
 70
     1
102
RTVSPropertyOp24
 70
     1
102
RTVSPropertyOp25
 70
     1
102
RTVSPropertyOp26
 70
     1
102
RTVSPropertyOp27
 70
     1
102
RTVSPropertyOp28
 70
     1
102
RTVSPropertyOp29
 70
     1
102
RTVSPropertyOp30
 70
     1
102
RTVSPropertyOp31
 70
     1
102
RTVSPropertyOp32
 70
     1
  0
XRECORD
  5
F10AB9
102
{ACAD_REACTORS
330
F10AB8
102
}
330
F10AB8
100
AcDbXrecord
280
     1
102
RTVSPropertyOp0
 70
     1
102
RTVSPropertyOp1
 70
     1
102
RTVSPropertyOp2
 70
     1
102
RTVSPropertyOp3
 70
     1
102
RTVSPropertyOp4
 70
     1
102
RTVSPropertyOp5
 70
     1
102
RTVSPropertyOp6
 70
     1
102
RTVSPropertyOp7
 70
     1
102
RTVSPropertyOp8
 70
     1
102
RTVSPropertyOp9
 70
     1
102
RTVSPropertyOp10
 70
     1
102
RTVSPropertyOp11
 70
     1
102
RTVSPropertyOp12
 70
     1
102
RTVSPropertyOp13
 70
     1
102
RTVSPropertyOp14
 70
     1
102
RTVSPropertyOp15
 70
     1
102
RTVSPropertyOp16
 70
     1
102
RTVSPropertyOp17
 70
     1
102
RTVSPropertyOp18
 70
     1
102
RTVSPropertyOp19
 70
     1
102
RTVSPropertyOp20
 70
     1
102
RTVSPropertyOp21
 70
     1
102
RTVSPropertyOp22
 70
     1
102
RTVSPropertyOp23
 70
     1
102
RTVSPropertyOp24
 70
     1
102
RTVSPropertyOp25
 70
     1
102
RTVSPropertyOp26
 70
     1
102
RTVSPropertyOp27
 70
     1
102
RTVSPropertyOp28
 70
     1
102
RTVSPropertyOp29
 70
     1
102
RTVSPropertyOp30
 70
     1
102
RTVSPropertyOp31
 70
     1
102
RTVSPropertyOp32
 70
     1
  0
XRECORD
  5
F10AC7
102
{ACAD_REACTORS
330
F10AC6
102
}
330
F10AC6
100
AcDbXrecord
280
     1
102
RTVSPropertyOp0
 70
     1
102
RTVSPropertyOp1
 70
     1
102
RTVSPropertyOp2
 70
     1
102
RTVSPropertyOp3
 70
     1
102
RTVSPropertyOp4
 70
     1
102
RTVSPropertyOp5
 70
     1
102
RTVSPropertyOp6
 70
     1
102
RTVSPropertyOp7
 70
     1
102
RTVSPropertyOp8
 70
     1
102
RTVSPropertyOp9
 70
     1
102
RTVSPropertyOp10
 70
     1
102
RTVSPropertyOp11
 70
     1
102
RTVSPropertyOp12
 70
     1
102
RTVSPropertyOp13
 70
     1
102
RTVSPropertyOp14
 70
     1
102
RTVSPropertyOp15
 70
     1
102
RTVSPropertyOp16
 70
     1
102
RTVSPropertyOp17
 70
     1
102
RTVSPropertyOp18
 70
     1
102
RTVSPropertyOp19
 70
     1
102
RTVSPropertyOp20
 70
     1
102
RTVSPropertyOp21
 70
     1
102
RTVSPropertyOp22
 70
     1
102
RTVSPropertyOp23
 70
     1
102
RTVSPropertyOp24
 70
     1
102
RTVSPropertyOp25
 70
     1
102
RTVSPropertyOp26
 70
     1
102
RTVSPropertyOp27
 70
     1
102
RTVSPropertyOp28
 70
     1
102
RTVSPropertyOp29
 70
     1
102
RTVSPropertyOp30
 70
     1
102
RTVSPropertyOp31
 70
     1
102
RTVSPropertyOp32
 70
     1
  0
XRECORD
  5
F10ACF
102
{ACAD_REACTORS
330
F10ACE
102
}
330
F10ACE
100
AcDbXrecord
280
     1
102
RTVSPropertyOp0
 70
     1
102
RTVSPropertyOp1
 70
     1
102
RTVSPropertyOp2
 70
     1
102
RTVSPropertyOp3
 70
     1
102
RTVSPropertyOp4
 70
     1
102
RTVSPropertyOp5
 70
     1
102
RTVSPropertyOp6
 70
     1
102
RTVSPropertyOp7
 70
     1
102
RTVSPropertyOp8
 70
     1
102
RTVSPropertyOp9
 70
     1
102
RTVSPropertyOp10
 70
     1
102
RTVSPropertyOp11
 70
     1
102
RTVSPropertyOp12
 70
     1
102
RTVSPropertyOp13
 70
     1
102
RTVSPropertyOp14
 70
     1
102
RTVSPropertyOp15
 70
     1
102
RTVSPropertyOp16
 70
     1
102
RTVSPropertyOp17
 70
     1
102
RTVSPropertyOp18
 70
     1
102
RTVSPropertyOp19
 70
     1
102
RTVSPropertyOp20
 70
     1
102
RTVSPropertyOp21
 70
     1
102
RTVSPropertyOp22
 70
     1
102
RTVSPropertyOp23
 70
     1
102
RTVSPropertyOp24
 70
     1
102
RTVSPropertyOp25
 70
     1
102
RTVSPropertyOp26
 70
     1
102
RTVSPropertyOp27
 70
     1
102
RTVSPropertyOp28
 70
     1
102
RTVSPropertyOp29
 70
     1
102
RTVSPropertyOp30
 70
     1
102
RTVSPropertyOp31
 70
     1
102
RTVSPropertyOp32
 70
     1
  0
XRECORD
  5
F10AC1
102
{ACAD_REACTORS
330
F10AC0
102
}
330
F10AC0
100
AcDbXrecord
280
     1
102
RTVSPropertyOp0
 70
     1
102
RTVSPropertyOp1
 70
     1
102
RTVSPropertyOp2
 70
     1
102
RTVSPropertyOp3
 70
     1
102
RTVSPropertyOp4
 70
     1
102
RTVSPropertyOp5
 70
     1
102
RTVSPropertyOp6
 70
     1
102
RTVSPropertyOp7
 70
     1
102
RTVSPropertyOp8
 70
     1
102
RTVSPropertyOp9
 70
     1
102
RTVSPropertyOp10
 70
     1
102
RTVSPropertyOp11
 70
     1
102
RTVSPropertyOp12
 70
     1
102
RTVSPropertyOp13
 70
     1
102
RTVSPropertyOp14
 70
     1
102
RTVSPropertyOp15
 70
     1
102
RTVSPropertyOp16
 70
     1
102
RTVSPropertyOp17
 70
     1
102
RTVSPropertyOp18
 70
     1
102
RTVSPropertyOp19
 70
     1
102
RTVSPropertyOp20
 70
     1
102
RTVSPropertyOp21
 70
     1
102
RTVSPropertyOp22
 70
     1
102
RTVSPropertyOp23
 70
     1
102
RTVSPropertyOp24
 70
     1
102
RTVSPropertyOp25
 70
     1
102
RTVSPropertyOp26
 70
     1
102
RTVSPropertyOp27
 70
     1
102
RTVSPropertyOp28
 70
     1
102
RTVSPropertyOp29
 70
     1
102
RTVSPropertyOp30
 70
     1
102
RTVSPropertyOp31
 70
     1
102
RTVSPropertyOp32
 70
     1
  0
XRECORD
  5
F10AC5
102
{ACAD_REACTORS
330
F10AC4
102
}
330
F10AC4
100
AcDbXrecord
280
     1
102
RTVSPropertyOp0
 70
     1
102
RTVSPropertyOp1
 70
     1
102
RTVSPropertyOp2
 70
     1
102
RTVSPropertyOp3
 70
     1
102
RTVSPropertyOp4
 70
     1
102
RTVSPropertyOp5
 70
     1
102
RTVSPropertyOp6
 70
     1
102
RTVSPropertyOp7
 70
     1
102
RTVSPropertyOp8
 70
     1
102
RTVSPropertyOp9
 70
     1
102
RTVSPropertyOp10
 70
     1
102
RTVSPropertyOp11
 70
     1
102
RTVSPropertyOp12
 70
     1
102
RTVSPropertyOp13
 70
     1
102
RTVSPropertyOp14
 70
     1
102
RTVSPropertyOp15
 70
     1
102
RTVSPropertyOp16
 70
     1
102
RTVSPropertyOp17
 70
     1
102
RTVSPropertyOp18
 70
     1
102
RTVSPropertyOp19
 70
     1
102
RTVSPropertyOp20
 70
     1
102
RTVSPropertyOp21
 70
     1
102
RTVSPropertyOp22
 70
     1
102
RTVSPropertyOp23
 70
     1
102
RTVSPropertyOp24
 70
     1
102
RTVSPropertyOp25
 70
     1
102
RTVSPropertyOp26
 70
     1
102
RTVSPropertyOp27
 70
     1
102
RTVSPropertyOp28
 70
     1
102
RTVSPropertyOp29
 70
     1
102
RTVSPropertyOp30
 70
     1
102
RTVSPropertyOp31
 70
     1
102
RTVSPropertyOp32
 70
     1
  0
XRECORD
  5
F10AD5
102
{ACAD_REACTORS
330
F10AD4
102
}
330
F10AD4
100
AcDbXrecord
280
     1
102
RTVSPropertyOp0
 70
     0
102
RTVSPropertyOp1
 70
     0
102
RTVSPropertyOp2
 70
     0
102
RTVSPropertyOp3
 70
     0
102
RTVSPropertyOp4
 70
     0
102
RTVSPropertyOp5
 70
     0
102
RTVSPropertyOp6
 70
     0
102
RTVSPropertyOp7
 70
     0
102
RTVSPropertyOp8
 70
     0
102
RTVSPropertyOp9
 70
     0
102
RTVSPropertyOp10
 70
     0
102
RTVSPropertyOp11
 70
     0
102
RTVSPropertyOp12
 70
     0
102
RTVSPropertyOp13
 70
     0
102
RTVSPropertyOp14
 70
     2
102
RTVSPropertyOp15
 70
     0
102
RTVSPropertyOp16
 70
     0
102
RTVSPropertyOp17
 70
     0
102
RTVSPropertyOp18
 70
     0
102
RTVSPropertyOp19
 70
     0
102
RTVSPropertyOp20
 70
     0
102
RTVSPropertyOp21
 70
     0
102
RTVSPropertyOp22
 70
     0
102
RTVSPropertyOp23
 70
     0
102
RTVSPropertyOp24
 70
     0
102
RTVSPropertyOp25
 70
     0
102
RTVSPropertyOp26
 70
     0
102
RTVSPropertyOp27
 70
     0
102
RTVSPropertyOp28
 70
     1
102
RTVSPropertyOp29
 70
     1
102
RTVSPropertyOp30
 70
     1
102
RTVSPropertyOp31
 70
     1
102
RTVSPropertyOp32
 70
     1
  0
XRECORD
  5
F10ACD
102
{ACAD_REACTORS
330
F10ACC
102
}
330
F10ACC
100
AcDbXrecord
280
     1
102
RTVSPropertyOp0
 70
     1
102
RTVSPropertyOp1
 70
     1
102
RTVSPropertyOp2
 70
     1
102
RTVSPropertyOp3
 70
     1
102
RTVSPropertyOp4
 70
     1
102
RTVSPropertyOp5
 70
     1
102
RTVSPropertyOp6
 70
     1
102
RTVSPropertyOp7
 70
     1
102
RTVSPropertyOp8
 70
     1
102
RTVSPropertyOp9
 70
     1
102
RTVSPropertyOp10
 70
     1
102
RTVSPropertyOp11
 70
     1
102
RTVSPropertyOp12
 70
     1
102
RTVSPropertyOp13
 70
     1
102
RTVSPropertyOp14
 70
     1
102
RTVSPropertyOp15
 70
     1
102
RTVSPropertyOp16
 70
     1
102
RTVSPropertyOp17
 70
     1
102
RTVSPropertyOp18
 70
     1
102
RTVSPropertyOp19
 70
     1
102
RTVSPropertyOp20
 70
     1
102
RTVSPropertyOp21
 70
     1
102
RTVSPropertyOp22
 70
     1
102
RTVSPropertyOp23
 70
     1
102
RTVSPropertyOp24
 70
     1
102
RTVSPropertyOp25
 70
     1
102
RTVSPropertyOp26
 70
     1
102
RTVSPropertyOp27
 70
     1
102
RTVSPropertyOp28
 70
     1
102
RTVSPropertyOp29
 70
     1
102
RTVSPropertyOp30
 70
     1
102
RTVSPropertyOp31
 70
     1
102
RTVSPropertyOp32
 70
     1
  0
XRECORD
  5
F10AB1
102
{ACAD_REACTORS
330
F10AB0
102
}
330
F10AB0
100
AcDbXrecord
280
     1
102
RTVSPropertyOp0
 70
     1
102
RTVSPropertyOp1
 70
     1
102
RTVSPropertyOp2
 70
     1
102
RTVSPropertyOp3
 70
     1
102
RTVSPropertyOp4
 70
     1
102
RTVSPropertyOp5
 70
     1
102
RTVSPropertyOp6
 70
     1
102
RTVSPropertyOp7
 70
     1
102
RTVSPropertyOp8
 70
     1
102
RTVSPropertyOp9
 70
     1
102
RTVSPropertyOp10
 70
     1
102
RTVSPropertyOp11
 70
     1
102
RTVSPropertyOp12
 70
     1
102
RTVSPropertyOp13
 70
     1
102
RTVSPropertyOp14
 70
     1
102
RTVSPropertyOp15
 70
     1
102
RTVSPropertyOp16
 70
     1
102
RTVSPropertyOp17
 70
     1
102
RTVSPropertyOp18
 70
     1
102
RTVSPropertyOp19
 70
     1
102
RTVSPropertyOp20
 70
     1
102
RTVSPropertyOp21
 70
     1
102
RTVSPropertyOp22
 70
     1
102
RTVSPropertyOp23
 70
     1
102
RTVSPropertyOp24
 70
     1
102
RTVSPropertyOp25
 70
     1
102
RTVSPropertyOp26
 70
     1
102
RTVSPropertyOp27
 70
     1
102
RTVSPropertyOp28
 70
     1
102
RTVSPropertyOp29
 70
     1
102
RTVSPropertyOp30
 70
     1
102
RTVSPropertyOp31
 70
     1
102
RTVSPropertyOp32
 70
     1
  0
XRECORD
  5
F10AB3
102
{ACAD_REACTORS
330
F10AB2
102
}
330
F10AB2
100
AcDbXrecord
280
     1
102
RTVSPropertyOp0
 70
     1
102
RTVSPropertyOp1
 70
     1
102
RTVSPropertyOp2
 70
     1
102
RTVSPropertyOp3
 70
     1
102
RTVSPropertyOp4
 70
     1
102
RTVSPropertyOp5
 70
     1
102
RTVSPropertyOp6
 70
     1
102
RTVSPropertyOp7
 70
     1
102
RTVSPropertyOp8
 70
     1
102
RTVSPropertyOp9
 70
     1
102
RTVSPropertyOp10
 70
     1
102
RTVSPropertyOp11
 70
     1
102
RTVSPropertyOp12
 70
     1
102
RTVSPropertyOp13
 70
     1
102
RTVSPropertyOp14
 70
     1
102
RTVSPropertyOp15
 70
     1
102
RTVSPropertyOp16
 70
     1
102
RTVSPropertyOp17
 70
     1
102
RTVSPropertyOp18
 70
     1
102
RTVSPropertyOp19
 70
     1
102
RTVSPropertyOp20
 70
     1
102
RTVSPropertyOp21
 70
     1
102
RTVSPropertyOp22
 70
     1
102
RTVSPropertyOp23
 70
     1
102
RTVSPropertyOp24
 70
     1
102
RTVSPropertyOp25
 70
     1
102
RTVSPropertyOp26
 70
     1
102
RTVSPropertyOp27
 70
     1
102
RTVSPropertyOp28
 70
     1
102
RTVSPropertyOp29
 70
     1
102
RTVSPropertyOp30
 70
     1
102
RTVSPropertyOp31
 70
     1
102
RTVSPropertyOp32
 70
     1
  0
XRECORD
  5
F10AB5
102
{ACAD_REACTORS
330
F10AB4
102
}
330
F10AB4
100
AcDbXrecord
280
     1
102
RTVSPropertyOp0
 70
     1
102
RTVSPropertyOp1
 70
     1
102
RTVSPropertyOp2
 70
     1
102
RTVSPropertyOp3
 70
     1
102
RTVSPropertyOp4
 70
     1
102
RTVSPropertyOp5
 70
     1
102
RTVSPropertyOp6
 70
     1
102
RTVSPropertyOp7
 70
     1
102
RTVSPropertyOp8
 70
     1
102
RTVSPropertyOp9
 70
     1
102
RTVSPropertyOp10
 70
     1
102
RTVSPropertyOp11
 70
     1
102
RTVSPropertyOp12
 70
     1
102
RTVSPropertyOp13
 70
     1
102
RTVSPropertyOp14
 70
     1
102
RTVSPropertyOp15
 70
     1
102
RTVSPropertyOp16
 70
     1
102
RTVSPropertyOp17
 70
     1
102
RTVSPropertyOp18
 70
     1
102
RTVSPropertyOp19
 70
     1
102
RTVSPropertyOp20
 70
     1
102
RTVSPropertyOp21
 70
     1
102
RTVSPropertyOp22
 70
     1
102
RTVSPropertyOp23
 70
     1
102
RTVSPropertyOp24
 70
     1
102
RTVSPropertyOp25
 70
     1
102
RTVSPropertyOp26
 70
     1
102
RTVSPropertyOp27
 70
     1
102
RTVSPropertyOp28
 70
     1
102
RTVSPropertyOp29
 70
     1
102
RTVSPropertyOp30
 70
     1
102
RTVSPropertyOp31
 70
     1
102
RTVSPropertyOp32
 70
     1
  0
XRECORD
  5
F10AB7
102
{ACAD_REACTORS
330
F10AB6
102
}
330
F10AB6
100
AcDbXrecord
280
     1
102
RTVSPropertyOp0
 70
     1
102
RTVSPropertyOp1
 70
     1
102
RTVSPropertyOp2
 70
     1
102
RTVSPropertyOp3
 70
     1
102
RTVSPropertyOp4
 70
     1
102
RTVSPropertyOp5
 70
     1
102
RTVSPropertyOp6
 70
     1
102
RTVSPropertyOp7
 70
     1
102
RTVSPropertyOp8
 70
     1
102
RTVSPropertyOp9
 70
     1
102
RTVSPropertyOp10
 70
     1
102
RTVSPropertyOp11
 70
     1
102
RTVSPropertyOp12
 70
     1
102
RTVSPropertyOp13
 70
     1
102
RTVSPropertyOp14
 70
     1
102
RTVSPropertyOp15
 70
     1
102
RTVSPropertyOp16
 70
     1
102
RTVSPropertyOp17
 70
     1
102
RTVSPropertyOp18
 70
     1
102
RTVSPropertyOp19
 70
     1
102
RTVSPropertyOp20
 70
     1
102
RTVSPropertyOp21
 70
     1
102
RTVSPropertyOp22
 70
     1
102
RTVSPropertyOp23
 70
     1
102
RTVSPropertyOp24
 70
     1
102
RTVSPropertyOp25
 70
     1
102
RTVSPropertyOp26
 70
     1
102
RTVSPropertyOp27
 70
     1
102
RTVSPropertyOp28
 70
     1
102
RTVSPropertyOp29
 70
     1
102
RTVSPropertyOp30
 70
     1
102
RTVSPropertyOp31
 70
     1
102
RTVSPropertyOp32
 70
     1
  0
XRECORD
  5
F10ADE
102
{ACAD_REACTORS
330
F10ADD
102
}
330
F10ADD
100
AcDbXrecord
280
     1
102
RTVSPropertyOp0
 70
     1
102
RTVSPropertyOp1
 70
     1
102
RTVSPropertyOp2
 70
     1
102
RTVSPropertyOp3
 70
     1
102
RTVSPropertyOp4
 70
     1
102
RTVSPropertyOp5
 70
     1
102
RTVSPropertyOp6
 70
     1
102
RTVSPropertyOp7
 70
     1
102
RTVSPropertyOp8
 70
     1
102
RTVSPropertyOp9
 70
     1
102
RTVSPropertyOp10
 70
     1
102
RTVSPropertyOp11
 70
     1
102
RTVSPropertyOp12
 70
     1
102
RTVSPropertyOp13
 70
     1
102
RTVSPropertyOp14
 70
     1
102
RTVSPropertyOp15
 70
     1
102
RTVSPropertyOp16
 70
     1
102
RTVSPropertyOp17
 70
     1
102
RTVSPropertyOp18
 70
     1
102
RTVSPropertyOp19
 70
     1
102
RTVSPropertyOp20
 70
     1
102
RTVSPropertyOp21
 70
     1
102
RTVSPropertyOp22
 70
     1
102
RTVSPropertyOp23
 70
     1
102
RTVSPropertyOp24
 70
     1
102
RTVSPropertyOp25
 70
     1
102
RTVSPropertyOp26
 70
     1
102
RTVSPropertyOp27
 70
     1
102
RTVSPropertyOp28
 70
     1
102
RTVSPropertyOp29
 70
     1
102
RTVSPropertyOp30
 70
     1
102
RTVSPropertyOp31
 70
     1
102
RTVSPropertyOp32
 70
     1
  0
XRECORD
  5
F10AD1
102
{ACAD_REACTORS
330
F10AD0
102
}
330
F10AD0
100
AcDbXrecord
280
     1
102
RTVSPropertyOp0
 70
     0
102
RTVSPropertyOp1
 70
     0
102
RTVSPropertyOp2
 70
     0
102
RTVSPropertyOp3
 70
     0
102
RTVSPropertyOp4
 70
     0
102
RTVSPropertyOp5
 70
     0
102
RTVSPropertyOp6
 70
     0
102
RTVSPropertyOp7
 70
     0
102
RTVSPropertyOp8
 70
     0
102
RTVSPropertyOp9
 70
     0
102
RTVSPropertyOp10
 70
     0
102
RTVSPropertyOp11
 70
     0
102
RTVSPropertyOp12
 70
     0
102
RTVSPropertyOp13
 70
     0
102
RTVSPropertyOp14
 70
     2
102
RTVSPropertyOp15
 70
     0
102
RTVSPropertyOp16
 70
     0
102
RTVSPropertyOp17
 70
     0
102
RTVSPropertyOp18
 70
     0
102
RTVSPropertyOp19
 70
     0
102
RTVSPropertyOp20
 70
     0
102
RTVSPropertyOp21
 70
     0
102
RTVSPropertyOp22
 70
     0
102
RTVSPropertyOp23
 70
     0
102
RTVSPropertyOp24
 70
     0
102
RTVSPropertyOp25
 70
     0
102
RTVSPropertyOp26
 70
     0
102
RTVSPropertyOp27
 70
     0
102
RTVSPropertyOp28
 70
     1
102
RTVSPropertyOp29
 70
     1
102
RTVSPropertyOp30
 70
     1
102
RTVSPropertyOp31
 70
     1
102
RTVSPropertyOp32
 70
     1
  0
XRECORD
  5
F10ACB
102
{ACAD_REACTORS
330
F10ACA
102
}
330
F10ACA
100
AcDbXrecord
280
     1
102
RTVSPropertyOp0
 70
     1
102
RTVSPropertyOp1
 70
     1
102
RTVSPropertyOp2
 70
     1
102
RTVSPropertyOp3
 70
     1
102
RTVSPropertyOp4
 70
     1
102
RTVSPropertyOp5
 70
     1
102
RTVSPropertyOp6
 70
     1
102
RTVSPropertyOp7
 70
     1
102
RTVSPropertyOp8
 70
     1
102
RTVSPropertyOp9
 70
     1
102
RTVSPropertyOp10
 70
     1
102
RTVSPropertyOp11
 70
     1
102
RTVSPropertyOp12
 70
     1
102
RTVSPropertyOp13
 70
     1
102
RTVSPropertyOp14
 70
     1
102
RTVSPropertyOp15
 70
     1
102
RTVSPropertyOp16
 70
     1
102
RTVSPropertyOp17
 70
     1
102
RTVSPropertyOp18
 70
     1
102
RTVSPropertyOp19
 70
     1
102
RTVSPropertyOp20
 70
     1
102
RTVSPropertyOp21
 70
     1
102
RTVSPropertyOp22
 70
     1
102
RTVSPropertyOp23
 70
     1
102
RTVSPropertyOp24
 70
     1
102
RTVSPropertyOp25
 70
     1
102
RTVSPropertyOp26
 70
     1
102
RTVSPropertyOp27
 70
     1
102
RTVSPropertyOp28
 70
     1
102
RTVSPropertyOp29
 70
     1
102
RTVSPropertyOp30
 70
     1
102
RTVSPropertyOp31
 70
     1
102
RTVSPropertyOp32
 70
     1
  0
XRECORD
  5
F10AD3
102
{ACAD_REACTORS
330
F10AD2
102
}
330
F10AD2
100
AcDbXrecord
280
     1
102
RTVSPropertyOp0
 70
     0
102
RTVSPropertyOp1
 70
     0
102
RTVSPropertyOp2
 70
     0
102
RTVSPropertyOp3
 70
     0
102
RTVSPropertyOp4
 70
     0
102
RTVSPropertyOp5
 70
     0
102
RTVSPropertyOp6
 70
     0
102
RTVSPropertyOp7
 70
     0
102
RTVSPropertyOp8
 70
     0
102
RTVSPropertyOp9
 70
     0
102
RTVSPropertyOp10
 70
     0
102
RTVSPropertyOp11
 70
     0
102
RTVSPropertyOp12
 70
     0
102
RTVSPropertyOp13
 70
     0
102
RTVSPropertyOp14
 70
     2
102
RTVSPropertyOp15
 70
     0
102
RTVSPropertyOp16
 70
     0
102
RTVSPropertyOp17
 70
     0
102
RTVSPropertyOp18
 70
     0
102
RTVSPropertyOp19
 70
     0
102
RTVSPropertyOp20
 70
     0
102
RTVSPropertyOp21
 70
     0
102
RTVSPropertyOp22
 70
     0
102
RTVSPropertyOp23
 70
     0
102
RTVSPropertyOp24
 70
     0
102
RTVSPropertyOp25
 70
     0
102
RTVSPropertyOp26
 70
     0
102
RTVSPropertyOp27
 70
     0
102
RTVSPropertyOp28
 70
     1
102
RTVSPropertyOp29
 70
     1
102
RTVSPropertyOp30
 70
     1
102
RTVSPropertyOp31
 70
     1
102
RTVSPropertyOp32
 70
     1
  0
XRECORD
  5
F10AC3
102
{ACAD_REACTORS
330
F10AC2
102
}
330
F10AC2
100
AcDbXrecord
280
     1
102
RTVSPropertyOp0
 70
     1
102
RTVSPropertyOp1
 70
     1
102
RTVSPropertyOp2
 70
     1
102
RTVSPropertyOp3
 70
     1
102
RTVSPropertyOp4
 70
     1
102
RTVSPropertyOp5
 70
     1
102
RTVSPropertyOp6
 70
     1
102
RTVSPropertyOp7
 70
     1
102
RTVSPropertyOp8
 70
     1
102
RTVSPropertyOp9
 70
     1
102
RTVSPropertyOp10
 70
     1
102
RTVSPropertyOp11
 70
     1
102
RTVSPropertyOp12
 70
     1
102
RTVSPropertyOp13
 70
     1
102
RTVSPropertyOp14
 70
     1
102
RTVSPropertyOp15
 70
     1
102
RTVSPropertyOp16
 70
     1
102
RTVSPropertyOp17
 70
     1
102
RTVSPropertyOp18
 70
     1
102
RTVSPropertyOp19
 70
     1
102
RTVSPropertyOp20
 70
     1
102
RTVSPropertyOp21
 70
     1
102
RTVSPropertyOp22
 70
     1
102
RTVSPropertyOp23
 70
     1
102
RTVSPropertyOp24
 70
     1
102
RTVSPropertyOp25
 70
     1
102
RTVSPropertyOp26
 70
     1
102
RTVSPropertyOp27
 70
     1
102
RTVSPropertyOp28
 70
     1
102
RTVSPropertyOp29
 70
     1
102
RTVSPropertyOp30
 70
     1
102
RTVSPropertyOp31
 70
     1
102
RTVSPropertyOp32
 70
     1
  0
XRECORD
  5
F10AE8
102
{ACAD_REACTORS
330
F10AE7
102
}
330
F10AE7
100
AcDbXrecord
280
     1
102
RTVSPropertyOp0
 70
     1
102
RTVSPropertyOp1
 70
     1
102
RTVSPropertyOp2
 70
     1
102
RTVSPropertyOp3
 70
     1
102
RTVSPropertyOp4
 70
     1
102
RTVSPropertyOp5
 70
     1
102
RTVSPropertyOp6
 70
     1
102
RTVSPropertyOp7
 70
     1
102
RTVSPropertyOp8
 70
     1
102
RTVSPropertyOp9
 70
     1
102
RTVSPropertyOp10
 70
     1
102
RTVSPropertyOp11
 70
     1
102
RTVSPropertyOp12
 70
     1
102
RTVSPropertyOp13
 70
     1
102
RTVSPropertyOp14
 70
     1
102
RTVSPropertyOp15
 70
     1
102
RTVSPropertyOp16
 70
     1
102
RTVSPropertyOp17
 70
     1
102
RTVSPropertyOp18
 70
     1
102
RTVSPropertyOp19
 70
     1
102
RTVSPropertyOp20
 70
     1
102
RTVSPropertyOp21
 70
     1
102
RTVSPropertyOp22
 70
     1
102
RTVSPropertyOp23
 70
     1
102
RTVSPropertyOp24
 70
     1
102
RTVSPropertyOp25
 70
     1
102
RTVSPropertyOp26
 70
     1
102
RTVSPropertyOp27
 70
     1
102
RTVSPropertyOp28
 70
     1
102
RTVSPropertyOp29
 70
     1
102
RTVSPropertyOp30
 70
     1
102
RTVSPropertyOp31
 70
     1
102
RTVSPropertyOp32
 70
     1
  0
XRECORD
  5
F10AE6
102
{ACAD_REACTORS
330
F10AE5
102
}
330
F10AE5
100
AcDbXrecord
280
     1
102
RTVSPropertyOp0
 70
     1
102
RTVSPropertyOp1
 70
     1
102
RTVSPropertyOp2
 70
     1
102
RTVSPropertyOp3
 70
     1
102
RTVSPropertyOp4
 70
     1
102
RTVSPropertyOp5
 70
     1
102
RTVSPropertyOp6
 70
     1
102
RTVSPropertyOp7
 70
     1
102
RTVSPropertyOp8
 70
     1
102
RTVSPropertyOp9
 70
     1
102
RTVSPropertyOp10
 70
     1
102
RTVSPropertyOp11
 70
     1
102
RTVSPropertyOp12
 70
     1
102
RTVSPropertyOp13
 70
     1
102
RTVSPropertyOp14
 70
     1
102
RTVSPropertyOp15
 70
     1
102
RTVSPropertyOp16
 70
     1
102
RTVSPropertyOp17
 70
     1
102
RTVSPropertyOp18
 70
     1
102
RTVSPropertyOp19
 70
     1
102
RTVSPropertyOp20
 70
     1
102
RTVSPropertyOp21
 70
     1
102
RTVSPropertyOp22
 70
     1
102
RTVSPropertyOp23
 70
     1
102
RTVSPropertyOp24
 70
     1
102
RTVSPropertyOp25
 70
     1
102
RTVSPropertyOp26
 70
     1
102
RTVSPropertyOp27
 70
     1
102
RTVSPropertyOp28
 70
     1
102
RTVSPropertyOp29
 70
     1
102
RTVSPropertyOp30
 70
     1
102
RTVSPropertyOp31
 70
     1
102
RTVSPropertyOp32
 70
     1
  0
XRECORD
  5
F10AE0
102
{ACAD_REACTORS
330
F10ADF
102
}
330
F10ADF
100
AcDbXrecord
280
     1
102
RTVSPropertyOp0
 70
     1
102
RTVSPropertyOp1
 70
     1
102
RTVSPropertyOp2
 70
     1
102
RTVSPropertyOp3
 70
     1
102
RTVSPropertyOp4
 70
     1
102
RTVSPropertyOp5
 70
     1
102
RTVSPropertyOp6
 70
     1
102
RTVSPropertyOp7
 70
     1
102
RTVSPropertyOp8
 70
     1
102
RTVSPropertyOp9
 70
     1
102
RTVSPropertyOp10
 70
     1
102
RTVSPropertyOp11
 70
     1
102
RTVSPropertyOp12
 70
     1
102
RTVSPropertyOp13
 70
     1
102
RTVSPropertyOp14
 70
     1
102
RTVSPropertyOp15
 70
     1
102
RTVSPropertyOp16
 70
     1
102
RTVSPropertyOp17
 70
     1
102
RTVSPropertyOp18
 70
     1
102
RTVSPropertyOp19
 70
     1
102
RTVSPropertyOp20
 70
     1
102
RTVSPropertyOp21
 70
     1
102
RTVSPropertyOp22
 70
     1
102
RTVSPropertyOp23
 70
     1
102
RTVSPropertyOp24
 70
     1
102
RTVSPropertyOp25
 70
     1
102
RTVSPropertyOp26
 70
     1
102
RTVSPropertyOp27
 70
     1
102
RTVSPropertyOp28
 70
     1
102
RTVSPropertyOp29
 70
     1
102
RTVSPropertyOp30
 70
     1
102
RTVSPropertyOp31
 70
     1
102
RTVSPropertyOp32
 70
     1
  0
XRECORD
  5
F10AE2
102
{ACAD_REACTORS
330
F10AE1
102
}
330
F10AE1
100
AcDbXrecord
280
     1
102
RTVSPropertyOp0
 70
     1
102
RTVSPropertyOp1
 70
     1
102
RTVSPropertyOp2
 70
     1
102
RTVSPropertyOp3
 70
     1
102
RTVSPropertyOp4
 70
     1
102
RTVSPropertyOp5
 70
     1
102
RTVSPropertyOp6
 70
     1
102
RTVSPropertyOp7
 70
     1
102
RTVSPropertyOp8
 70
     1
102
RTVSPropertyOp9
 70
     1
102
RTVSPropertyOp10
 70
     1
102
RTVSPropertyOp11
 70
     1
102
RTVSPropertyOp12
 70
     1
102
RTVSPropertyOp13
 70
     1
102
RTVSPropertyOp14
 70
     1
102
RTVSPropertyOp15
 70
     1
102
RTVSPropertyOp16
 70
     1
102
RTVSPropertyOp17
 70
     1
102
RTVSPropertyOp18
 70
     1
102
RTVSPropertyOp19
 70
     1
102
RTVSPropertyOp20
 70
     1
102
RTVSPropertyOp21
 70
     1
102
RTVSPropertyOp22
 70
     1
102
RTVSPropertyOp23
 70
     1
102
RTVSPropertyOp24
 70
     1
102
RTVSPropertyOp25
 70
     1
102
RTVSPropertyOp26
 70
     1
102
RTVSPropertyOp27
 70
     1
102
RTVSPropertyOp28
 70
     1
102
RTVSPropertyOp29
 70
     1
102
RTVSPropertyOp30
 70
     1
102
RTVSPropertyOp31
 70
     1
102
RTVSPropertyOp32
 70
     1
  0
XRECORD
  5
F10AC9
102
{ACAD_REACTORS
330
F10AC8
102
}
330
F10AC8
100
AcDbXrecord
280
     1
102
RTVSPropertyOp0
 70
     1
102
RTVSPropertyOp1
 70
     1
102
RTVSPropertyOp2
 70
     1
102
RTVSPropertyOp3
 70
     1
102
RTVSPropertyOp4
 70
     1
102
RTVSPropertyOp5
 70
     1
102
RTVSPropertyOp6
 70
     1
102
RTVSPropertyOp7
 70
     1
102
RTVSPropertyOp8
 70
     1
102
RTVSPropertyOp9
 70
     1
102
RTVSPropertyOp10
 70
     1
102
RTVSPropertyOp11
 70
     1
102
RTVSPropertyOp12
 70
     1
102
RTVSPropertyOp13
 70
     1
102
RTVSPropertyOp14
 70
     1
102
RTVSPropertyOp15
 70
     1
102
RTVSPropertyOp16
 70
     1
102
RTVSPropertyOp17
 70
     1
102
RTVSPropertyOp18
 70
     1
102
RTVSPropertyOp19
 70
     1
102
RTVSPropertyOp20
 70
     1
102
RTVSPropertyOp21
 70
     1
102
RTVSPropertyOp22
 70
     1
102
RTVSPropertyOp23
 70
     1
102
RTVSPropertyOp24
 70
     1
102
RTVSPropertyOp25
 70
     1
102
RTVSPropertyOp26
 70
     1
102
RTVSPropertyOp27
 70
     1
102
RTVSPropertyOp28
 70
     1
102
RTVSPropertyOp29
 70
     1
102
RTVSPropertyOp30
 70
     1
102
RTVSPropertyOp31
 70
     1
102
RTVSPropertyOp32
 70
     1
  0
XRECORD
  5
F10ADC
102
{ACAD_REACTORS
330
F10ADB
102
}
330
F10ADB
100
AcDbXrecord
280
     1
102
RTVSPropertyOp0
 70
     1
102
RTVSPropertyOp1
 70
     1
102
RTVSPropertyOp2
 70
     1
102
RTVSPropertyOp3
 70
     1
102
RTVSPropertyOp4
 70
     1
102
RTVSPropertyOp5
 70
     1
102
RTVSPropertyOp6
 70
     1
102
RTVSPropertyOp7
 70
     1
102
RTVSPropertyOp8
 70
     1
102
RTVSPropertyOp9
 70
     1
102
RTVSPropertyOp10
 70
     1
102
RTVSPropertyOp11
 70
     1
102
RTVSPropertyOp12
 70
     1
102
RTVSPropertyOp13
 70
     1
102
RTVSPropertyOp14
 70
     1
102
RTVSPropertyOp15
 70
     1
102
RTVSPropertyOp16
 70
     1
102
RTVSPropertyOp17
 70
     1
102
RTVSPropertyOp18
 70
     1
102
RTVSPropertyOp19
 70
     1
102
RTVSPropertyOp20
 70
     1
102
RTVSPropertyOp21
 70
     1
102
RTVSPropertyOp22
 70
     1
102
RTVSPropertyOp23
 70
     1
102
RTVSPropertyOp24
 70
     1
102
RTVSPropertyOp25
 70
     1
102
RTVSPropertyOp26
 70
     1
102
RTVSPropertyOp27
 70
     1
102
RTVSPropertyOp28
 70
     1
102
RTVSPropertyOp29
 70
     1
102
RTVSPropertyOp30
 70
     1
102
RTVSPropertyOp31
 70
     1
102
RTVSPropertyOp32
 70
     1
  0
XRECORD
  5
F10AE4
102
{ACAD_REACTORS
330
F10AE3
102
}
330
F10AE3
100
AcDbXrecord
280
     1
102
RTVSPropertyOp0
 70
     1
102
RTVSPropertyOp1
 70
     1
102
RTVSPropertyOp2
 70
     1
102
RTVSPropertyOp3
 70
     1
102
RTVSPropertyOp4
 70
     1
102
RTVSPropertyOp5
 70
     1
102
RTVSPropertyOp6
 70
     1
102
RTVSPropertyOp7
 70
     1
102
RTVSPropertyOp8
 70
     1
102
RTVSPropertyOp9
 70
     1
102
RTVSPropertyOp10
 70
     1
102
RTVSPropertyOp11
 70
     1
102
RTVSPropertyOp12
 70
     1
102
RTVSPropertyOp13
 70
     1
102
RTVSPropertyOp14
 70
     1
102
RTVSPropertyOp15
 70
     1
102
RTVSPropertyOp16
 70
     1
102
RTVSPropertyOp17
 70
     1
102
RTVSPropertyOp18
 70
     1
102
RTVSPropertyOp19
 70
     1
102
RTVSPropertyOp20
 70
     1
102
RTVSPropertyOp21
 70
     1
102
RTVSPropertyOp22
 70
     1
102
RTVSPropertyOp23
 70
     1
102
RTVSPropertyOp24
 70
     1
102
RTVSPropertyOp25
 70
     1
102
RTVSPropertyOp26
 70
     1
102
RTVSPropertyOp27
 70
     1
102
RTVSPropertyOp28
 70
     1
102
RTVSPropertyOp29
 70
     1
102
RTVSPropertyOp30
 70
     1
102
RTVSPropertyOp31
 70
     1
102
RTVSPropertyOp32
 70
     1
  0
ENDSEC
  0
EOF
