  0
SECTION
  2
HEADER
  9
$ACADVER
  1
AC1015
  9
$ACADMAINTVER
 70
    20
  9
$DWGCODEPAGE
  3
ANSI_1252
  9
$INSBASE
 10
0.0
 20
0.0
 30
0.0
  9
$EXTMIN
 10
-148.5
 20
-100.174576271186
 30
0.0
  9
$EXTMAX
 10
143.466101694915
 20
109.2383945707213
 30
0.0
  9
$LIMMIN
 10
0.0
 20
0.0
  9
$LIMMAX
 10
12.0
 20
9.0
  9
$ORTHOMODE
 70
     0
  9
$REGENMODE
 70
     1
  9
$FILLMODE
 70
     1
  9
$QTEXTMODE
 70
     0
  9
$MIRRTEXT
 70
     1
  9
$LTSCALE
 40
1.0
  9
$ATTMODE
 70
     1
  9
$TEXTSIZE
 40
0.2
  9
$TRACEWID
 40
0.05
  9
$TEXTSTYLE
  7
Standard
  9
$CLAYER
  8
0
  9
$CELTYPE
  6
ByLayer
  9
$CECOLOR
 62
   256
  9
$CELTSCALE
 40
1.0
  9
$DISPSILH
 70
     0
  9
$DIMSCALE
 40
1.0
  9
$DIMASZ
 40
2.5
  9
$DIMEXO
 40
0.625
  9
$DIMDLI
 40
0.38
  9
$DIMRND
 40
0.0
  9
$DIMDLE
 40
0.0
  9
$DIMEXE
 40
1.25
  9
$DIMTP
 40
0.0
  9
$DIMTM
 40
0.000000001
  9
$DIMTXT
 40
2.5
  9
$DIMCEN
 40
0.09
  9
$DIMTSZ
 40
0.0
  9
$DIMTOL
 70
     1
  9
$DIMLIM
 70
     0
  9
$DIMTIH
 70
     0
  9
$DIMTOH
 70
     0
  9
$DIMSE1
 70
     0
  9
$DIMSE2
 70
     0
  9
$DIMTAD
 70
     1
  9
$DIMZIN
 70
     0
  9
$DIMBLK
  1
VDDIM_DEFAULT
  9
$DIMASO
 70
     1
  9
$DIMSHO
 70
     1
  9
$DIMPOST
  1

  9
$DIMAPOST
  1

  9
$DIMALT
 70
     0
  9
$DIMALTD
 70
     2
  9
$DIMALTF
 40
25.4
  9
$DIMLFAC
 40
1.0
  9
$DIMTOFL
 70
     0
  9
$DIMTVP
 40
0.0
  9
$DIMTIX
 70
     0
  9
$DIMSOXD
 70
     0
  9
$DIMSAH
 70
     0
  9
$DIMBLK1
  1

  9
$DIMBLK2
  1

  9
$DIMSTYLE
  2
BEM-ISBE
  9
$DIMCLRD
 70
     0
  9
$DIMCLRE
 70
     0
  9
$DIMCLRT
 70
     0
  9
$DIMTFAC
 40
0.5
  9
$DIMGAP
 40
0.625
  9
$DIMJUST
 70
     0
  9
$DIMSD1
 70
     0
  9
$DIMSD2
 70
     0
  9
$DIMTOLJ
 70
     1
  9
$DIMTZIN
 70
     0
  9
$DIMALTZ
 70
     0
  9
$DIMALTTZ
 70
     0
  9
$DIMUPT
 70
     0
  9
$DIMDEC
 70
     3
  9
$DIMTDEC
 70
     3
  9
$DIMALTU
 70
     2
  9
$DIMALTTD
 70
     2
  9
$DIMTXSTY
  7
Standard
  9
$DIMAUNIT
 70
     0
  9
$DIMADEC
 70
     3
  9
$DIMALTRND
 40
0.0
  9
$DIMAZIN
 70
     0
  9
$DIMDSEP
 70
    46
  9
$DIMATFIT
 70
     3
  9
$DIMFRAC
 70
     0
  9
$DIMLDRBLK
  1

  9
$DIMLUNIT
 70
     2
  9
$DIMLWD
 70
    -2
  9
$DIMLWE
 70
    -2
  9
$DIMTMOVE
 70
     0
  9
$LUNITS
 70
     2
  9
$LUPREC
 70
     4
  9
$SKETCHINC
 40
0.1
  9
$FILLETRAD
 40
0.0
  9
$AUNITS
 70
     0
  9
$AUPREC
 70
     0
  9
$MENU
  1
.
  9
$ELEVATION
 40
0.0
  9
$PELEVATION
 40
0.0
  9
$THICKNESS
 40
0.0
  9
$LIMCHECK
 70
     0
  9
$CHAMFERA
 40
0.5
  9
$CHAMFERB
 40
0.5
  9
$CHAMFERC
 40
1.0
  9
$CHAMFERD
 40
0.0
  9
$SKPOLY
 70
     0
  9
$TDCREATE
 40
2456800.683454144
  9
$TDUCREATE
 40
2456800.600120811
  9
$TDUPDATE
 40
2456800.684670706
  9
$TDUUPDATE
 40
2456800.601337373
  9
$TDINDWG
 40
0.0012176736
  9
$TDUSRTIMER
 40
0.0012176389
  9
$USRTIMER
 70
     1
  9
$ANGBASE
 50
0.0
  9
$ANGDIR
 70
     0
  9
$PDMODE
 70
     0
  9
$PDSIZE
 40
0.0
  9
$PLINEWID
 40
0.0
  9
$SPLFRAME
 70
     0
  9
$SPLINETYPE
 70
     6
  9
$SPLINESEGS
 70
     8
  9
$HANDSEED
  5
F10B80
  9
$SURFTAB1
 70
     6
  9
$SURFTAB2
 70
     6
  9
$SURFTYPE
 70
     6
  9
$SURFU
 70
     6
  9
$SURFV
 70
     6
  9
$UCSBASE
  2

  9
$UCSNAME
  2

  9
$UCSORG
 10
0.0
 20
0.0
 30
0.0
  9
$UCSXDIR
 10
1.0
 20
0.0
 30
0.0
  9
$UCSYDIR
 10
0.0
 20
1.0
 30
0.0
  9
$UCSORTHOREF
  2

  9
$UCSORTHOVIEW
 70
     0
  9
$UCSORGTOP
 10
0.0
 20
0.0
 30
0.0
  9
$UCSORGBOTTOM
 10
0.0
 20
0.0
 30
0.0
  9
$UCSORGLEFT
 10
0.0
 20
0.0
 30
0.0
  9
$UCSORGRIGHT
 10
0.0
 20
0.0
 30
0.0
  9
$UCSORGFRONT
 10
0.0
 20
0.0
 30
0.0
  9
$UCSORGBACK
 10
0.0
 20
0.0
 30
0.0
  9
$PUCSBASE
  2

  9
$PUCSNAME
  2

  9
$PUCSORG
 10
0.0
 20
0.0
 30
0.0
  9
$PUCSXDIR
 10
1.0
 20
0.0
 30
0.0
  9
$PUCSYDIR
 10
0.0
 20
1.0
 30
0.0
  9
$PUCSORTHOREF
  2

  9
$PUCSORTHOVIEW
 70
     0
  9
$PUCSORGTOP
 10
0.0
 20
0.0
 30
0.0
  9
$PUCSORGBOTTOM
 10
0.0
 20
0.0
 30
0.0
  9
$PUCSORGLEFT
 10
0.0
 20
0.0
 30
0.0
  9
$PUCSORGRIGHT
 10
0.0
 20
0.0
 30
0.0
  9
$PUCSORGFRONT
 10
0.0
 20
0.0
 30
0.0
  9
$PUCSORGBACK
 10
0.0
 20
0.0
 30
0.0
  9
$USERI1
 70
     0
  9
$USERI2
 70
     0
  9
$USERI3
 70
     0
  9
$USERI4
 70
     0
  9
$USERI5
 70
     0
  9
$USERR1
 40
0.0
  9
$USERR2
 40
0.0
  9
$USERR3
 40
0.0
  9
$USERR4
 40
0.0
  9
$USERR5
 40
0.0
  9
$WORLDVIEW
 70
     1
  9
$SHADEDGE
 70
     3
  9
$SHADEDIF
 70
    70
  9
$TILEMODE
 70
     1
  9
$MAXACTVP
 70
    64
  9
$PINSBASE
 10
0.0
 20
0.0
 30
0.0
  9
$PLIMCHECK
 70
     0
  9
$PEXTMIN
 10
1.000000000000000E+20
 20
1.000000000000000E+20
 30
1.000000000000000E+20
  9
$PEXTMAX
 10
-1.000000000000000E+20
 20
-1.000000000000000E+20
 30
-1.000000000000000E+20
  9
$PLIMMIN
 10
0.0
 20
0.0
  9
$PLIMMAX
 10
12.0
 20
9.0
  9
$UNITMODE
 70
     0
  9
$VISRETAIN
 70
     1
  9
$PLINEGEN
 70
     0
  9
$PSLTSCALE
 70
     1
  9
$TREEDEPTH
 70
  3020
  9
$CMLSTYLE
  2
Standard
  9
$CMLJUST
 70
     0
  9
$CMLSCALE
 40
1.0
  9
$PROXYGRAPHICS
 70
     1
  9
$MEASUREMENT
 70
     0
  9
$CELWEIGHT
370
    -1
  9
$ENDCAPS
280
     0
  9
$JOINSTYLE
280
     0
  9
$LWDISPLAY
290
     0
  9
$INSUNITS
 70
     4
  9
$HYPERLINKBASE
  1

  9
$STYLESHEET
  1

  9
$XEDIT
290
     1
  9
$CEPSNTYPE
380
     0
  9
$PSTYLEMODE
290
     0
  9
$FINGERPRINTGUID
  2
{FAEB1C30-E019-11D5-929B-00C0DF256EC4}
  9
$VERSIONGUID
  2
{4A1A773F-2115-4963-AC5D-3A4E73C28FDB}
  9
$EXTNAMES
290
     1
  9
$PSVPSCALE
 40
0.0
  9
$OLESTARTUP
290
     0
  0
ENDSEC
  0
SECTION
  2
CLASSES
  0
CLASS
  1
ACDBDICTIONARYWDFLT
  2
AcDbDictionaryWithDefault
  3
ObjectDBX Classes
 90
        0
280
     0
281
     0
  0
CLASS
  1
MATERIAL
  2
AcDbMaterial
  3
ObjectDBX Classes
 90
     1153
280
     0
281
     0
  0
CLASS
  1
MLEADERSTYLE
  2
AcDbMLeaderStyle
  3
ACDB_MLEADERSTYLE_CLASS
 90
     4095
280
     0
281
     0
  0
CLASS
  1
SCALE
  2
AcDbScale
  3
ObjectDBX Classes
 90
     1153
280
     0
281
     0
  0
CLASS
  1
TABLESTYLE
  2
AcDbTableStyle
  3
ObjectDBX Classes
 90
     4095
280
     0
281
     0
  0
CLASS
  1
VISUALSTYLE
  2
AcDbVisualStyle
  3
ObjectDBX Classes
 90
     4095
280
     0
281
     0
  0
CLASS
  1
DICTIONARYVAR
  2
AcDbDictionaryVar
  3
ObjectDBX Classes
 90
        0
280
     0
281
     0
  0
CLASS
  1
CELLSTYLEMAP
  2
AcDbCellStyleMap
  3
ObjectDBX Classes
 90
     1152
280
     0
281
     0
  0
CLASS
  1
AMGSETTINGSOBJ
  2
AmgSettingsObj
  3
"AcadM|Product Description: AutoCAD Mechanical|Company: Autodesk, Inc."
 90
     1024
280
     0
281
     0
  0
CLASS
  1
ACME_DOCUMENT
  2
AcMeDbDoc
  3
AcMeServices
 90
     1024
280
     0
281
     0
  0
CLASS
  1
ACMESCOPE
  2
AcMeScope
  3
AcMeServices
 90
     1024
280
     0
281
     0
  0
CLASS
  1
ACMECOMMANDHISTORY
  2
AcMeCommandHistory
  3
AcMeServices
 90
     1024
280
     0
281
     0
  0
CLASS
  1
ACIMSYSVARMAN
  2
AcImSysVarManager
  3
AcMeServices
 90
     1024
280
     0
281
     0
  0
CLASS
  1
ACIMINTSYSVAR
  2
AcImIntSysVar
  3
AcMeServices
 90
     1024
280
     0
281
     0
  0
CLASS
  1
ACMESTATEMGR
  2
AcMeStateMgr
  3
AcMeServices
 90
     1024
280
     0
281
     0
  0
CLASS
  1
ACDBENTITYCACHE
  2
AcMeEntityCache
  3
AcMeServices
 90
     1024
280
     0
281
     0
  0
CLASS
  1
ACGREFMASTER
  2
AcGrefMaster
  3
AcAttribServices
 90
     1024
280
     0
281
     0
  0
CLASS
  1
AM_DRAWING_MGR
  2
AcDmDwgMgr
  3
AcMechDwgViewMgmt
 90
     1024
280
     0
281
     0
  0
CLASS
  1
AM_DWG_DOCUMENT
  2
AcDmDwgDocument
  3
AcMechDwgViewMgmt
 90
     1024
280
     0
281
     0
  0
CLASS
  1
AM_DWG_SHEET
  2
AcDmSheet
  3
AcMechDwgViewMgmt
 90
     1024
280
     0
281
     0
  0
CLASS
  1
AM_VIEWDIMPARMAP
  2
AcDmViewDimParMap
  3
AcMechDwgViewMgmt
 90
     1024
280
     0
281
     0
  0
CLASS
  1
AMDTINTERNALREACTOR
  2
AmdtInternalReactor
  3
AcMeServices
 90
     1024
280
     0
281
     0
  0
CLASS
  1
ACIMREALSYSVAR
  2
AcImRealSysVar
  3
AcMeServices
 90
     1024
280
     0
281
     0
  0
CLASS
  1
AM_DWGMGR_NAME
  2
AcDmDwgMgrName
  3
AcMechDwgViewMgmt
 90
     1024
280
     0
281
     0
  0
CLASS
  1
ACME_DATABASE
  2
AcMeDbDatabase
  3
AcMeServices
 90
     1024
280
     0
281
     0
  0
CLASS
  1
ACRFINSADJUSTERMGR
  2
AcRfInsAdjusterMgr
  3
AcMeServices
 90
     1024
280
     0
281
     0
  0
CLASS
  1
ACGREFACADMASTER
  2
AcGrefacadMaster
  3
AcGrefServices
 90
     1024
280
     0
281
     0
  0
CLASS
  1
AMDTMENUSTATEMGR
  2
AmdtMenuStateMgr
  3
McadcomServices
 90
     1024
280
     0
281
     0
  0
CLASS
  1
AMDTMCOMMENUSTATE
  2
AmdtMcomMenuState
  3
McadcomServices
 90
     1024
280
     0
281
     0
  0
CLASS
  1
AMIMASTER
  2
AmiMaster
  3
AmiServices
 90
     1024
280
     0
281
     0
  0
CLASS
  1
MAPIAMMOUDLE
  2
MApiAmModule
  3
MApiAmServices
 90
     1024
280
     0
281
     0
  0
CLASS
  1
ACIMSTRSYSVAR
  2
AcImStrSysVar
  3
AcMeServices
 90
     1024
280
     0
281
     0
  0
CLASS
  1
AMDTDMMENUSTATE
  2
AmdtDmMenuState
  3
AcMechDwgViewMgmt
 90
     1024
280
     0
281
     0
  0
CLASS
  1
AMDTAMMENUSTATE
  2
AmdtAmMenuState
  3
DesignerAssemblies
 90
     1024
280
     0
281
     0
  0
CLASS
  1
ACAMPROJECT
  2
AcAmProject
  3
DesignerAssemblies
 90
     1024
280
     0
281
     0
  0
CLASS
  1
ACAMGRCOMPDEF
  2
AcAmGrCompDef
  3
DesignerAssemblies
 90
     1024
280
     0
281
     0
  0
CLASS
  1
ACAMCOMPDEF
  2
AcAmCompDef
  3
DesignerAssemblies
 90
     1024
280
     0
281
     0
  0
CLASS
  1
ACAMCOMPDEFMGR
  2
AcAmCompDefMgr
  3
DesignerAssemblies
 90
     1024
280
     0
281
     0
  0
CLASS
  1
AMCONTEXTMGR
  2
AcAmContextMgr
  3
DesignerAssemblies
 90
     1024
280
     0
281
     0
  0
CLASS
  1
ACAMCONTEXTMODELER
  2
AcAmContextModeler
  3
DesignerAssemblies
 90
     1024
280
     0
281
     0
  0
CLASS
  1
ACMDATADICTIONARY
  2
AcmDataDictionary
  3
"AcmSymBB|Product Description: AutoCAD Mechanical|Company: Autodesk, Inc."
 90
     1024
280
     0
281
     0
  0
CLASS
  1
ACAMGRCOMPDEFSET
  2
AcAmGrCompDefSet
  3
DesignerAssemblies
 90
     1024
280
     0
281
     0
  0
CLASS
  1
AMDTBROWSERDBTAB
  2
AmdtBrowserDbTab
  3
McadcomServices
 90
     1024
280
     0
281
     0
  0
CLASS
  1
CBROWSERAPPOBJECT
  2
CBrowserAppObject
  3
McadcomServices
 90
     1024
280
     0
281
     0
  0
CLASS
  1
DM_PLACEHOLDER
  2
AcDmSelsetPlaceholder
  3
AcMechDwgViewMgmt
 90
     1024
280
     0
281
     0
  0
CLASS
  1
EXACXREFPANELOBJECT
  2
ExAcXREFPanelObject
  3
EXAC_ESW
 90
     1025
280
     0
281
     0
  0
CLASS
  1
NPOCOLLECTION
  2
AcDbImpNonPersistentObjectsCollection
  3
ObjectDBX Classes
 90
     1153
280
     0
281
     0
  0
CLASS
  1
ACMSTANDARDANSI
  2
AcmStandardANSI
  3
"Amdt_StdImp|Product Description: AutoCAD Mechanical|Company: Autodesk, Inc."
 90
     1024
280
     0
281
     0
  0
CLASS
  1
ACMSURFSTANDARDANSI
  2
AcmSurfTextStdANSI
  3
"Amdt_StdImp|Product Description: AutoCAD Mechanical|Company: Autodesk, Inc."
 90
     1024
280
     0
281
     0
  0
CLASS
  1
ACMFCFSTANDARDANSI
  2
AcmFCFStdANSI
  3
"Amdt_StdImp|Product Description: AutoCAD Mechanical|Company: Autodesk, Inc."
 90
     1024
280
     0
281
     0
  0
CLASS
  1
ACMWELDSTANDARDANSI
  2
AcmWeldingStdANSI
  3
"Amdt_StdImp|Product Description: AutoCAD Mechanical|Company: Autodesk, Inc."
 90
     1024
280
     0
281
     0
  0
CLASS
  1
ACMIDSTANDARDANSI
  2
AcmIdStdANSI
  3
"Amdt_StdImp|Product Description: AutoCAD Mechanical|Company: Autodesk, Inc."
 90
     1024
280
     0
281
     0
  0
CLASS
  1
ACMDATUMSTANDARDANSI
  2
AcmDatumStdANSI
  3
"Amdt_StdImp|Product Description: AutoCAD Mechanical|Company: Autodesk, Inc."
 90
     1024
280
     0
281
     0
  0
CLASS
  1
ACMBOMSTANDARDANSI
  2
AcmBOMStdANSI
  3
"Amdt_StdImp|Product Description: AutoCAD Mechanical|Company: Autodesk, Inc."
 90
     1024
280
     0
281
     0
  0
CLASS
  1
ACMDETAILSTANDARDANSI
  2
AmdtDetailSymStdANSI
  3
"Amdt_StdImp|Product Description: AutoCAD Mechanical|Company: Autodesk, Inc."
 90
     1024
280
     0
281
     0
  0
CLASS
  1
ACMSECTIONSTANDARDANSI
  2
AmdtSectionSymStdANSI
  3
"Amdt_StdImp|Product Description: AutoCAD Mechanical|Company: Autodesk, Inc."
 90
     1024
280
     0
281
     0
  0
CLASS
  1
ACMCENTERLINESTANDARDANSI
  2
AmdtCenterLineStdANSI
  3
"Amdt_StdImp|Product Description: AutoCAD Mechanical|Company: Autodesk, Inc."
 90
     1024
280
     0
281
     0
  0
CLASS
  1
ACMTHREADLINESTANDARDANSI
  2
AmdtThreadLineStdANSI
  3
"Amdt_StdImp|Product Description: AutoCAD Mechanical|Company: Autodesk, Inc."
 90
     1024
280
     0
281
     0
  0
CLASS
  1
ACMNOTESTANDARDANSI
  2
AmdtNoteStdANSI
  3
"Amdt_StdImp|Product Description: AutoCAD Mechanical|Company: Autodesk, Inc."
 90
     1024
280
     0
281
     0
  0
CLASS
  1
ACMTAPERSTANDARDANSI
  2
AcmTaperStdANSI
  3
"Amdt_StdImp|Product Description: AutoCAD Mechanical|Company: Autodesk, Inc."
 90
     1024
280
     0
281
     0
  0
CLASS
  1
ACMANOOTATIONVIEWSTANDARDANSI
  2
AmdtAnViewStdANSI
  3
"Amdt_StdImp|Product Description: AutoCAD Mechanical|Company: Autodesk, Inc."
 90
     1024
280
     0
281
     0
  0
CLASS
  1
ACAMGLAYSTD
  2
AcAmgLayStd
  3
"AmgLay|Product Description: AutoCAD Mechanical|Company: Autodesk, Inc."
 90
     1024
280
     0
281
     0
  0
CLASS
  1
ACAMGDIMSTD
  2
AcAmgDimStd
  3
"AmgDim|Product Description: AutoCAD Mechanical|Company: Autodesk, Inc."
 90
     1024
280
     0
281
     0
  0
CLASS
  1
AMGOBJPROPCFG
  2
AmgObjPropCfg
  3
"AmgLay|Product Description: AutoCAD Mechanical|Company: Autodesk, Inc."
 90
     1025
280
     0
281
     0
  0
CLASS
  1
ACAMGHOLECHARTSTDANSI
  2
AcAmgHoleChartStdANSI
  3
AmgDim|Product Description: AutoCAD Mechanical|Company: Autodesk, Inc.
 90
     1024
280
     0
281
     0
  0
CLASS
  1
ACAMGTITLESTD
  2
AcAmgTitleStd
  3
"AmgTitle|Product Description: AutoCAD Mechanical|Company: Autodesk, Inc."
 90
     4095
280
     0
281
     0
  0
CLASS
  1
AMDTNOTETEMPLATEDB
  2
AmdtNoteTemplateDB
  3
AcmSymBB|Product Description: AutoCAD Mechanical|Company: Autodesk, Inc.
 90
     1024
280
     0
281
     0
  0
CLASS
  1
ACAMGFILTERDAT
  2
AcAmgFilterDat
  3
"AcadM|Product Description: AutoCAD Mechanical|Company: Autodesk, Inc."
 90
     1024
280
     0
281
     0
  0
CLASS
  1
ACDBPLACEHOLDER
  2
AcDbPlaceHolder
  3
ObjectDBX Classes
 90
        0
280
     0
281
     0
  0
CLASS
  1
LAYOUT
  2
AcDbLayout
  3
ObjectDBX Classes
 90
        0
280
     0
281
     0
  0
ENDSEC
  0
SECTION
  2
TABLES
  0
TABLE
  2
VPORT
  5
24A
330
0
100
AcDbSymbolTable
 70
     1
  0
VPORT
  5
26B
330
24A
100
AcDbSymbolTableRecord
100
AcDbViewportTableRecord
  2
*Active
 70
     0
 10
0.0
 20
0.0
 11
1.0
 21
1.0
 12
13.73481927399706
 22
6.449235900258059
 13
0.0
 23
0.0
 14
10.0
 24
10.0
 15
10.0
 25
10.0
 16
0.0
 26
0.0
 36
1.0
 17
0.0
 27
0.0
 37
0.0
 40
248.0679285694604
 41
1.438709677419354
 42
1.0
 43
0.0
 44
0.0
 50
0.0
 51
0.0000000000007958
 71
     0
 72
   100
 73
     1
 74
     3
 75
     0
 76
     0
 77
     0
 78
     1
281
     0
 65
     0
110
0.0
120
0.0
130
0.0
111
1.0
121
0.0
131
0.0
112
0.0
122
1.0
132
0.0
 79
     0
146
0.0
  0
ENDTAB
  0
TABLE
  2
LTYPE
  5
247
330
0
100
AcDbSymbolTable
 70
    36
  0
LTYPE
  5
256
330
247
100
AcDbSymbolTableRecord
100
AcDbLinetypeTableRecord
  2
ByBlock
 70
     0
  3

 72
    65
 73
     0
 40
0.0
  0
LTYPE
  5
257
330
247
100
AcDbSymbolTableRecord
100
AcDbLinetypeTableRecord
  2
ByLayer
 70
     0
  3

 72
    65
 73
     0
 40
0.0
  0
LTYPE
  5
258
330
247
100
AcDbSymbolTableRecord
100
AcDbLinetypeTableRecord
  2
Continuous
 70
     0
  3
Solid line
 72
    65
 73
     0
 40
0.0
  0
LTYPE
  5
273
330
247
100
AcDbSymbolTableRecord
100
AcDbLinetypeTableRecord
  2
CENTER
 70
     0
  3
Center ____ _ ____ _ ____ _ ____ _ ____ _ ____
 72
    65
 73
     4
 40
2.0
 49
1.25
 74
     0
 49
-0.25
 74
     0
 49
0.25
 74
     0
 49
-0.25
 74
     0
  0
LTYPE
  5
274
330
247
100
AcDbSymbolTableRecord
100
AcDbLinetypeTableRecord
  2
DASHDOT
 70
     0
  3
Dashdot __ . __ . __ . __ . __ . __ . __ . __
 72
    65
 73
     4
 40
1.0
 49
0.5
 74
     0
 49
-0.25
 74
     0
 49
0.0
 74
     0
 49
-0.25
 74
     0
  0
LTYPE
  5
275
330
247
100
AcDbSymbolTableRecord
100
AcDbLinetypeTableRecord
  2
DASHED
 70
     0
  3
Dashed __ __ __ __ __ __ __ __ __ __ __ __ __ _
 72
    65
 73
     2
 40
0.75
 49
0.5
 74
     0
 49
-0.25
 74
     0
  0
LTYPE
  5
276
330
247
100
AcDbSymbolTableRecord
100
AcDbLinetypeTableRecord
  2
HIDDEN
 70
     0
  3
Hidden __ __ __ __ __ __ __ __ __ __ __ __ __ __
 72
    65
 73
     2
 40
0.375
 49
0.25
 74
     0
 49
-0.125
 74
     0
  0
LTYPE
  5
277
330
247
100
AcDbSymbolTableRecord
100
AcDbLinetypeTableRecord
  2
HIDDEN2
 70
     0
  3
Hidden2 _ _ _ _ _ _ _ _ _ _ _ _ _ _ _ _ _
 72
    65
 73
     2
 40
0.1875
 49
0.125
 74
     0
 49
-0.0625
 74
     0
  0
LTYPE
  5
278
330
247
100
AcDbSymbolTableRecord
100
AcDbLinetypeTableRecord
  2
BORDER
 70
     0
  3
Border __ __ . __ __ . __ __ . __ __ . __ __ .
 72
    65
 73
     6
 40
1.75
 49
0.5
 74
     0
 49
-0.25
 74
     0
 49
0.5
 74
     0
 49
-0.25
 74
     0
 49
0.0
 74
     0
 49
-0.25
 74
     0
  0
LTYPE
  5
279
330
247
100
AcDbSymbolTableRecord
100
AcDbLinetypeTableRecord
  2
BORDER2
 70
     0
  3
Border2 __.__.__.__.__.__.__.__.__.__.__.
 72
    65
 73
     6
 40
0.875
 49
0.25
 74
     0
 49
-0.125
 74
     0
 49
0.25
 74
     0
 49
-0.125
 74
     0
 49
0.0
 74
     0
 49
-0.125
 74
     0
  0
LTYPE
  5
27A
330
247
100
AcDbSymbolTableRecord
100
AcDbLinetypeTableRecord
  2
BORDERX2
 70
     0
  3
Borderx2  ____  ____  .  ____  ____  .  ___
 72
    65
 73
     6
 40
3.5
 49
1.0
 74
     0
 49
-0.5
 74
     0
 49
1.0
 74
     0
 49
-0.5
 74
     0
 49
0.0
 74
     0
 49
-0.5
 74
     0
  0
LTYPE
  5
27B
330
247
100
AcDbSymbolTableRecord
100
AcDbLinetypeTableRecord
  2
CENTER2
 70
     0
  3
Center2  ___ _ ___ _ ___ _ ___ _ ___ _ ___
 72
    65
 73
     4
 40
1.125
 49
0.75
 74
     0
 49
-0.125
 74
     0
 49
0.125
 74
     0
 49
-0.125
 74
     0
  0
LTYPE
  5
27C
330
247
100
AcDbSymbolTableRecord
100
AcDbLinetypeTableRecord
  2
CENTERX2
 70
     0
  3
Centerx2  ________  __  ________  __  _____
 72
    65
 73
     4
 40
4.0
 49
2.5
 74
     0
 49
-0.5
 74
     0
 49
0.5
 74
     0
 49
-0.5
 74
     0
  0
LTYPE
  5
27D
330
247
100
AcDbSymbolTableRecord
100
AcDbLinetypeTableRecord
  2
DASHDOT2
 70
     0
  3
Dashdot2  _._._._._._._._._._._._._._._.
 72
    65
 73
     4
 40
0.5
 49
0.25
 74
     0
 49
-0.125
 74
     0
 49
0.0
 74
     0
 49
-0.125
 74
     0
  0
LTYPE
  5
27E
330
247
100
AcDbSymbolTableRecord
100
AcDbLinetypeTableRecord
  2
DASHDOTX2
 70
     0
  3
Dashdotx2 ____  .  ____  .  ____  .  ___
 72
    65
 73
     4
 40
2.0
 49
1.0
 74
     0
 49
-0.5
 74
     0
 49
0.0
 74
     0
 49
-0.5
 74
     0
  0
LTYPE
  5
27F
330
247
100
AcDbSymbolTableRecord
100
AcDbLinetypeTableRecord
  2
DASHED2
 70
     0
  3
Dashed2 _ _ _ _ _ _ _ _ _ _ _ _ _ _ _ _ _
 72
    65
 73
     2
 40
0.375
 49
0.25
 74
     0
 49
-0.125
 74
     0
  0
LTYPE
  5
280
330
247
100
AcDbSymbolTableRecord
100
AcDbLinetypeTableRecord
  2
DASHEDX2
 70
     0
  3
Dashedx2 ____  ____  ____  ____  ____  ___
 72
    65
 73
     2
 40
1.5
 49
1.0
 74
     0
 49
-0.5
 74
     0
  0
LTYPE
  5
281
330
247
100
AcDbSymbolTableRecord
100
AcDbLinetypeTableRecord
  2
DIVIDE
 70
     0
  3
Divide ____ . . ____ . . ____ . . ____ . . ____
 72
    65
 73
     6
 40
1.25
 49
0.5
 74
     0
 49
-0.25
 74
     0
 49
0.0
 74
     0
 49
-0.25
 74
     0
 49
0.0
 74
     0
 49
-0.25
 74
     0
  0
LTYPE
  5
282
330
247
100
AcDbSymbolTableRecord
100
AcDbLinetypeTableRecord
  2
DIVIDE2
 70
     0
  3
Divide2 __..__..__..__..__..__..__..__.._
 72
    65
 73
     6
 40
0.625
 49
0.25
 74
     0
 49
-0.125
 74
     0
 49
0.0
 74
     0
 49
-0.125
 74
     0
 49
0.0
 74
     0
 49
-0.125
 74
     0
  0
LTYPE
  5
283
330
247
100
AcDbSymbolTableRecord
100
AcDbLinetypeTableRecord
  2
DIVIDEX2
 70
     0
  3
Dividex2 ________  .  .  ________  .  .  _
 72
    65
 73
     6
 40
2.5
 49
1.0
 74
     0
 49
-0.5
 74
     0
 49
0.0
 74
     0
 49
-0.5
 74
     0
 49
0.0
 74
     0
 49
-0.5
 74
     0
  0
LTYPE
  5
284
330
247
100
AcDbSymbolTableRecord
100
AcDbLinetypeTableRecord
  2
DOT
 70
     0
  3
Dot . . . . . . . . . . . . . . . . . . . . . . . .
 72
    65
 73
     2
 40
0.25
 49
0.0
 74
     0
 49
-0.25
 74
     0
  0
LTYPE
  5
285
330
247
100
AcDbSymbolTableRecord
100
AcDbLinetypeTableRecord
  2
DOT2
 70
     0
  3
Dot2 ........................................
 72
    65
 73
     2
 40
0.125
 49
0.0
 74
     0
 49
-0.125
 74
     0
  0
LTYPE
  5
286
330
247
100
AcDbSymbolTableRecord
100
AcDbLinetypeTableRecord
  2
DOTX2
 70
     0
  3
Dotx2 .  .  .  .  .  .  .  .  .  .  .  .  .  .
 72
    65
 73
     2
 40
0.5
 49
0.0
 74
     0
 49
-0.5
 74
     0
  0
LTYPE
  5
287
330
247
100
AcDbSymbolTableRecord
100
AcDbLinetypeTableRecord
  2
HIDDENX2
 70
     0
  3
Hiddenx2 ____ ____ ____ ____ ____ ____ ____
 72
    65
 73
     2
 40
0.75
 49
0.5
 74
     0
 49
-0.25
 74
     0
  0
LTYPE
  5
288
330
247
100
AcDbSymbolTableRecord
100
AcDbLinetypeTableRecord
  2
PHANTOM
 70
     0
  3
Phantom ______  __  __  ______  __  __  ______
 72
    65
 73
     6
 40
2.5
 49
1.25
 74
     0
 49
-0.25
 74
     0
 49
0.25
 74
     0
 49
-0.25
 74
     0
 49
0.25
 74
     0
 49
-0.25
 74
     0
  0
LTYPE
  5
289
330
247
100
AcDbSymbolTableRecord
100
AcDbLinetypeTableRecord
  2
PHANTOM2
 70
     0
  3
Phantom2 ___ _ _ ___ _ _ ___ _ _ ___ _ _
 72
    65
 73
     6
 40
1.25
 49
0.625
 74
     0
 49
-0.125
 74
     0
 49
0.125
 74
     0
 49
-0.125
 74
     0
 49
0.125
 74
     0
 49
-0.125
 74
     0
  0
LTYPE
  5
28A
330
247
100
AcDbSymbolTableRecord
100
AcDbLinetypeTableRecord
  2
PHANTOMX2
 70
     0
  3
Phantomx2 ____________    ____    ____   _
 72
    65
 73
     6
 40
5.0
 49
2.5
 74
     0
 49
-0.5
 74
     0
 49
0.5
 74
     0
 49
-0.5
 74
     0
 49
0.5
 74
     0
 49
-0.5
 74
     0
  0
LTYPE
  5
F109A8
330
247
100
AcDbSymbolTableRecord
100
AcDbLinetypeTableRecord
  2
AM_ISO02W050
 70
     0
  3
__ __ __ __ __ __ __ __ __ __ __ __ __ __ __
 72
    65
 73
     2
 40
7.5
 49
6.0
 74
     0
 49
-1.5
 74
     0
  0
LTYPE
  5
F109A9
330
247
100
AcDbSymbolTableRecord
100
AcDbLinetypeTableRecord
  2
AM_ISO08W050
 70
     0
  3
____ . ____ . ____ . ____ . ____ . ____ . ____
 72
    65
 73
     4
 40
18.0
 49
12.0
 74
     0
 49
-1.5
 74
     0
 49
3.0
 74
     0
 49
-1.5
 74
     0
  0
LTYPE
  5
F109AA
330
247
100
AcDbSymbolTableRecord
100
AcDbLinetypeTableRecord
  2
AM_ISO09W050
 70
     0
  3
_____ . . _____ . . _____ . . ____ .. ____
 72
    65
 73
     6
 40
22.5
 49
12.0
 74
     0
 49
-1.5
 74
     0
 49
3.0
 74
     0
 49
-1.5
 74
     0
 49
3.0
 74
     0
 49
-1.5
 74
     0
  0
LTYPE
  5
F109AB
330
247
100
AcDbSymbolTableRecord
100
AcDbLinetypeTableRecord
  2
Amconstr
 70
     0
  3
_______________________
 72
    65
 73
     2
 40
9999.0
 49
9999.0
 74
     0
 49
0.0
 74
     0
  0
LTYPE
  5
F109AC
330
247
100
AcDbSymbolTableRecord
100
AcDbLinetypeTableRecord
  2
AM_ISO08W050x2
 70
     0
  3
__ . __ . __ . __ . __ . __
 72
    65
 73
     4
 40
9.0
 49
6.0
 74
     0
 49
-0.75
 74
     0
 49
1.5
 74
     0
 49
-0.75
 74
     0
  0
LTYPE
  5
F109AD
330
247
100
AcDbSymbolTableRecord
100
AcDbLinetypeTableRecord
  2
AM_ISO02W050x2
 70
     0
  3
 _ _ _ _ _ _ _ _ _ _ _ _
 72
    65
 73
     2
 40
3.75
 49
3.0
 74
     0
 49
-0.75
 74
     0
  0
LTYPE
  5
F109B0
330
247
100
AcDbSymbolTableRecord
100
AcDbLinetypeTableRecord
  2
Amzigzag
 70
     0
  3
/\/-/\/-/\/-/\/-/\/-/\/
 72
    65
 73
     2
 40
11.0001
 49
0.0001
 74
     4
 75
   136
340
F109AF
 46
0.04
 50
0.0
 44
0.0
 45
0.0
 49
-11.0
 74
     0
  0
LTYPE
  5
F109B1
330
247
100
AcDbSymbolTableRecord
100
AcDbLinetypeTableRecord
  2
Amzigzag2
 70
     0
  3
/\/-/\/-/\/-/\/-/\/-/\/
 72
    65
 73
     2
 40
0.4401
 49
0.0001
 74
     4
 75
   136
340
F109AF
 46
0.0016
 50
0.0
 44
0.0
 45
0.0
 49
-0.4400000000000001
 74
     0
  0
LTYPE
  5
F109BF
330
247
100
AcDbSymbolTableRecord
100
AcDbLinetypeTableRecord
  2
ACANSTGB
 70
     0
  3
__ . . __ . .
 72
    65
 73
     6
 40
0.35433070866
 49
0.15748031496
 74
     0
 49
-0.03937007874
 74
     0
 49
0.03937007874
 74
     0
 49
-0.03937007874
 74
     0
 49
0.03937007874
 74
     0
 49
-0.03937007874
 74
     0
  0
LTYPE
  5
F109C0
330
247
100
AcDbSymbolTableRecord
100
AcDbLinetypeTableRecord
  2
ACANSTGL
 70
     0
  3
_ _ _ _ _
 72
    65
 73
     2
 40
0.11811023622
 49
0.07874015748
 74
     0
 49
-0.03937007874
 74
     0
  0
ENDTAB
  0
TABLE
  2
LAYER
  5
244
330
0
100
AcDbSymbolTable
 70
     6
  0
LAYER
  5
252
102
{ACAD_XDICTIONARY
360
F10B26
102
}
330
244
100
AcDbSymbolTableRecord
100
AcDbLayerTableRecord
  2
0
 70
     0
 62
     7
  6
Continuous
370
     0
390
19
  0
LAYER
  5
23F
102
{ACAD_XDICTIONARY
360
F10B28
102
}
330
244
100
AcDbSymbolTableRecord
100
AcDbLayerTableRecord
  2
Bemassung
 70
     0
 62
     7
  6
Continuous
370
     0
390
19
  0
LAYER
  5
240
102
{ACAD_XDICTIONARY
360
F10B2A
102
}
330
244
100
AcDbSymbolTableRecord
100
AcDbLayerTableRecord
  2
Rahmen
 70
     0
 62
     7
  6
Continuous
370
     0
390
19
  0
LAYER
  5
241
102
{ACAD_XDICTIONARY
360
F10B2C
102
}
330
244
100
AcDbSymbolTableRecord
100
AcDbLayerTableRecord
  2
Geo
 70
     0
 62
     7
  6
Continuous
370
     0
390
19
  0
LAYER
  5
33A
330
244
100
AcDbSymbolTableRecord
100
AcDbLayerTableRecord
  2
Defpoints
 70
     0
 62
     7
  6
Continuous
290
     0
370
    -3
390
19
  0
LAYER
  5
57E
102
{ACAD_XDICTIONARY
360
F10B2E
102
}
330
244
100
AcDbSymbolTableRecord
100
AcDbLayerTableRecord
  2
Text
 70
     0
 62
     7
  6
Continuous
370
     0
390
19
1001
AcAecLayerStandard
1000

1000

  0
ENDTAB
  0
TABLE
  2
STYLE
  5
245
330
0
100
AcDbSymbolTable
 70
     5
  0
STYLE
  5
253
330
245
100
AcDbSymbolTableRecord
100
AcDbTextStyleTableRecord
  2
Standard
 70
     0
 40
0.0
 41
1.0
 50
0.0
 71
     0
 42
0.2
  3
Arial
  4

1001
ACAD
1000
Arial
1071
        0
  0
STYLE
  5
132
330
245
100
AcDbSymbolTableRecord
100
AcDbTextStyleTableRecord
  2
Beschriftung
 70
     0
 40
0.0
 41
1.0
 50
0.0
 71
     0
 42
0.2
  3
Arial
  4

1001
ACAD
1000
Arial
1071
        0
1001
AcadAnnotative
1000
AnnotativeData
1070
     1
1070
     1
  0
STYLE
  5
F109AF
330
245
100
AcDbSymbolTableRecord
100
AcDbTextStyleTableRecord
  2

 70
     1
 40
0.0
 41
1.0
 50
0.0
 71
     0
 42
0.2
  3
genltshp.shx
  4

  0
STYLE
  5
F109BD
330
245
100
AcDbSymbolTableRecord
100
AcDbTextStyleTableRecord
  2
ACANSTS
 70
     0
 40
1.0
 41
1.0
 50
0.0
 71
     0
 42
0.2
  3
romans.shx
  4

  0
STYLE
  5
F109BE
330
245
100
AcDbSymbolTableRecord
100
AcDbTextStyleTableRecord
  2
ACANSGDT
 70
     0
 40
0.0
 41
1.0
 50
0.0
 71
     0
 42
0.2
  3
amgdt.shx
  4

  0
ENDTAB
  0
TABLE
  2
VIEW
  5
248
330
0
100
AcDbSymbolTable
 70
     0
  0
ENDTAB
  0
TABLE
  2
UCS
  5
249
330
0
100
AcDbSymbolTable
 70
     0
  0
ENDTAB
  0
TABLE
  2
APPID
  5
24B
330
0
100
AcDbSymbolTable
 70
    30
  0
APPID
  5
254
330
24B
100
AcDbSymbolTableRecord
100
AcDbRegAppTableRecord
  2
ACAD
 70
     0
  0
APPID
  5
26C
330
24B
100
AcDbSymbolTableRecord
100
AcDbRegAppTableRecord
  2
VD_INVISIBLE_NOT_FOR_READ
 70
     0
  0
APPID
  5
26D
330
24B
100
AcDbSymbolTableRecord
100
AcDbRegAppTableRecord
  2
VD_TEMPHATCH
 70
     0
  0
APPID
  5
26E
330
24B
100
AcDbSymbolTableRecord
100
AcDbRegAppTableRecord
  2
VDEXTRAPARAM
 70
     0
  0
APPID
  5
26F
330
24B
100
AcDbSymbolTableRecord
100
AcDbRegAppTableRecord
  2
PE_URL
 70
     0
  0
APPID
  5
270
330
24B
100
AcDbSymbolTableRecord
100
AcDbRegAppTableRecord
  2
VD_UNKNOWN
 70
     0
  0
APPID
  5
28F
330
24B
100
AcDbSymbolTableRecord
100
AcDbRegAppTableRecord
  2
AcadAnnotative
 70
     0
  0
APPID
  5
290
330
24B
100
AcDbSymbolTableRecord
100
AcDbRegAppTableRecord
  2
ACAD_DSTYLE_DIMJAG
 70
     0
  0
APPID
  5
291
330
24B
100
AcDbSymbolTableRecord
100
AcDbRegAppTableRecord
  2
ACAD_DSTYLE_DIMTALN
 70
     0
  0
APPID
  5
293
330
24B
100
AcDbSymbolTableRecord
100
AcDbRegAppTableRecord
  2
ACAD_PSEXT
 70
     0
  0
APPID
  5
42A
330
24B
100
AcDbSymbolTableRecord
100
AcDbRegAppTableRecord
  2
ACAD_MLEADERVER
 70
     0
  0
APPID
  5
532
330
24B
100
AcDbSymbolTableRecord
100
AcDbRegAppTableRecord
  2
ACAD_EXEMPT_FROM_CAD_STANDARDS
 70
     0
  0
APPID
  5
57F
330
24B
100
AcDbSymbolTableRecord
100
AcDbRegAppTableRecord
  2
AcAecLayerStandard
 70
     0
  0
APPID
  5
F10942
330
24B
100
AcDbSymbolTableRecord
100
AcDbRegAppTableRecord
  2
MCAD_NO_VIS
 70
     0
  0
APPID
  5
F10943
330
24B
100
AcDbSymbolTableRecord
100
AcDbRegAppTableRecord
  2
ACAD_TEMP_GRAPHIC
 70
     0
  0
APPID
  5
F1096C
330
24B
100
AcDbSymbolTableRecord
100
AcDbRegAppTableRecord
  2
AD_DRAW
 70
     0
  0
APPID
  5
F1096F
330
24B
100
AcDbSymbolTableRecord
100
AcDbRegAppTableRecord
  2
ACATTRIBSERVICES
 70
     0
  0
APPID
  5
F10988
330
24B
100
AcDbSymbolTableRecord
100
AcDbRegAppTableRecord
  2
DESIGNERASSEMBLIES
 70
     0
  0
APPID
  5
F1098D
330
24B
100
AcDbSymbolTableRecord
100
AcDbRegAppTableRecord
  2
ACADM_DIM_EDIT
 70
     0
  0
APPID
  5
F1098E
330
24B
100
AcDbSymbolTableRecord
100
AcDbRegAppTableRecord
  2
AMDT_DM_ADJ
 70
     0
  0
APPID
  5
F109A6
330
24B
100
AcDbSymbolTableRecord
100
AcDbRegAppTableRecord
  2
ACAD_DSTYLE_DIMBREAK
 70
     0
  0
APPID
  5
F109C7
330
24B
100
AcDbSymbolTableRecord
100
AcDbRegAppTableRecord
  2
GENIUS_GENSCREG_15
 70
     0
  0
APPID
  5
F109C8
330
24B
100
AcDbSymbolTableRecord
100
AcDbRegAppTableRecord
  2
GENIUS_GENOBJ-N-SDF_13
 70
     0
  0
APPID
  5
F109C9
330
24B
100
AcDbSymbolTableRecord
100
AcDbRegAppTableRecord
  2
GENIUS_GENODEF_13
 70
     0
  0
APPID
  5
F10A0C
330
24B
100
AcDbSymbolTableRecord
100
AcDbRegAppTableRecord
  2
GENIUS_GENDTOL_13
 70
     0
  0
APPID
  5
F10A34
330
24B
100
AcDbSymbolTableRecord
100
AcDbRegAppTableRecord
  2
ACAD_DSTYLE_DIMINSPECT
 70
     0
  0
APPID
  5
F10B7C
330
24B
100
AcDbSymbolTableRecord
100
AcDbRegAppTableRecord
  2
ACAD_DSTYLE_DIMARC_LENGTH_SYMBOL
 70
     0
  0
APPID
  5
F10B7D
330
24B
100
AcDbSymbolTableRecord
100
AcDbRegAppTableRecord
  2
ACAD_DSTYLE_DIM_LINETYPE
 70
     0
  0
APPID
  5
F10B7E
330
24B
100
AcDbSymbolTableRecord
100
AcDbRegAppTableRecord
  2
ACAD_DSTYLE_DIM_EXT1_LINETYPE
 70
     0
  0
APPID
  5
F10B7F
330
24B
100
AcDbSymbolTableRecord
100
AcDbRegAppTableRecord
  2
ACAD_DSTYLE_DIM_EXT2_LINETYPE
 70
     0
  0
ENDTAB
  0
TABLE
  2
DIMSTYLE
  5
24C
330
0
100
AcDbSymbolTable
 70
     9
100
AcDbDimStyleTable
 71
     2
340
27
340
269
  0
DIMSTYLE
105
269
330
24C
100
AcDbSymbolTableRecord
100
AcDbDimStyleTableRecord
  2
Standard
 70
     0
172
     1
174
     1
288
     1
340
253
342
23C
  0
DIMSTYLE
105
137
330
24C
100
AcDbSymbolTableRecord
100
AcDbDimStyleTableRecord
  2
Beschriftung
 70
     0
 41
2.5
 42
0.625
 44
1.25
 73
     0
 74
     0
 77
     1
140
2.5
147
0.625
172
     1
174
     1
271
     2
288
     1
340
253
342
23C
1001
AcadAnnotative
1000
AnnotativeData
1070
     1
1070
     1
1001
ACAD_DSTYLE_DIMJAG
1070
   388
1040
1.5
1001
ACAD_DSTYLE_DIMTALN
1070
   392
1070
     0
  0
DIMSTYLE
105
27
102
{ACAD_REACTORS
330
F1000D
330
F10017
330
F1001C
330
F10008
330
F10012
102
}
330
24C
100
AcDbSymbolTableRecord
100
AcDbDimStyleTableRecord
  2
BEM-ISBE
 70
     0
 41
2.5
 42
0.625
 44
1.25
 48
0.000000001
 71
     1
 73
     0
 74
     0
 77
     1
140
2.5
146
0.5
147
0.625
171
     3
172
     1
179
     3
271
     3
272
     3
274
     3
340
253
342
23C
1001
ACAD_DSTYLE_DIMJAG
1070
   388
1040
1.5
1001
ACAD_DSTYLE_DIMTALN
1070
   392
1070
     1
  0
DIMSTYLE
105
F109A5
102
{ACAD_REACTORS
330
F10995
102
}
330
24C
100
AcDbSymbolTableRecord
100
AcDbDimStyleTableRecord
  2
AM_ANSI
 70
     0
  4
mm
 41
0.12
 42
0.05
 43
0.5
 44
0.1
 47
0.1
 48
0.1
 78
     7
 79
     2
140
0.12
141
0.0
146
0.71
147
0.06
176
   256
177
   256
178
     2
274
     4
284
     7
340
253
371
    -1
372
    -1
1001
ACAD_DSTYLE_DIMJAG
1070
   388
1040
1.5
1001
ACAD_DSTYLE_DIMBREAK
1070
   391
1040
0.125
1001
ACAD_DSTYLE_DIMARC_LENGTH_SYMBOL
1070
   379
1070
     1
1001
ACAD_DSTYLE_DIM_LINETYPE
1070
   380
1005
256
1001
ACAD_DSTYLE_DIM_EXT1_LINETYPE
1070
   381
1005
256
1001
ACAD_DSTYLE_DIM_EXT2_LINETYPE
1070
   382
1005
256
  0
DIMSTYLE
105
F109B2
330
24C
100
AcDbSymbolTableRecord
100
AcDbDimStyleTableRecord
  2
AM_ANSI$3
 70
     0
  4
mm
 41
0.12
 42
0.05
 43
0.5
 44
0.1
 47
0.1
 48
0.1
 78
     7
 79
     2
140
0.12
141
0.0
146
0.71
147
0.06
176
   256
177
   256
178
     2
274
     4
284
     7
288
     1
289
     0
340
253
371
    -1
372
    -1
1001
ACAD_DSTYLE_DIMBREAK
1070
   391
1040
0.125
1001
ACAD_DSTYLE_DIMJAG
1070
   388
1040
1.5
1001
ACAD_DSTYLE_DIMARC_LENGTH_SYMBOL
1070
   379
1070
     1
1001
ACAD_DSTYLE_DIM_LINETYPE
1070
   380
1005
256
1001
ACAD_DSTYLE_DIM_EXT1_LINETYPE
1070
   381
1005
256
1001
ACAD_DSTYLE_DIM_EXT2_LINETYPE
1070
   382
1005
256
  0
DIMSTYLE
105
F109B3
330
24C
100
AcDbSymbolTableRecord
100
AcDbDimStyleTableRecord
  2
AM_ANSI$4
 70
     0
  4
mm
 41
0.12
 42
0.05
 43
0.5
 44
0.1
 47
0.1
 48
0.1
 78
     7
 79
     2
140
0.12
141
0.0
146
0.71
147
0.06
176
   256
177
   256
178
     2
274
     4
284
     7
288
     1
289
     0
340
253
371
    -1
372
    -1
1001
ACAD_DSTYLE_DIMBREAK
1070
   391
1040
0.125
1001
ACAD_DSTYLE_DIMJAG
1070
   388
1040
1.5
1001
ACAD_DSTYLE_DIMARC_LENGTH_SYMBOL
1070
   379
1070
     1
1001
ACAD_DSTYLE_DIM_LINETYPE
1070
   380
1005
256
1001
ACAD_DSTYLE_DIM_EXT1_LINETYPE
1070
   381
1005
256
1001
ACAD_DSTYLE_DIM_EXT2_LINETYPE
1070
   382
1005
256
  0
DIMSTYLE
105
F109B4
330
24C
100
AcDbSymbolTableRecord
100
AcDbDimStyleTableRecord
  2
AM_ANSI$7
 70
     0
  4
mm
 41
0.12
 42
0.05
 43
0.5
 44
0.1
 47
0.1
 48
0.1
 78
     7
 79
     2
140
0.12
141
0.0
146
0.71
147
0.06
176
   256
177
   256
178
     2
274
     4
284
     7
340
253
371
    -1
372
    -1
1001
ACAD_DSTYLE_DIMBREAK
1070
   391
1040
0.125
1001
ACAD_DSTYLE_DIMJAG
1070
   388
1040
1.5
1001
ACAD_DSTYLE_DIMARC_LENGTH_SYMBOL
1070
   379
1070
     1
1001
ACAD_DSTYLE_DIM_LINETYPE
1070
   380
1005
256
1001
ACAD_DSTYLE_DIM_EXT1_LINETYPE
1070
   381
1005
256
1001
ACAD_DSTYLE_DIM_EXT2_LINETYPE
1070
   382
1005
256
  0
DIMSTYLE
105
F109B5
330
24C
100
AcDbSymbolTableRecord
100
AcDbDimStyleTableRecord
  2
AM_ANSI$SF
 70
     0
  4
mm
 41
0.12
 42
0.05
 43
0.5
 44
0.1
 47
0.1
 48
0.1
 75
     1
 76
     1
 78
     7
 79
     2
140
0.12
141
0.0
146
0.71
147
0.06
176
   256
177
   256
178
     2
274
     4
284
     7
340
253
371
    -1
372
    -1
1001
ACAD_DSTYLE_DIMBREAK
1070
   391
1040
0.125
1001
ACAD_DSTYLE_DIMJAG
1070
   388
1040
1.5
1001
ACAD_DSTYLE_DIMARC_LENGTH_SYMBOL
1070
   379
1070
     1
1001
ACAD_DSTYLE_DIM_LINETYPE
1070
   380
1005
256
1001
ACAD_DSTYLE_DIM_EXT1_LINETYPE
1070
   381
1005
256
1001
ACAD_DSTYLE_DIM_EXT2_LINETYPE
1070
   382
1005
256
  0
DIMSTYLE
105
F109BA
330
24C
100
AcDbSymbolTableRecord
100
AcDbDimStyleTableRecord
  2
AM_ANSI$SH
 70
     0
  4
mm
 41
0.12
 42
0.05
 43
0.5
 44
0.1
 47
0.1
 48
0.1
 75
     1
 76
     1
 78
     7
 79
     2
140
0.12
141
0.0
146
0.71
147
0.06
173
     1
176
   256
177
   256
178
     2
274
     4
284
     7
340
253
343
F109B6
371
    -1
372
    -1
1001
ACAD_DSTYLE_DIMBREAK
1070
   391
1040
0.125
1001
ACAD_DSTYLE_DIMJAG
1070
   388
1040
1.5
1001
ACAD_DSTYLE_DIMARC_LENGTH_SYMBOL
1070
   379
1070
     1
1001
ACAD_DSTYLE_DIM_LINETYPE
1070
   380
1005
256
1001
ACAD_DSTYLE_DIM_EXT1_LINETYPE
1070
   381
1005
256
1001
ACAD_DSTYLE_DIM_EXT2_LINETYPE
1070
   382
1005
256
  0
ENDTAB
  0
TABLE
  2
BLOCK_RECORD
  5
243
330
0
100
AcDbSymbolTable
 70
    11
  0
BLOCK_RECORD
  5
261
330
243
100
AcDbSymbolTableRecord
100
AcDbBlockTableRecord
  2
*Model_Space
340
FD0
  0
BLOCK_RECORD
  5
25D
330
243
100
AcDbSymbolTableRecord
100
AcDbBlockTableRecord
  2
*Paper_Space
340
FD1
  0
BLOCK_RECORD
  5
265
330
243
100
AcDbSymbolTableRecord
100
AcDbBlockTableRecord
  2
*Paper_Space0
340
0
  0
BLOCK_RECORD
  5
23C
330
243
100
AcDbSymbolTableRecord
100
AcDbBlockTableRecord
  2
VDDIM_DEFAULT
340
0
102
{BLKREFS
331
F109D7
331
F109D8
331
F10AFC
331
F10AFD
331
F10B05
331
F10B06
331
F10B0E
331
F10B0F
331
F10B17
331
F10B18
331
F10B20
331
F10B21
102
}
  0
BLOCK_RECORD
  5
23E
330
243
100
AcDbSymbolTableRecord
100
AcDbBlockTableRecord
  2
VDDIM_NONE
340
0
  0
BLOCK_RECORD
  5
F10002
330
243
100
AcDbSymbolTableRecord
100
AcDbBlockTableRecord
  2
*D3
340
0
  0
BLOCK_RECORD
  5
F1000C
330
243
100
AcDbSymbolTableRecord
100
AcDbBlockTableRecord
  2
*D4
340
0
  0
BLOCK_RECORD
  5
F10016
330
243
100
AcDbSymbolTableRecord
100
AcDbBlockTableRecord
  2
*D5
340
0
  0
BLOCK_RECORD
  5
F1001B
330
243
100
AcDbSymbolTableRecord
100
AcDbBlockTableRecord
  2
*D6
340
0
  0
BLOCK_RECORD
  5
F10007
330
243
100
AcDbSymbolTableRecord
100
AcDbBlockTableRecord
  2
*D7
340
0
  0
BLOCK_RECORD
  5
F10011
330
243
100
AcDbSymbolTableRecord
100
AcDbBlockTableRecord
  2
*D8
340
0
  0
BLOCK_RECORD
  5
F109B6
330
243
100
AcDbSymbolTableRecord
100
AcDbBlockTableRecord
  2
GENAXEH
340
0
  0
ENDTAB
  0
ENDSEC
  0
SECTION
  2
BLOCKS
  0
BLOCK
  5
262
330
261
100
AcDbEntity
  8
0
100
AcDbBlockBegin
  2
*Model_Space
 70
     0
 10
0.0
 20
0.0
 30
0.0
  3
*Model_Space
  1

  0
ENDBLK
  5
263
330
261
100
AcDbEntity
  8
0
100
AcDbBlockEnd
  0
BLOCK
  5
25E
330
25D
100
AcDbEntity
 67
     1
  8
0
100
AcDbBlockBegin
  2
*Paper_Space
 70
     0
 10
0.0
 20
0.0
 30
0.0
  3
*Paper_Space
  1

  0
ENDBLK
  5
25F
330
25D
100
AcDbEntity
 67
     1
  8
0
100
AcDbBlockEnd
  0
BLOCK
  5
266
330
265
100
AcDbEntity
  8
0
100
AcDbBlockBegin
  2
*Paper_Space0
 70
     0
 10
0.0
 20
0.0
 30
0.0
  3
*Paper_Space0
  1

  0
VIEWPORT
  5
296
102
{ACAD_XDICTIONARY
360
F10B3F
102
}
330
265
100
AcDbEntity
  8
0
 60
     1
100
AcDbViewport
 10
0.0
 20
0.0
 30
0.0
 40
10.0
 41
10.0
 69
     0
 12
0.0
 22
0.0
 13
0.0
 23
0.0
 14
1.0
 24
1.0
 15
0.0
 25
0.0
 16
0.0
 26
0.0
 36
1.0
 17
0.0
 27
0.0
 37
0.0
 42
0.0
 43
0.0
 44
0.0
 45
10.0
 50
0.0
 51
0.0000000000007958
 72
   100
 90
   163872
  1

281
     0
 71
     0
 74
     0
110
0.0
120
0.0
130
0.0
111
1.0
121
0.0
131
0.0
112
0.0
122
1.0
132
0.0
 79
     0
146
0.0
1001
VD_INVISIBLE_NOT_FOR_READ
1000
VD_INVISIBLE_NOT_FOR_READ
  0
VIEWPORT
  5
297
102
{ACAD_XDICTIONARY
360
F10B41
102
}
330
265
100
AcDbEntity
  8
0
 60
     1
100
AcDbViewport
 10
0.0
 20
0.0
 30
0.0
 40
10.0
 41
10.0
 69
     0
 12
0.0
 22
0.0
 13
0.0
 23
0.0
 14
1.0
 24
1.0
 15
0.0
 25
0.0
 16
0.0
 26
0.0
 36
1.0
 17
0.0
 27
0.0
 37
0.0
 42
0.0
 43
0.0
 44
0.0
 45
10.0
 50
0.0
 51
0.0000000000007958
 72
   100
 90
   163872
  1

281
     0
 71
     0
 74
     0
110
0.0
120
0.0
130
0.0
111
1.0
121
0.0
131
0.0
112
0.0
122
1.0
132
0.0
 79
     0
146
0.0
1001
VD_INVISIBLE_NOT_FOR_READ
1000
VD_INVISIBLE_NOT_FOR_READ
  0
ENDBLK
  5
267
330
265
100
AcDbEntity
  8
0
100
AcDbBlockEnd
  0
BLOCK
  5
28B
330
23C
100
AcDbEntity
  8
0
100
AcDbBlockBegin
  2
VDDIM_DEFAULT
 70
     0
 10
0.0
 20
0.0
 30
0.0
  3
VDDIM_DEFAULT
  1

  0
LWPOLYLINE
  5
23D
330
23C
100
AcDbEntity
  8
0
  6
Continuous
 62
     0
100
AcDbPolyline
 90
        4
 70
     0
 43
0.0
 10
0.0
 20
0.0
 10
-1.0
 20
-0.1665
 10
-1.0
 20
0.1665
 10
0.0
 20
0.0
1001
VDEXTRAPARAM
1071
        1
1071
        0
1071
        0
1040
1.0
1000

1000

1040
0.0
1040
0.0
  0
HATCH
  5
292
330
23C
100
AcDbEntity
  8
0
  6
Continuous
 62
     0
100
AcDbHatch
 10
0.0
 20
0.0
 30
0.0
210
0.0
220
0.0
230
1.0
  2
SOLID
 70
     1
 71
     0
 91
        1
 92
        2
 72
     0
 73
     1
 93
        3
 10
0.0
 20
0.0
 10
-1.0
 20
-0.1665
 10
-1.0
 20
0.1665
 97
        0
 75
     0
 76
     1
 98
        1
 10
0.0
 20
0.0
1001
VDEXTRAPARAM
1071
        1
1071
        0
1071
        0
1040
1.0
1000

1000

1040
0.0
1040
0.0
1001
VD_TEMPHATCH
1000
VD_TEMPHATCH
  0
ENDBLK
  5
28C
330
23C
100
AcDbEntity
  8
0
100
AcDbBlockEnd
  0
BLOCK
  5
28D
330
23E
100
AcDbEntity
  8
0
100
AcDbBlockBegin
  2
VDDIM_NONE
 70
     0
 10
0.0
 20
0.0
 30
0.0
  3
VDDIM_NONE
  1

  0
ENDBLK
  5
28E
330
23E
100
AcDbEntity
  8
0
100
AcDbBlockEnd
  0
BLOCK
  5
F10020
330
F10002
100
AcDbEntity
  8
0
100
AcDbBlockBegin
  2
*D3
 70
     1
 10
0.0
 20
0.0
 30
0.0
  3
*D3
  1

  0
LINE
  5
F109D2
330
F10002
100
AcDbEntity
  8
Bemassung
 62
     0
370
    -2
100
AcDbLine
 10
-95.5374449339208
 20
-8.423458149779689
 30
0.0
 11
-95.5374449339208
 21
29.2015418502203
 31
0.0
  0
LINE
  5
F109D3
330
F10002
100
AcDbEntity
  8
Bemassung
 62
     0
370
    -2
100
AcDbLine
 10
-95.43744493392081
 20
18.5765418502203
 30
0.0
 11
-95.43744493392081
 21
29.2015418502203
 31
0.0
  0
LINE
  5
F109D4
330
F10002
100
AcDbEntity
  8
Bemassung
 62
     0
370
    -2
100
AcDbLine
 10
-98.0374449339208
 20
27.9515418502203
 30
0.0
 11
-100.5374449339208
 21
27.9515418502203
 31
0.0
  0
LINE
  5
F109D5
330
F10002
100
AcDbEntity
  8
Bemassung
 62
     0
370
    -2
100
AcDbLine
 10
-92.93744493392081
 20
27.9515418502203
 30
0.0
 11
-85.11854998166977
 21
27.9515418502203
 31
0.0
  0
LINE
  5
F109D6
330
F10002
100
AcDbEntity
  8
Bemassung
 62
     0
370
    -2
100
AcDbLine
 10
-95.5374449339208
 20
27.9515418502203
 30
0.0
 11
-95.43744493392081
 21
27.9515418502203
 31
0.0
  0
INSERT
  5
F109D7
330
F10002
100
AcDbEntity
  8
Bemassung
 62
     0
370
    -2
100
AcDbBlockReference
  2
VDDIM_DEFAULT
 10
-95.5374449339208
 20
27.9515418502203
 30
0.0
 41
2.5
 42
2.5
 43
2.5
  0
INSERT
  5
F109D8
330
F10002
100
AcDbEntity
  8
Bemassung
 62
     0
370
    -2
100
AcDbBlockReference
  2
VDDIM_DEFAULT
 10
-95.43744493392081
 20
27.9515418502203
 30
0.0
 41
2.5
 42
2.5
 43
2.5
 50
180.0
  0
MTEXT
  5
F109D9
330
F10002
100
AcDbEntity
  8
Bemassung
 62
     0
100
AcDbMText
 10
-87.7779974577953
 20
28.5765418502203
 30
0.0
 40
2.5
 41
0.0
 71
     8
 72
     1
  1
\A1;0.1
 73
     1
 44
1.0
1001
ACAD
1000
MTEXTBEGIN
1070
    73
1070
     1
1070
    44
1040
1.0
1070
    74
1070
     0
1000
MTEXTEND
  0
POINT
  5
F109DA
330
F10002
100
AcDbEntity
  8
Defpoints
 62
     0
100
AcDbPoint
 10
-95.5374449339208
 20
-9.048458149779689
 30
0.0
  0
POINT
  5
F109DB
330
F10002
100
AcDbEntity
  8
Defpoints
 62
     0
100
AcDbPoint
 10
-95.43744493392081
 20
17.9515418502203
 30
0.0
  0
POINT
  5
F109DC
330
F10002
100
AcDbEntity
  8
Defpoints
 62
     0
100
AcDbPoint
 10
-95.43744493392081
 20
27.9515418502203
 30
0.0
  0
ENDBLK
  5
F10029
330
F10002
100
AcDbEntity
  8
0
100
AcDbBlockEnd
  0
BLOCK
  5
F1002A
330
F1000C
100
AcDbEntity
  8
0
100
AcDbBlockBegin
  2
*D4
 70
     1
 10
0.0
 20
0.0
 30
0.0
  3
*D4
  1

  0
LINE
  5
F10B02
330
F1000C
100
AcDbEntity
  8
Bemassung
 62
     0
370
    -2
100
AcDbLine
 10
0.0
 20
5.624999999999996
 30
0.0
 11
0.0000000000000016
 21
31.25
 31
0.0
  0
LINE
  5
F10B03
330
F1000C
100
AcDbEntity
  8
Bemassung
 62
     0
370
    -2
100
AcDbLine
 10
40.0
 20
5.124999999999996
 30
0.0
 11
40.0
 21
31.25
 31
0.0
  0
LINE
  5
F10B04
330
F1000C
100
AcDbEntity
  8
Bemassung
 62
     0
370
    -2
100
AcDbLine
 10
2.500000000000001
 20
30.0
 30
0.0
 11
37.5
 21
30.0
 31
0.0
  0
INSERT
  5
F10B05
330
F1000C
100
AcDbEntity
  8
Bemassung
 62
     0
370
    -2
100
AcDbBlockReference
  2
VDDIM_DEFAULT
 10
0.0000000000000015
 20
30.0
 30
0.0
 41
2.5
 42
2.5
 43
2.5
 50
180.0
  0
INSERT
  5
F10B06
330
F1000C
100
AcDbEntity
  8
Bemassung
 62
     0
370
    -2
100
AcDbBlockReference
  2
VDDIM_DEFAULT
 10
40.0
 20
30.0
 30
0.0
 41
2.5
 42
2.5
 43
2.5
  0
MTEXT
  5
F10B07
330
F1000C
100
AcDbEntity
  8
Bemassung
 62
     0
100
AcDbMText
 10
20.0
 20
30.625
 30
0.0
 40
2.5
 41
0.0
 71
     8
 72
     1
  1
\A1;40
 73
     1
 44
1.0
1001
ACAD
1000
MTEXTBEGIN
1070
    73
1070
     1
1070
    44
1040
1.0
1070
    74
1070
     0
1000
MTEXTEND
  0
POINT
  5
F10B08
330
F1000C
100
AcDbEntity
  8
Defpoints
 62
     0
100
AcDbPoint
 10
0.0
 20
4.999999999999996
 30
0.0
  0
POINT
  5
F10B09
330
F1000C
100
AcDbEntity
  8
Defpoints
 62
     0
100
AcDbPoint
 10
40.0
 20
4.499999999999996
 30
0.0
  0
POINT
  5
F10B0A
330
F1000C
100
AcDbEntity
  8
Defpoints
 62
     0
100
AcDbPoint
 10
40.0
 20
30.0
 30
0.0
  0
ENDBLK
  5
F10033
330
F1000C
100
AcDbEntity
  8
0
100
AcDbBlockEnd
  0
BLOCK
  5
F10034
330
F10016
100
AcDbEntity
  8
0
100
AcDbBlockBegin
  2
*D5
 70
     1
 10
0.0
 20
0.0
 30
0.0
  3
*D5
  1

  0
LINE
  5
F10B14
330
F10016
100
AcDbEntity
  8
Bemassung
 62
     0
370
    -2
100
AcDbLine
 10
-12.0
 20
-5.624999999999995
 30
0.0
 11
-12.0
 21
-21.25
 31
0.0
  0
LINE
  5
F10B15
330
F10016
100
AcDbEntity
  8
Bemassung
 62
     0
370
    -2
100
AcDbLine
 10
-26.00000000000001
 20
-0.6250000000000018
 30
0.0
 11
-26.00000000000001
 21
-21.25
 31
0.0
  0
LINE
  5
F10B16
330
F10016
100
AcDbEntity
  8
Bemassung
 62
     0
370
    -2
100
AcDbLine
 10
-14.5
 20
-20.0
 30
0.0
 11
-23.50000000000001
 21
-20.0
 31
0.0
  0
INSERT
  5
F10B17
330
F10016
100
AcDbEntity
  8
Bemassung
 62
     0
370
    -2
100
AcDbBlockReference
  2
VDDIM_DEFAULT
 10
-12.0
 20
-20.0
 30
0.0
 41
2.5
 42
2.5
 43
2.5
  0
INSERT
  5
F10B18
330
F10016
100
AcDbEntity
  8
Bemassung
 62
     0
370
    -2
100
AcDbBlockReference
  2
VDDIM_DEFAULT
 10
-26.00000000000001
 20
-20.0
 30
0.0
 41
2.5
 42
2.5
 43
2.5
 50
180.0
  0
MTEXT
  5
F10B19
330
F10016
100
AcDbEntity
  8
Bemassung
 62
     0
100
AcDbMText
 10
-19.00000000000001
 20
-19.375
 30
0.0
 40
2.5
 41
0.0
 71
     8
 72
     1
  1
\A1;14
 73
     1
 44
1.0
1001
ACAD
1000
MTEXTBEGIN
1070
    73
1070
     1
1070
    44
1040
1.0
1070
    74
1070
     0
1000
MTEXTEND
  0
POINT
  5
F10B1A
330
F10016
100
AcDbEntity
  8
Defpoints
 62
     0
100
AcDbPoint
 10
-12.0
 20
-4.999999999999995
 30
0.0
  0
POINT
  5
F10B1B
330
F10016
100
AcDbEntity
  8
Defpoints
 62
     0
100
AcDbPoint
 10
-26.00000000000001
 20
-0.0000000000000018
 30
0.0
  0
POINT
  5
F10B1C
330
F10016
100
AcDbEntity
  8
Defpoints
 62
     0
100
AcDbPoint
 10
-26.00000000000001
 20
-20.0
 30
0.0
  0
ENDBLK
  5
F1003D
330
F10016
100
AcDbEntity
  8
0
100
AcDbBlockEnd
  0
BLOCK
  5
F1003E
330
F1001B
100
AcDbEntity
  8
0
100
AcDbBlockBegin
  2
*D6
 70
     1
 10
0.0
 20
0.0
 30
0.0
  3
*D6
  1

  0
LINE
  5
F10B1D
330
F1001B
100
AcDbEntity
  8
Bemassung
 62
     0
370
    -2
100
AcDbLine
 10
40.0
 20
5.124999999999996
 30
0.0
 11
40.0
 21
46.25
 31
0.0
  0
LINE
  5
F10B1E
330
F1001B
100
AcDbEntity
  8
Bemassung
 62
     0
370
    -2
100
AcDbLine
 10
-26.00000000000001
 20
0.6249999999999983
 30
0.0
 11
-26.00000000000001
 21
46.25
 31
0.0
  0
LINE
  5
F10B1F
330
F1001B
100
AcDbEntity
  8
Bemassung
 62
     0
370
    -2
100
AcDbLine
 10
37.5
 20
45.0
 30
0.0
 11
-23.50000000000001
 21
45.0
 31
0.0
  0
INSERT
  5
F10B20
330
F1001B
100
AcDbEntity
  8
Bemassung
 62
     0
370
    -2
100
AcDbBlockReference
  2
VDDIM_DEFAULT
 10
40.0
 20
45.0
 30
0.0
 41
2.5
 42
2.5
 43
2.5
  0
INSERT
  5
F10B21
330
F1001B
100
AcDbEntity
  8
Bemassung
 62
     0
370
    -2
100
AcDbBlockReference
  2
VDDIM_DEFAULT
 10
-26.00000000000001
 20
45.0
 30
0.0
 41
2.5
 42
2.5
 43
2.5
 50
180.0
  0
MTEXT
  5
F10B22
330
F1001B
100
AcDbEntity
  8
Bemassung
 62
     0
100
AcDbMText
 10
6.999999999999991
 20
45.625
 30
0.0
 40
2.5
 41
0.0
 71
     8
 72
     1
  1
\A1;66
 73
     1
 44
1.0
1001
ACAD
1000
MTEXTBEGIN
1070
    73
1070
     1
1070
    44
1040
1.0
1070
    74
1070
     0
1000
MTEXTEND
  0
POINT
  5
F10B23
330
F1001B
100
AcDbEntity
  8
Defpoints
 62
     0
100
AcDbPoint
 10
40.0
 20
4.499999999999996
 30
0.0
  0
POINT
  5
F10B24
330
F1001B
100
AcDbEntity
  8
Defpoints
 62
     0
100
AcDbPoint
 10
-26.00000000000001
 20
-0.0000000000000018
 30
0.0
  0
POINT
  5
F10B25
330
F1001B
100
AcDbEntity
  8
Defpoints
 62
     0
100
AcDbPoint
 10
-26.00000000000001
 20
45.0
 30
0.0
  0
ENDBLK
  5
F10047
330
F1001B
100
AcDbEntity
  8
0
100
AcDbBlockEnd
  0
BLOCK
  5
F10048
330
F10007
100
AcDbEntity
  8
0
100
AcDbBlockBegin
  2
*D7
 70
     1
 10
0.0
 20
0.0
 30
0.0
  3
*D7
  1

  0
LINE
  5
F10AF9
330
F10007
100
AcDbEntity
  8
Bemassung
 62
     0
370
    -2
100
AcDbLine
 10
-26.52500000000001
 20
-4.999999999999994
 30
0.0
 11
-42.2500000000002
 21
-4.99999999999999
 31
0.0
  0
LINE
  5
F10AFA
330
F10007
100
AcDbEntity
  8
Bemassung
 62
     0
370
    -2
100
AcDbLine
 10
-26.52500000000001
 20
4.999999999999997
 30
0.0
 11
-42.2500000000002
 21
5.000000000000001
 31
0.0
  0
LINE
  5
F10AFB
330
F10007
100
AcDbEntity
  8
Bemassung
 62
     0
370
    -2
100
AcDbLine
 10
-41.0000000000002
 20
-2.49999999999999
 30
0.0
 11
-41.0000000000002
 21
2.500000000000001
 31
0.0
  0
INSERT
  5
F10AFC
330
F10007
100
AcDbEntity
  8
Bemassung
 62
     0
370
    -2
100
AcDbBlockReference
  2
VDDIM_DEFAULT
 10
-41.0000000000002
 20
-4.999999999999991
 30
0.0
 41
2.5
 42
2.5
 43
2.5
 50
270.0
  0
INSERT
  5
F10AFD
330
F10007
100
AcDbEntity
  8
Bemassung
 62
     0
370
    -2
100
AcDbBlockReference
  2
VDDIM_DEFAULT
 10
-41.0000000000002
 20
5.0
 30
0.0
 41
2.5
 42
2.5
 43
2.5
 50
90.0
  0
MTEXT
  5
F10AFE
330
F10007
100
AcDbEntity
  8
Bemassung
 62
     0
100
AcDbMText
 10
-41.6250000000002
 20
-0.0000000000000012
 30
0.0
 40
2.5
 41
0.0
 71
     8
 72
     1
  1
\A1;%%c10
 11
0.0000000000000001
 21
1.0
 31
0.0
 73
     1
 44
1.0
1001
ACAD
1000
MTEXTBEGIN
1070
    73
1070
     1
1070
    44
1040
1.0
1070
    74
1070
     0
1000
MTEXTEND
  0
POINT
  5
F10AFF
330
F10007
100
AcDbEntity
  8
Defpoints
 62
     0
100
AcDbPoint
 10
-25.90000000000001
 20
-4.999999999999995
 30
0.0
  0
POINT
  5
F10B00
330
F10007
100
AcDbEntity
  8
Defpoints
 62
     0
100
AcDbPoint
 10
-25.90000000000001
 20
4.999999999999996
 30
0.0
  0
POINT
  5
F10B01
330
F10007
100
AcDbEntity
  8
Defpoints
 62
     0
100
AcDbPoint
 10
-41.0000000000002
 20
5.0
 30
0.0
  0
ENDBLK
  5
F10051
330
F10007
100
AcDbEntity
  8
0
100
AcDbBlockEnd
  0
BLOCK
  5
F10052
330
F10011
100
AcDbEntity
  8
0
100
AcDbBlockBegin
  2
*D8
 70
     1
 10
0.0
 20
0.0
 30
0.0
  3
*D8
  1

  0
LINE
  5
F10B0B
330
F10011
100
AcDbEntity
  8
Bemassung
 62
     0
370
    -2
100
AcDbLine
 10
40.12499999999999
 20
-4.999999999999995
 30
0.0
 11
56.25
 21
-5.0
 31
0.0
  0
LINE
  5
F10B0C
330
F10011
100
AcDbEntity
  8
Bemassung
 62
     0
370
    -2
100
AcDbLine
 10
40.12499999999999
 20
4.999999999999996
 30
0.0
 11
56.25
 21
4.999999999999992
 31
0.0
  0
LINE
  5
F10B0D
330
F10011
100
AcDbEntity
  8
Bemassung
 62
     0
370
    -2
100
AcDbLine
 10
55.0
 20
-2.499999999999999
 30
0.0
 11
55.0
 21
2.499999999999992
 31
0.0
  0
INSERT
  5
F10B0E
330
F10011
100
AcDbEntity
  8
Bemassung
 62
     0
370
    -2
100
AcDbBlockReference
  2
VDDIM_DEFAULT
 10
55.0
 20
-5.0
 30
0.0
 41
2.5
 42
2.5
 43
2.5
 50
270.0
  0
INSERT
  5
F10B0F
330
F10011
100
AcDbEntity
  8
Bemassung
 62
     0
370
    -2
100
AcDbBlockReference
  2
VDDIM_DEFAULT
 10
55.0
 20
4.999999999999992
 30
0.0
 41
2.5
 42
2.5
 43
2.5
 50
90.0
  0
MTEXT
  5
F10B10
330
F10011
100
AcDbEntity
  8
Bemassung
 62
     0
100
AcDbMText
 10
54.375
 20
0.0000000000000053
 30
0.0
 40
2.5
 41
0.0
 71
     8
 72
     1
  1
\A1;%%C10
 11
0.0000000000000001
 21
1.0
 31
0.0
 73
     1
 44
1.0
1001
ACAD
1000
MTEXTBEGIN
1070
    73
1070
     1
1070
    44
1040
1.0
1070
    74
1070
     0
1000
MTEXTEND
  0
POINT
  5
F10B11
330
F10011
100
AcDbEntity
  8
Defpoints
 62
     0
100
AcDbPoint
 10
39.49999999999999
 20
-4.999999999999995
 30
0.0
  0
POINT
  5
F10B12
330
F10011
100
AcDbEntity
  8
Defpoints
 62
     0
100
AcDbPoint
 10
39.49999999999999
 20
4.999999999999996
 30
0.0
  0
POINT
  5
F10B13
330
F10011
100
AcDbEntity
  8
Defpoints
 62
     0
100
AcDbPoint
 10
55.0
 20
4.999999999999992
 30
0.0
  0
ENDBLK
  5
F1005B
330
F10011
100
AcDbEntity
  8
0
100
AcDbBlockEnd
  0
BLOCK
  5
F109B8
330
F109B6
100
AcDbEntity
  8
0
100
AcDbBlockBegin
  2
GENAXEH
 70
     0
 10
0.0
 20
0.0
 30
0.0
  3
GENAXEH
  1

  0
LINE
  5
F109B7
330
F109B6
100
AcDbEntity
  8
0
100
AcDbLine
 10
-1.0
 20
0.0
 30
0.0
 11
1.0
 21
0.0
 31
0.0
  0
ENDBLK
  5
F109B9
330
F109B6
100
AcDbEntity
  8
0
100
AcDbBlockEnd
  0
ENDSEC
  0
SECTION
  2
ENTITIES
  0
DIMENSION
  5
F1000D
330
261
100
AcDbEntity
  8
Bemassung
100
AcDbDimension
  2
*D4
 10
40.0
 20
30.0
 30
0.0
 11
20.0
 21
31.90143246930423
 31
0.0
 70
    32
  1
<>
 71
     8
 42
40.0
  3
BEM-ISBE
100
AcDbAlignedDimension
 13
0.0
 23
4.999999999999996
 33
0.0
 14
40.0
 24
4.499999999999996
 34
0.0
100
AcDbRotatedDimension
1001
ACAD
1000
DSTYLE
1002
{
1070
    47
1040
2.0
1070
    48
1040
0.0
1070
    71
1070
     0
1070
    78
1070
     8
1070
   284
1070
     8
1002
}
  0
DIMENSION
  5
F10017
330
261
100
AcDbEntity
  8
Bemassung
100
AcDbDimension
  2
*D5
 10
-26.00000000000001
 20
-20.0
 30
0.0
 11
-19.00000000000001
 21
-18.11988403819918
 31
0.0
 70
    32
  1
<>
 71
     8
 42
14.00000000000001
  3
BEM-ISBE
100
AcDbAlignedDimension
 13
-12.0
 23
-4.999999999999995
 33
0.0
 14
-26.00000000000001
 24
-0.0000000000000018
 34
0.0
100
AcDbRotatedDimension
1001
ACAD
1000
DSTYLE
1002
{
1070
    47
1040
1.5
1070
    48
1040
0.0
1070
    71
1070
     0
1070
    78
1070
     8
1070
   284
1070
     8
1002
}
  0
DIMENSION
  5
F1001C
330
261
100
AcDbEntity
  8
Bemassung
100
AcDbDimension
  2
*D6
 10
-26.00000000000001
 20
45.0
 30
0.0
 11
6.999999999999991
 21
46.90143246930423
 31
0.0
 70
    32
  1
<>
 71
     8
 42
66.0
  3
BEM-ISBE
100
AcDbAlignedDimension
 13
40.0
 23
4.499999999999996
 33
0.0
 14
-26.00000000000001
 24
-0.0000000000000018
 34
0.0
100
AcDbRotatedDimension
1001
ACAD
1000
DSTYLE
1002
{
1070
    47
1040
2.0
1070
    48
1040
0.0
1070
    71
1070
     0
1070
    78
1070
     8
1070
   284
1070
     8
1002
}
  0
DIMENSION
  5
F10008
330
261
100
AcDbEntity
  8
Bemassung
100
AcDbDimension
  2
*D7
 10
-41.0000000000002
 20
5.0
 30
0.0
 11
-42.97135061391561
 21
-0.0000000000000012
 31
0.0
 70
    32
  1
%%c<>
 71
     8
 42
9.999999999999992
  3
BEM-ISBE
100
AcDbAlignedDimension
 13
-25.90000000000001
 23
-4.999999999999995
 33
0.0
 14
-25.90000000000001
 24
4.999999999999996
 34
0.0
 50
90.0
100
AcDbRotatedDimension
1001
ACAD
1000
DSTYLE
1002
{
1070
    48
1040
-0.058
1070
    71
1070
     0
1070
    78
1070
     8
1070
   284
1070
     8
1002
}
  0
DIMENSION
  5
F10012
330
261
100
AcDbEntity
  8
Bemassung
100
AcDbDimension
  2
*D8
 10
55.0
 20
4.999999999999992
 30
0.0
 11
53.02864938608458
 21
0.0000000000000053
 31
0.0
 70
    32
  1
%%C<>
 71
     8
 42
9.999999999999992
  3
BEM-ISBE
100
AcDbAlignedDimension
 13
39.49999999999999
 23
-4.999999999999995
 33
0.0
 14
39.49999999999999
 24
4.999999999999996
 34
0.0
 50
90.0
100
AcDbRotatedDimension
1001
ACAD
1000
DSTYLE
1002
{
1070
    71
1070
     0
1070
    78
1070
     8
1002
}
1001
ACAD_DSTYLE_DIMINSPECT
1070
   396
1000
100%
1070
   395
1000

1070
   394
1070
    33
1070
   393
1070
     0
  0
LINE
  5
F1005C
330
261
100
AcDbEntity
  8
Geo
100
AcDbLine
 10
-26.00000000000001
 20
-0.0000000000000036
 30
0.0
 11
-26.00000000000001
 21
4.899999999999995
 31
0.0
  0
LINE
  5
F1005E
330
261
100
AcDbEntity
  8
Geo
100
AcDbLine
 10
-26.00000000000001
 20
4.899999999999995
 30
0.0
 11
-25.90000000000001
 21
4.999999999999996
 31
0.0
  0
LINE
  5
F10060
330
261
100
AcDbEntity
  8
Geo
100
AcDbLine
 10
-25.90000000000001
 20
4.999999999999996
 30
0.0
 11
-12.0
 21
4.999999999999996
 31
0.0
  0
LINE
  5
F10062
330
261
100
AcDbEntity
  8
Geo
100
AcDbLine
 10
-12.0
 20
4.999999999999996
 30
0.0
 11
0.0
 21
4.999999999999996
 31
0.0
  0
LINE
  5
F10064
330
261
100
AcDbEntity
  8
Geo
100
AcDbLine
 10
0.0
 20
4.999999999999996
 30
0.0
 11
15.0
 21
4.999999999999996
 31
0.0
  0
LINE
  5
F10066
330
261
100
AcDbEntity
  8
Geo
100
AcDbLine
 10
15.0
 20
4.999999999999996
 30
0.0
 11
16.5
 21
3.499999999999996
 31
0.0
  0
LINE
  5
F10068
330
261
100
AcDbEntity
  8
Geo
100
AcDbLine
 10
16.5
 20
3.499999999999996
 30
0.0
 11
23.5
 21
3.499999999999996
 31
0.0
  0
LINE
  5
F1006A
330
261
100
AcDbEntity
  8
Geo
100
AcDbLine
 10
23.5
 20
3.499999999999996
 30
0.0
 11
25.0
 21
4.999999999999996
 31
0.0
  0
LINE
  5
F1006C
330
261
100
AcDbEntity
  8
Geo
100
AcDbLine
 10
25.0
 20
4.999999999999996
 30
0.0
 11
39.49999999999999
 21
4.999999999999996
 31
0.0
  0
LINE
  5
F1006E
330
261
100
AcDbEntity
  8
Geo
100
AcDbLine
 10
39.49999999999999
 20
4.999999999999996
 30
0.0
 11
40.0
 21
4.499999999999996
 31
0.0
  0
LINE
  5
F10070
330
261
100
AcDbEntity
  8
Geo
100
AcDbLine
 10
-23.10000000000001
 20
4.999679022891694
 30
0.0
 11
-23.00000000000002
 21
4.999953889303192
 31
0.0
  0
LINE
  5
F10072
330
261
100
AcDbEntity
  8
Geo
100
AcDbLine
 10
-23.00000000000002
 20
4.999953889303192
 30
0.0
 11
-22.9
 21
4.999007977352295
 31
0.0
  0
LINE
  5
F10074
330
261
100
AcDbEntity
  8
Geo
100
AcDbLine
 10
-22.9
 20
4.999007977352295
 30
0.0
 11
-22.80000000000001
 21
4.996841517990894
 31
0.0
  0
LINE
  5
F10076
330
261
100
AcDbEntity
  8
Geo
100
AcDbLine
 10
-22.80000000000001
 20
4.996841517990894
 30
0.0
 11
-22.7
 21
4.993455040176996
 31
0.0
  0
LINE
  5
F10078
330
261
100
AcDbEntity
  8
Geo
100
AcDbLine
 10
-22.7
 20
4.993455040176996
 30
0.0
 11
-22.60000000000001
 21
4.988849370746194
 31
0.0
  0
LINE
  5
F1007A
330
261
100
AcDbEntity
  8
Geo
100
AcDbLine
 10
-22.60000000000001
 20
4.988849370746194
 30
0.0
 11
-22.50000000000001
 21
4.983025634209091
 31
0.0
  0
LINE
  5
F1007C
330
261
100
AcDbEntity
  8
Geo
100
AcDbLine
 10
-22.50000000000001
 20
4.983025634209091
 30
0.0
 11
-22.40000000000001
 21
4.975985252477194
 31
0.0
  0
LINE
  5
F1007E
330
261
100
AcDbEntity
  8
Geo
100
AcDbLine
 10
-22.40000000000001
 20
4.975985252477194
 30
0.0
 11
-22.30000000000001
 21
4.967729944515294
 31
0.0
  0
LINE
  5
F10080
330
261
100
AcDbEntity
  8
Geo
100
AcDbLine
 10
-22.30000000000001
 20
4.967729944515294
 30
0.0
 11
-22.2
 21
4.958261725922493
 31
0.0
  0
LINE
  5
F10082
330
261
100
AcDbEntity
  8
Geo
100
AcDbLine
 10
-22.2
 20
4.958261725922493
 30
0.0
 11
-22.10000000000001
 21
4.947582908439194
 31
0.0
  0
LINE
  5
F10084
330
261
100
AcDbEntity
  8
Geo
100
AcDbLine
 10
-22.10000000000001
 20
4.947582908439194
 30
0.0
 11
-22.00000000000001
 21
4.935696099383392
 31
0.0
  0
LINE
  5
F10086
330
261
100
AcDbEntity
  8
Geo
100
AcDbLine
 10
-22.00000000000001
 20
4.935696099383392
 30
0.0
 11
-21.90000000000001
 21
4.922604201013797
 31
0.0
  0
LINE
  5
F10088
330
261
100
AcDbEntity
  8
Geo
100
AcDbLine
 10
-21.90000000000001
 20
4.922604201013797
 30
0.0
 11
-21.80000000000001
 21
4.908310409820995
 31
0.0
  0
LINE
  5
F1008A
330
261
100
AcDbEntity
  8
Geo
100
AcDbLine
 10
-21.80000000000001
 20
4.908310409820995
 30
0.0
 11
-21.7
 21
4.892818215747393
 31
0.0
  0
LINE
  5
F1008C
330
261
100
AcDbEntity
  8
Geo
100
AcDbLine
 10
-21.7
 20
4.892818215747393
 30
0.0
 11
-21.60000000000001
 21
4.876131401334994
 31
0.0
  0
LINE
  5
F1008E
330
261
100
AcDbEntity
  8
Geo
100
AcDbLine
 10
-21.60000000000001
 20
4.876131401334994
 30
0.0
 11
-21.50000000000002
 21
4.858254040801693
 31
0.0
  0
LINE
  5
F10090
330
261
100
AcDbEntity
  8
Geo
100
AcDbLine
 10
-21.50000000000002
 20
4.858254040801693
 30
0.0
 11
-21.40000000000001
 21
4.839190499046797
 31
0.0
  0
LINE
  5
F10092
330
261
100
AcDbEntity
  8
Geo
100
AcDbLine
 10
-21.40000000000001
 20
4.839190499046797
 30
0.0
 11
-21.30000000000001
 21
4.818945430585092
 31
0.0
  0
LINE
  5
F10094
330
261
100
AcDbEntity
  8
Geo
100
AcDbLine
 10
-21.30000000000001
 20
4.818945430585092
 30
0.0
 11
-21.2
 21
4.797523778410393
 31
0.0
  0
LINE
  5
F10096
330
261
100
AcDbEntity
  8
Geo
100
AcDbLine
 10
-21.2
 20
4.797523778410393
 30
0.0
 11
-21.10000000000001
 21
4.774930772788994
 31
0.0
  0
LINE
  5
F10098
330
261
100
AcDbEntity
  8
Geo
100
AcDbLine
 10
-21.10000000000001
 20
4.774930772788994
 30
0.0
 11
-21.00000000000001
 21
4.751171929981996
 31
0.0
  0
LINE
  5
F1009A
330
261
100
AcDbEntity
  8
Geo
100
AcDbLine
 10
-21.00000000000001
 20
4.751171929981996
 30
0.0
 11
-20.90000000000001
 21
4.726253050899295
 31
0.0
  0
LINE
  5
F1009C
330
261
100
AcDbEntity
  8
Geo
100
AcDbLine
 10
-20.90000000000001
 20
4.726253050899295
 30
0.0
 11
-20.80000000000001
 21
4.700180219682692
 31
0.0
  0
LINE
  5
F1009E
330
261
100
AcDbEntity
  8
Geo
100
AcDbLine
 10
-20.80000000000001
 20
4.700180219682692
 30
0.0
 11
-20.7
 21
4.672959802220393
 31
0.0
  0
LINE
  5
F100A0
330
261
100
AcDbEntity
  8
Geo
100
AcDbLine
 10
-20.7
 20
4.672959802220393
 30
0.0
 11
-20.60000000000001
 21
4.644598444593295
 31
0.0
  0
LINE
  5
F100A2
330
261
100
AcDbEntity
  8
Geo
100
AcDbLine
 10
-20.60000000000001
 20
4.644598444593295
 30
0.0
 11
-20.50000000000002
 21
4.615103071451294
 31
0.0
  0
LINE
  5
F100A4
330
261
100
AcDbEntity
  8
Geo
100
AcDbLine
 10
-20.50000000000002
 20
4.615103071451294
 30
0.0
 11
-20.4
 21
4.584480884323696
 31
0.0
  0
LINE
  5
F100A6
330
261
100
AcDbEntity
  8
Geo
100
AcDbLine
 10
-20.4
 20
4.584480884323696
 30
0.0
 11
-20.30000000000001
 21
4.552739359859995
 31
0.0
  0
LINE
  5
F100A8
330
261
100
AcDbEntity
  8
Geo
100
AcDbLine
 10
-20.30000000000001
 20
4.552739359859995
 30
0.0
 11
-20.2
 21
4.519886248004993
 31
0.0
  0
LINE
  5
F100AA
330
261
100
AcDbEntity
  8
Geo
100
AcDbLine
 10
-20.2
 20
4.519886248004993
 30
0.0
 11
-20.10000000000001
 21
4.485929570106193
 31
0.0
  0
LINE
  5
F100AC
330
261
100
AcDbEntity
  8
Geo
100
AcDbLine
 10
-20.10000000000001
 20
4.485929570106193
 30
0.0
 11
-20.00000000000001
 21
4.450877616955793
 31
0.0
  0
LINE
  5
F100AE
330
261
100
AcDbEntity
  8
Geo
100
AcDbLine
 10
-20.00000000000001
 20
4.450877616955793
 30
0.0
 11
-19.9
 21
4.414738946765595
 31
0.0
  0
LINE
  5
F100B0
330
261
100
AcDbEntity
  8
Geo
100
AcDbLine
 10
-19.9
 20
4.414738946765595
 30
0.0
 11
-19.80000000000001
 21
4.377522383078595
 31
0.0
  0
LINE
  5
F100B2
330
261
100
AcDbEntity
  8
Geo
100
AcDbLine
 10
-19.80000000000001
 20
4.377522383078595
 30
0.0
 11
-19.7
 21
4.339237012613594
 31
0.0
  0
LINE
  5
F100B4
330
261
100
AcDbEntity
  8
Geo
100
AcDbLine
 10
-19.7
 20
4.339237012613594
 30
0.0
 11
-19.60000000000001
 21
4.299892183047195
 31
0.0
  0
LINE
  5
F100B6
330
261
100
AcDbEntity
  8
Geo
100
AcDbLine
 10
-19.60000000000001
 20
4.299892183047195
 30
0.0
 11
-19.50000000000001
 21
4.259497500731193
 31
0.0
  0
LINE
  5
F100B8
330
261
100
AcDbEntity
  8
Geo
100
AcDbLine
 10
-19.50000000000001
 20
4.259497500731193
 30
0.0
 11
-19.4
 21
4.218062828347495
 31
0.0
  0
LINE
  5
F100BA
330
261
100
AcDbEntity
  8
Geo
100
AcDbLine
 10
-19.4
 20
4.218062828347495
 30
0.0
 11
-19.30000000000001
 21
4.175598282499695
 31
0.0
  0
LINE
  5
F100BC
330
261
100
AcDbEntity
  8
Geo
100
AcDbLine
 10
-19.30000000000001
 20
4.175598282499695
 30
0.0
 11
-19.2
 21
4.132114231243193
 31
0.0
  0
LINE
  5
F100BE
330
261
100
AcDbEntity
  8
Geo
100
AcDbLine
 10
-19.2
 20
4.132114231243193
 30
0.0
 11
-19.10000000000001
 21
4.087621291553595
 31
0.0
  0
LINE
  5
F100C0
330
261
100
AcDbEntity
  8
Geo
100
AcDbLine
 10
-19.10000000000001
 20
4.087621291553595
 30
0.0
 11
-19.00000000000001
 21
4.042130326734692
 31
0.0
  0
LINE
  5
F100C2
330
261
100
AcDbEntity
  8
Geo
100
AcDbLine
 10
-19.00000000000001
 20
4.042130326734692
 30
0.0
 11
-18.9
 21
3.995652443765994
 31
0.0
  0
LINE
  5
F100C4
330
261
100
AcDbEntity
  8
Geo
100
AcDbLine
 10
-18.9
 20
3.995652443765994
 30
0.0
 11
-18.80000000000001
 21
3.948198990591095
 31
0.0
  0
LINE
  5
F100C6
330
261
100
AcDbEntity
  8
Geo
100
AcDbLine
 10
-18.80000000000001
 20
3.948198990591095
 30
0.0
 11
-18.7
 21
3.899781553346393
 31
0.0
  0
LINE
  5
F100C8
330
261
100
AcDbEntity
  8
Geo
100
AcDbLine
 10
-18.7
 20
3.899781553346393
 30
0.0
 11
-18.60000000000001
 21
3.850411953532994
 31
0.0
  0
LINE
  5
F100CA
330
261
100
AcDbEntity
  8
Geo
100
AcDbLine
 10
-18.60000000000001
 20
3.850411953532994
 30
0.0
 11
-18.50000000000001
 21
3.800102245129892
 31
0.0
  0
LINE
  5
F100CC
330
261
100
AcDbEntity
  8
Geo
100
AcDbLine
 10
-18.50000000000001
 20
3.800102245129892
 30
0.0
 11
-18.4
 21
3.748864711651094
 31
0.0
  0
LINE
  5
F100CE
330
261
100
AcDbEntity
  8
Geo
100
AcDbLine
 10
-18.4
 20
3.748864711651094
 30
0.0
 11
-18.30000000000001
 21
3.696711863146294
 31
0.0
  0
LINE
  5
F100D0
330
261
100
AcDbEntity
  8
Geo
100
AcDbLine
 10
-18.30000000000001
 20
3.696711863146294
 30
0.0
 11
-18.2
 21
3.643656433146894
 31
0.0
  0
LINE
  5
F100D2
330
261
100
AcDbEntity
  8
Geo
100
AcDbLine
 10
-18.2
 20
3.643656433146894
 30
0.0
 11
-18.10000000000001
 21
3.589711375556291
 31
0.0
  0
LINE
  5
F100D4
330
261
100
AcDbEntity
  8
Geo
100
AcDbLine
 10
-18.10000000000001
 20
3.589711375556291
 30
0.0
 11
-18.00000000000001
 21
3.534889861487993
 31
0.0
  0
LINE
  5
F100D6
330
261
100
AcDbEntity
  8
Geo
100
AcDbLine
 10
-18.00000000000001
 20
3.534889861487993
 30
0.0
 11
-17.9
 21
3.479205276048993
 31
0.0
  0
LINE
  5
F100D8
330
261
100
AcDbEntity
  8
Geo
100
AcDbLine
 10
-17.9
 20
3.479205276048993
 30
0.0
 11
-17.80000000000001
 21
3.422671215072096
 31
0.0
  0
LINE
  5
F100DA
330
261
100
AcDbEntity
  8
Geo
100
AcDbLine
 10
-17.80000000000001
 20
3.422671215072096
 30
0.0
 11
-17.7
 21
3.365301481796294
 31
0.0
  0
LINE
  5
F100DC
330
261
100
AcDbEntity
  8
Geo
100
AcDbLine
 10
-17.7
 20
3.365301481796294
 30
0.0
 11
-17.60000000000001
 21
3.307110083496493
 31
0.0
  0
LINE
  5
F100DE
330
261
100
AcDbEntity
  8
Geo
100
AcDbLine
 10
-17.60000000000001
 20
3.307110083496493
 30
0.0
 11
-17.50000000000001
 21
3.248111228063795
 31
0.0
  0
LINE
  5
F100E0
330
261
100
AcDbEntity
  8
Geo
100
AcDbLine
 10
-17.50000000000001
 20
3.248111228063795
 30
0.0
 11
-17.4
 21
3.188319320536194
 31
0.0
  0
LINE
  5
F100E2
330
261
100
AcDbEntity
  8
Geo
100
AcDbLine
 10
-17.4
 20
3.188319320536194
 30
0.0
 11
-17.30000000000001
 21
3.127748959581694
 31
0.0
  0
LINE
  5
F100E4
330
261
100
AcDbEntity
  8
Geo
100
AcDbLine
 10
-17.30000000000001
 20
3.127748959581694
 30
0.0
 11
-17.2
 21
3.066414933933995
 31
0.0
  0
LINE
  5
F100E6
330
261
100
AcDbEntity
  8
Geo
100
AcDbLine
 10
-17.2
 20
3.066414933933995
 30
0.0
 11
-17.10000000000001
 21
3.004332218781392
 31
0.0
  0
LINE
  5
F100E8
330
261
100
AcDbEntity
  8
Geo
100
AcDbLine
 10
-17.10000000000001
 20
3.004332218781392
 30
0.0
 11
-17.00000000000001
 21
2.941515972110893
 31
0.0
  0
LINE
  5
F100EA
330
261
100
AcDbEntity
  8
Geo
100
AcDbLine
 10
-17.00000000000001
 20
2.941515972110893
 30
0.0
 11
-16.9
 21
2.877981531006694
 31
0.0
  0
LINE
  5
F100EC
330
261
100
AcDbEntity
  8
Geo
100
AcDbLine
 10
-16.9
 20
2.877981531006694
 30
0.0
 11
-16.80000000000001
 21
2.813744407906094
 31
0.0
  0
LINE
  5
F100EE
330
261
100
AcDbEntity
  8
Geo
100
AcDbLine
 10
-16.80000000000001
 20
2.813744407906094
 30
0.0
 11
-16.7
 21
2.748820286811794
 31
0.0
  0
LINE
  5
F100F0
330
261
100
AcDbEntity
  8
Geo
100
AcDbLine
 10
-16.7
 20
2.748820286811794
 30
0.0
 11
-16.60000000000001
 21
2.683225019462392
 31
0.0
  0
LINE
  5
F100F2
330
261
100
AcDbEntity
  8
Geo
100
AcDbLine
 10
-16.60000000000001
 20
2.683225019462392
 30
0.0
 11
-16.50000000000001
 21
2.616974621462194
 31
0.0
  0
LINE
  5
F100F4
330
261
100
AcDbEntity
  8
Geo
100
AcDbLine
 10
-16.50000000000001
 20
2.616974621462194
 30
0.0
 11
-16.4
 21
2.550085268370892
 31
0.0
  0
LINE
  5
F100F6
330
261
100
AcDbEntity
  8
Geo
100
AcDbLine
 10
-16.4
 20
2.550085268370892
 30
0.0
 11
-16.3
 21
2.482573291753995
 31
0.0
  0
LINE
  5
F100F8
330
261
100
AcDbEntity
  8
Geo
100
AcDbLine
 10
-16.3
 20
2.482573291753995
 30
0.0
 11
-16.2
 21
2.414455175195595
 31
0.0
  0
LINE
  5
F100FA
330
261
100
AcDbEntity
  8
Geo
100
AcDbLine
 10
-16.2
 20
2.414455175195595
 30
0.0
 11
-16.09999999999999
 21
2.345747550273793
 31
0.0
  0
LINE
  5
F100FC
330
261
100
AcDbEntity
  8
Geo
100
AcDbLine
 10
-16.09999999999999
 20
2.345747550273793
 30
0.0
 11
-16.0
 21
2.276467192499394
 31
0.0
  0
LINE
  5
F100FE
330
261
100
AcDbEntity
  8
Geo
100
AcDbLine
 10
-16.0
 20
2.276467192499394
 30
0.0
 11
-15.89999999999999
 21
2.206631017220892
 31
0.0
  0
LINE
  5
F10100
330
261
100
AcDbEntity
  8
Geo
100
AcDbLine
 10
-15.89999999999999
 20
2.206631017220892
 30
0.0
 11
-15.8
 21
2.136256075493893
 31
0.0
  0
LINE
  5
F10102
330
261
100
AcDbEntity
  8
Geo
100
AcDbLine
 10
-15.8
 20
2.136256075493893
 30
0.0
 11
-15.7
 21
2.065359549917996
 31
0.0
  0
LINE
  5
F10104
330
261
100
AcDbEntity
  8
Geo
100
AcDbLine
 10
-15.7
 20
2.065359549917996
 30
0.0
 11
-15.59999999999999
 21
1.993958750441695
 31
0.0
  0
LINE
  5
F10106
330
261
100
AcDbEntity
  8
Geo
100
AcDbLine
 10
-15.59999999999999
 20
1.993958750441695
 30
0.0
 11
-15.5
 21
1.922071110136194
 31
0.0
  0
LINE
  5
F10108
330
261
100
AcDbEntity
  8
Geo
100
AcDbLine
 10
-15.5
 20
1.922071110136194
 30
0.0
 11
-15.39999999999999
 21
1.849714180938194
 31
0.0
  0
LINE
  5
F1010A
330
261
100
AcDbEntity
  8
Geo
100
AcDbLine
 10
-15.39999999999999
 20
1.849714180938194
 30
0.0
 11
-15.3
 21
1.776905629365595
 31
0.0
  0
LINE
  5
F1010C
330
261
100
AcDbEntity
  8
Geo
100
AcDbLine
 10
-15.3
 20
1.776905629365595
 30
0.0
 11
-15.2
 21
1.703663232203094
 31
0.0
  0
LINE
  5
F1010E
330
261
100
AcDbEntity
  8
Geo
100
AcDbLine
 10
-15.2
 20
1.703663232203094
 30
0.0
 11
-15.09999999999999
 21
1.630004872162393
 31
0.0
  0
LINE
  5
F10110
330
261
100
AcDbEntity
  8
Geo
100
AcDbLine
 10
-15.09999999999999
 20
1.630004872162393
 30
0.0
 11
-15.0
 21
1.555948533515694
 31
0.0
  0
LINE
  5
F10112
330
261
100
AcDbEntity
  8
Geo
100
AcDbLine
 10
-15.0
 20
1.555948533515694
 30
0.0
 11
-14.89999999999999
 21
1.481512297704995
 31
0.0
  0
LINE
  5
F10114
330
261
100
AcDbEntity
  8
Geo
100
AcDbLine
 10
-14.89999999999999
 20
1.481512297704995
 30
0.0
 11
-14.79999999999999
 21
1.406714338926995
 31
0.0
  0
LINE
  5
F10116
330
261
100
AcDbEntity
  8
Geo
100
AcDbLine
 10
-14.79999999999999
 20
1.406714338926995
 30
0.0
 11
-14.7
 21
1.331572919696196
 31
0.0
  0
LINE
  5
F10118
330
261
100
AcDbEntity
  8
Geo
100
AcDbLine
 10
-14.7
 20
1.331572919696196
 30
0.0
 11
-14.59999999999999
 21
1.256106386385496
 31
0.0
  0
LINE
  5
F1011A
330
261
100
AcDbEntity
  8
Geo
100
AcDbLine
 10
-14.59999999999999
 20
1.256106386385496
 30
0.0
 11
-14.5
 21
1.180333164746892
 31
0.0
  0
LINE
  5
F1011C
330
261
100
AcDbEntity
  8
Geo
100
AcDbLine
 10
-14.5
 20
1.180333164746892
 30
0.0
 11
-14.39999999999999
 21
1.104271755412996
 31
0.0
  0
LINE
  5
F1011E
330
261
100
AcDbEntity
  8
Geo
100
AcDbLine
 10
-14.39999999999999
 20
1.104271755412996
 30
0.0
 11
-14.29999999999999
 21
1.027940729379695
 31
0.0
  0
LINE
  5
F10120
330
261
100
AcDbEntity
  8
Geo
100
AcDbLine
 10
-14.29999999999999
 20
1.027940729379695
 30
0.0
 11
-14.2
 21
0.9513587234715945
 31
0.0
  0
LINE
  5
F10122
330
261
100
AcDbEntity
  8
Geo
100
AcDbLine
 10
-14.2
 20
0.9513587234715945
 30
0.0
 11
-14.09999999999999
 21
0.8745444357925951
 31
0.0
  0
LINE
  5
F10124
330
261
100
AcDbEntity
  8
Geo
100
AcDbLine
 10
-14.09999999999999
 20
0.8745444357925951
 30
0.0
 11
-14.0
 21
0.7975166211594935
 31
0.0
  0
LINE
  5
F10126
330
261
100
AcDbEntity
  8
Geo
100
AcDbLine
 10
-14.0
 20
0.7975166211594935
 30
0.0
 11
-13.89999999999999
 21
0.7202940865236958
 31
0.0
  0
LINE
  5
F10128
330
261
100
AcDbEntity
  8
Geo
100
AcDbLine
 10
-13.89999999999999
 20
0.7202940865236958
 30
0.0
 11
-13.8
 21
0.6428956863788944
 31
0.0
  0
LINE
  5
F1012A
330
261
100
AcDbEntity
  8
Geo
100
AcDbLine
 10
-13.8
 20
0.6428956863788944
 30
0.0
 11
-13.7
 21
0.565340318157892
 31
0.0
  0
LINE
  5
F1012C
330
261
100
AcDbEntity
  8
Geo
100
AcDbLine
 10
-13.7
 20
0.565340318157892
 30
0.0
 11
-13.59999999999999
 21
0.4876469176183936
 31
0.0
  0
LINE
  5
F1012E
330
261
100
AcDbEntity
  8
Geo
100
AcDbLine
 10
-13.59999999999999
 20
0.4876469176183936
 30
0.0
 11
-13.5
 21
0.4098344542197943
 31
0.0
  0
LINE
  5
F10130
330
261
100
AcDbEntity
  8
Geo
100
AcDbLine
 10
-13.5
 20
0.4098344542197943
 30
0.0
 11
-13.39999999999999
 21
0.331921926491594
 31
0.0
  0
LINE
  5
F10132
330
261
100
AcDbEntity
  8
Geo
100
AcDbLine
 10
-13.39999999999999
 20
0.331921926491594
 30
0.0
 11
-13.3
 21
0.253928357394793
 31
0.0
  0
LINE
  5
F10134
330
261
100
AcDbEntity
  8
Geo
100
AcDbLine
 10
-13.3
 20
0.253928357394793
 30
0.0
 11
-13.2
 21
0.1758727896773937
 31
0.0
  0
LINE
  5
F10136
330
261
100
AcDbEntity
  8
Geo
100
AcDbLine
 10
-13.2
 20
0.1758727896773937
 30
0.0
 11
-13.09999999999999
 21
0.0977742812247957
 31
0.0
  0
LINE
  5
F10138
330
261
100
AcDbEntity
  8
Geo
100
AcDbLine
 10
-13.09999999999999
 20
0.0977742812247957
 30
0.0
 11
-13.0
 21
0.0196519004065952
 31
0.0
  0
LINE
  5
F1013A
330
261
100
AcDbEntity
  8
Geo
100
AcDbLine
 10
-13.0
 20
0.0196519004065952
 30
0.0
 11
-12.89999999999999
 21
-0.0584752785788059
 31
0.0
  0
LINE
  5
F1013C
330
261
100
AcDbEntity
  8
Geo
100
AcDbLine
 10
-12.89999999999999
 20
-0.0584752785788059
 30
0.0
 11
-12.8
 21
-0.1365881803615032
 31
0.0
  0
LINE
  5
F1013E
330
261
100
AcDbEntity
  8
Geo
100
AcDbLine
 10
-12.8
 20
-0.1365881803615032
 30
0.0
 11
-12.7
 21
-0.2146677330577056
 31
0.0
  0
LINE
  5
F10140
330
261
100
AcDbEntity
  8
Geo
100
AcDbLine
 10
-12.7
 20
-0.2146677330577056
 30
0.0
 11
-12.59999999999999
 21
-0.2926948729258054
 31
0.0
  0
LINE
  5
F10142
330
261
100
AcDbEntity
  8
Geo
100
AcDbLine
 10
-12.59999999999999
 20
-0.2926948729258054
 30
0.0
 11
-12.5
 21
-0.3706505490213061
 31
0.0
  0
LINE
  5
F10144
330
261
100
AcDbEntity
  8
Geo
100
AcDbLine
 10
-12.5
 20
-0.3706505490213061
 30
0.0
 11
-12.39999999999999
 21
-0.4485157278482053
 31
0.0
  0
LINE
  5
F10146
330
261
100
AcDbEntity
  8
Geo
100
AcDbLine
 10
-12.39999999999999
 20
-0.4485157278482053
 30
0.0
 11
-12.29999999999999
 21
-0.5262713980060046
 31
0.0
  0
LINE
  5
F10148
330
261
100
AcDbEntity
  8
Geo
100
AcDbLine
 10
-12.29999999999999
 20
-0.5262713980060046
 30
0.0
 11
-12.2
 21
-0.6038985748317068
 31
0.0
  0
LINE
  5
F1014A
330
261
100
AcDbEntity
  8
Geo
100
AcDbLine
 10
-12.2
 20
-0.6038985748317068
 30
0.0
 11
-12.09999999999999
 21
-0.681378305035004
 31
0.0
  0
LINE
  5
F1014C
330
261
100
AcDbEntity
  8
Geo
100
AcDbLine
 10
-12.09999999999999
 20
-0.681378305035004
 30
0.0
 11
-12.0
 21
-0.7586916713258045
 31
0.0
  0
LINE
  5
F1014E
330
261
100
AcDbEntity
  8
Geo
100
AcDbLine
 10
-12.0
 20
-0.7586916713258045
 30
0.0
 11
-12.0
 21
-0.7586916713258045
 31
0.0
  0
LINE
  5
F10150
330
261
100
AcDbEntity
  8
Geo
100
AcDbLine
 10
-12.0
 20
-0.7586916713258045
 30
0.0
 11
-12.0
 21
-0.7586916713258045
 31
0.0
  0
LINE
  5
F10152
330
261
100
AcDbEntity
  8
Geo
100
AcDbLine
 10
-12.0
 20
-0.7586916713258045
 30
0.0
 11
-11.89999999999999
 21
-0.8472129408377053
 31
0.0
  0
LINE
  5
F10154
330
261
100
AcDbEntity
  8
Geo
100
AcDbLine
 10
-11.89999999999999
 20
-0.8472129408377053
 30
0.0
 11
-11.79999999999999
 21
-0.9380652129997066
 31
0.0
  0
LINE
  5
F10156
330
261
100
AcDbEntity
  8
Geo
100
AcDbLine
 10
-11.79999999999999
 20
-0.9380652129997066
 30
0.0
 11
-11.7
 21
-1.031191252016505
 31
0.0
  0
LINE
  5
F10158
330
261
100
AcDbEntity
  8
Geo
100
AcDbLine
 10
-11.7
 20
-1.031191252016505
 30
0.0
 11
-11.59999999999999
 21
-1.126527665051606
 31
0.0
  0
LINE
  5
F1015A
330
261
100
AcDbEntity
  8
Geo
100
AcDbLine
 10
-11.59999999999999
 20
-1.126527665051606
 30
0.0
 11
-11.5
 21
-1.224004557844704
 31
0.0
  0
LINE
  5
F1015C
330
261
100
AcDbEntity
  8
Geo
100
AcDbLine
 10
-11.5
 20
-1.224004557844704
 30
0.0
 11
-11.39999999999999
 21
-1.323545189566106
 31
0.0
  0
LINE
  5
F1015E
330
261
100
AcDbEntity
  8
Geo
100
AcDbLine
 10
-11.39999999999999
 20
-1.323545189566106
 30
0.0
 11
-11.29999999999999
 21
-1.425065628271505
 31
0.0
  0
LINE
  5
F10160
330
261
100
AcDbEntity
  8
Geo
100
AcDbLine
 10
-11.29999999999999
 20
-1.425065628271505
 30
0.0
 11
-11.2
 21
-1.528474408437206
 31
0.0
  0
LINE
  5
F10162
330
261
100
AcDbEntity
  8
Geo
100
AcDbLine
 10
-11.2
 20
-1.528474408437206
 30
0.0
 11
-11.09999999999999
 21
-1.633672192169205
 31
0.0
  0
LINE
  5
F10164
330
261
100
AcDbEntity
  8
Geo
100
AcDbLine
 10
-11.09999999999999
 20
-1.633672192169205
 30
0.0
 11
-11.0
 21
-1.740551435805706
 31
0.0
  0
LINE
  5
F10166
330
261
100
AcDbEntity
  8
Geo
100
AcDbLine
 10
-11.0
 20
-1.740551435805706
 30
0.0
 11
-10.89999999999999
 21
-1.848996063754205
 31
0.0
  0
LINE
  5
F10168
330
261
100
AcDbEntity
  8
Geo
100
AcDbLine
 10
-10.89999999999999
 20
-1.848996063754205
 30
0.0
 11
-10.8
 21
-1.958881151531604
 31
0.0
  0
LINE
  5
F1016A
330
261
100
AcDbEntity
  8
Geo
100
AcDbLine
 10
-10.8
 20
-1.958881151531604
 30
0.0
 11
-10.7
 21
-2.070072620105003
 31
0.0
  0
LINE
  5
F1016C
330
261
100
AcDbEntity
  8
Geo
100
AcDbLine
 10
-10.7
 20
-2.070072620105003
 30
0.0
 11
-10.59999999999999
 21
-2.182426943763104
 31
0.0
  0
LINE
  5
F1016E
330
261
100
AcDbEntity
  8
Geo
100
AcDbLine
 10
-10.59999999999999
 20
-2.182426943763104
 30
0.0
 11
-10.5
 21
-2.295790873873606
 31
0.0
  0
LINE
  5
F10170
330
261
100
AcDbEntity
  8
Geo
100
AcDbLine
 10
-10.5
 20
-2.295790873873606
 30
0.0
 11
-10.39999999999999
 21
-2.410001181020405
 31
0.0
  0
LINE
  5
F10172
330
261
100
AcDbEntity
  8
Geo
100
AcDbLine
 10
-10.39999999999999
 20
-2.410001181020405
 30
0.0
 11
-10.3
 21
-2.524884418135904
 31
0.0
  0
LINE
  5
F10174
330
261
100
AcDbEntity
  8
Geo
100
AcDbLine
 10
-10.3
 20
-2.524884418135904
 30
0.0
 11
-10.2
 21
-2.640256707377904
 31
0.0
  0
LINE
  5
F10176
330
261
100
AcDbEntity
  8
Geo
100
AcDbLine
 10
-10.2
 20
-2.640256707377904
 30
0.0
 11
-10.09999999999999
 21
-2.755923553621405
 31
0.0
  0
LINE
  5
F10178
330
261
100
AcDbEntity
  8
Geo
100
AcDbLine
 10
-10.09999999999999
 20
-2.755923553621405
 30
0.0
 11
-10.0
 21
-2.871679687556206
 31
0.0
  0
LINE
  5
F1017A
330
261
100
AcDbEntity
  8
Geo
100
AcDbLine
 10
-10.0
 20
-2.871679687556206
 30
0.0
 11
-9.899999999999991
 21
-2.987308941497843
 31
0.0
  0
LINE
  5
F1017C
330
261
100
AcDbEntity
  8
Geo
100
AcDbLine
 10
-9.899999999999991
 20
-2.987308941497843
 30
0.0
 11
-9.799999999999997
 21
-3.102584161124946
 31
0.0
  0
LINE
  5
F1017E
330
261
100
AcDbEntity
  8
Geo
100
AcDbLine
 10
-9.799999999999997
 20
-3.102584161124946
 30
0.0
 11
-9.700000000000002
 21
-3.217267156456815
 31
0.0
  0
LINE
  5
F10180
330
261
100
AcDbEntity
  8
Geo
100
AcDbLine
 10
-9.700000000000002
 20
-3.217267156456815
 30
0.0
 11
-9.599999999999994
 21
-3.331108695475435
 31
0.0
  0
LINE
  5
F10182
330
261
100
AcDbEntity
  8
Geo
100
AcDbLine
 10
-9.599999999999994
 20
-3.331108695475435
 30
0.0
 11
-9.5
 21
-3.443848543873166
 31
0.0
  0
LINE
  5
F10184
330
261
100
AcDbEntity
  8
Geo
100
AcDbLine
 10
-9.5
 20
-3.443848543873166
 30
0.0
 11
-9.399999999999991
 21
-3.555215554473754
 31
0.0
  0
LINE
  5
F10186
330
261
100
AcDbEntity
  8
Geo
100
AcDbLine
 10
-9.399999999999991
 20
-3.555215554473754
 30
0.0
 11
-9.299999999999997
 21
-3.664927809923947
 31
0.0
  0
LINE
  5
F10188
330
261
100
AcDbEntity
  8
Geo
100
AcDbLine
 10
-9.299999999999997
 20
-3.664927809923947
 30
0.0
 11
-9.200000000000002
 21
-3.772692822286915
 31
0.0
  0
LINE
  5
F1018A
330
261
100
AcDbEntity
  8
Geo
100
AcDbLine
 10
-9.200000000000002
 20
-3.772692822286915
 30
0.0
 11
-9.099999999999994
 21
-3.878207793183186
 31
0.0
  0
LINE
  5
F1018C
330
261
100
AcDbEntity
  8
Geo
100
AcDbLine
 10
-9.099999999999994
 20
-3.878207793183186
 30
0.0
 11
-9.0
 21
-3.981159938118645
 31
0.0
  0
LINE
  5
F1018E
330
261
100
AcDbEntity
  8
Geo
100
AcDbLine
 10
-9.0
 20
-3.981159938118645
 30
0.0
 11
-8.899999999999991
 21
-4.081226878610436
 31
0.0
  0
LINE
  5
F10190
330
261
100
AcDbEntity
  8
Geo
100
AcDbLine
 10
-8.899999999999991
 20
-4.081226878610436
 30
0.0
 11
-8.799999999999997
 21
-4.178077105667005
 31
0.0
  0
LINE
  5
F10192
330
261
100
AcDbEntity
  8
Geo
100
AcDbLine
 10
-8.799999999999997
 20
-4.178077105667005
 30
0.0
 11
-8.700000000000002
 21
-4.271370518097734
 31
0.0
  0
LINE
  5
F10194
330
261
100
AcDbEntity
  8
Geo
100
AcDbLine
 10
-8.700000000000002
 20
-4.271370518097734
 30
0.0
 11
-8.599999999999994
 21
-4.360759039016224
 31
0.0
  0
LINE
  5
F10196
330
261
100
AcDbEntity
  8
Geo
100
AcDbLine
 10
-8.599999999999994
 20
-4.360759039016224
 30
0.0
 11
-8.5
 21
-4.445887313759245
 31
0.0
  0
LINE
  5
F10198
330
261
100
AcDbEntity
  8
Geo
100
AcDbLine
 10
-8.5
 20
-4.445887313759245
 30
0.0
 11
-8.399999999999991
 21
-4.526393492266395
 31
0.0
  0
LINE
  5
F1019A
330
261
100
AcDbEntity
  8
Geo
100
AcDbLine
 10
-8.399999999999991
 20
-4.526393492266395
 30
0.0
 11
-8.299999999999997
 21
-4.601910098753265
 31
0.0
  0
LINE
  5
F1019C
330
261
100
AcDbEntity
  8
Geo
100
AcDbLine
 10
-8.299999999999997
 20
-4.601910098753265
 30
0.0
 11
-8.200000000000002
 21
-4.672064991259714
 31
0.0
  0
LINE
  5
F1019E
330
261
100
AcDbEntity
  8
Geo
100
AcDbLine
 10
-8.200000000000002
 20
-4.672064991259714
 30
0.0
 11
-8.099999999999994
 21
-4.736482413363516
 31
0.0
  0
LINE
  5
F101A0
330
261
100
AcDbEntity
  8
Geo
100
AcDbLine
 10
-8.099999999999994
 20
-4.736482413363516
 30
0.0
 11
-8.0
 21
-4.794784140016085
 31
0.0
  0
LINE
  5
F101A2
330
261
100
AcDbEntity
  8
Geo
100
AcDbLine
 10
-26.00000000000001
 20
3.441314340522694
 30
0.0
 11
-25.90000000000001
 21
3.455501272740391
 31
0.0
  0
LINE
  5
F101A4
330
261
100
AcDbEntity
  8
Geo
100
AcDbLine
 10
-25.90000000000001
 20
3.455501272740391
 30
0.0
 11
-25.80000000000001
 21
3.398613612031795
 31
0.0
  0
LINE
  5
F101A6
330
261
100
AcDbEntity
  8
Geo
100
AcDbLine
 10
-25.80000000000001
 20
3.398613612031795
 30
0.0
 11
-25.7
 21
3.340896152878595
 31
0.0
  0
LINE
  5
F101A8
330
261
100
AcDbEntity
  8
Geo
100
AcDbLine
 10
-25.7
 20
3.340896152878595
 30
0.0
 11
-25.60000000000001
 21
3.282362987455996
 31
0.0
  0
LINE
  5
F101AA
330
261
100
AcDbEntity
  8
Geo
100
AcDbLine
 10
-25.60000000000001
 20
3.282362987455996
 30
0.0
 11
-25.50000000000002
 21
3.223028407099995
 31
0.0
  0
LINE
  5
F101AC
330
261
100
AcDbEntity
  8
Geo
100
AcDbLine
 10
-25.50000000000002
 20
3.223028407099995
 30
0.0
 11
-25.40000000000001
 21
3.162906898818693
 31
0.0
  0
LINE
  5
F101AE
330
261
100
AcDbEntity
  8
Geo
100
AcDbLine
 10
-25.40000000000001
 20
3.162906898818693
 30
0.0
 11
-25.30000000000001
 21
3.102013141754593
 31
0.0
  0
LINE
  5
F101B0
330
261
100
AcDbEntity
  8
Geo
100
AcDbLine
 10
-25.30000000000001
 20
3.102013141754593
 30
0.0
 11
-25.2
 21
3.040362003601094
 31
0.0
  0
LINE
  5
F101B2
330
261
100
AcDbEntity
  8
Geo
100
AcDbLine
 10
-25.2
 20
3.040362003601094
 30
0.0
 11
-25.10000000000001
 21
2.977968536972193
 31
0.0
  0
LINE
  5
F101B4
330
261
100
AcDbEntity
  8
Geo
100
AcDbLine
 10
-25.10000000000001
 20
2.977968536972193
 30
0.0
 11
-25.00000000000002
 21
2.914847975727095
 31
0.0
  0
LINE
  5
F101B6
330
261
100
AcDbEntity
  8
Geo
100
AcDbLine
 10
-25.00000000000002
 20
2.914847975727095
 30
0.0
 11
-24.90000000000001
 21
2.851015731250994
 31
0.0
  0
LINE
  5
F101B8
330
261
100
AcDbEntity
  8
Geo
100
AcDbLine
 10
-24.90000000000001
 20
2.851015731250994
 30
0.0
 11
-24.80000000000001
 21
2.786487388692194
 31
0.0
  0
LINE
  5
F101BA
330
261
100
AcDbEntity
  8
Geo
100
AcDbLine
 10
-24.80000000000001
 20
2.786487388692194
 30
0.0
 11
-24.70000000000001
 21
2.721278703156894
 31
0.0
  0
LINE
  5
F101BC
330
261
100
AcDbEntity
  8
Geo
100
AcDbLine
 10
-24.70000000000001
 20
2.721278703156894
 30
0.0
 11
-24.60000000000001
 21
2.655405595862394
 31
0.0
  0
LINE
  5
F101BE
330
261
100
AcDbEntity
  8
Geo
100
AcDbLine
 10
-24.60000000000001
 20
2.655405595862394
 30
0.0
 11
-24.50000000000001
 21
2.588884150249894
 31
0.0
  0
LINE
  5
F101C0
330
261
100
AcDbEntity
  8
Geo
100
AcDbLine
 10
-24.50000000000001
 20
2.588884150249894
 30
0.0
 11
-24.40000000000001
 21
2.521730608057294
 31
0.0
  0
LINE
  5
F101C2
330
261
100
AcDbEntity
  8
Geo
100
AcDbLine
 10
-24.40000000000001
 20
2.521730608057294
 30
0.0
 11
-24.30000000000001
 21
2.453961365354194
 31
0.0
  0
LINE
  5
F101C4
330
261
100
AcDbEntity
  8
Geo
100
AcDbLine
 10
-24.30000000000001
 20
2.453961365354194
 30
0.0
 11
-24.2
 21
2.385592968538194
 31
0.0
  0
LINE
  5
F101C6
330
261
100
AcDbEntity
  8
Geo
100
AcDbLine
 10
-24.2
 20
2.385592968538194
 30
0.0
 11
-24.10000000000001
 21
2.316642110295095
 31
0.0
  0
LINE
  5
F101C8
330
261
100
AcDbEntity
  8
Geo
100
AcDbLine
 10
-24.10000000000001
 20
2.316642110295095
 30
0.0
 11
-24.00000000000002
 21
2.247125625523294
 31
0.0
  0
LINE
  5
F101CA
330
261
100
AcDbEntity
  8
Geo
100
AcDbLine
 10
-24.00000000000002
 20
2.247125625523294
 30
0.0
 11
-23.90000000000001
 21
2.177060487223494
 31
0.0
  0
LINE
  5
F101CC
330
261
100
AcDbEntity
  8
Geo
100
AcDbLine
 10
-23.90000000000001
 20
2.177060487223494
 30
0.0
 11
-23.80000000000001
 21
2.106463802354394
 31
0.0
  0
LINE
  5
F101CE
330
261
100
AcDbEntity
  8
Geo
100
AcDbLine
 10
-23.80000000000001
 20
2.106463802354394
 30
0.0
 11
-23.7
 21
2.035352807655891
 31
0.0
  0
LINE
  5
F101D0
330
261
100
AcDbEntity
  8
Geo
100
AcDbLine
 10
-23.7
 20
2.035352807655891
 30
0.0
 11
-23.60000000000001
 21
1.963744865441093
 31
0.0
  0
LINE
  5
F101D2
330
261
100
AcDbEntity
  8
Geo
100
AcDbLine
 10
-23.60000000000001
 20
1.963744865441093
 30
0.0
 11
-23.50000000000001
 21
1.891657459356293
 31
0.0
  0
LINE
  5
F101D4
330
261
100
AcDbEntity
  8
Geo
100
AcDbLine
 10
-23.50000000000001
 20
1.891657459356293
 30
0.0
 11
-23.40000000000001
 21
1.819108190112993
 31
0.0
  0
LINE
  5
F101D6
330
261
100
AcDbEntity
  8
Geo
100
AcDbLine
 10
-23.40000000000001
 20
1.819108190112993
 30
0.0
 11
-23.30000000000001
 21
1.746114771190194
 31
0.0
  0
LINE
  5
F101D8
330
261
100
AcDbEntity
  8
Geo
100
AcDbLine
 10
-23.30000000000001
 20
1.746114771190194
 30
0.0
 11
-23.2
 21
1.672695024509595
 31
0.0
  0
LINE
  5
F101DA
330
261
100
AcDbEntity
  8
Geo
100
AcDbLine
 10
-23.2
 20
1.672695024509595
 30
0.0
 11
-23.10000000000001
 21
1.598866876083993
 31
0.0
  0
LINE
  5
F101DC
330
261
100
AcDbEntity
  8
Geo
100
AcDbLine
 10
-23.10000000000001
 20
1.598866876083993
 30
0.0
 11
-23.00000000000002
 21
1.524648351640994
 31
0.0
  0
LINE
  5
F101DE
330
261
100
AcDbEntity
  8
Geo
100
AcDbLine
 10
-23.00000000000002
 20
1.524648351640994
 30
0.0
 11
-22.9
 21
1.450057572221293
 31
0.0
  0
LINE
  5
F101E0
330
261
100
AcDbEntity
  8
Geo
100
AcDbLine
 10
-22.9
 20
1.450057572221293
 30
0.0
 11
-22.80000000000001
 21
1.375112749754894
 31
0.0
  0
LINE
  5
F101E2
330
261
100
AcDbEntity
  8
Geo
100
AcDbLine
 10
-22.80000000000001
 20
1.375112749754894
 30
0.0
 11
-22.7
 21
1.299832182614094
 31
0.0
  0
LINE
  5
F101E4
330
261
100
AcDbEntity
  8
Geo
100
AcDbLine
 10
-22.7
 20
1.299832182614094
 30
0.0
 11
-22.60000000000001
 21
1.224234251145794
 31
0.0
  0
LINE
  5
F101E6
330
261
100
AcDbEntity
  8
Geo
100
AcDbLine
 10
-22.60000000000001
 20
1.224234251145794
 30
0.0
 11
-22.50000000000001
 21
1.148337413183995
 31
0.0
  0
LINE
  5
F101E8
330
261
100
AcDbEntity
  8
Geo
100
AcDbLine
 10
-22.50000000000001
 20
1.148337413183995
 30
0.0
 11
-22.40000000000001
 21
1.072160199543292
 31
0.0
  0
LINE
  5
F101EA
330
261
100
AcDbEntity
  8
Geo
100
AcDbLine
 10
-22.40000000000001
 20
1.072160199543292
 30
0.0
 11
-22.30000000000001
 21
0.9957212094937943
 31
0.0
  0
LINE
  5
F101EC
330
261
100
AcDbEntity
  8
Geo
100
AcDbLine
 10
-22.30000000000001
 20
0.9957212094937943
 30
0.0
 11
-22.2
 21
0.9190391062207936
 31
0.0
  0
LINE
  5
F101EE
330
261
100
AcDbEntity
  8
Geo
100
AcDbLine
 10
-22.2
 20
0.9190391062207936
 30
0.0
 11
-22.10000000000001
 21
0.8421326122673953
 31
0.0
  0
LINE
  5
F101F0
330
261
100
AcDbEntity
  8
Geo
100
AcDbLine
 10
-22.10000000000001
 20
0.8421326122673953
 30
0.0
 11
-22.00000000000001
 21
0.7650205049634966
 31
0.0
  0
LINE
  5
F101F2
330
261
100
AcDbEntity
  8
Geo
100
AcDbLine
 10
-22.00000000000001
 20
0.7650205049634966
 30
0.0
 11
-21.90000000000001
 21
0.6877216118411944
 31
0.0
  0
LINE
  5
F101F4
330
261
100
AcDbEntity
  8
Geo
100
AcDbLine
 10
-21.90000000000001
 20
0.6877216118411944
 30
0.0
 11
-21.80000000000001
 21
0.6102548060377942
 31
0.0
  0
LINE
  5
F101F6
330
261
100
AcDbEntity
  8
Geo
100
AcDbLine
 10
-21.80000000000001
 20
0.6102548060377942
 30
0.0
 11
-21.7
 21
0.5326390016876932
 31
0.0
  0
LINE
  5
F101F8
330
261
100
AcDbEntity
  8
Geo
100
AcDbLine
 10
-21.7
 20
0.5326390016876932
 30
0.0
 11
-21.60000000000001
 21
0.4548931493046951
 31
0.0
  0
LINE
  5
F101FA
330
261
100
AcDbEntity
  8
Geo
100
AcDbLine
 10
-21.60000000000001
 20
0.4548931493046951
 30
0.0
 11
-21.50000000000002
 21
0.377036231154495
 31
0.0
  0
LINE
  5
F101FC
330
261
100
AcDbEntity
  8
Geo
100
AcDbLine
 10
-21.50000000000002
 20
0.377036231154495
 30
0.0
 11
-21.40000000000001
 21
0.2990872566208935
 31
0.0
  0
LINE
  5
F101FE
330
261
100
AcDbEntity
  8
Geo
100
AcDbLine
 10
-21.40000000000001
 20
0.2990872566208935
 30
0.0
 11
-21.30000000000001
 21
0.2210652575634953
 31
0.0
  0
LINE
  5
F10200
330
261
100
AcDbEntity
  8
Geo
100
AcDbLine
 10
-21.30000000000001
 20
0.2210652575634953
 30
0.0
 11
-21.2
 21
0.1429892836717936
 31
0.0
  0
LINE
  5
F10202
330
261
100
AcDbEntity
  8
Geo
100
AcDbLine
 10
-21.2
 20
0.1429892836717936
 30
0.0
 11
-21.10000000000001
 21
0.0648783978133949
 31
0.0
  0
LINE
  5
F10204
330
261
100
AcDbEntity
  8
Geo
100
AcDbLine
 10
-21.10000000000001
 20
0.0648783978133949
 30
0.0
 11
-21.00000000000001
 21
-0.0132483286200049
 31
0.0
  0
LINE
  5
F10206
330
261
100
AcDbEntity
  8
Geo
100
AcDbLine
 10
-21.00000000000001
 20
-0.0132483286200049
 30
0.0
 11
-20.90000000000001
 21
-0.091371820368904
 31
0.0
  0
LINE
  5
F10208
330
261
100
AcDbEntity
  8
Geo
100
AcDbLine
 10
-20.90000000000001
 20
-0.091371820368904
 30
0.0
 11
-20.80000000000001
 21
-0.1694730029639047
 31
0.0
  0
LINE
  5
F1020A
330
261
100
AcDbEntity
  8
Geo
100
AcDbLine
 10
-20.80000000000001
 20
-0.1694730029639047
 30
0.0
 11
-20.7
 21
-0.2475328073822069
 31
0.0
  0
LINE
  5
F1020C
330
261
100
AcDbEntity
  8
Geo
100
AcDbLine
 10
-20.7
 20
-0.2475328073822069
 30
0.0
 11
-20.60000000000001
 21
-0.3255321747042057
 31
0.0
  0
LINE
  5
F1020E
330
261
100
AcDbEntity
  8
Geo
100
AcDbLine
 10
-20.60000000000001
 20
-0.3255321747042057
 30
0.0
 11
-20.50000000000002
 21
-0.4034520607661048
 31
0.0
  0
LINE
  5
F10210
330
261
100
AcDbEntity
  8
Geo
100
AcDbLine
 10
-20.50000000000002
 20
-0.4034520607661048
 30
0.0
 11
-20.4
 21
-0.4812734408104049
 31
0.0
  0
LINE
  5
F10212
330
261
100
AcDbEntity
  8
Geo
100
AcDbLine
 10
-20.4
 20
-0.4812734408104049
 30
0.0
 11
-20.30000000000001
 21
-0.5589773141304058
 31
0.0
  0
LINE
  5
F10214
330
261
100
AcDbEntity
  8
Geo
100
AcDbLine
 10
-20.30000000000001
 20
-0.5589773141304058
 30
0.0
 11
-20.2
 21
-0.6365447087097067
 31
0.0
  0
LINE
  5
F10216
330
261
100
AcDbEntity
  8
Geo
100
AcDbLine
 10
-20.2
 20
-0.6365447087097067
 30
0.0
 11
-20.10000000000001
 21
-0.7139566858544058
 31
0.0
  0
LINE
  5
F10218
330
261
100
AcDbEntity
  8
Geo
100
AcDbLine
 10
-20.10000000000001
 20
-0.7139566858544058
 30
0.0
 11
-20.00000000000001
 21
-0.7911943448166064
 31
0.0
  0
LINE
  5
F1021A
330
261
100
AcDbEntity
  8
Geo
100
AcDbLine
 10
-20.00000000000001
 20
-0.7911943448166064
 30
0.0
 11
-19.9
 21
-0.8682388274101064
 31
0.0
  0
LINE
  5
F1021C
330
261
100
AcDbEntity
  8
Geo
100
AcDbLine
 10
-19.9
 20
-0.8682388274101064
 30
0.0
 11
-19.80000000000001
 21
-0.9450713226137068
 31
0.0
  0
LINE
  5
F1021E
330
261
100
AcDbEntity
  8
Geo
100
AcDbLine
 10
-19.80000000000001
 20
-0.9450713226137068
 30
0.0
 11
-19.7
 21
-1.021673071165105
 31
0.0
  0
LINE
  5
F10220
330
261
100
AcDbEntity
  8
Geo
100
AcDbLine
 10
-19.7
 20
-1.021673071165105
 30
0.0
 11
-19.60000000000001
 21
-1.098025370140305
 31
0.0
  0
LINE
  5
F10222
330
261
100
AcDbEntity
  8
Geo
100
AcDbLine
 10
-19.60000000000001
 20
-1.098025370140305
 30
0.0
 11
-19.50000000000001
 21
-1.174109577520406
 31
0.0
  0
LINE
  5
F10224
330
261
100
AcDbEntity
  8
Geo
100
AcDbLine
 10
-19.50000000000001
 20
-1.174109577520406
 30
0.0
 11
-19.4
 21
-1.249907116743305
 31
0.0
  0
LINE
  5
F10226
330
261
100
AcDbEntity
  8
Geo
100
AcDbLine
 10
-19.4
 20
-1.249907116743305
 30
0.0
 11
-19.30000000000001
 21
-1.325399481239205
 31
0.0
  0
LINE
  5
F10228
330
261
100
AcDbEntity
  8
Geo
100
AcDbLine
 10
-19.30000000000001
 20
-1.325399481239205
 30
0.0
 11
-19.2
 21
-1.400568238949105
 31
0.0
  0
LINE
  5
F1022A
330
261
100
AcDbEntity
  8
Geo
100
AcDbLine
 10
-19.2
 20
-1.400568238949105
 30
0.0
 11
-19.10000000000001
 21
-1.475395036825105
 31
0.0
  0
LINE
  5
F1022C
330
261
100
AcDbEntity
  8
Geo
100
AcDbLine
 10
-19.10000000000001
 20
-1.475395036825105
 30
0.0
 11
-19.00000000000001
 21
-1.549861605311706
 31
0.0
  0
LINE
  5
F1022E
330
261
100
AcDbEntity
  8
Geo
100
AcDbLine
 10
-19.00000000000001
 20
-1.549861605311706
 30
0.0
 11
-18.9
 21
-1.623949762805905
 31
0.0
  0
LINE
  5
F10230
330
261
100
AcDbEntity
  8
Geo
100
AcDbLine
 10
-18.9
 20
-1.623949762805905
 30
0.0
 11
-18.80000000000001
 21
-1.697641420097108
 31
0.0
  0
LINE
  5
F10232
330
261
100
AcDbEntity
  8
Geo
100
AcDbLine
 10
-18.80000000000001
 20
-1.697641420097108
 30
0.0
 11
-18.7
 21
-1.770918584783306
 31
0.0
  0
LINE
  5
F10234
330
261
100
AcDbEntity
  8
Geo
100
AcDbLine
 10
-18.7
 20
-1.770918584783306
 30
0.0
 11
-18.60000000000001
 21
-1.843763365663905
 31
0.0
  0
LINE
  5
F10236
330
261
100
AcDbEntity
  8
Geo
100
AcDbLine
 10
-18.60000000000001
 20
-1.843763365663905
 30
0.0
 11
-18.50000000000001
 21
-1.916157977108607
 31
0.0
  0
LINE
  5
F10238
330
261
100
AcDbEntity
  8
Geo
100
AcDbLine
 10
-18.50000000000001
 20
-1.916157977108607
 30
0.0
 11
-18.4
 21
-1.988084743399204
 31
0.0
  0
LINE
  5
F1023A
330
261
100
AcDbEntity
  8
Geo
100
AcDbLine
 10
-18.4
 20
-1.988084743399204
 30
0.0
 11
-18.30000000000001
 21
-2.059526103045806
 31
0.0
  0
LINE
  5
F1023C
330
261
100
AcDbEntity
  8
Geo
100
AcDbLine
 10
-18.30000000000001
 20
-2.059526103045806
 30
0.0
 11
-18.2
 21
-2.130464613074304
 31
0.0
  0
LINE
  5
F1023E
330
261
100
AcDbEntity
  8
Geo
100
AcDbLine
 10
-18.2
 20
-2.130464613074304
 30
0.0
 11
-18.10000000000001
 21
-2.200882953285505
 31
0.0
  0
LINE
  5
F10240
330
261
100
AcDbEntity
  8
Geo
100
AcDbLine
 10
-18.10000000000001
 20
-2.200882953285505
 30
0.0
 11
-18.00000000000001
 21
-2.270763930483404
 31
0.0
  0
LINE
  5
F10242
330
261
100
AcDbEntity
  8
Geo
100
AcDbLine
 10
-18.00000000000001
 20
-2.270763930483404
 30
0.0
 11
-17.9
 21
-2.340090482673804
 31
0.0
  0
LINE
  5
F10244
330
261
100
AcDbEntity
  8
Geo
100
AcDbLine
 10
-17.9
 20
-2.340090482673804
 30
0.0
 11
-17.80000000000001
 21
-2.408845683229705
 31
0.0
  0
LINE
  5
F10246
330
261
100
AcDbEntity
  8
Geo
100
AcDbLine
 10
-17.80000000000001
 20
-2.408845683229705
 30
0.0
 11
-17.7
 21
-2.477012745023904
 31
0.0
  0
LINE
  5
F10248
330
261
100
AcDbEntity
  8
Geo
100
AcDbLine
 10
-17.7
 20
-2.477012745023904
 30
0.0
 11
-17.60000000000001
 21
-2.544575024528205
 31
0.0
  0
LINE
  5
F1024A
330
261
100
AcDbEntity
  8
Geo
100
AcDbLine
 10
-17.60000000000001
 20
-2.544575024528205
 30
0.0
 11
-17.50000000000001
 21
-2.611516025876706
 31
0.0
  0
LINE
  5
F1024C
330
261
100
AcDbEntity
  8
Geo
100
AcDbLine
 10
-17.50000000000001
 20
-2.611516025876706
 30
0.0
 11
-17.4
 21
-2.677819404893305
 31
0.0
  0
LINE
  5
F1024E
330
261
100
AcDbEntity
  8
Geo
100
AcDbLine
 10
-17.4
 20
-2.677819404893305
 30
0.0
 11
-17.30000000000001
 21
-2.743468973082904
 31
0.0
  0
LINE
  5
F10250
330
261
100
AcDbEntity
  8
Geo
100
AcDbLine
 10
-17.30000000000001
 20
-2.743468973082904
 30
0.0
 11
-17.2
 21
-2.808448701582904
 31
0.0
  0
LINE
  5
F10252
330
261
100
AcDbEntity
  8
Geo
100
AcDbLine
 10
-17.2
 20
-2.808448701582904
 30
0.0
 11
-17.10000000000001
 21
-2.872742725077905
 31
0.0
  0
LINE
  5
F10254
330
261
100
AcDbEntity
  8
Geo
100
AcDbLine
 10
-17.10000000000001
 20
-2.872742725077905
 30
0.0
 11
-17.00000000000001
 21
-2.936335345672503
 31
0.0
  0
LINE
  5
F10256
330
261
100
AcDbEntity
  8
Geo
100
AcDbLine
 10
-17.00000000000001
 20
-2.936335345672503
 30
0.0
 11
-16.9
 21
-2.999211036724474
 31
0.0
  0
LINE
  5
F10258
330
261
100
AcDbEntity
  8
Geo
100
AcDbLine
 10
-16.9
 20
-2.999211036724474
 30
0.0
 11
-16.80000000000001
 21
-3.061354446635625
 31
0.0
  0
LINE
  5
F1025A
330
261
100
AcDbEntity
  8
Geo
100
AcDbLine
 10
-16.80000000000001
 20
-3.061354446635625
 30
0.0
 11
-16.7
 21
-3.122750402599985
 31
0.0
  0
LINE
  5
F1025C
330
261
100
AcDbEntity
  8
Geo
100
AcDbLine
 10
-16.7
 20
-3.122750402599985
 30
0.0
 11
-16.60000000000001
 21
-3.183383914308384
 31
0.0
  0
LINE
  5
F1025E
330
261
100
AcDbEntity
  8
Geo
100
AcDbLine
 10
-16.60000000000001
 20
-3.183383914308384
 30
0.0
 11
-16.50000000000001
 21
-3.243240177608475
 31
0.0
  0
LINE
  5
F10260
330
261
100
AcDbEntity
  8
Geo
100
AcDbLine
 10
-16.50000000000001
 20
-3.243240177608475
 30
0.0
 11
-16.4
 21
-3.302304578119276
 31
0.0
  0
LINE
  5
F10262
330
261
100
AcDbEntity
  8
Geo
100
AcDbLine
 10
-16.4
 20
-3.302304578119276
 30
0.0
 11
-16.3
 21
-3.360562694799343
 31
0.0
  0
LINE
  5
F10264
330
261
100
AcDbEntity
  8
Geo
100
AcDbLine
 10
-16.3
 20
-3.360562694799343
 30
0.0
 11
-16.2
 21
-3.418000303467865
 31
0.0
  0
LINE
  5
F10266
330
261
100
AcDbEntity
  8
Geo
100
AcDbLine
 10
-16.2
 20
-3.418000303467865
 30
0.0
 11
-16.09999999999999
 21
-3.474603380277535
 31
0.0
  0
LINE
  5
F10268
330
261
100
AcDbEntity
  8
Geo
100
AcDbLine
 10
-16.09999999999999
 20
-3.474603380277535
 30
0.0
 11
-16.0
 21
-3.530358105138606
 31
0.0
  0
LINE
  5
F1026A
330
261
100
AcDbEntity
  8
Geo
100
AcDbLine
 10
-16.0
 20
-3.530358105138606
 30
0.0
 11
-15.89999999999999
 21
-3.585250865093195
 31
0.0
  0
LINE
  5
F1026C
330
261
100
AcDbEntity
  8
Geo
100
AcDbLine
 10
-15.89999999999999
 20
-3.585250865093195
 30
0.0
 11
-15.8
 21
-3.639268257639004
 31
0.0
  0
LINE
  5
F1026E
330
261
100
AcDbEntity
  8
Geo
100
AcDbLine
 10
-15.8
 20
-3.639268257639004
 30
0.0
 11
-15.7
 21
-3.692397094001576
 31
0.0
  0
LINE
  5
F10270
330
261
100
AcDbEntity
  8
Geo
100
AcDbLine
 10
-15.7
 20
-3.692397094001576
 30
0.0
 11
-15.59999999999999
 21
-3.744624402354526
 31
0.0
  0
LINE
  5
F10272
330
261
100
AcDbEntity
  8
Geo
100
AcDbLine
 10
-15.59999999999999
 20
-3.744624402354526
 30
0.0
 11
-15.5
 21
-3.795937430986644
 31
0.0
  0
LINE
  5
F10274
330
261
100
AcDbEntity
  8
Geo
100
AcDbLine
 10
-15.5
 20
-3.795937430986644
 30
0.0
 11
-15.39999999999999
 21
-3.846323651415405
 31
0.0
  0
LINE
  5
F10276
330
261
100
AcDbEntity
  8
Geo
100
AcDbLine
 10
-15.39999999999999
 20
-3.846323651415405
 30
0.0
 11
-15.3
 21
-3.895770761445804
 31
0.0
  0
LINE
  5
F10278
330
261
100
AcDbEntity
  8
Geo
100
AcDbLine
 10
-15.3
 20
-3.895770761445804
 30
0.0
 11
-15.2
 21
-3.944266688174106
 31
0.0
  0
LINE
  5
F1027A
330
261
100
AcDbEntity
  8
Geo
100
AcDbLine
 10
-15.2
 20
-3.944266688174106
 30
0.0
 11
-15.09999999999999
 21
-3.991799590935505
 31
0.0
  0
LINE
  5
F1027C
330
261
100
AcDbEntity
  8
Geo
100
AcDbLine
 10
-15.09999999999999
 20
-3.991799590935505
 30
0.0
 11
-15.0
 21
-4.038357864195134
 31
0.0
  0
LINE
  5
F1027E
330
261
100
AcDbEntity
  8
Geo
100
AcDbLine
 10
-15.0
 20
-4.038357864195134
 30
0.0
 11
-14.89999999999999
 21
-4.083930140381655
 31
0.0
  0
LINE
  5
F10280
330
261
100
AcDbEntity
  8
Geo
100
AcDbLine
 10
-14.89999999999999
 20
-4.083930140381655
 30
0.0
 11
-14.79999999999999
 21
-4.128505292662705
 31
0.0
  0
LINE
  5
F10282
330
261
100
AcDbEntity
  8
Geo
100
AcDbLine
 10
-14.79999999999999
 20
-4.128505292662705
 30
0.0
 11
-14.7
 21
-4.172072437661634
 31
0.0
  0
LINE
  5
F10284
330
261
100
AcDbEntity
  8
Geo
100
AcDbLine
 10
-14.7
 20
-4.172072437661634
 30
0.0
 11
-14.59999999999999
 21
-4.214620938114755
 31
0.0
  0
LINE
  5
F10286
330
261
100
AcDbEntity
  8
Geo
100
AcDbLine
 10
-14.59999999999999
 20
-4.214620938114755
 30
0.0
 11
-14.5
 21
-4.256140405468535
 31
0.0
  0
LINE
  5
F10288
330
261
100
AcDbEntity
  8
Geo
100
AcDbLine
 10
-14.5
 20
-4.256140405468535
 30
0.0
 11
-14.39999999999999
 21
-4.296620702415996
 31
0.0
  0
LINE
  5
F1028A
330
261
100
AcDbEntity
  8
Geo
100
AcDbLine
 10
-14.39999999999999
 20
-4.296620702415996
 30
0.0
 11
-14.29999999999999
 21
-4.336051945371874
 31
0.0
  0
LINE
  5
F1028C
330
261
100
AcDbEntity
  8
Geo
100
AcDbLine
 10
-14.29999999999999
 20
-4.336051945371874
 30
0.0
 11
-14.2
 21
-4.374424506885747
 31
0.0
  0
LINE
  5
F1028E
330
261
100
AcDbEntity
  8
Geo
100
AcDbLine
 10
-14.2
 20
-4.374424506885747
 30
0.0
 11
-14.09999999999999
 21
-4.411729017992644
 31
0.0
  0
LINE
  5
F10290
330
261
100
AcDbEntity
  8
Geo
100
AcDbLine
 10
-14.09999999999999
 20
-4.411729017992644
 30
0.0
 11
-14.0
 21
-4.447956370500564
 31
0.0
  0
LINE
  5
F10292
330
261
100
AcDbEntity
  8
Geo
100
AcDbLine
 10
-14.0
 20
-4.447956370500564
 30
0.0
 11
-13.89999999999999
 21
-4.483097719214345
 31
0.0
  0
LINE
  5
F10294
330
261
100
AcDbEntity
  8
Geo
100
AcDbLine
 10
-13.89999999999999
 20
-4.483097719214345
 30
0.0
 11
-13.8
 21
-4.517144484095215
 31
0.0
  0
LINE
  5
F10296
330
261
100
AcDbEntity
  8
Geo
100
AcDbLine
 10
-13.8
 20
-4.517144484095215
 30
0.0
 11
-13.7
 21
-4.550088352355734
 31
0.0
  0
LINE
  5
F10298
330
261
100
AcDbEntity
  8
Geo
100
AcDbLine
 10
-13.7
 20
-4.550088352355734
 30
0.0
 11
-13.59999999999999
 21
-4.581921280489424
 31
0.0
  0
LINE
  5
F1029A
330
261
100
AcDbEntity
  8
Geo
100
AcDbLine
 10
-13.59999999999999
 20
-4.581921280489424
 30
0.0
 11
-13.5
 21
-4.612635496234625
 31
0.0
  0
LINE
  5
F1029C
330
261
100
AcDbEntity
  8
Geo
100
AcDbLine
 10
-13.5
 20
-4.612635496234625
 30
0.0
 11
-13.39999999999999
 21
-4.642223500472185
 31
0.0
  0
LINE
  5
F1029E
330
261
100
AcDbEntity
  8
Geo
100
AcDbLine
 10
-13.39999999999999
 20
-4.642223500472185
 30
0.0
 11
-13.3
 21
-4.670678069056405
 31
0.0
  0
LINE
  5
F102A0
330
261
100
AcDbEntity
  8
Geo
100
AcDbLine
 10
-13.3
 20
-4.670678069056405
 30
0.0
 11
-13.2
 21
-4.697992254578885
 31
0.0
  0
LINE
  5
F102A2
330
261
100
AcDbEntity
  8
Geo
100
AcDbLine
 10
-13.2
 20
-4.697992254578885
 30
0.0
 11
-13.09999999999999
 21
-4.724159388064794
 31
0.0
  0
LINE
  5
F102A4
330
261
100
AcDbEntity
  8
Geo
100
AcDbLine
 10
-13.09999999999999
 20
-4.724159388064794
 30
0.0
 11
-13.0
 21
-4.749173080601135
 31
0.0
  0
LINE
  5
F102A6
330
261
100
AcDbEntity
  8
Geo
100
AcDbLine
 10
-13.0
 20
-4.749173080601135
 30
0.0
 11
-12.89999999999999
 21
-4.773027224896665
 31
0.0
  0
LINE
  5
F102A8
330
261
100
AcDbEntity
  8
Geo
100
AcDbLine
 10
-12.89999999999999
 20
-4.773027224896665
 30
0.0
 11
-12.8
 21
-4.795715996773036
 31
0.0
  0
LINE
  5
F102AA
330
261
100
AcDbEntity
  8
Geo
100
AcDbLine
 10
-12.8
 20
-4.795715996773036
 30
0.0
 11
-12.7
 21
-4.817233856586785
 31
0.0
  0
LINE
  5
F102AC
330
261
100
AcDbEntity
  8
Geo
100
AcDbLine
 10
-12.7
 20
-4.817233856586785
 30
0.0
 11
-12.59999999999999
 21
-4.837575550581945
 31
0.0
  0
LINE
  5
F102AE
330
261
100
AcDbEntity
  8
Geo
100
AcDbLine
 10
-12.59999999999999
 20
-4.837575550581945
 30
0.0
 11
-12.5
 21
-4.856736112172734
 31
0.0
  0
LINE
  5
F102B0
330
261
100
AcDbEntity
  8
Geo
100
AcDbLine
 10
-12.5
 20
-4.856736112172734
 30
0.0
 11
-12.39999999999999
 21
-4.874710863156206
 31
0.0
  0
LINE
  5
F102B2
330
261
100
AcDbEntity
  8
Geo
100
AcDbLine
 10
-12.39999999999999
 20
-4.874710863156206
 30
0.0
 11
-12.29999999999999
 21
-4.891495414854475
 31
0.0
  0
LINE
  5
F102B4
330
261
100
AcDbEntity
  8
Geo
100
AcDbLine
 10
-12.29999999999999
 20
-4.891495414854475
 30
0.0
 11
-12.2
 21
-4.907085669186235
 31
0.0
  0
LINE
  5
F102B6
330
261
100
AcDbEntity
  8
Geo
100
AcDbLine
 10
-12.2
 20
-4.907085669186235
 30
0.0
 11
-12.09999999999999
 21
-4.921477819667355
 31
0.0
  0
LINE
  5
F102B8
330
261
100
AcDbEntity
  8
Geo
100
AcDbLine
 10
-12.09999999999999
 20
-4.921477819667355
 30
0.0
 11
-12.0
 21
-4.934668352340255
 31
0.0
  0
LINE
  5
F102BA
330
261
100
AcDbEntity
  8
Geo
100
AcDbLine
 10
-12.0
 20
-4.934668352340255
 30
0.0
 11
-12.0
 21
-4.934668352340255
 31
0.0
  0
LINE
  5
F102BC
330
261
100
AcDbEntity
  8
Geo
100
AcDbLine
 10
-12.0
 20
-4.934668352340255
 30
0.0
 11
-12.0
 21
-4.934668352340255
 31
0.0
  0
LINE
  5
F102BE
330
261
100
AcDbEntity
  8
Geo
100
AcDbLine
 10
-12.0
 20
-4.934668352340255
 30
0.0
 11
-11.89999999999999
 21
-4.933052893205914
 31
0.0
  0
LINE
  5
F102C0
330
261
100
AcDbEntity
  8
Geo
100
AcDbLine
 10
-11.89999999999999
 20
-4.933052893205914
 30
0.0
 11
-11.79999999999999
 21
-4.931369220088285
 31
0.0
  0
LINE
  5
F102C2
330
261
100
AcDbEntity
  8
Geo
100
AcDbLine
 10
-11.79999999999999
 20
-4.931369220088285
 30
0.0
 11
-11.7
 21
-4.929615551768964
 31
0.0
  0
LINE
  5
F102C4
330
261
100
AcDbEntity
  8
Geo
100
AcDbLine
 10
-11.7
 20
-4.929615551768964
 30
0.0
 11
-11.59999999999999
 21
-4.927790057062566
 31
0.0
  0
LINE
  5
F102C6
330
261
100
AcDbEntity
  8
Geo
100
AcDbLine
 10
-11.59999999999999
 20
-4.927790057062566
 30
0.0
 11
-11.5
 21
-4.925890854935206
 31
0.0
  0
LINE
  5
F102C8
330
261
100
AcDbEntity
  8
Geo
100
AcDbLine
 10
-11.5
 20
-4.925890854935206
 30
0.0
 11
-11.39999999999999
 21
-4.923916014629215
 31
0.0
  0
LINE
  5
F102CA
330
261
100
AcDbEntity
  8
Geo
100
AcDbLine
 10
-11.39999999999999
 20
-4.923916014629215
 30
0.0
 11
-11.29999999999999
 21
-4.921863555794045
 31
0.0
  0
LINE
  5
F102CC
330
261
100
AcDbEntity
  8
Geo
100
AcDbLine
 10
-11.29999999999999
 20
-4.921863555794045
 30
0.0
 11
-11.2
 21
-4.919731448623815
 31
0.0
  0
LINE
  5
F102CE
330
261
100
AcDbEntity
  8
Geo
100
AcDbLine
 10
-11.2
 20
-4.919731448623815
 30
0.0
 11
-11.09999999999999
 21
-4.917517614001495
 31
0.0
  0
LINE
  5
F102D0
330
261
100
AcDbEntity
  8
Geo
100
AcDbLine
 10
-11.09999999999999
 20
-4.917517614001495
 30
0.0
 11
-11.0
 21
-4.915219923650214
 31
0.0
  0
LINE
  5
F102D2
330
261
100
AcDbEntity
  8
Geo
100
AcDbLine
 10
-11.0
 20
-4.915219923650214
 30
0.0
 11
-10.89999999999999
 21
-4.912836200291755
 31
0.0
  0
LINE
  5
F102D4
330
261
100
AcDbEntity
  8
Geo
100
AcDbLine
 10
-10.89999999999999
 20
-4.912836200291755
 30
0.0
 11
-10.8
 21
-4.910364217812634
 31
0.0
  0
LINE
  5
F102D6
330
261
100
AcDbEntity
  8
Geo
100
AcDbLine
 10
-10.8
 20
-4.910364217812634
 30
0.0
 11
-10.7
 21
-4.907801701437856
 31
0.0
  0
LINE
  5
F102D8
330
261
100
AcDbEntity
  8
Geo
100
AcDbLine
 10
-10.7
 20
-4.907801701437856
 30
0.0
 11
-10.59999999999999
 21
-4.905146327912845
 31
0.0
  0
LINE
  5
F102DA
330
261
100
AcDbEntity
  8
Geo
100
AcDbLine
 10
-10.59999999999999
 20
-4.905146327912845
 30
0.0
 11
-10.5
 21
-4.902395725693546
 31
0.0
  0
LINE
  5
F102DC
330
261
100
AcDbEntity
  8
Geo
100
AcDbLine
 10
-10.5
 20
-4.902395725693546
 30
0.0
 11
-10.39999999999999
 21
-4.899547475145224
 31
0.0
  0
LINE
  5
F102DE
330
261
100
AcDbEntity
  8
Geo
100
AcDbLine
 10
-10.39999999999999
 20
-4.899547475145224
 30
0.0
 11
-10.3
 21
-4.896599108750084
 31
0.0
  0
LINE
  5
F102E0
330
261
100
AcDbEntity
  8
Geo
100
AcDbLine
 10
-10.3
 20
-4.896599108750084
 30
0.0
 11
-10.2
 21
-4.893548111324074
 31
0.0
  0
LINE
  5
F102E2
330
261
100
AcDbEntity
  8
Geo
100
AcDbLine
 10
-10.2
 20
-4.893548111324074
 30
0.0
 11
-10.09999999999999
 21
-4.890391920243073
 31
0.0
  0
LINE
  5
F102E4
330
261
100
AcDbEntity
  8
Geo
100
AcDbLine
 10
-10.09999999999999
 20
-4.890391920243073
 30
0.0
 11
-10.0
 21
-4.887127925678955
 31
0.0
  0
LINE
  5
F102E6
330
261
100
AcDbEntity
  8
Geo
100
AcDbLine
 10
-10.0
 20
-4.887127925678955
 30
0.0
 11
-9.899999999999991
 21
-4.883753470845585
 31
0.0
  0
LINE
  5
F102E8
330
261
100
AcDbEntity
  8
Geo
100
AcDbLine
 10
-9.899999999999991
 20
-4.883753470845585
 30
0.0
 11
-9.799999999999997
 21
-4.880265852255226
 31
0.0
  0
LINE
  5
F102EA
330
261
100
AcDbEntity
  8
Geo
100
AcDbLine
 10
-9.799999999999997
 20
-4.880265852255226
 30
0.0
 11
-9.700000000000002
 21
-4.876662319985644
 31
0.0
  0
LINE
  5
F102EC
330
261
100
AcDbEntity
  8
Geo
100
AcDbLine
 10
-9.700000000000002
 20
-4.876662319985644
 30
0.0
 11
-9.599999999999994
 21
-4.872940077958125
 31
0.0
  0
LINE
  5
F102EE
330
261
100
AcDbEntity
  8
Geo
100
AcDbLine
 10
-9.599999999999994
 20
-4.872940077958125
 30
0.0
 11
-9.5
 21
-4.869096284226914
 31
0.0
  0
LINE
  5
F102F0
330
261
100
AcDbEntity
  8
Geo
100
AcDbLine
 10
-9.5
 20
-4.869096284226914
 30
0.0
 11
-9.399999999999991
 21
-4.865128051280205
 31
0.0
  0
LINE
  5
F102F2
330
261
100
AcDbEntity
  8
Geo
100
AcDbLine
 10
-9.399999999999991
 20
-4.865128051280205
 30
0.0
 11
-9.299999999999997
 21
-4.861032446353155
 31
0.0
  0
LINE
  5
F102F4
330
261
100
AcDbEntity
  8
Geo
100
AcDbLine
 10
-9.299999999999997
 20
-4.861032446353155
 30
0.0
 11
-9.200000000000002
 21
-4.856806491753205
 31
0.0
  0
LINE
  5
F102F6
330
261
100
AcDbEntity
  8
Geo
100
AcDbLine
 10
-9.200000000000002
 20
-4.856806491753205
 30
0.0
 11
-9.099999999999994
 21
-4.852447165197995
 31
0.0
  0
LINE
  5
F102F8
330
261
100
AcDbEntity
  8
Geo
100
AcDbLine
 10
-9.099999999999994
 20
-4.852447165197995
 30
0.0
 11
-9.0
 21
-4.847951400166424
 31
0.0
  0
LINE
  5
F102FA
330
261
100
AcDbEntity
  8
Geo
100
AcDbLine
 10
-9.0
 20
-4.847951400166424
 30
0.0
 11
-8.899999999999991
 21
-4.843316086262875
 31
0.0
  0
LINE
  5
F102FC
330
261
100
AcDbEntity
  8
Geo
100
AcDbLine
 10
-8.899999999999991
 20
-4.843316086262875
 30
0.0
 11
-8.799999999999997
 21
-4.838538069595264
 31
0.0
  0
LINE
  5
F102FE
330
261
100
AcDbEntity
  8
Geo
100
AcDbLine
 10
-8.799999999999997
 20
-4.838538069595264
 30
0.0
 11
-8.700000000000002
 21
-4.833614153167156
 31
0.0
  0
LINE
  5
F10300
330
261
100
AcDbEntity
  8
Geo
100
AcDbLine
 10
-8.700000000000002
 20
-4.833614153167156
 30
0.0
 11
-8.599999999999994
 21
-4.828541097284215
 31
0.0
  0
LINE
  5
F10302
330
261
100
AcDbEntity
  8
Geo
100
AcDbLine
 10
-8.599999999999994
 20
-4.828541097284215
 30
0.0
 11
-8.5
 21
-4.823315619975524
 31
0.0
  0
LINE
  5
F10304
330
261
100
AcDbEntity
  8
Geo
100
AcDbLine
 10
-8.5
 20
-4.823315619975524
 30
0.0
 11
-8.399999999999991
 21
-4.817934397430075
 31
0.0
  0
LINE
  5
F10306
330
261
100
AcDbEntity
  8
Geo
100
AcDbLine
 10
-8.399999999999991
 20
-4.817934397430075
 30
0.0
 11
-8.299999999999997
 21
-4.812394064448694
 31
0.0
  0
LINE
  5
F10308
330
261
100
AcDbEntity
  8
Geo
100
AcDbLine
 10
-8.299999999999997
 20
-4.812394064448694
 30
0.0
 11
-8.200000000000002
 21
-4.806691214912016
 31
0.0
  0
LINE
  5
F1030A
330
261
100
AcDbEntity
  8
Geo
100
AcDbLine
 10
-8.200000000000002
 20
-4.806691214912016
 30
0.0
 11
-8.099999999999994
 21
-4.800822402264655
 31
0.0
  0
LINE
  5
F1030C
330
261
100
AcDbEntity
  8
Geo
100
AcDbLine
 10
-8.099999999999994
 20
-4.800822402264655
 30
0.0
 11
-8.0
 21
-4.794784140016085
 31
0.0
  0
LINE
  5
F1030E
330
261
100
AcDbEntity
  8
Geo
100
AcDbLine
 10
-26.00000000000001
 20
-4.380874920887075
 30
0.0
 11
-25.90000000000001
 21
-4.504731460121245
 31
0.0
  0
LINE
  5
F10310
330
261
100
AcDbEntity
  8
Geo
100
AcDbLine
 10
-25.90000000000001
 20
-4.504731460121245
 30
0.0
 11
-25.80000000000001
 21
-4.538082522842886
 31
0.0
  0
LINE
  5
F10312
330
261
100
AcDbEntity
  8
Geo
100
AcDbLine
 10
-25.80000000000001
 20
-4.538082522842886
 30
0.0
 11
-25.7
 21
-4.570325576756115
 31
0.0
  0
LINE
  5
F10314
330
261
100
AcDbEntity
  8
Geo
100
AcDbLine
 10
-25.7
 20
-4.570325576756115
 30
0.0
 11
-25.60000000000001
 21
-4.601452749463804
 31
0.0
  0
LINE
  5
F10316
330
261
100
AcDbEntity
  8
Geo
100
AcDbLine
 10
-25.60000000000001
 20
-4.601452749463804
 30
0.0
 11
-25.50000000000002
 21
-4.631456441020084
 31
0.0
  0
LINE
  5
F10318
330
261
100
AcDbEntity
  8
Geo
100
AcDbLine
 10
-25.50000000000002
 20
-4.631456441020084
 30
0.0
 11
-25.40000000000001
 21
-4.660329325785914
 31
0.0
  0
LINE
  5
F1031A
330
261
100
AcDbEntity
  8
Geo
100
AcDbLine
 10
-25.40000000000001
 20
-4.660329325785914
 30
0.0
 11
-25.30000000000001
 21
-4.688064354217685
 31
0.0
  0
LINE
  5
F1031C
330
261
100
AcDbEntity
  8
Geo
100
AcDbLine
 10
-25.30000000000001
 20
-4.688064354217685
 30
0.0
 11
-25.2
 21
-4.714654754588426
 31
0.0
  0
LINE
  5
F1031E
330
261
100
AcDbEntity
  8
Geo
100
AcDbLine
 10
-25.2
 20
-4.714654754588426
 30
0.0
 11
-25.10000000000001
 21
-4.740094034641176
 31
0.0
  0
LINE
  5
F10320
330
261
100
AcDbEntity
  8
Geo
100
AcDbLine
 10
-25.10000000000001
 20
-4.740094034641176
 30
0.0
 11
-25.00000000000002
 21
-4.764375983174126
 31
0.0
  0
LINE
  5
F10322
330
261
100
AcDbEntity
  8
Geo
100
AcDbLine
 10
-25.00000000000002
 20
-4.764375983174126
 30
0.0
 11
-24.90000000000001
 21
-4.787494671557125
 31
0.0
  0
LINE
  5
F10324
330
261
100
AcDbEntity
  8
Geo
100
AcDbLine
 10
-24.90000000000001
 20
-4.787494671557125
 30
0.0
 11
-24.80000000000001
 21
-4.809444455179226
 31
0.0
  0
LINE
  5
F10326
330
261
100
AcDbEntity
  8
Geo
100
AcDbLine
 10
-24.80000000000001
 20
-4.809444455179226
 30
0.0
 11
-24.70000000000001
 21
-4.830219974826805
 31
0.0
  0
LINE
  5
F10328
330
261
100
AcDbEntity
  8
Geo
100
AcDbLine
 10
-24.70000000000001
 20
-4.830219974826805
 30
0.0
 11
-24.60000000000001
 21
-4.849816157992114
 31
0.0
  0
LINE
  5
F1032A
330
261
100
AcDbEntity
  8
Geo
100
AcDbLine
 10
-24.60000000000001
 20
-4.849816157992114
 30
0.0
 11
-24.50000000000001
 21
-4.868228220111765
 31
0.0
  0
LINE
  5
F1032C
330
261
100
AcDbEntity
  8
Geo
100
AcDbLine
 10
-24.50000000000001
 20
-4.868228220111765
 30
0.0
 11
-24.40000000000001
 21
-4.885451665734876
 31
0.0
  0
LINE
  5
F1032E
330
261
100
AcDbEntity
  8
Geo
100
AcDbLine
 10
-24.40000000000001
 20
-4.885451665734876
 30
0.0
 11
-24.30000000000001
 21
-4.901482289620716
 31
0.0
  0
LINE
  5
F10330
330
261
100
AcDbEntity
  8
Geo
100
AcDbLine
 10
-24.30000000000001
 20
-4.901482289620716
 30
0.0
 11
-24.2
 21
-4.916316177765445
 31
0.0
  0
LINE
  5
F10332
330
261
100
AcDbEntity
  8
Geo
100
AcDbLine
 10
-24.2
 20
-4.916316177765445
 30
0.0
 11
-24.10000000000001
 21
-4.929949708357725
 31
0.0
  0
LINE
  5
F10334
330
261
100
AcDbEntity
  8
Geo
100
AcDbLine
 10
-24.10000000000001
 20
-4.929949708357725
 30
0.0
 11
-24.00000000000002
 21
-4.942379552663016
 31
0.0
  0
LINE
  5
F10336
330
261
100
AcDbEntity
  8
Geo
100
AcDbLine
 10
-24.00000000000002
 20
-4.942379552663016
 30
0.0
 11
-23.90000000000001
 21
-4.953602675836346
 31
0.0
  0
LINE
  5
F10338
330
261
100
AcDbEntity
  8
Geo
100
AcDbLine
 10
-23.90000000000001
 20
-4.953602675836346
 30
0.0
 11
-23.80000000000001
 21
-4.963616337663255
 31
0.0
  0
LINE
  5
F1033A
330
261
100
AcDbEntity
  8
Geo
100
AcDbLine
 10
-23.80000000000001
 20
-4.963616337663255
 30
0.0
 11
-23.7
 21
-4.972418093228855
 31
0.0
  0
LINE
  5
F1033C
330
261
100
AcDbEntity
  8
Geo
100
AcDbLine
 10
-23.7
 20
-4.972418093228855
 30
0.0
 11
-23.60000000000001
 21
-4.980005793514786
 31
0.0
  0
LINE
  5
F1033E
330
261
100
AcDbEntity
  8
Geo
100
AcDbLine
 10
-23.60000000000001
 20
-4.980005793514786
 30
0.0
 11
-23.50000000000001
 21
-4.986377585923895
 31
0.0
  0
LINE
  5
F10340
330
261
100
AcDbEntity
  8
Geo
100
AcDbLine
 10
-23.50000000000001
 20
-4.986377585923895
 30
0.0
 11
-23.40000000000001
 21
-4.991531914732565
 31
0.0
  0
LINE
  5
F10342
330
261
100
AcDbEntity
  8
Geo
100
AcDbLine
 10
-23.40000000000001
 20
-4.991531914732565
 30
0.0
 11
-23.30000000000001
 21
-4.995467521470585
 31
0.0
  0
LINE
  5
F10344
330
261
100
AcDbEntity
  8
Geo
100
AcDbLine
 10
-23.30000000000001
 20
-4.995467521470585
 30
0.0
 11
-23.2
 21
-4.998183445228375
 31
0.0
  0
LINE
  5
F10346
330
261
100
AcDbEntity
  8
Geo
100
AcDbLine
 10
-23.2
 20
-4.998183445228375
 30
0.0
 11
-23.10000000000001
 21
-4.999679022891635
 31
0.0
  0
LINE
  5
F10348
330
261
100
AcDbEntity
  8
Geo
100
AcDbLine
 10
-26.00000000000001
 20
2.165305145416693
 30
0.0
 11
-25.90000000000001
 21
2.146467290127995
 31
0.0
  0
LINE
  5
F1034A
330
261
100
AcDbEntity
  8
Geo
100
AcDbLine
 10
-25.90000000000001
 20
2.146467290127995
 30
0.0
 11
-25.80000000000001
 21
2.083018583700793
 31
0.0
  0
LINE
  5
F1034C
330
261
100
AcDbEntity
  8
Geo
100
AcDbLine
 10
-25.80000000000001
 20
2.083018583700793
 30
0.0
 11
-25.7
 21
2.019161370180295
 31
0.0
  0
LINE
  5
F1034E
330
261
100
AcDbEntity
  8
Geo
100
AcDbLine
 10
-25.7
 20
2.019161370180295
 30
0.0
 11
-25.60000000000001
 21
1.954908172798292
 31
0.0
  0
LINE
  5
F10350
330
261
100
AcDbEntity
  8
Geo
100
AcDbLine
 10
-25.60000000000001
 20
1.954908172798292
 30
0.0
 11
-25.50000000000002
 21
1.890271592444294
 31
0.0
  0
LINE
  5
F10352
330
261
100
AcDbEntity
  8
Geo
100
AcDbLine
 10
-25.50000000000002
 20
1.890271592444294
 30
0.0
 11
-25.40000000000001
 21
1.825264305194194
 31
0.0
  0
LINE
  5
F10354
330
261
100
AcDbEntity
  8
Geo
100
AcDbLine
 10
-25.40000000000001
 20
1.825264305194194
 30
0.0
 11
-25.30000000000001
 21
1.759899059824094
 31
0.0
  0
LINE
  5
F10356
330
261
100
AcDbEntity
  8
Geo
100
AcDbLine
 10
-25.30000000000001
 20
1.759899059824094
 30
0.0
 11
-25.2
 21
1.694188675310792
 31
0.0
  0
LINE
  5
F10358
330
261
100
AcDbEntity
  8
Geo
100
AcDbLine
 10
-25.2
 20
1.694188675310792
 30
0.0
 11
-25.10000000000001
 21
1.628146038316995
 31
0.0
  0
LINE
  5
F1035A
330
261
100
AcDbEntity
  8
Geo
100
AcDbLine
 10
-25.10000000000001
 20
1.628146038316995
 30
0.0
 11
-25.00000000000002
 21
1.561784100664695
 31
0.0
  0
LINE
  5
F1035C
330
261
100
AcDbEntity
  8
Geo
100
AcDbLine
 10
-25.00000000000002
 20
1.561784100664695
 30
0.0
 11
-24.90000000000001
 21
1.495115876794693
 31
0.0
  0
LINE
  5
F1035E
330
261
100
AcDbEntity
  8
Geo
100
AcDbLine
 10
-24.90000000000001
 20
1.495115876794693
 30
0.0
 11
-24.80000000000001
 21
1.428154441214594
 31
0.0
  0
LINE
  5
F10360
330
261
100
AcDbEntity
  8
Geo
100
AcDbLine
 10
-24.80000000000001
 20
1.428154441214594
 30
0.0
 11
-24.70000000000001
 21
1.360912925934695
 31
0.0
  0
LINE
  5
F10362
330
261
100
AcDbEntity
  8
Geo
100
AcDbLine
 10
-24.70000000000001
 20
1.360912925934695
 30
0.0
 11
-24.60000000000001
 21
1.293404517892493
 31
0.0
  0
LINE
  5
F10364
330
261
100
AcDbEntity
  8
Geo
100
AcDbLine
 10
-24.60000000000001
 20
1.293404517892493
 30
0.0
 11
-24.50000000000001
 21
1.225642456366793
 31
0.0
  0
LINE
  5
F10366
330
261
100
AcDbEntity
  8
Geo
100
AcDbLine
 10
-24.50000000000001
 20
1.225642456366793
 30
0.0
 11
-24.40000000000001
 21
1.157640030380996
 31
0.0
  0
LINE
  5
F10368
330
261
100
AcDbEntity
  8
Geo
100
AcDbLine
 10
-24.40000000000001
 20
1.157640030380996
 30
0.0
 11
-24.30000000000001
 21
1.089410576097096
 31
0.0
  0
LINE
  5
F1036A
330
261
100
AcDbEntity
  8
Geo
100
AcDbLine
 10
-24.30000000000001
 20
1.089410576097096
 30
0.0
 11
-24.2
 21
1.020967474200293
 31
0.0
  0
LINE
  5
F1036C
330
261
100
AcDbEntity
  8
Geo
100
AcDbLine
 10
-24.2
 20
1.020967474200293
 30
0.0
 11
-24.10000000000001
 21
0.952324147275096
 31
0.0
  0
LINE
  5
F1036E
330
261
100
AcDbEntity
  8
Geo
100
AcDbLine
 10
-24.10000000000001
 20
0.952324147275096
 30
0.0
 11
-24.00000000000002
 21
0.8834940571724949
 31
0.0
  0
LINE
  5
F10370
330
261
100
AcDbEntity
  8
Geo
100
AcDbLine
 10
-24.00000000000002
 20
0.8834940571724949
 30
0.0
 11
-23.90000000000001
 21
0.8144907023701932
 31
0.0
  0
LINE
  5
F10372
330
261
100
AcDbEntity
  8
Geo
100
AcDbLine
 10
-23.90000000000001
 20
0.8144907023701932
 30
0.0
 11
-23.80000000000001
 21
0.7453276153254951
 31
0.0
  0
LINE
  5
F10374
330
261
100
AcDbEntity
  8
Geo
100
AcDbLine
 10
-23.80000000000001
 20
0.7453276153254951
 30
0.0
 11
-23.7
 21
0.6760183598211942
 31
0.0
  0
LINE
  5
F10376
330
261
100
AcDbEntity
  8
Geo
100
AcDbLine
 10
-23.7
 20
0.6760183598211942
 30
0.0
 11
-23.60000000000001
 21
0.6065765283056948
 31
0.0
  0
LINE
  5
F10378
330
261
100
AcDbEntity
  8
Geo
100
AcDbLine
 10
-23.60000000000001
 20
0.6065765283056948
 30
0.0
 11
-23.50000000000001
 21
0.5370157392270958
 31
0.0
  0
LINE
  5
F1037A
330
261
100
AcDbEntity
  8
Geo
100
AcDbLine
 10
-23.50000000000001
 20
0.5370157392270958
 30
0.0
 11
-23.40000000000001
 21
0.4673496343627939
 31
0.0
  0
LINE
  5
F1037C
330
261
100
AcDbEntity
  8
Geo
100
AcDbLine
 10
-23.40000000000001
 20
0.4673496343627939
 30
0.0
 11
-23.30000000000001
 21
0.3975918761440944
 31
0.0
  0
LINE
  5
F1037E
330
261
100
AcDbEntity
  8
Geo
100
AcDbLine
 10
-23.30000000000001
 20
0.3975918761440944
 30
0.0
 11
-23.2
 21
0.3277561449763944
 31
0.0
  0
LINE
  5
F10380
330
261
100
AcDbEntity
  8
Geo
100
AcDbLine
 10
-23.2
 20
0.3277561449763944
 30
0.0
 11
-23.10000000000001
 21
0.2578561365568923
 31
0.0
  0
LINE
  5
F10382
330
261
100
AcDbEntity
  8
Geo
100
AcDbLine
 10
-23.10000000000001
 20
0.2578561365568923
 30
0.0
 11
-23.00000000000002
 21
0.1879055591881951
 31
0.0
  0
LINE
  5
F10384
330
261
100
AcDbEntity
  8
Geo
100
AcDbLine
 10
-23.00000000000002
 20
0.1879055591881951
 30
0.0
 11
-22.9
 21
0.1179181310902937
 31
0.0
  0
LINE
  5
F10386
330
261
100
AcDbEntity
  8
Geo
100
AcDbLine
 10
-22.9
 20
0.1179181310902937
 30
0.0
 11
-22.80000000000001
 21
0.047907577709994
 31
0.0
  0
LINE
  5
F10388
330
261
100
AcDbEntity
  8
Geo
100
AcDbLine
 10
-22.80000000000001
 20
0.047907577709994
 30
0.0
 11
-22.7
 21
-0.0221123709707065
 31
0.0
  0
LINE
  5
F1038A
330
261
100
AcDbEntity
  8
Geo
100
AcDbLine
 10
-22.7
 20
-0.0221123709707065
 30
0.0
 11
-22.60000000000001
 21
-0.0921279831273054
 31
0.0
  0
LINE
  5
F1038C
330
261
100
AcDbEntity
  8
Geo
100
AcDbLine
 10
-22.60000000000001
 20
-0.0921279831273054
 30
0.0
 11
-22.50000000000001
 21
-0.1621255277856051
 31
0.0
  0
LINE
  5
F1038E
330
261
100
AcDbEntity
  8
Geo
100
AcDbLine
 10
-22.50000000000001
 20
-0.1621255277856051
 30
0.0
 11
-22.40000000000001
 21
-0.2320912775148045
 31
0.0
  0
LINE
  5
F10390
330
261
100
AcDbEntity
  8
Geo
100
AcDbLine
 10
-22.40000000000001
 20
-0.2320912775148045
 30
0.0
 11
-22.30000000000001
 21
-0.3020115111195043
 31
0.0
  0
LINE
  5
F10392
330
261
100
AcDbEntity
  8
Geo
100
AcDbLine
 10
-22.30000000000001
 20
-0.3020115111195043
 30
0.0
 11
-22.2
 21
-0.3718725163307059
 31
0.0
  0
LINE
  5
F10394
330
261
100
AcDbEntity
  8
Geo
100
AcDbLine
 10
-22.2
 20
-0.3718725163307059
 30
0.0
 11
-22.10000000000001
 21
-0.4416605924946069
 31
0.0
  0
LINE
  5
F10396
330
261
100
AcDbEntity
  8
Geo
100
AcDbLine
 10
-22.10000000000001
 20
-0.4416605924946069
 30
0.0
 11
-22.00000000000001
 21
-0.5113620532599033
 31
0.0
  0
LINE
  5
F10398
330
261
100
AcDbEntity
  8
Geo
100
AcDbLine
 10
-22.00000000000001
 20
-0.5113620532599033
 30
0.0
 11
-21.90000000000001
 21
-0.5809632292617053
 31
0.0
  0
LINE
  5
F1039A
330
261
100
AcDbEntity
  8
Geo
100
AcDbLine
 10
-21.90000000000001
 20
-0.5809632292617053
 30
0.0
 11
-21.80000000000001
 21
-0.6504504708023049
 31
0.0
  0
LINE
  5
F1039C
330
261
100
AcDbEntity
  8
Geo
100
AcDbLine
 10
-21.80000000000001
 20
-0.6504504708023049
 30
0.0
 11
-21.7
 21
-0.7198101505279056
 31
0.0
  0
LINE
  5
F1039E
330
261
100
AcDbEntity
  8
Geo
100
AcDbLine
 10
-21.7
 20
-0.7198101505279056
 30
0.0
 11
-21.60000000000001
 21
-0.7890286661013058
 31
0.0
  0
LINE
  5
F103A0
330
261
100
AcDbEntity
  8
Geo
100
AcDbLine
 10
-21.60000000000001
 20
-0.7890286661013058
 30
0.0
 11
-21.50000000000002
 21
-0.8580924428695055
 31
0.0
  0
LINE
  5
F103A2
330
261
100
AcDbEntity
  8
Geo
100
AcDbLine
 10
-21.50000000000002
 20
-0.8580924428695055
 30
0.0
 11
-21.40000000000001
 21
-0.9269879365256059
 31
0.0
  0
LINE
  5
F103A4
330
261
100
AcDbEntity
  8
Geo
100
AcDbLine
 10
-21.40000000000001
 20
-0.9269879365256059
 30
0.0
 11
-21.30000000000001
 21
-0.9957016357655046
 31
0.0
  0
LINE
  5
F103A6
330
261
100
AcDbEntity
  8
Geo
100
AcDbLine
 10
-21.30000000000001
 20
-0.9957016357655046
 30
0.0
 11
-21.2
 21
-1.064220064937204
 31
0.0
  0
LINE
  5
F103A8
330
261
100
AcDbEntity
  8
Geo
100
AcDbLine
 10
-21.2
 20
-1.064220064937204
 30
0.0
 11
-21.10000000000001
 21
-1.132529786683504
 31
0.0
  0
LINE
  5
F103AA
330
261
100
AcDbEntity
  8
Geo
100
AcDbLine
 10
-21.10000000000001
 20
-1.132529786683504
 30
0.0
 11
-21.00000000000001
 21
-1.200617404577906
 31
0.0
  0
LINE
  5
F103AC
330
261
100
AcDbEntity
  8
Geo
100
AcDbLine
 10
-21.00000000000001
 20
-1.200617404577906
 30
0.0
 11
-20.90000000000001
 21
-1.268469565750905
 31
0.0
  0
LINE
  5
F103AE
330
261
100
AcDbEntity
  8
Geo
100
AcDbLine
 10
-20.90000000000001
 20
-1.268469565750905
 30
0.0
 11
-20.80000000000001
 21
-1.336072963509504
 31
0.0
  0
LINE
  5
F103B0
330
261
100
AcDbEntity
  8
Geo
100
AcDbLine
 10
-20.80000000000001
 20
-1.336072963509504
 30
0.0
 11
-20.7
 21
-1.403414339946206
 31
0.0
  0
LINE
  5
F103B2
330
261
100
AcDbEntity
  8
Geo
100
AcDbLine
 10
-20.7
 20
-1.403414339946206
 30
0.0
 11
-20.60000000000001
 21
-1.470480488539504
 31
0.0
  0
LINE
  5
F103B4
330
261
100
AcDbEntity
  8
Geo
100
AcDbLine
 10
-20.60000000000001
 20
-1.470480488539504
 30
0.0
 11
-20.50000000000002
 21
-1.537258256743404
 31
0.0
  0
LINE
  5
F103B6
330
261
100
AcDbEntity
  8
Geo
100
AcDbLine
 10
-20.50000000000002
 20
-1.537258256743404
 30
0.0
 11
-20.4
 21
-1.603734548567306
 31
0.0
  0
LINE
  5
F103B8
330
261
100
AcDbEntity
  8
Geo
100
AcDbLine
 10
-20.4
 20
-1.603734548567306
 30
0.0
 11
-20.30000000000001
 21
-1.669896327143904
 31
0.0
  0
LINE
  5
F103BA
330
261
100
AcDbEntity
  8
Geo
100
AcDbLine
 10
-20.30000000000001
 20
-1.669896327143904
 30
0.0
 11
-20.2
 21
-1.735730617286106
 31
0.0
  0
LINE
  5
F103BC
330
261
100
AcDbEntity
  8
Geo
100
AcDbLine
 10
-20.2
 20
-1.735730617286106
 30
0.0
 11
-20.10000000000001
 21
-1.801224508031605
 31
0.0
  0
LINE
  5
F103BE
330
261
100
AcDbEntity
  8
Geo
100
AcDbLine
 10
-20.10000000000001
 20
-1.801224508031605
 30
0.0
 11
-20.00000000000001
 21
-1.866365155174806
 31
0.0
  0
LINE
  5
F103C0
330
261
100
AcDbEntity
  8
Geo
100
AcDbLine
 10
-20.00000000000001
 20
-1.866365155174806
 30
0.0
 11
-19.9
 21
-1.931139783785805
 31
0.0
  0
LINE
  5
F103C2
330
261
100
AcDbEntity
  8
Geo
100
AcDbLine
 10
-19.9
 20
-1.931139783785805
 30
0.0
 11
-19.80000000000001
 21
-1.995535690715605
 31
0.0
  0
LINE
  5
F103C4
330
261
100
AcDbEntity
  8
Geo
100
AcDbLine
 10
-19.80000000000001
 20
-1.995535690715605
 30
0.0
 11
-19.7
 21
-2.059540247087607
 31
0.0
  0
LINE
  5
F103C6
330
261
100
AcDbEntity
  8
Geo
100
AcDbLine
 10
-19.7
 20
-2.059540247087607
 30
0.0
 11
-19.60000000000001
 21
-2.123140900774107
 31
0.0
  0
LINE
  5
F103C8
330
261
100
AcDbEntity
  8
Geo
100
AcDbLine
 10
-19.60000000000001
 20
-2.123140900774107
 30
0.0
 11
-19.50000000000001
 21
-2.186325178858005
 31
0.0
  0
LINE
  5
F103CA
330
261
100
AcDbEntity
  8
Geo
100
AcDbLine
 10
-19.50000000000001
 20
-2.186325178858005
 30
0.0
 11
-19.4
 21
-2.249080690078805
 31
0.0
  0
LINE
  5
F103CC
330
261
100
AcDbEntity
  8
Geo
100
AcDbLine
 10
-19.4
 20
-2.249080690078805
 30
0.0
 11
-19.30000000000001
 21
-2.311395127262905
 31
0.0
  0
LINE
  5
F103CE
330
261
100
AcDbEntity
  8
Geo
100
AcDbLine
 10
-19.30000000000001
 20
-2.311395127262905
 30
0.0
 11
-19.2
 21
-2.373256269736904
 31
0.0
  0
LINE
  5
F103D0
330
261
100
AcDbEntity
  8
Geo
100
AcDbLine
 10
-19.2
 20
-2.373256269736904
 30
0.0
 11
-19.10000000000001
 21
-2.434651985724505
 31
0.0
  0
LINE
  5
F103D2
330
261
100
AcDbEntity
  8
Geo
100
AcDbLine
 10
-19.10000000000001
 20
-2.434651985724505
 30
0.0
 11
-19.00000000000001
 21
-2.495570234725706
 31
0.0
  0
LINE
  5
F103D4
330
261
100
AcDbEntity
  8
Geo
100
AcDbLine
 10
-19.00000000000001
 20
-2.495570234725706
 30
0.0
 11
-18.9
 21
-2.555999069877804
 31
0.0
  0
LINE
  5
F103D6
330
261
100
AcDbEntity
  8
Geo
100
AcDbLine
 10
-18.9
 20
-2.555999069877804
 30
0.0
 11
-18.80000000000001
 21
-2.615926640298605
 31
0.0
  0
LINE
  5
F103D8
330
261
100
AcDbEntity
  8
Geo
100
AcDbLine
 10
-18.80000000000001
 20
-2.615926640298605
 30
0.0
 11
-18.7
 21
-2.675341193410504
 31
0.0
  0
LINE
  5
F103DA
330
261
100
AcDbEntity
  8
Geo
100
AcDbLine
 10
-18.7
 20
-2.675341193410504
 30
0.0
 11
-18.60000000000001
 21
-2.734231077245304
 31
0.0
  0
LINE
  5
F103DC
330
261
100
AcDbEntity
  8
Geo
100
AcDbLine
 10
-18.60000000000001
 20
-2.734231077245304
 30
0.0
 11
-18.50000000000001
 21
-2.792584742729305
 31
0.0
  0
LINE
  5
F103DE
330
261
100
AcDbEntity
  8
Geo
100
AcDbLine
 10
-18.50000000000001
 20
-2.792584742729305
 30
0.0
 11
-18.4
 21
-2.850390745947905
 31
0.0
  0
LINE
  5
F103E0
330
261
100
AcDbEntity
  8
Geo
100
AcDbLine
 10
-18.4
 20
-2.850390745947905
 30
0.0
 11
-18.30000000000001
 21
-2.907637750390705
 31
0.0
  0
LINE
  5
F103E2
330
261
100
AcDbEntity
  8
Geo
100
AcDbLine
 10
-18.30000000000001
 20
-2.907637750390705
 30
0.0
 11
-18.2
 21
-2.964314529173876
 31
0.0
  0
LINE
  5
F103E4
330
261
100
AcDbEntity
  8
Geo
100
AcDbLine
 10
-18.2
 20
-2.964314529173876
 30
0.0
 11
-18.10000000000001
 21
-3.020409967242446
 31
0.0
  0
LINE
  5
F103E6
330
261
100
AcDbEntity
  8
Geo
100
AcDbLine
 10
-18.10000000000001
 20
-3.020409967242446
 30
0.0
 11
-18.00000000000001
 21
-3.075913063549885
 31
0.0
  0
LINE
  5
F103E8
330
261
100
AcDbEntity
  8
Geo
100
AcDbLine
 10
-18.00000000000001
 20
-3.075913063549885
 30
0.0
 11
-17.9
 21
-3.130812933215594
 31
0.0
  0
LINE
  5
F103EA
330
261
100
AcDbEntity
  8
Geo
100
AcDbLine
 10
-17.9
 20
-3.130812933215594
 30
0.0
 11
-17.80000000000001
 21
-3.185098809659605
 31
0.0
  0
LINE
  5
F103EC
330
261
100
AcDbEntity
  8
Geo
100
AcDbLine
 10
-17.80000000000001
 20
-3.185098809659605
 30
0.0
 11
-17.7
 21
-3.238760046713995
 31
0.0
  0
LINE
  5
F103EE
330
261
100
AcDbEntity
  8
Geo
100
AcDbLine
 10
-17.7
 20
-3.238760046713995
 30
0.0
 11
-17.60000000000001
 21
-3.291786120710805
 31
0.0
  0
LINE
  5
F103F0
330
261
100
AcDbEntity
  8
Geo
100
AcDbLine
 10
-17.60000000000001
 20
-3.291786120710805
 30
0.0
 11
-17.50000000000001
 21
-3.344166632545796
 31
0.0
  0
LINE
  5
F103F2
330
261
100
AcDbEntity
  8
Geo
100
AcDbLine
 10
-17.50000000000001
 20
-3.344166632545796
 30
0.0
 11
-17.4
 21
-3.395891309717894
 31
0.0
  0
LINE
  5
F103F4
330
261
100
AcDbEntity
  8
Geo
100
AcDbLine
 10
-17.4
 20
-3.395891309717894
 30
0.0
 11
-17.30000000000001
 21
-3.446950008343765
 31
0.0
  0
LINE
  5
F103F6
330
261
100
AcDbEntity
  8
Geo
100
AcDbLine
 10
-17.30000000000001
 20
-3.446950008343765
 30
0.0
 11
-17.2
 21
-3.497332715147114
 31
0.0
  0
LINE
  5
F103F8
330
261
100
AcDbEntity
  8
Geo
100
AcDbLine
 10
-17.2
 20
-3.497332715147114
 30
0.0
 11
-17.10000000000001
 21
-3.547029549422475
 31
0.0
  0
LINE
  5
F103FA
330
261
100
AcDbEntity
  8
Geo
100
AcDbLine
 10
-17.10000000000001
 20
-3.547029549422475
 30
0.0
 11
-17.00000000000001
 21
-3.596030764972937
 31
0.0
  0
LINE
  5
F103FC
330
261
100
AcDbEntity
  8
Geo
100
AcDbLine
 10
-17.00000000000001
 20
-3.596030764972937
 30
0.0
 11
-16.9
 21
-3.644326752021466
 31
0.0
  0
LINE
  5
F103FE
330
261
100
AcDbEntity
  8
Geo
100
AcDbLine
 10
-16.9
 20
-3.644326752021466
 30
0.0
 11
-16.80000000000001
 21
-3.691908039095535
 31
0.0
  0
LINE
  5
F10400
330
261
100
AcDbEntity
  8
Geo
100
AcDbLine
 10
-16.80000000000001
 20
-3.691908039095535
 30
0.0
 11
-16.7
 21
-3.738765294884593
 31
0.0
  0
LINE
  5
F10402
330
261
100
AcDbEntity
  8
Geo
100
AcDbLine
 10
-16.7
 20
-3.738765294884593
 30
0.0
 11
-16.60000000000001
 21
-3.784889330070065
 31
0.0
  0
LINE
  5
F10404
330
261
100
AcDbEntity
  8
Geo
100
AcDbLine
 10
-16.60000000000001
 20
-3.784889330070065
 30
0.0
 11
-16.50000000000001
 21
-3.830271099127495
 31
0.0
  0
LINE
  5
F10406
330
261
100
AcDbEntity
  8
Geo
100
AcDbLine
 10
-16.50000000000001
 20
-3.830271099127495
 30
0.0
 11
-16.4
 21
-3.874901702100494
 31
0.0
  0
LINE
  5
F10408
330
261
100
AcDbEntity
  8
Geo
100
AcDbLine
 10
-16.4
 20
-3.874901702100494
 30
0.0
 11
-16.3
 21
-3.918772386346125
 31
0.0
  0
LINE
  5
F1040A
330
261
100
AcDbEntity
  8
Geo
100
AcDbLine
 10
-16.3
 20
-3.918772386346125
 30
0.0
 11
-16.2
 21
-3.961874548251394
 31
0.0
  0
LINE
  5
F1040C
330
261
100
AcDbEntity
  8
Geo
100
AcDbLine
 10
-16.2
 20
-3.961874548251394
 30
0.0
 11
-16.09999999999999
 21
-4.004199734920614
 31
0.0
  0
LINE
  5
F1040E
330
261
100
AcDbEntity
  8
Geo
100
AcDbLine
 10
-16.09999999999999
 20
-4.004199734920614
 30
0.0
 11
-16.0
 21
-4.045739645833004
 31
0.0
  0
LINE
  5
F10410
330
261
100
AcDbEntity
  8
Geo
100
AcDbLine
 10
-16.0
 20
-4.045739645833004
 30
0.0
 11
-15.89999999999999
 21
-4.086486134470645
 31
0.0
  0
LINE
  5
F10412
330
261
100
AcDbEntity
  8
Geo
100
AcDbLine
 10
-15.89999999999999
 20
-4.086486134470645
 30
0.0
 11
-15.8
 21
-4.126431209916034
 31
0.0
  0
LINE
  5
F10414
330
261
100
AcDbEntity
  8
Geo
100
AcDbLine
 10
-15.8
 20
-4.126431209916034
 30
0.0
 11
-15.7
 21
-4.165567038419245
 31
0.0
  0
LINE
  5
F10416
330
261
100
AcDbEntity
  8
Geo
100
AcDbLine
 10
-15.7
 20
-4.165567038419245
 30
0.0
 11
-15.59999999999999
 21
-4.203885944934246
 31
0.0
  0
LINE
  5
F10418
330
261
100
AcDbEntity
  8
Geo
100
AcDbLine
 10
-15.59999999999999
 20
-4.203885944934246
 30
0.0
 11
-15.5
 21
-4.241380414624025
 31
0.0
  0
LINE
  5
F1041A
330
261
100
AcDbEntity
  8
Geo
100
AcDbLine
 10
-15.5
 20
-4.241380414624025
 30
0.0
 11
-15.39999999999999
 21
-4.278043094334405
 31
0.0
  0
LINE
  5
F1041C
330
261
100
AcDbEntity
  8
Geo
100
AcDbLine
 10
-15.39999999999999
 20
-4.278043094334405
 30
0.0
 11
-15.3
 21
-4.313866794036046
 31
0.0
  0
LINE
  5
F1041E
330
261
100
AcDbEntity
  8
Geo
100
AcDbLine
 10
-15.3
 20
-4.313866794036046
 30
0.0
 11
-15.2
 21
-4.348844488234515
 31
0.0
  0
LINE
  5
F10420
330
261
100
AcDbEntity
  8
Geo
100
AcDbLine
 10
-15.2
 20
-4.348844488234515
 30
0.0
 11
-15.09999999999999
 21
-4.382969317348125
 31
0.0
  0
LINE
  5
F10422
330
261
100
AcDbEntity
  8
Geo
100
AcDbLine
 10
-15.09999999999999
 20
-4.382969317348125
 30
0.0
 11
-15.0
 21
-4.416234589053095
 31
0.0
  0
LINE
  5
F10424
330
261
100
AcDbEntity
  8
Geo
100
AcDbLine
 10
-15.0
 20
-4.416234589053095
 30
0.0
 11
-14.89999999999999
 21
-4.448633779596086
 31
0.0
  0
LINE
  5
F10426
330
261
100
AcDbEntity
  8
Geo
100
AcDbLine
 10
-14.89999999999999
 20
-4.448633779596086
 30
0.0
 11
-14.79999999999999
 21
-4.480160535073565
 31
0.0
  0
LINE
  5
F10428
330
261
100
AcDbEntity
  8
Geo
100
AcDbLine
 10
-14.79999999999999
 20
-4.480160535073565
 30
0.0
 11
-14.7
 21
-4.510808672677864
 31
0.0
  0
LINE
  5
F1042A
330
261
100
AcDbEntity
  8
Geo
100
AcDbLine
 10
-14.7
 20
-4.510808672677864
 30
0.0
 11
-14.59999999999999
 21
-4.540572181909775
 31
0.0
  0
LINE
  5
F1042C
330
261
100
AcDbEntity
  8
Geo
100
AcDbLine
 10
-14.59999999999999
 20
-4.540572181909775
 30
0.0
 11
-14.5
 21
-4.569445225757174
 31
0.0
  0
LINE
  5
F1042E
330
261
100
AcDbEntity
  8
Geo
100
AcDbLine
 10
-14.5
 20
-4.569445225757174
 30
0.0
 11
-14.39999999999999
 21
-4.597422141839874
 31
0.0
  0
LINE
  5
F10430
330
261
100
AcDbEntity
  8
Geo
100
AcDbLine
 10
-14.39999999999999
 20
-4.597422141839874
 30
0.0
 11
-14.29999999999999
 21
-4.624497443519995
 31
0.0
  0
LINE
  5
F10432
330
261
100
AcDbEntity
  8
Geo
100
AcDbLine
 10
-14.29999999999999
 20
-4.624497443519995
 30
0.0
 11
-14.2
 21
-4.650665820977975
 31
0.0
  0
LINE
  5
F10434
330
261
100
AcDbEntity
  8
Geo
100
AcDbLine
 10
-14.2
 20
-4.650665820977975
 30
0.0
 11
-14.09999999999999
 21
-4.675922142253934
 31
0.0
  0
LINE
  5
F10436
330
261
100
AcDbEntity
  8
Geo
100
AcDbLine
 10
-14.09999999999999
 20
-4.675922142253934
 30
0.0
 11
-14.0
 21
-4.700261454254095
 31
0.0
  0
LINE
  5
F10438
330
261
100
AcDbEntity
  8
Geo
100
AcDbLine
 10
-14.0
 20
-4.700261454254095
 30
0.0
 11
-13.89999999999999
 21
-4.723678983722145
 31
0.0
  0
LINE
  5
F1043A
330
261
100
AcDbEntity
  8
Geo
100
AcDbLine
 10
-13.89999999999999
 20
-4.723678983722145
 30
0.0
 11
-13.8
 21
-4.746170138175335
 31
0.0
  0
LINE
  5
F1043C
330
261
100
AcDbEntity
  8
Geo
100
AcDbLine
 10
-13.8
 20
-4.746170138175335
 30
0.0
 11
-13.7
 21
-4.767730506805154
 31
0.0
  0
LINE
  5
F1043E
330
261
100
AcDbEntity
  8
Geo
100
AcDbLine
 10
-13.7
 20
-4.767730506805154
 30
0.0
 11
-13.59999999999999
 21
-4.788355861342296
 31
0.0
  0
LINE
  5
F10440
330
261
100
AcDbEntity
  8
Geo
100
AcDbLine
 10
-13.59999999999999
 20
-4.788355861342296
 30
0.0
 11
-13.5
 21
-4.808042156885925
 31
0.0
  0
LINE
  5
F10442
330
261
100
AcDbEntity
  8
Geo
100
AcDbLine
 10
-13.5
 20
-4.808042156885925
 30
0.0
 11
-13.39999999999999
 21
-4.826785532696884
 31
0.0
  0
LINE
  5
F10444
330
261
100
AcDbEntity
  8
Geo
100
AcDbLine
 10
-13.39999999999999
 20
-4.826785532696884
 30
0.0
 11
-13.3
 21
-4.844582312954903
 31
0.0
  0
LINE
  5
F10446
330
261
100
AcDbEntity
  8
Geo
100
AcDbLine
 10
-13.3
 20
-4.844582312954903
 30
0.0
 11
-13.2
 21
-4.861429007479415
 31
0.0
  0
LINE
  5
F10448
330
261
100
AcDbEntity
  8
Geo
100
AcDbLine
 10
-13.2
 20
-4.861429007479415
 30
0.0
 11
-13.09999999999999
 21
-4.877322312414046
 31
0.0
  0
LINE
  5
F1044A
330
261
100
AcDbEntity
  8
Geo
100
AcDbLine
 10
-13.09999999999999
 20
-4.877322312414046
 30
0.0
 11
-13.0
 21
-4.892259110874555
 31
0.0
  0
LINE
  5
F1044C
330
261
100
AcDbEntity
  8
Geo
100
AcDbLine
 10
-13.0
 20
-4.892259110874555
 30
0.0
 11
-12.89999999999999
 21
-4.906236473560085
 31
0.0
  0
LINE
  5
F1044E
330
261
100
AcDbEntity
  8
Geo
100
AcDbLine
 10
-12.89999999999999
 20
-4.906236473560085
 30
0.0
 11
-12.8
 21
-4.919251659327644
 31
0.0
  0
LINE
  5
F10450
330
261
100
AcDbEntity
  8
Geo
100
AcDbLine
 10
-12.8
 20
-4.919251659327644
 30
0.0
 11
-12.7
 21
-4.931302115729664
 31
0.0
  0
LINE
  5
F10452
330
261
100
AcDbEntity
  8
Geo
100
AcDbLine
 10
-12.7
 20
-4.931302115729664
 30
0.0
 11
-12.59999999999999
 21
-4.942385479514586
 31
0.0
  0
LINE
  5
F10454
330
261
100
AcDbEntity
  8
Geo
100
AcDbLine
 10
-12.59999999999999
 20
-4.942385479514586
 30
0.0
 11
-12.5
 21
-4.952499577090315
 31
0.0
  0
LINE
  5
F10456
330
261
100
AcDbEntity
  8
Geo
100
AcDbLine
 10
-12.5
 20
-4.952499577090315
 30
0.0
 11
-12.39999999999999
 21
-4.961642424950495
 31
0.0
  0
LINE
  5
F10458
330
261
100
AcDbEntity
  8
Geo
100
AcDbLine
 10
-12.39999999999999
 20
-4.961642424950495
 30
0.0
 11
-12.29999999999999
 21
-4.969812230063506
 31
0.0
  0
LINE
  5
F1045A
330
261
100
AcDbEntity
  8
Geo
100
AcDbLine
 10
-12.29999999999999
 20
-4.969812230063506
 30
0.0
 11
-12.2
 21
-4.977007390224065
 31
0.0
  0
LINE
  5
F1045C
330
261
100
AcDbEntity
  8
Geo
100
AcDbLine
 10
-12.2
 20
-4.977007390224065
 30
0.0
 11
-12.09999999999999
 21
-4.983226494367506
 31
0.0
  0
LINE
  5
F1045E
330
261
100
AcDbEntity
  8
Geo
100
AcDbLine
 10
-12.09999999999999
 20
-4.983226494367506
 30
0.0
 11
-12.0
 21
-4.988468322846435
 31
0.0
  0
LINE
  5
F10460
330
261
100
AcDbEntity
  8
Geo
100
AcDbLine
 10
-12.0
 20
-4.988468322846435
 30
0.0
 11
-12.0
 21
-4.988468322846435
 31
0.0
  0
LINE
  5
F10462
330
261
100
AcDbEntity
  8
Geo
100
AcDbLine
 10
-12.0
 20
-4.988468322846435
 30
0.0
 11
-12.0
 21
-4.988468322846435
 31
0.0
  0
LINE
  5
F10464
330
261
100
AcDbEntity
  8
Geo
100
AcDbLine
 10
-12.0
 20
-4.988468322846435
 30
0.0
 11
-11.89999999999999
 21
-4.993298451064554
 31
0.0
  0
LINE
  5
F10466
330
261
100
AcDbEntity
  8
Geo
100
AcDbLine
 10
-11.89999999999999
 20
-4.993298451064554
 30
0.0
 11
-11.79999999999999
 21
-4.996936156810074
 31
0.0
  0
LINE
  5
F10468
330
261
100
AcDbEntity
  8
Geo
100
AcDbLine
 10
-11.79999999999999
 20
-4.996936156810074
 30
0.0
 11
-11.7
 21
-4.999224155099884
 31
0.0
  0
LINE
  5
F1046A
330
261
100
AcDbEntity
  8
Geo
100
AcDbLine
 10
-26.00000000000001
 20
-3.511364624111465
 30
0.0
 11
-25.90000000000001
 21
-3.631510210896305
 31
0.0
  0
LINE
  5
F1046C
330
261
100
AcDbEntity
  8
Geo
100
AcDbLine
 10
-25.90000000000001
 20
-3.631510210896305
 30
0.0
 11
-25.80000000000001
 21
-3.679283108664554
 31
0.0
  0
LINE
  5
F1046E
330
261
100
AcDbEntity
  8
Geo
100
AcDbLine
 10
-25.80000000000001
 20
-3.679283108664554
 30
0.0
 11
-25.7
 21
-3.726334451061195
 31
0.0
  0
LINE
  5
F10470
330
261
100
AcDbEntity
  8
Geo
100
AcDbLine
 10
-25.7
 20
-3.726334451061195
 30
0.0
 11
-25.60000000000001
 21
-3.772655010704754
 31
0.0
  0
LINE
  5
F10472
330
261
100
AcDbEntity
  8
Geo
100
AcDbLine
 10
-25.60000000000001
 20
-3.772655010704754
 30
0.0
 11
-25.50000000000002
 21
-3.818235703529744
 31
0.0
  0
LINE
  5
F10474
330
261
100
AcDbEntity
  8
Geo
100
AcDbLine
 10
-25.50000000000002
 20
-3.818235703529744
 30
0.0
 11
-25.40000000000001
 21
-3.863067590568245
 31
0.0
  0
LINE
  5
F10476
330
261
100
AcDbEntity
  8
Geo
100
AcDbLine
 10
-25.40000000000001
 20
-3.863067590568245
 30
0.0
 11
-25.30000000000001
 21
-3.907141879702885
 31
0.0
  0
LINE
  5
F10478
330
261
100
AcDbEntity
  8
Geo
100
AcDbLine
 10
-25.30000000000001
 20
-3.907141879702885
 30
0.0
 11
-25.2
 21
-3.950449927391115
 31
0.0
  0
LINE
  5
F1047A
330
261
100
AcDbEntity
  8
Geo
100
AcDbLine
 10
-25.2
 20
-3.950449927391115
 30
0.0
 11
-25.10000000000001
 21
-3.992983240360334
 31
0.0
  0
LINE
  5
F1047C
330
261
100
AcDbEntity
  8
Geo
100
AcDbLine
 10
-25.10000000000001
 20
-3.992983240360334
 30
0.0
 11
-25.00000000000002
 21
-4.034733477273515
 31
0.0
  0
LINE
  5
F1047E
330
261
100
AcDbEntity
  8
Geo
100
AcDbLine
 10
-25.00000000000002
 20
-4.034733477273515
 30
0.0
 11
-24.90000000000001
 21
-4.075692450365036
 31
0.0
  0
LINE
  5
F10480
330
261
100
AcDbEntity
  8
Geo
100
AcDbLine
 10
-24.90000000000001
 20
-4.075692450365036
 30
0.0
 11
-24.80000000000001
 21
-4.115852127046437
 31
0.0
  0
LINE
  5
F10482
330
261
100
AcDbEntity
  8
Geo
100
AcDbLine
 10
-24.80000000000001
 20
-4.115852127046437
 30
0.0
 11
-24.70000000000001
 21
-4.155204631481705
 31
0.0
  0
LINE
  5
F10484
330
261
100
AcDbEntity
  8
Geo
100
AcDbLine
 10
-24.70000000000001
 20
-4.155204631481705
 30
0.0
 11
-24.60000000000001
 21
-4.193742246131815
 31
0.0
  0
LINE
  5
F10486
330
261
100
AcDbEntity
  8
Geo
100
AcDbLine
 10
-24.60000000000001
 20
-4.193742246131815
 30
0.0
 11
-24.50000000000001
 21
-4.231457413268246
 31
0.0
  0
LINE
  5
F10488
330
261
100
AcDbEntity
  8
Geo
100
AcDbLine
 10
-24.50000000000001
 20
-4.231457413268246
 30
0.0
 11
-24.40000000000001
 21
-4.268342736455174
 31
0.0
  0
LINE
  5
F1048A
330
261
100
AcDbEntity
  8
Geo
100
AcDbLine
 10
-24.40000000000001
 20
-4.268342736455174
 30
0.0
 11
-24.30000000000001
 21
-4.304390981999974
 31
0.0
  0
LINE
  5
F1048C
330
261
100
AcDbEntity
  8
Geo
100
AcDbLine
 10
-24.30000000000001
 20
-4.304390981999974
 30
0.0
 11
-24.2
 21
-4.339595080371855
 31
0.0
  0
LINE
  5
F1048E
330
261
100
AcDbEntity
  8
Geo
100
AcDbLine
 10
-24.2
 20
-4.339595080371855
 30
0.0
 11
-24.10000000000001
 21
-4.373948127588295
 31
0.0
  0
LINE
  5
F10490
330
261
100
AcDbEntity
  8
Geo
100
AcDbLine
 10
-24.10000000000001
 20
-4.373948127588295
 30
0.0
 11
-24.00000000000002
 21
-4.407443386568985
 31
0.0
  0
LINE
  5
F10492
330
261
100
AcDbEntity
  8
Geo
100
AcDbLine
 10
-24.00000000000002
 20
-4.407443386568985
 30
0.0
 11
-23.90000000000001
 21
-4.440074288457095
 31
0.0
  0
LINE
  5
F10494
330
261
100
AcDbEntity
  8
Geo
100
AcDbLine
 10
-23.90000000000001
 20
-4.440074288457095
 30
0.0
 11
-23.80000000000001
 21
-4.471834433907465
 31
0.0
  0
LINE
  5
F10496
330
261
100
AcDbEntity
  8
Geo
100
AcDbLine
 10
-23.80000000000001
 20
-4.471834433907465
 30
0.0
 11
-23.7
 21
-4.502717594341614
 31
0.0
  0
LINE
  5
F10498
330
261
100
AcDbEntity
  8
Geo
100
AcDbLine
 10
-23.7
 20
-4.502717594341614
 30
0.0
 11
-23.60000000000001
 21
-4.532717713169274
 31
0.0
  0
LINE
  5
F1049A
330
261
100
AcDbEntity
  8
Geo
100
AcDbLine
 10
-23.60000000000001
 20
-4.532717713169274
 30
0.0
 11
-23.50000000000001
 21
-4.561828906976135
 31
0.0
  0
LINE
  5
F1049C
330
261
100
AcDbEntity
  8
Geo
100
AcDbLine
 10
-23.50000000000001
 20
-4.561828906976135
 30
0.0
 11
-23.40000000000001
 21
-4.590045466677665
 31
0.0
  0
LINE
  5
F1049E
330
261
100
AcDbEntity
  8
Geo
100
AcDbLine
 10
-23.40000000000001
 20
-4.590045466677665
 30
0.0
 11
-23.30000000000001
 21
-4.617361858638755
 31
0.0
  0
LINE
  5
F104A0
330
261
100
AcDbEntity
  8
Geo
100
AcDbLine
 10
-23.30000000000001
 20
-4.617361858638755
 30
0.0
 11
-23.2
 21
-4.643772725758916
 31
0.0
  0
LINE
  5
F104A2
330
261
100
AcDbEntity
  8
Geo
100
AcDbLine
 10
-23.2
 20
-4.643772725758916
 30
0.0
 11
-23.10000000000001
 21
-4.669272888522856
 31
0.0
  0
LINE
  5
F104A4
330
261
100
AcDbEntity
  8
Geo
100
AcDbLine
 10
-23.10000000000001
 20
-4.669272888522856
 30
0.0
 11
-23.00000000000002
 21
-4.693857346016326
 31
0.0
  0
LINE
  5
F104A6
330
261
100
AcDbEntity
  8
Geo
100
AcDbLine
 10
-23.00000000000002
 20
-4.693857346016326
 30
0.0
 11
-22.9
 21
-4.717521276906774
 31
0.0
  0
LINE
  5
F104A8
330
261
100
AcDbEntity
  8
Geo
100
AcDbLine
 10
-22.9
 20
-4.717521276906774
 30
0.0
 11
-22.80000000000001
 21
-4.740260040388935
 31
0.0
  0
LINE
  5
F104AA
330
261
100
AcDbEntity
  8
Geo
100
AcDbLine
 10
-22.80000000000001
 20
-4.740260040388935
 30
0.0
 11
-22.7
 21
-4.762069177094915
 31
0.0
  0
LINE
  5
F104AC
330
261
100
AcDbEntity
  8
Geo
100
AcDbLine
 10
-22.7
 20
-4.762069177094915
 30
0.0
 11
-22.60000000000001
 21
-4.782944409968775
 31
0.0
  0
LINE
  5
F104AE
330
261
100
AcDbEntity
  8
Geo
100
AcDbLine
 10
-22.60000000000001
 20
-4.782944409968775
 30
0.0
 11
-22.50000000000001
 21
-4.802881645105255
 31
0.0
  0
LINE
  5
F104B0
330
261
100
AcDbEntity
  8
Geo
100
AcDbLine
 10
-22.50000000000001
 20
-4.802881645105255
 30
0.0
 11
-22.40000000000001
 21
-4.821876972552693
 31
0.0
  0
LINE
  5
F104B2
330
261
100
AcDbEntity
  8
Geo
100
AcDbLine
 10
-22.40000000000001
 20
-4.821876972552693
 30
0.0
 11
-22.30000000000001
 21
-4.839926667079806
 31
0.0
  0
LINE
  5
F104B4
330
261
100
AcDbEntity
  8
Geo
100
AcDbLine
 10
-22.30000000000001
 20
-4.839926667079806
 30
0.0
 11
-22.2
 21
-4.857027188906245
 31
0.0
  0
LINE
  5
F104B6
330
261
100
AcDbEntity
  8
Geo
100
AcDbLine
 10
-22.2
 20
-4.857027188906245
 30
0.0
 11
-22.10000000000001
 21
-4.873175184396805
 31
0.0
  0
LINE
  5
F104B8
330
261
100
AcDbEntity
  8
Geo
100
AcDbLine
 10
-22.10000000000001
 20
-4.873175184396805
 30
0.0
 11
-22.00000000000001
 21
-4.888367486719095
 31
0.0
  0
LINE
  5
F104BA
330
261
100
AcDbEntity
  8
Geo
100
AcDbLine
 10
-22.00000000000001
 20
-4.888367486719095
 30
0.0
 11
-21.90000000000001
 21
-4.902601116464627
 31
0.0
  0
LINE
  5
F104BC
330
261
100
AcDbEntity
  8
Geo
100
AcDbLine
 10
-21.90000000000001
 20
-4.902601116464627
 30
0.0
 11
-21.80000000000001
 21
-4.915873282233095
 31
0.0
  0
LINE
  5
F104BE
330
261
100
AcDbEntity
  8
Geo
100
AcDbLine
 10
-21.80000000000001
 20
-4.915873282233095
 30
0.0
 11
-21.7
 21
-4.928181381179795
 31
0.0
  0
LINE
  5
F104C0
330
261
100
AcDbEntity
  8
Geo
100
AcDbLine
 10
-21.7
 20
-4.928181381179795
 30
0.0
 11
-21.60000000000001
 21
-4.939522999526126
 31
0.0
  0
LINE
  5
F104C2
330
261
100
AcDbEntity
  8
Geo
100
AcDbLine
 10
-21.60000000000001
 20
-4.939522999526126
 30
0.0
 11
-21.50000000000002
 21
-4.949895913032895
 31
0.0
  0
LINE
  5
F104C4
330
261
100
AcDbEntity
  8
Geo
100
AcDbLine
 10
-21.50000000000002
 20
-4.949895913032895
 30
0.0
 11
-21.40000000000001
 21
-4.959298087436575
 31
0.0
  0
LINE
  5
F104C6
330
261
100
AcDbEntity
  8
Geo
100
AcDbLine
 10
-21.40000000000001
 20
-4.959298087436575
 30
0.0
 11
-21.30000000000001
 21
-4.967727678848225
 31
0.0
  0
LINE
  5
F104C8
330
261
100
AcDbEntity
  8
Geo
100
AcDbLine
 10
-21.30000000000001
 20
-4.967727678848225
 30
0.0
 11
-21.2
 21
-4.975183034115085
 31
0.0
  0
LINE
  5
F104CA
330
261
100
AcDbEntity
  8
Geo
100
AcDbLine
 10
-21.2
 20
-4.975183034115085
 30
0.0
 11
-21.10000000000001
 21
-4.981662691144835
 31
0.0
  0
LINE
  5
F104CC
330
261
100
AcDbEntity
  8
Geo
100
AcDbLine
 10
-21.10000000000001
 20
-4.981662691144835
 30
0.0
 11
-21.00000000000001
 21
-4.987165379192275
 31
0.0
  0
LINE
  5
F104CE
330
261
100
AcDbEntity
  8
Geo
100
AcDbLine
 10
-21.00000000000001
 20
-4.987165379192275
 30
0.0
 11
-20.90000000000001
 21
-4.991690019108555
 31
0.0
  0
LINE
  5
F104D0
330
261
100
AcDbEntity
  8
Geo
100
AcDbLine
 10
-20.90000000000001
 20
-4.991690019108555
 30
0.0
 11
-20.80000000000001
 21
-4.995235723552815
 31
0.0
  0
LINE
  5
F104D2
330
261
100
AcDbEntity
  8
Geo
100
AcDbLine
 10
-20.80000000000001
 20
-4.995235723552815
 30
0.0
 11
-20.7
 21
-4.997801797166206
 31
0.0
  0
LINE
  5
F104D4
330
261
100
AcDbEntity
  8
Geo
100
AcDbLine
 10
-20.7
 20
-4.997801797166206
 30
0.0
 11
-20.60000000000001
 21
-4.999387736708245
 31
0.0
  0
LINE
  5
F104D6
330
261
100
AcDbEntity
  8
Geo
100
AcDbLine
 10
-20.60000000000001
 20
-4.999387736708245
 30
0.0
 11
-20.50000000000002
 21
-4.999993231155515
 31
0.0
  0
LINE
  5
F104D8
330
261
100
AcDbEntity
  8
Geo
100
AcDbLine
 10
-11.7
 20
4.999224155099891
 30
0.0
 11
-11.59999999999999
 21
4.999999604021695
 31
0.0
  0
LINE
  5
F104DA
330
261
100
AcDbEntity
  8
Geo
100
AcDbLine
 10
-11.59999999999999
 20
4.999999604021695
 30
0.0
 11
-11.5
 21
4.999094255599892
 31
0.0
  0
LINE
  5
F104DC
330
261
100
AcDbEntity
  8
Geo
100
AcDbLine
 10
-11.5
 20
4.999094255599892
 30
0.0
 11
-11.39999999999999
 21
4.996334633542694
 31
0.0
  0
LINE
  5
F104DE
330
261
100
AcDbEntity
  8
Geo
100
AcDbLine
 10
-11.39999999999999
 20
4.996334633542694
 30
0.0
 11
-11.29999999999999
 21
4.991542240026994
 31
0.0
  0
LINE
  5
F104E0
330
261
100
AcDbEntity
  8
Geo
100
AcDbLine
 10
-11.29999999999999
 20
4.991542240026994
 30
0.0
 11
-11.2
 21
4.984533793711694
 31
0.0
  0
LINE
  5
F104E2
330
261
100
AcDbEntity
  8
Geo
100
AcDbLine
 10
-11.2
 20
4.984533793711694
 30
0.0
 11
-11.09999999999999
 21
4.975121501191395
 31
0.0
  0
LINE
  5
F104E4
330
261
100
AcDbEntity
  8
Geo
100
AcDbLine
 10
-11.09999999999999
 20
4.975121501191395
 30
0.0
 11
-11.0
 21
4.963113364114192
 31
0.0
  0
LINE
  5
F104E6
330
261
100
AcDbEntity
  8
Geo
100
AcDbLine
 10
-11.0
 20
4.963113364114192
 30
0.0
 11
-10.89999999999999
 21
4.948313524186193
 31
0.0
  0
LINE
  5
F104E8
330
261
100
AcDbEntity
  8
Geo
100
AcDbLine
 10
-10.89999999999999
 20
4.948313524186193
 30
0.0
 11
-10.8
 21
4.930522648271193
 31
0.0
  0
LINE
  5
F104EA
330
261
100
AcDbEntity
  8
Geo
100
AcDbLine
 10
-10.8
 20
4.930522648271193
 30
0.0
 11
-10.7
 21
4.909538355763892
 31
0.0
  0
LINE
  5
F104EC
330
261
100
AcDbEntity
  8
Geo
100
AcDbLine
 10
-10.7
 20
4.909538355763892
 30
0.0
 11
-10.59999999999999
 21
4.885155690368392
 31
0.0
  0
LINE
  5
F104EE
330
261
100
AcDbEntity
  8
Geo
100
AcDbLine
 10
-10.59999999999999
 20
4.885155690368392
 30
0.0
 11
-10.5
 21
4.857167638350194
 31
0.0
  0
LINE
  5
F104F0
330
261
100
AcDbEntity
  8
Geo
100
AcDbLine
 10
-10.5
 20
4.857167638350194
 30
0.0
 11
-10.39999999999999
 21
4.825365695245494
 31
0.0
  0
LINE
  5
F104F2
330
261
100
AcDbEntity
  8
Geo
100
AcDbLine
 10
-10.39999999999999
 20
4.825365695245494
 30
0.0
 11
-10.3
 21
4.789540482907092
 31
0.0
  0
LINE
  5
F104F4
330
261
100
AcDbEntity
  8
Geo
100
AcDbLine
 10
-10.3
 20
4.789540482907092
 30
0.0
 11
-10.2
 21
4.749482418636695
 31
0.0
  0
LINE
  5
F104F6
330
261
100
AcDbEntity
  8
Geo
100
AcDbLine
 10
-10.2
 20
4.749482418636695
 30
0.0
 11
-10.09999999999999
 21
4.704982438003295
 31
0.0
  0
LINE
  5
F104F8
330
261
100
AcDbEntity
  8
Geo
100
AcDbLine
 10
-10.09999999999999
 20
4.704982438003295
 30
0.0
 11
-10.0
 21
4.655832772767798
 31
0.0
  0
LINE
  5
F104FA
330
261
100
AcDbEntity
  8
Geo
100
AcDbLine
 10
-10.0
 20
4.655832772767798
 30
0.0
 11
-9.899999999999991
 21
4.601827785127593
 31
0.0
  0
LINE
  5
F104FC
330
261
100
AcDbEntity
  8
Geo
100
AcDbLine
 10
-9.899999999999991
 20
4.601827785127593
 30
0.0
 11
-9.799999999999997
 21
4.542764859260493
 31
0.0
  0
LINE
  5
F104FE
330
261
100
AcDbEntity
  8
Geo
100
AcDbLine
 10
-9.799999999999997
 20
4.542764859260493
 30
0.0
 11
-9.700000000000002
 21
4.478445350881795
 31
0.0
  0
LINE
  5
F10500
330
261
100
AcDbEntity
  8
Geo
100
AcDbLine
 10
-9.700000000000002
 20
4.478445350881795
 30
0.0
 11
-9.599999999999994
 21
4.408675595228693
 31
0.0
  0
LINE
  5
F10502
330
261
100
AcDbEntity
  8
Geo
100
AcDbLine
 10
-9.599999999999994
 20
4.408675595228693
 30
0.0
 11
-9.5
 21
4.333267973557394
 31
0.0
  0
LINE
  5
F10504
330
261
100
AcDbEntity
  8
Geo
100
AcDbLine
 10
-9.5
 20
4.333267973557394
 30
0.0
 11
-9.399999999999991
 21
4.252042037868296
 31
0.0
  0
LINE
  5
F10506
330
261
100
AcDbEntity
  8
Geo
100
AcDbLine
 10
-9.399999999999991
 20
4.252042037868296
 30
0.0
 11
-9.299999999999997
 21
4.164825693178094
 31
0.0
  0
LINE
  5
F10508
330
261
100
AcDbEntity
  8
Geo
100
AcDbLine
 10
-9.299999999999997
 20
4.164825693178094
 30
0.0
 11
-9.200000000000002
 21
4.071456436211892
 31
0.0
  0
LINE
  5
F1050A
330
261
100
AcDbEntity
  8
Geo
100
AcDbLine
 10
-9.200000000000002
 20
4.071456436211892
 30
0.0
 11
-9.099999999999994
 21
3.971782648920893
 31
0.0
  0
LINE
  5
F1050C
330
261
100
AcDbEntity
  8
Geo
100
AcDbLine
 10
-9.099999999999994
 20
3.971782648920893
 30
0.0
 11
-9.0
 21
3.865664944709095
 31
0.0
  0
LINE
  5
F1050E
330
261
100
AcDbEntity
  8
Geo
100
AcDbLine
 10
-9.0
 20
3.865664944709095
 30
0.0
 11
-8.899999999999991
 21
3.752977564707293
 31
0.0
  0
LINE
  5
F10510
330
261
100
AcDbEntity
  8
Geo
100
AcDbLine
 10
-8.899999999999991
 20
3.752977564707293
 30
0.0
 11
-8.799999999999997
 21
3.633609820839694
 31
0.0
  0
LINE
  5
F10512
330
261
100
AcDbEntity
  8
Geo
100
AcDbLine
 10
-8.799999999999997
 20
3.633609820839694
 30
0.0
 11
-8.700000000000002
 21
3.507467581802195
 31
0.0
  0
LINE
  5
F10514
330
261
100
AcDbEntity
  8
Geo
100
AcDbLine
 10
-8.700000000000002
 20
3.507467581802195
 30
0.0
 11
-8.599999999999994
 21
3.374474797408595
 31
0.0
  0
LINE
  5
F10516
330
261
100
AcDbEntity
  8
Geo
100
AcDbLine
 10
-8.599999999999994
 20
3.374474797408595
 30
0.0
 11
-8.5
 21
3.234575056061796
 31
0.0
  0
LINE
  5
F10518
330
261
100
AcDbEntity
  8
Geo
100
AcDbLine
 10
-8.5
 20
3.234575056061796
 30
0.0
 11
-8.399999999999991
 21
3.087733169375095
 31
0.0
  0
LINE
  5
F1051A
330
261
100
AcDbEntity
  8
Geo
100
AcDbLine
 10
-8.399999999999991
 20
3.087733169375095
 30
0.0
 11
-8.299999999999997
 21
2.933936777206294
 31
0.0
  0
LINE
  5
F1051C
330
261
100
AcDbEntity
  8
Geo
100
AcDbLine
 10
-8.299999999999997
 20
2.933936777206294
 30
0.0
 11
-8.200000000000002
 21
2.773197965573395
 31
0.0
  0
LINE
  5
F1051E
330
261
100
AcDbEntity
  8
Geo
100
AcDbLine
 10
-8.200000000000002
 20
2.773197965573395
 30
0.0
 11
-8.099999999999994
 21
2.605554889107892
 31
0.0
  0
LINE
  5
F10520
330
261
100
AcDbEntity
  8
Geo
100
AcDbLine
 10
-8.099999999999994
 20
2.605554889107892
 30
0.0
 11
-8.0
 21
2.431073388858893
 31
0.0
  0
LINE
  5
F10522
330
261
100
AcDbEntity
  8
Geo
100
AcDbLine
 10
-20.50000000000002
 20
4.999993231155496
 30
0.0
 11
-20.4
 21
4.999618161762693
 31
0.0
  0
LINE
  5
F10524
330
261
100
AcDbEntity
  8
Geo
100
AcDbLine
 10
-20.4
 20
4.999618161762693
 30
0.0
 11
-20.30000000000001
 21
4.998262602085695
 31
0.0
  0
LINE
  5
F10526
330
261
100
AcDbEntity
  8
Geo
100
AcDbLine
 10
-20.30000000000001
 20
4.998262602085695
 30
0.0
 11
-20.2
 21
4.995926817967497
 31
0.0
  0
LINE
  5
F10528
330
261
100
AcDbEntity
  8
Geo
100
AcDbLine
 10
-20.2
 20
4.995926817967497
 30
0.0
 11
-20.10000000000001
 21
4.992611267485894
 31
0.0
  0
LINE
  5
F1052A
330
261
100
AcDbEntity
  8
Geo
100
AcDbLine
 10
-20.10000000000001
 20
4.992611267485894
 30
0.0
 11
-20.00000000000001
 21
4.988316600863392
 31
0.0
  0
LINE
  5
F1052C
330
261
100
AcDbEntity
  8
Geo
100
AcDbLine
 10
-20.00000000000001
 20
4.988316600863392
 30
0.0
 11
-19.9
 21
4.983043660340094
 31
0.0
  0
LINE
  5
F1052E
330
261
100
AcDbEntity
  8
Geo
100
AcDbLine
 10
-19.9
 20
4.983043660340094
 30
0.0
 11
-19.80000000000001
 21
4.976793480008495
 31
0.0
  0
LINE
  5
F10530
330
261
100
AcDbEntity
  8
Geo
100
AcDbLine
 10
-19.80000000000001
 20
4.976793480008495
 30
0.0
 11
-19.7
 21
4.969567285610395
 31
0.0
  0
LINE
  5
F10532
330
261
100
AcDbEntity
  8
Geo
100
AcDbLine
 10
-19.7
 20
4.969567285610395
 30
0.0
 11
-19.60000000000001
 21
4.961366494296594
 31
0.0
  0
LINE
  5
F10534
330
261
100
AcDbEntity
  8
Geo
100
AcDbLine
 10
-19.60000000000001
 20
4.961366494296594
 30
0.0
 11
-19.50000000000001
 21
4.952192714349298
 31
0.0
  0
LINE
  5
F10536
330
261
100
AcDbEntity
  8
Geo
100
AcDbLine
 10
-19.50000000000001
 20
4.952192714349298
 30
0.0
 11
-19.4
 21
4.942047744866091
 31
0.0
  0
LINE
  5
F10538
330
261
100
AcDbEntity
  8
Geo
100
AcDbLine
 10
-19.4
 20
4.942047744866091
 30
0.0
 11
-19.30000000000001
 21
4.930933575407994
 31
0.0
  0
LINE
  5
F1053A
330
261
100
AcDbEntity
  8
Geo
100
AcDbLine
 10
-19.30000000000001
 20
4.930933575407994
 30
0.0
 11
-19.2
 21
4.918852385608296
 31
0.0
  0
LINE
  5
F1053C
330
261
100
AcDbEntity
  8
Geo
100
AcDbLine
 10
-19.2
 20
4.918852385608296
 30
0.0
 11
-19.10000000000001
 21
4.905806544745797
 31
0.0
  0
LINE
  5
F1053E
330
261
100
AcDbEntity
  8
Geo
100
AcDbLine
 10
-19.10000000000001
 20
4.905806544745797
 30
0.0
 11
-19.00000000000001
 21
4.891798611279995
 31
0.0
  0
LINE
  5
F10540
330
261
100
AcDbEntity
  8
Geo
100
AcDbLine
 10
-19.00000000000001
 20
4.891798611279995
 30
0.0
 11
-18.9
 21
4.876831332349297
 31
0.0
  0
LINE
  5
F10542
330
261
100
AcDbEntity
  8
Geo
100
AcDbLine
 10
-18.9
 20
4.876831332349297
 30
0.0
 11
-18.80000000000001
 21
4.860907643231893
 31
0.0
  0
LINE
  5
F10544
330
261
100
AcDbEntity
  8
Geo
100
AcDbLine
 10
-18.80000000000001
 20
4.860907643231893
 30
0.0
 11
-18.7
 21
4.844030666770994
 31
0.0
  0
LINE
  5
F10546
330
261
100
AcDbEntity
  8
Geo
100
AcDbLine
 10
-18.7
 20
4.844030666770994
 30
0.0
 11
-18.60000000000001
 21
4.826203712761692
 31
0.0
  0
LINE
  5
F10548
330
261
100
AcDbEntity
  8
Geo
100
AcDbLine
 10
-18.60000000000001
 20
4.826203712761692
 30
0.0
 11
-18.50000000000001
 21
4.807430277301797
 31
0.0
  0
LINE
  5
F1054A
330
261
100
AcDbEntity
  8
Geo
100
AcDbLine
 10
-18.50000000000001
 20
4.807430277301797
 30
0.0
 11
-18.4
 21
4.787714042106895
 31
0.0
  0
LINE
  5
F1054C
330
261
100
AcDbEntity
  8
Geo
100
AcDbLine
 10
-18.4
 20
4.787714042106895
 30
0.0
 11
-18.30000000000001
 21
4.767058873787494
 31
0.0
  0
LINE
  5
F1054E
330
261
100
AcDbEntity
  8
Geo
100
AcDbLine
 10
-18.30000000000001
 20
4.767058873787494
 30
0.0
 11
-18.2
 21
4.745468823091496
 31
0.0
  0
LINE
  5
F10550
330
261
100
AcDbEntity
  8
Geo
100
AcDbLine
 10
-18.2
 20
4.745468823091496
 30
0.0
 11
-18.10000000000001
 21
4.722948124109091
 31
0.0
  0
LINE
  5
F10552
330
261
100
AcDbEntity
  8
Geo
100
AcDbLine
 10
-18.10000000000001
 20
4.722948124109091
 30
0.0
 11
-18.00000000000001
 21
4.699501193442994
 31
0.0
  0
LINE
  5
F10554
330
261
100
AcDbEntity
  8
Geo
100
AcDbLine
 10
-18.00000000000001
 20
4.699501193442994
 30
0.0
 11
-17.9
 21
4.675132629341796
 31
0.0
  0
LINE
  5
F10556
330
261
100
AcDbEntity
  8
Geo
100
AcDbLine
 10
-17.9
 20
4.675132629341796
 30
0.0
 11
-17.80000000000001
 21
4.649847210798593
 31
0.0
  0
LINE
  5
F10558
330
261
100
AcDbEntity
  8
Geo
100
AcDbLine
 10
-17.80000000000001
 20
4.649847210798593
 30
0.0
 11
-17.7
 21
4.623649896613393
 31
0.0
  0
LINE
  5
F1055A
330
261
100
AcDbEntity
  8
Geo
100
AcDbLine
 10
-17.7
 20
4.623649896613393
 30
0.0
 11
-17.60000000000001
 21
4.596545824421195
 31
0.0
  0
LINE
  5
F1055C
330
261
100
AcDbEntity
  8
Geo
100
AcDbLine
 10
-17.60000000000001
 20
4.596545824421195
 30
0.0
 11
-17.50000000000001
 21
4.568540309683594
 31
0.0
  0
LINE
  5
F1055E
330
261
100
AcDbEntity
  8
Geo
100
AcDbLine
 10
-17.50000000000001
 20
4.568540309683594
 30
0.0
 11
-17.4
 21
4.539638844647097
 31
0.0
  0
LINE
  5
F10560
330
261
100
AcDbEntity
  8
Geo
100
AcDbLine
 10
-17.4
 20
4.539638844647097
 30
0.0
 11
-17.30000000000001
 21
4.509847097265794
 31
0.0
  0
LINE
  5
F10562
330
261
100
AcDbEntity
  8
Geo
100
AcDbLine
 10
-17.30000000000001
 20
4.509847097265794
 30
0.0
 11
-17.2
 21
4.479170910089496
 31
0.0
  0
LINE
  5
F10564
330
261
100
AcDbEntity
  8
Geo
100
AcDbLine
 10
-17.2
 20
4.479170910089496
 30
0.0
 11
-17.10000000000001
 21
4.447616299118394
 31
0.0
  0
LINE
  5
F10566
330
261
100
AcDbEntity
  8
Geo
100
AcDbLine
 10
-17.10000000000001
 20
4.447616299118394
 30
0.0
 11
-17.00000000000001
 21
4.415189452622996
 31
0.0
  0
LINE
  5
F10568
330
261
100
AcDbEntity
  8
Geo
100
AcDbLine
 10
-17.00000000000001
 20
4.415189452622996
 30
0.0
 11
-16.9
 21
4.381896729930495
 31
0.0
  0
LINE
  5
F1056A
330
261
100
AcDbEntity
  8
Geo
100
AcDbLine
 10
-16.9
 20
4.381896729930495
 30
0.0
 11
-16.80000000000001
 21
4.347744660177692
 31
0.0
  0
LINE
  5
F1056C
330
261
100
AcDbEntity
  8
Geo
100
AcDbLine
 10
-16.80000000000001
 20
4.347744660177692
 30
0.0
 11
-16.7
 21
4.312739941030692
 31
0.0
  0
LINE
  5
F1056E
330
261
100
AcDbEntity
  8
Geo
100
AcDbLine
 10
-16.7
 20
4.312739941030692
 30
0.0
 11
-16.60000000000001
 21
4.276889437370993
 31
0.0
  0
LINE
  5
F10570
330
261
100
AcDbEntity
  8
Geo
100
AcDbLine
 10
-16.60000000000001
 20
4.276889437370993
 30
0.0
 11
-16.50000000000001
 21
4.240200179949795
 31
0.0
  0
LINE
  5
F10572
330
261
100
AcDbEntity
  8
Geo
100
AcDbLine
 10
-16.50000000000001
 20
4.240200179949795
 30
0.0
 11
-16.4
 21
4.202679364008595
 31
0.0
  0
LINE
  5
F10574
330
261
100
AcDbEntity
  8
Geo
100
AcDbLine
 10
-16.4
 20
4.202679364008595
 30
0.0
 11
-16.3
 21
4.164334347868393
 31
0.0
  0
LINE
  5
F10576
330
261
100
AcDbEntity
  8
Geo
100
AcDbLine
 10
-16.3
 20
4.164334347868393
 30
0.0
 11
-16.2
 21
4.125172651486696
 31
0.0
  0
LINE
  5
F10578
330
261
100
AcDbEntity
  8
Geo
100
AcDbLine
 10
-16.2
 20
4.125172651486696
 30
0.0
 11
-16.09999999999999
 21
4.085201954982494
 31
0.0
  0
LINE
  5
F1057A
330
261
100
AcDbEntity
  8
Geo
100
AcDbLine
 10
-16.09999999999999
 20
4.085201954982494
 30
0.0
 11
-16.0
 21
4.044430097130394
 31
0.0
  0
LINE
  5
F1057C
330
261
100
AcDbEntity
  8
Geo
100
AcDbLine
 10
-16.0
 20
4.044430097130394
 30
0.0
 11
-15.89999999999999
 21
4.002865073823095
 31
0.0
  0
LINE
  5
F1057E
330
261
100
AcDbEntity
  8
Geo
100
AcDbLine
 10
-15.89999999999999
 20
4.002865073823095
 30
0.0
 11
-15.8
 21
3.960515036503494
 31
0.0
  0
LINE
  5
F10580
330
261
100
AcDbEntity
  8
Geo
100
AcDbLine
 10
-15.8
 20
3.960515036503494
 30
0.0
 11
-15.7
 21
3.917388290565693
 31
0.0
  0
LINE
  5
F10582
330
261
100
AcDbEntity
  8
Geo
100
AcDbLine
 10
-15.7
 20
3.917388290565693
 30
0.0
 11
-15.59999999999999
 21
3.873493293726795
 31
0.0
  0
LINE
  5
F10584
330
261
100
AcDbEntity
  8
Geo
100
AcDbLine
 10
-15.59999999999999
 20
3.873493293726795
 30
0.0
 11
-15.5
 21
3.828838654367793
 31
0.0
  0
LINE
  5
F10586
330
261
100
AcDbEntity
  8
Geo
100
AcDbLine
 10
-15.5
 20
3.828838654367793
 30
0.0
 11
-15.39999999999999
 21
3.783433129845391
 31
0.0
  0
LINE
  5
F10588
330
261
100
AcDbEntity
  8
Geo
100
AcDbLine
 10
-15.39999999999999
 20
3.783433129845391
 30
0.0
 11
-15.3
 21
3.737285624774891
 31
0.0
  0
LINE
  5
F1058A
330
261
100
AcDbEntity
  8
Geo
100
AcDbLine
 10
-15.3
 20
3.737285624774891
 30
0.0
 11
-15.2
 21
3.690405189283296
 31
0.0
  0
LINE
  5
F1058C
330
261
100
AcDbEntity
  8
Geo
100
AcDbLine
 10
-15.2
 20
3.690405189283296
 30
0.0
 11
-15.09999999999999
 21
3.642801017235193
 31
0.0
  0
LINE
  5
F1058E
330
261
100
AcDbEntity
  8
Geo
100
AcDbLine
 10
-15.09999999999999
 20
3.642801017235193
 30
0.0
 11
-15.0
 21
3.594482444429093
 31
0.0
  0
LINE
  5
F10590
330
261
100
AcDbEntity
  8
Geo
100
AcDbLine
 10
-15.0
 20
3.594482444429093
 30
0.0
 11
-14.89999999999999
 21
3.545458946766895
 31
0.0
  0
LINE
  5
F10592
330
261
100
AcDbEntity
  8
Geo
100
AcDbLine
 10
-14.89999999999999
 20
3.545458946766895
 30
0.0
 11
-14.79999999999999
 21
3.495740138395394
 31
0.0
  0
LINE
  5
F10594
330
261
100
AcDbEntity
  8
Geo
100
AcDbLine
 10
-14.79999999999999
 20
3.495740138395394
 30
0.0
 11
-14.7
 21
3.445335769820996
 31
0.0
  0
LINE
  5
F10596
330
261
100
AcDbEntity
  8
Geo
100
AcDbLine
 10
-14.7
 20
3.445335769820996
 30
0.0
 11
-14.59999999999999
 21
3.394255725997293
 31
0.0
  0
LINE
  5
F10598
330
261
100
AcDbEntity
  8
Geo
100
AcDbLine
 10
-14.59999999999999
 20
3.394255725997293
 30
0.0
 11
-14.5
 21
3.342510024386694
 31
0.0
  0
LINE
  5
F1059A
330
261
100
AcDbEntity
  8
Geo
100
AcDbLine
 10
-14.5
 20
3.342510024386694
 30
0.0
 11
-14.39999999999999
 21
3.290108812995594
 31
0.0
  0
LINE
  5
F1059C
330
261
100
AcDbEntity
  8
Geo
100
AcDbLine
 10
-14.39999999999999
 20
3.290108812995594
 30
0.0
 11
-14.29999999999999
 21
3.237062368384595
 31
0.0
  0
LINE
  5
F1059E
330
261
100
AcDbEntity
  8
Geo
100
AcDbLine
 10
-14.29999999999999
 20
3.237062368384595
 30
0.0
 11
-14.2
 21
3.183381093652894
 31
0.0
  0
LINE
  5
F105A0
330
261
100
AcDbEntity
  8
Geo
100
AcDbLine
 10
-14.2
 20
3.183381093652894
 30
0.0
 11
-14.09999999999999
 21
3.129075516397996
 31
0.0
  0
LINE
  5
F105A2
330
261
100
AcDbEntity
  8
Geo
100
AcDbLine
 10
-14.09999999999999
 20
3.129075516397996
 30
0.0
 11
-14.0
 21
3.074156286651593
 31
0.0
  0
LINE
  5
F105A4
330
261
100
AcDbEntity
  8
Geo
100
AcDbLine
 10
-14.0
 20
3.074156286651593
 30
0.0
 11
-13.89999999999999
 21
3.018634174790195
 31
0.0
  0
LINE
  5
F105A6
330
261
100
AcDbEntity
  8
Geo
100
AcDbLine
 10
-13.89999999999999
 20
3.018634174790195
 30
0.0
 11
-13.8
 21
2.962520069423796
 31
0.0
  0
LINE
  5
F105A8
330
261
100
AcDbEntity
  8
Geo
100
AcDbLine
 10
-13.8
 20
2.962520069423796
 30
0.0
 11
-13.7
 21
2.905824975259696
 31
0.0
  0
LINE
  5
F105AA
330
261
100
AcDbEntity
  8
Geo
100
AcDbLine
 10
-13.7
 20
2.905824975259696
 30
0.0
 11
-13.59999999999999
 21
2.848560010944893
 31
0.0
  0
LINE
  5
F105AC
330
261
100
AcDbEntity
  8
Geo
100
AcDbLine
 10
-13.59999999999999
 20
2.848560010944893
 30
0.0
 11
-13.5
 21
2.790736406885095
 31
0.0
  0
LINE
  5
F105AE
330
261
100
AcDbEntity
  8
Geo
100
AcDbLine
 10
-13.5
 20
2.790736406885095
 30
0.0
 11
-13.39999999999999
 21
2.732365503042792
 31
0.0
  0
LINE
  5
F105B0
330
261
100
AcDbEntity
  8
Geo
100
AcDbLine
 10
-13.39999999999999
 20
2.732365503042792
 30
0.0
 11
-13.3
 21
2.673458746713095
 31
0.0
  0
LINE
  5
F105B2
330
261
100
AcDbEntity
  8
Geo
100
AcDbLine
 10
-13.3
 20
2.673458746713095
 30
0.0
 11
-13.2
 21
2.614027690278595
 31
0.0
  0
LINE
  5
F105B4
330
261
100
AcDbEntity
  8
Geo
100
AcDbLine
 10
-13.2
 20
2.614027690278595
 30
0.0
 11
-13.09999999999999
 21
2.554083988943993
 31
0.0
  0
LINE
  5
F105B6
330
261
100
AcDbEntity
  8
Geo
100
AcDbLine
 10
-13.09999999999999
 20
2.554083988943993
 30
0.0
 11
-13.0
 21
2.493639398450493
 31
0.0
  0
LINE
  5
F105B8
330
261
100
AcDbEntity
  8
Geo
100
AcDbLine
 10
-13.0
 20
2.493639398450493
 30
0.0
 11
-12.89999999999999
 21
2.432705772770095
 31
0.0
  0
LINE
  5
F105BA
330
261
100
AcDbEntity
  8
Geo
100
AcDbLine
 10
-12.89999999999999
 20
2.432705772770095
 30
0.0
 11
-12.8
 21
2.371295061780894
 31
0.0
  0
LINE
  5
F105BC
330
261
100
AcDbEntity
  8
Geo
100
AcDbLine
 10
-12.8
 20
2.371295061780894
 30
0.0
 11
-12.7
 21
2.309419308923793
 31
0.0
  0
LINE
  5
F105BE
330
261
100
AcDbEntity
  8
Geo
100
AcDbLine
 10
-12.7
 20
2.309419308923793
 30
0.0
 11
-12.59999999999999
 21
2.247090648840394
 31
0.0
  0
LINE
  5
F105C0
330
261
100
AcDbEntity
  8
Geo
100
AcDbLine
 10
-12.59999999999999
 20
2.247090648840394
 30
0.0
 11
-12.5
 21
2.184321304993293
 31
0.0
  0
LINE
  5
F105C2
330
261
100
AcDbEntity
  8
Geo
100
AcDbLine
 10
-12.5
 20
2.184321304993293
 30
0.0
 11
-12.39999999999999
 21
2.121123587268794
 31
0.0
  0
LINE
  5
F105C4
330
261
100
AcDbEntity
  8
Geo
100
AcDbLine
 10
-12.39999999999999
 20
2.121123587268794
 30
0.0
 11
-12.29999999999999
 21
2.057509889563194
 31
0.0
  0
LINE
  5
F105C6
330
261
100
AcDbEntity
  8
Geo
100
AcDbLine
 10
-12.29999999999999
 20
2.057509889563194
 30
0.0
 11
-12.2
 21
1.993492687351695
 31
0.0
  0
LINE
  5
F105C8
330
261
100
AcDbEntity
  8
Geo
100
AcDbLine
 10
-12.2
 20
1.993492687351695
 30
0.0
 11
-12.09999999999999
 21
1.929084535241893
 31
0.0
  0
LINE
  5
F105CA
330
261
100
AcDbEntity
  8
Geo
100
AcDbLine
 10
-12.09999999999999
 20
1.929084535241893
 30
0.0
 11
-12.0
 21
1.864298064512096
 31
0.0
  0
LINE
  5
F105CC
330
261
100
AcDbEntity
  8
Geo
100
AcDbLine
 10
-12.0
 20
1.864298064512096
 30
0.0
 11
-12.0
 21
1.864298064512096
 31
0.0
  0
LINE
  5
F105CE
330
261
100
AcDbEntity
  8
Geo
100
AcDbLine
 10
-12.0
 20
1.864298064512096
 30
0.0
 11
-12.0
 21
1.864298064512096
 31
0.0
  0
LINE
  5
F105D0
330
261
100
AcDbEntity
  8
Geo
100
AcDbLine
 10
-12.0
 20
1.864298064512096
 30
0.0
 11
-11.89999999999999
 21
1.872619872820195
 31
0.0
  0
LINE
  5
F105D2
330
261
100
AcDbEntity
  8
Geo
100
AcDbLine
 10
-11.89999999999999
 20
1.872619872820195
 30
0.0
 11
-11.79999999999999
 21
1.881255717026293
 31
0.0
  0
LINE
  5
F105D4
330
261
100
AcDbEntity
  8
Geo
100
AcDbLine
 10
-11.79999999999999
 20
1.881255717026293
 30
0.0
 11
-11.7
 21
1.890204842150495
 31
0.0
  0
LINE
  5
F105D6
330
261
100
AcDbEntity
  8
Geo
100
AcDbLine
 10
-11.7
 20
1.890204842150495
 30
0.0
 11
-11.59999999999999
 21
1.899466459376695
 31
0.0
  0
LINE
  5
F105D8
330
261
100
AcDbEntity
  8
Geo
100
AcDbLine
 10
-11.59999999999999
 20
1.899466459376695
 30
0.0
 11
-11.5
 21
1.909039745421194
 31
0.0
  0
LINE
  5
F105DA
330
261
100
AcDbEntity
  8
Geo
100
AcDbLine
 10
-11.5
 20
1.909039745421194
 30
0.0
 11
-11.39999999999999
 21
1.918923841880394
 31
0.0
  0
LINE
  5
F105DC
330
261
100
AcDbEntity
  8
Geo
100
AcDbLine
 10
-11.39999999999999
 20
1.918923841880394
 30
0.0
 11
-11.29999999999999
 21
1.929117854557095
 31
0.0
  0
LINE
  5
F105DE
330
261
100
AcDbEntity
  8
Geo
100
AcDbLine
 10
-11.29999999999999
 20
1.929117854557095
 30
0.0
 11
-11.2
 21
1.939620852766294
 31
0.0
  0
LINE
  5
F105E0
330
261
100
AcDbEntity
  8
Geo
100
AcDbLine
 10
-11.2
 20
1.939620852766294
 30
0.0
 11
-11.09999999999999
 21
1.950431868619293
 31
0.0
  0
LINE
  5
F105E2
330
261
100
AcDbEntity
  8
Geo
100
AcDbLine
 10
-11.09999999999999
 20
1.950431868619293
 30
0.0
 11
-11.0
 21
1.961549896288495
 31
0.0
  0
LINE
  5
F105E4
330
261
100
AcDbEntity
  8
Geo
100
AcDbLine
 10
-11.0
 20
1.961549896288495
 30
0.0
 11
-10.89999999999999
 21
1.972973891250793
 31
0.0
  0
LINE
  5
F105E6
330
261
100
AcDbEntity
  8
Geo
100
AcDbLine
 10
-10.89999999999999
 20
1.972973891250793
 30
0.0
 11
-10.8
 21
1.984702769510894
 31
0.0
  0
LINE
  5
F105E8
330
261
100
AcDbEntity
  8
Geo
100
AcDbLine
 10
-10.8
 20
1.984702769510894
 30
0.0
 11
-10.7
 21
1.996735406804793
 31
0.0
  0
LINE
  5
F105EA
330
261
100
AcDbEntity
  8
Geo
100
AcDbLine
 10
-10.7
 20
1.996735406804793
 30
0.0
 11
-10.59999999999999
 21
2.009070637783393
 31
0.0
  0
LINE
  5
F105EC
330
261
100
AcDbEntity
  8
Geo
100
AcDbLine
 10
-10.59999999999999
 20
2.009070637783393
 30
0.0
 11
-10.5
 21
2.021707255176394
 31
0.0
  0
LINE
  5
F105EE
330
261
100
AcDbEntity
  8
Geo
100
AcDbLine
 10
-10.5
 20
2.021707255176394
 30
0.0
 11
-10.39999999999999
 21
2.034644008936693
 31
0.0
  0
LINE
  5
F105F0
330
261
100
AcDbEntity
  8
Geo
100
AcDbLine
 10
-10.39999999999999
 20
2.034644008936693
 30
0.0
 11
-10.3
 21
2.047879605365894
 31
0.0
  0
LINE
  5
F105F2
330
261
100
AcDbEntity
  8
Geo
100
AcDbLine
 10
-10.3
 20
2.047879605365894
 30
0.0
 11
-10.2
 21
2.061412706220496
 31
0.0
  0
LINE
  5
F105F4
330
261
100
AcDbEntity
  8
Geo
100
AcDbLine
 10
-10.2
 20
2.061412706220496
 30
0.0
 11
-10.09999999999999
 21
2.075241927799892
 31
0.0
  0
LINE
  5
F105F6
330
261
100
AcDbEntity
  8
Geo
100
AcDbLine
 10
-10.09999999999999
 20
2.075241927799892
 30
0.0
 11
-10.0
 21
2.089365840015393
 31
0.0
  0
LINE
  5
F105F8
330
261
100
AcDbEntity
  8
Geo
100
AcDbLine
 10
-10.0
 20
2.089365840015393
 30
0.0
 11
-9.899999999999991
 21
2.103782965441395
 31
0.0
  0
LINE
  5
F105FA
330
261
100
AcDbEntity
  8
Geo
100
AcDbLine
 10
-9.899999999999991
 20
2.103782965441395
 30
0.0
 11
-9.799999999999997
 21
2.118491778348793
 31
0.0
  0
LINE
  5
F105FC
330
261
100
AcDbEntity
  8
Geo
100
AcDbLine
 10
-9.799999999999997
 20
2.118491778348793
 30
0.0
 11
-9.700000000000002
 21
2.133490703720594
 31
0.0
  0
LINE
  5
F105FE
330
261
100
AcDbEntity
  8
Geo
100
AcDbLine
 10
-9.700000000000002
 20
2.133490703720594
 30
0.0
 11
-9.599999999999994
 21
2.148778116250293
 31
0.0
  0
LINE
  5
F10600
330
261
100
AcDbEntity
  8
Geo
100
AcDbLine
 10
-9.599999999999994
 20
2.148778116250293
 30
0.0
 11
-9.5
 21
2.164352339323194
 31
0.0
  0
LINE
  5
F10602
330
261
100
AcDbEntity
  8
Geo
100
AcDbLine
 10
-9.5
 20
2.164352339323194
 30
0.0
 11
-9.399999999999991
 21
2.180211643981495
 31
0.0
  0
LINE
  5
F10604
330
261
100
AcDbEntity
  8
Geo
100
AcDbLine
 10
-9.399999999999991
 20
2.180211643981495
 30
0.0
 11
-9.299999999999997
 21
2.196354247872593
 31
0.0
  0
LINE
  5
F10606
330
261
100
AcDbEntity
  8
Geo
100
AcDbLine
 10
-9.299999999999997
 20
2.196354247872593
 30
0.0
 11
-9.200000000000002
 21
2.212778314181495
 31
0.0
  0
LINE
  5
F10608
330
261
100
AcDbEntity
  8
Geo
100
AcDbLine
 10
-9.200000000000002
 20
2.212778314181495
 30
0.0
 11
-9.099999999999994
 21
2.229481950547892
 31
0.0
  0
LINE
  5
F1060A
330
261
100
AcDbEntity
  8
Geo
100
AcDbLine
 10
-9.099999999999994
 20
2.229481950547892
 30
0.0
 11
-9.0
 21
2.246463207968194
 31
0.0
  0
LINE
  5
F1060C
330
261
100
AcDbEntity
  8
Geo
100
AcDbLine
 10
-9.0
 20
2.246463207968194
 30
0.0
 11
-8.899999999999991
 21
2.263720079681892
 31
0.0
  0
LINE
  5
F1060E
330
261
100
AcDbEntity
  8
Geo
100
AcDbLine
 10
-8.899999999999991
 20
2.263720079681892
 30
0.0
 11
-8.799999999999997
 21
2.281250500044393
 31
0.0
  0
LINE
  5
F10610
330
261
100
AcDbEntity
  8
Geo
100
AcDbLine
 10
-8.799999999999997
 20
2.281250500044393
 30
0.0
 11
-8.700000000000002
 21
2.299052343385193
 31
0.0
  0
LINE
  5
F10612
330
261
100
AcDbEntity
  8
Geo
100
AcDbLine
 10
-8.700000000000002
 20
2.299052343385193
 30
0.0
 11
-8.599999999999994
 21
2.317123422853095
 31
0.0
  0
LINE
  5
F10614
330
261
100
AcDbEntity
  8
Geo
100
AcDbLine
 10
-8.599999999999994
 20
2.317123422853095
 30
0.0
 11
-8.5
 21
2.335461489247695
 31
0.0
  0
LINE
  5
F10616
330
261
100
AcDbEntity
  8
Geo
100
AcDbLine
 10
-8.5
 20
2.335461489247695
 30
0.0
 11
-8.399999999999991
 21
2.354064229838495
 31
0.0
  0
LINE
  5
F10618
330
261
100
AcDbEntity
  8
Geo
100
AcDbLine
 10
-8.399999999999991
 20
2.354064229838495
 30
0.0
 11
-8.299999999999997
 21
2.372929267171793
 31
0.0
  0
LINE
  5
F1061A
330
261
100
AcDbEntity
  8
Geo
100
AcDbLine
 10
-8.299999999999997
 20
2.372929267171793
 30
0.0
 11
-8.200000000000002
 21
2.392054157865594
 31
0.0
  0
LINE
  5
F1061C
330
261
100
AcDbEntity
  8
Geo
100
AcDbLine
 10
-8.200000000000002
 20
2.392054157865594
 30
0.0
 11
-8.099999999999994
 21
2.411436391393793
 31
0.0
  0
LINE
  5
F1061E
330
261
100
AcDbEntity
  8
Geo
100
AcDbLine
 10
-8.099999999999994
 20
2.411436391393793
 30
0.0
 11
-8.0
 21
2.431073388858893
 31
0.0
  0
LINE
  5
F10620
330
261
100
AcDbEntity
  8
Geo
100
AcDbLine
 10
-26.00000000000001
 20
2.876728158052495
 30
0.0
 11
-25.90000000000001
 21
2.873250460022594
 31
0.0
  0
LINE
  5
F10622
330
261
100
AcDbEntity
  8
Geo
100
AcDbLine
 10
-26.00000000000001
 20
-3.897202421821994
 30
0.0
 11
-25.90000000000001
 21
-4.017078530942937
 31
0.0
  0
LINE
  5
F10624
330
261
100
AcDbEntity
  8
Geo
100
AcDbLine
 10
-25.90000000000001
 20
2.873250460022594
 30
0.0
 11
-25.80000000000001
 21
2.810362497205392
 31
0.0
  0
LINE
  5
F10626
330
261
100
AcDbEntity
  8
Geo
100
AcDbLine
 10
-25.90000000000001
 20
-4.017078530942937
 30
0.0
 11
-25.80000000000001
 21
-4.056632095304806
 31
0.0
  0
LINE
  5
F10628
330
261
100
AcDbEntity
  8
Geo
100
AcDbLine
 10
-25.80000000000001
 20
2.810362497205392
 30
0.0
 11
-25.7
 21
2.746788362114795
 31
0.0
  0
LINE
  5
F1062A
330
261
100
AcDbEntity
  8
Geo
100
AcDbLine
 10
-25.80000000000001
 20
-4.056632095304806
 30
0.0
 11
-25.7
 21
-4.095390101240605
 31
0.0
  0
LINE
  5
F1062C
330
261
100
AcDbEntity
  8
Geo
100
AcDbLine
 10
-25.7
 20
2.746788362114795
 30
0.0
 11
-25.60000000000001
 21
2.682543576879494
 31
0.0
  0
LINE
  5
F1062E
330
261
100
AcDbEntity
  8
Geo
100
AcDbLine
 10
-25.7
 20
-4.095390101240605
 30
0.0
 11
-25.60000000000001
 21
-4.133344947800225
 31
0.0
  0
LINE
  5
F10630
330
261
100
AcDbEntity
  8
Geo
100
AcDbLine
 10
-25.60000000000001
 20
2.682543576879494
 30
0.0
 11
-25.50000000000002
 21
2.617643827373095
 31
0.0
  0
LINE
  5
F10632
330
261
100
AcDbEntity
  8
Geo
100
AcDbLine
 10
-25.60000000000001
 20
-4.133344947800225
 30
0.0
 11
-25.50000000000002
 21
-4.170489191543564
 31
0.0
  0
LINE
  5
F10634
330
261
100
AcDbEntity
  8
Geo
100
AcDbLine
 10
-25.50000000000002
 20
2.617643827373095
 30
0.0
 11
-25.40000000000001
 21
2.552104959383594
 31
0.0
  0
LINE
  5
F10636
330
261
100
AcDbEntity
  8
Geo
100
AcDbLine
 10
-25.50000000000002
 20
-4.170489191543564
 30
0.0
 11
-25.40000000000001
 21
-4.206815548000305
 31
0.0
  0
LINE
  5
F10638
330
261
100
AcDbEntity
  8
Geo
100
AcDbLine
 10
-25.40000000000001
 20
2.552104959383594
 30
0.0
 11
-25.30000000000001
 21
2.485942974744892
 31
0.0
  0
LINE
  5
F1063A
330
261
100
AcDbEntity
  8
Geo
100
AcDbLine
 10
-25.40000000000001
 20
-4.206815548000305
 30
0.0
 11
-25.30000000000001
 21
-4.242316893098484
 31
0.0
  0
LINE
  5
F1063C
330
261
100
AcDbEntity
  8
Geo
100
AcDbLine
 10
-25.30000000000001
 20
2.485942974744892
 30
0.0
 11
-25.2
 21
2.419174027430093
 31
0.0
  0
LINE
  5
F1063E
330
261
100
AcDbEntity
  8
Geo
100
AcDbLine
 10
-25.30000000000001
 20
-4.242316893098484
 30
0.0
 11
-25.2
 21
-4.276986264561635
 31
0.0
  0
LINE
  5
F10640
330
261
100
AcDbEntity
  8
Geo
100
AcDbLine
 10
-25.2
 20
2.419174027430093
 30
0.0
 11
-25.10000000000001
 21
2.351814419606393
 31
0.0
  0
LINE
  5
F10642
330
261
100
AcDbEntity
  8
Geo
100
AcDbLine
 10
-25.2
 20
-4.276986264561635
 30
0.0
 11
-25.10000000000001
 21
-4.310816863274125
 31
0.0
  0
LINE
  5
F10644
330
261
100
AcDbEntity
  8
Geo
100
AcDbLine
 10
-25.10000000000001
 20
2.351814419606393
 30
0.0
 11
-25.00000000000002
 21
2.283880597656196
 31
0.0
  0
LINE
  5
F10646
330
261
100
AcDbEntity
  8
Geo
100
AcDbLine
 10
-25.10000000000001
 20
-4.310816863274125
 30
0.0
 11
-25.00000000000002
 21
-4.343802054614634
 31
0.0
  0
LINE
  5
F10648
330
261
100
AcDbEntity
  8
Geo
100
AcDbLine
 10
-25.00000000000002
 20
2.283880597656196
 30
0.0
 11
-24.90000000000001
 21
2.215389148160095
 31
0.0
  0
LINE
  5
F1064A
330
261
100
AcDbEntity
  8
Geo
100
AcDbLine
 10
-25.00000000000002
 20
-4.343802054614634
 30
0.0
 11
-24.90000000000001
 21
-4.375935369757215
 31
0.0
  0
LINE
  5
F1064C
330
261
100
AcDbEntity
  8
Geo
100
AcDbLine
 10
-24.90000000000001
 20
2.215389148160095
 30
0.0
 11
-24.80000000000001
 21
2.146356793848495
 31
0.0
  0
LINE
  5
F1064E
330
261
100
AcDbEntity
  8
Geo
100
AcDbLine
 10
-24.90000000000001
 20
-4.375935369757215
 30
0.0
 11
-24.80000000000001
 21
-4.407210506939975
 31
0.0
  0
LINE
  5
F10650
330
261
100
AcDbEntity
  8
Geo
100
AcDbLine
 10
-24.80000000000001
 20
2.146356793848495
 30
0.0
 11
-24.70000000000001
 21
2.076800389517496
 31
0.0
  0
LINE
  5
F10652
330
261
100
AcDbEntity
  8
Geo
100
AcDbLine
 10
-24.80000000000001
 20
-4.407210506939975
 30
0.0
 11
-24.70000000000001
 21
-4.437621332700864
 31
0.0
  0
LINE
  5
F10654
330
261
100
AcDbEntity
  8
Geo
100
AcDbLine
 10
-24.70000000000001
 20
2.076800389517496
 30
0.0
 11
-24.60000000000001
 21
2.006736917914595
 31
0.0
  0
LINE
  5
F10656
330
261
100
AcDbEntity
  8
Geo
100
AcDbLine
 10
-24.70000000000001
 20
-4.437621332700864
 30
0.0
 11
-24.60000000000001
 21
-4.467161883080615
 31
0.0
  0
LINE
  5
F10658
330
261
100
AcDbEntity
  8
Geo
100
AcDbLine
 10
-24.60000000000001
 20
2.006736917914595
 30
0.0
 11
-24.50000000000001
 21
1.936183485591495
 31
0.0
  0
LINE
  5
F1065A
330
261
100
AcDbEntity
  8
Geo
100
AcDbLine
 10
-24.60000000000001
 20
-4.467161883080615
 30
0.0
 11
-24.50000000000001
 21
-4.495826364792264
 31
0.0
  0
LINE
  5
F1065C
330
261
100
AcDbEntity
  8
Geo
100
AcDbLine
 10
-24.50000000000001
 20
1.936183485591495
 30
0.0
 11
-24.40000000000001
 21
1.865157318727794
 31
0.0
  0
LINE
  5
F1065E
330
261
100
AcDbEntity
  8
Geo
100
AcDbLine
 10
-24.50000000000001
 20
-4.495826364792264
 30
0.0
 11
-24.40000000000001
 21
-4.523609156357355
 31
0.0
  0
LINE
  5
F10660
330
261
100
AcDbEntity
  8
Geo
100
AcDbLine
 10
-24.40000000000001
 20
1.865157318727794
 30
0.0
 11
-24.30000000000001
 21
1.793675758924894
 31
0.0
  0
LINE
  5
F10662
330
261
100
AcDbEntity
  8
Geo
100
AcDbLine
 10
-24.40000000000001
 20
-4.523609156357355
 30
0.0
 11
-24.30000000000001
 21
-4.550504809208355
 31
0.0
  0
LINE
  5
F10664
330
261
100
AcDbEntity
  8
Geo
100
AcDbLine
 10
-24.30000000000001
 20
1.793675758924894
 30
0.0
 11
-24.2
 21
1.721756258971995
 31
0.0
  0
LINE
  5
F10666
330
261
100
AcDbEntity
  8
Geo
100
AcDbLine
 10
-24.30000000000001
 20
-4.550504809208355
 30
0.0
 11
-24.2
 21
-4.576508048757185
 31
0.0
  0
LINE
  5
F10668
330
261
100
AcDbEntity
  8
Geo
100
AcDbLine
 10
-24.2
 20
1.721756258971995
 30
0.0
 11
-24.10000000000001
 21
1.649416378585193
 31
0.0
  0
LINE
  5
F1066A
330
261
100
AcDbEntity
  8
Geo
100
AcDbLine
 10
-24.2
 20
-4.576508048757185
 30
0.0
 11
-24.10000000000001
 21
-4.601613775429674
 31
0.0
  0
LINE
  5
F1066C
330
261
100
AcDbEntity
  8
Geo
100
AcDbLine
 10
-24.10000000000001
 20
1.649416378585193
 30
0.0
 11
-24.00000000000002
 21
1.576673780119195
 31
0.0
  0
LINE
  5
F1066E
330
261
100
AcDbEntity
  8
Geo
100
AcDbLine
 10
-24.10000000000001
 20
-4.601613775429674
 30
0.0
 11
-24.00000000000002
 21
-4.625817065665595
 31
0.0
  0
LINE
  5
F10670
330
261
100
AcDbEntity
  8
Geo
100
AcDbLine
 10
-24.00000000000002
 20
1.576673780119195
 30
0.0
 11
-23.90000000000001
 21
1.503546224255996
 31
0.0
  0
LINE
  5
F10672
330
261
100
AcDbEntity
  8
Geo
100
AcDbLine
 10
-24.00000000000002
 20
-4.625817065665595
 30
0.0
 11
-23.90000000000001
 21
-4.649113172884275
 31
0.0
  0
LINE
  5
F10674
330
261
100
AcDbEntity
  8
Geo
100
AcDbLine
 10
-23.90000000000001
 20
1.503546224255996
 30
0.0
 11
-23.80000000000001
 21
1.430051565667794
 31
0.0
  0
LINE
  5
F10676
330
261
100
AcDbEntity
  8
Geo
100
AcDbLine
 10
-23.90000000000001
 20
-4.649113172884275
 30
0.0
 11
-23.80000000000001
 21
-4.671497528415466
 31
0.0
  0
LINE
  5
F10678
330
261
100
AcDbEntity
  8
Geo
100
AcDbLine
 10
-23.80000000000001
 20
1.430051565667794
 30
0.0
 11
-23.7
 21
1.356207748657894
 31
0.0
  0
LINE
  5
F1067A
330
261
100
AcDbEntity
  8
Geo
100
AcDbLine
 10
-23.80000000000001
 20
-4.671497528415466
 30
0.0
 11
-23.7
 21
-4.692965742395305
 31
0.0
  0
LINE
  5
F1067C
330
261
100
AcDbEntity
  8
Geo
100
AcDbLine
 10
-23.7
 20
1.356207748657894
 30
0.0
 11
-23.60000000000001
 21
1.282032802779394
 31
0.0
  0
LINE
  5
F1067E
330
261
100
AcDbEntity
  8
Geo
100
AcDbLine
 10
-23.7
 20
-4.692965742395305
 30
0.0
 11
-23.60000000000001
 21
-4.713513604627205
 31
0.0
  0
LINE
  5
F10680
330
261
100
AcDbEntity
  8
Geo
100
AcDbLine
 10
-23.60000000000001
 20
1.282032802779394
 30
0.0
 11
-23.50000000000001
 21
1.207544838433094
 31
0.0
  0
LINE
  5
F10682
330
261
100
AcDbEntity
  8
Geo
100
AcDbLine
 10
-23.60000000000001
 20
-4.713513604627205
 30
0.0
 11
-23.50000000000001
 21
-4.733137085407594
 31
0.0
  0
LINE
  5
F10684
330
261
100
AcDbEntity
  8
Geo
100
AcDbLine
 10
-23.50000000000001
 20
1.207544838433094
 30
0.0
 11
-23.40000000000001
 21
1.132762042445595
 31
0.0
  0
LINE
  5
F10686
330
261
100
AcDbEntity
  8
Geo
100
AcDbLine
 10
-23.50000000000001
 20
-4.733137085407594
 30
0.0
 11
-23.40000000000001
 21
-4.751832336316114
 31
0.0
  0
LINE
  5
F10688
330
261
100
AcDbEntity
  8
Geo
100
AcDbLine
 10
-23.40000000000001
 20
1.132762042445595
 30
0.0
 11
-23.30000000000001
 21
1.057702673629394
 31
0.0
  0
LINE
  5
F1068A
330
261
100
AcDbEntity
  8
Geo
100
AcDbLine
 10
-23.40000000000001
 20
-4.751832336316114
 30
0.0
 11
-23.30000000000001
 21
-4.769595690970405
 31
0.0
  0
LINE
  5
F1068C
330
261
100
AcDbEntity
  8
Geo
100
AcDbLine
 10
-23.30000000000001
 20
1.057702673629394
 30
0.0
 11
-23.2
 21
0.982385058323894
 31
0.0
  0
LINE
  5
F1068E
330
261
100
AcDbEntity
  8
Geo
100
AcDbLine
 10
-23.30000000000001
 20
-4.769595690970405
 30
0.0
 11
-23.2
 21
-4.786423665745095
 31
0.0
  0
LINE
  5
F10690
330
261
100
AcDbEntity
  8
Geo
100
AcDbLine
 10
-23.2
 20
0.982385058323894
 30
0.0
 11
-23.10000000000001
 21
0.9068275859218939
 31
0.0
  0
LINE
  5
F10692
330
261
100
AcDbEntity
  8
Geo
100
AcDbLine
 10
-23.2
 20
-4.786423665745095
 30
0.0
 11
-23.10000000000001
 21
-4.802312960455006
 31
0.0
  0
LINE
  5
F10694
330
261
100
AcDbEntity
  8
Geo
100
AcDbLine
 10
-23.10000000000001
 20
0.9068275859218939
 30
0.0
 11
-23.00000000000002
 21
0.8310487043789969
 31
0.0
  0
LINE
  5
F10696
330
261
100
AcDbEntity
  8
Geo
100
AcDbLine
 10
-23.10000000000001
 20
-4.802312960455006
 30
0.0
 11
-23.00000000000002
 21
-4.817260459002344
 31
0.0
  0
LINE
  5
F10698
330
261
100
AcDbEntity
  8
Geo
100
AcDbLine
 10
-23.00000000000002
 20
0.8310487043789969
 30
0.0
 11
-22.9
 21
0.7550669157094952
 31
0.0
  0
LINE
  5
F1069A
330
261
100
AcDbEntity
  8
Geo
100
AcDbLine
 10
-23.00000000000002
 20
-4.817260459002344
 30
0.0
 11
-22.9
 21
-4.831263229987834
 31
0.0
  0
LINE
  5
F1069C
330
261
100
AcDbEntity
  8
Geo
100
AcDbLine
 10
-22.9
 20
0.7550669157094952
 30
0.0
 11
-22.80000000000001
 21
0.6789007714692925
 31
0.0
  0
LINE
  5
F1069E
330
261
100
AcDbEntity
  8
Geo
100
AcDbLine
 10
-22.9
 20
-4.831263229987834
 30
0.0
 11
-22.80000000000001
 21
-4.844318527285585
 31
0.0
  0
LINE
  5
F106A0
330
261
100
AcDbEntity
  8
Geo
100
AcDbLine
 10
-22.80000000000001
 20
0.6789007714692925
 30
0.0
 11
-22.7
 21
0.602568868225994
 31
0.0
  0
LINE
  5
F106A2
330
261
100
AcDbEntity
  8
Geo
100
AcDbLine
 10
-22.80000000000001
 20
-4.844318527285585
 30
0.0
 11
-22.7
 21
-4.856423790581624
 31
0.0
  0
LINE
  5
F106A4
330
261
100
AcDbEntity
  8
Geo
100
AcDbLine
 10
-22.7
 20
0.602568868225994
 30
0.0
 11
-22.60000000000001
 21
0.5260898430186938
 31
0.0
  0
LINE
  5
F106A6
330
261
100
AcDbEntity
  8
Geo
100
AcDbLine
 10
-22.7
 20
-4.856423790581624
 30
0.0
 11
-22.60000000000001
 21
-4.867576645876065
 31
0.0
  0
LINE
  5
F106A8
330
261
100
AcDbEntity
  8
Geo
100
AcDbLine
 10
-22.60000000000001
 20
0.5260898430186938
 30
0.0
 11
-22.50000000000001
 21
0.4494823688073933
 31
0.0
  0
LINE
  5
F106AA
330
261
100
AcDbEntity
  8
Geo
100
AcDbLine
 10
-22.60000000000001
 20
-4.867576645876065
 30
0.0
 11
-22.50000000000001
 21
-4.877774905948614
 31
0.0
  0
LINE
  5
F106AC
330
261
100
AcDbEntity
  8
Geo
100
AcDbLine
 10
-22.50000000000001
 20
0.4494823688073933
 30
0.0
 11
-22.40000000000001
 21
0.3727651499139952
 31
0.0
  0
LINE
  5
F106AE
330
261
100
AcDbEntity
  8
Geo
100
AcDbLine
 10
-22.50000000000001
 20
-4.877774905948614
 30
0.0
 11
-22.40000000000001
 21
-4.887016570787546
 31
0.0
  0
LINE
  5
F106B0
330
261
100
AcDbEntity
  8
Geo
100
AcDbLine
 10
-22.40000000000001
 20
0.3727651499139952
 30
0.0
 11
-22.30000000000001
 21
0.2959569174553955
 31
0.0
  0
LINE
  5
F106B2
330
261
100
AcDbEntity
  8
Geo
100
AcDbLine
 10
-22.40000000000001
 20
-4.887016570787546
 30
0.0
 11
-22.30000000000001
 21
-4.895299827981935
 31
0.0
  0
LINE
  5
F106B4
330
261
100
AcDbEntity
  8
Geo
100
AcDbLine
 10
-22.30000000000001
 20
0.2959569174553955
 30
0.0
 11
-22.2
 21
0.2190764247701935
 31
0.0
  0
LINE
  5
F106B6
330
261
100
AcDbEntity
  8
Geo
100
AcDbLine
 10
-22.30000000000001
 20
-4.895299827981935
 30
0.0
 11
-22.2
 21
-4.902623053077094
 31
0.0
  0
LINE
  5
F106B8
330
261
100
AcDbEntity
  8
Geo
100
AcDbLine
 10
-22.2
 20
0.2190764247701935
 30
0.0
 11
-22.10000000000001
 21
0.1421424428398943
 31
0.0
  0
LINE
  5
F106BA
330
261
100
AcDbEntity
  8
Geo
100
AcDbLine
 10
-22.2
 20
-4.902623053077094
 30
0.0
 11
-22.10000000000001
 21
-4.908984809893135
 31
0.0
  0
LINE
  5
F106BC
330
261
100
AcDbEntity
  8
Geo
100
AcDbLine
 10
-22.10000000000001
 20
0.1421424428398943
 30
0.0
 11
-22.00000000000001
 21
0.0651737557057928
 31
0.0
  0
LINE
  5
F106BE
330
261
100
AcDbEntity
  8
Geo
100
AcDbLine
 10
-22.10000000000001
 20
-4.908984809893135
 30
0.0
 11
-22.00000000000001
 21
-4.914383850806615
 31
0.0
  0
LINE
  5
F106C0
330
261
100
AcDbEntity
  8
Geo
100
AcDbLine
 10
-22.00000000000001
 20
0.0651737557057928
 30
0.0
 11
-21.90000000000001
 21
-0.0118108441172051
 31
0.0
  0
LINE
  5
F106C2
330
261
100
AcDbEntity
  8
Geo
100
AcDbLine
 10
-22.00000000000001
 20
-4.914383850806615
 30
0.0
 11
-21.90000000000001
 21
-4.918819116995264
 31
0.0
  0
LINE
  5
F106C4
330
261
100
AcDbEntity
  8
Geo
100
AcDbLine
 10
-21.90000000000001
 20
-0.0118108441172051
 30
0.0
 11
-21.80000000000001
 21
-0.0887925602290061
 31
0.0
  0
LINE
  5
F106C6
330
261
100
AcDbEntity
  8
Geo
100
AcDbLine
 10
-21.90000000000001
 20
-4.918819116995264
 30
0.0
 11
-21.80000000000001
 21
-4.922289738645554
 31
0.0
  0
LINE
  5
F106C8
330
261
100
AcDbEntity
  8
Geo
100
AcDbLine
 10
-21.80000000000001
 20
-0.0887925602290061
 30
0.0
 11
-21.7
 21
-0.165752596933606
 31
0.0
  0
LINE
  5
F106CA
330
261
100
AcDbEntity
  8
Geo
100
AcDbLine
 10
-21.80000000000001
 20
-4.922289738645554
 30
0.0
 11
-21.7
 21
-4.924795035123365
 31
0.0
  0
LINE
  5
F106CC
330
261
100
AcDbEntity
  8
Geo
100
AcDbLine
 10
-21.7
 20
-0.165752596933606
 30
0.0
 11
-21.60000000000001
 21
-0.2426721638283062
 31
0.0
  0
LINE
  5
F106CE
330
261
100
AcDbEntity
  8
Geo
100
AcDbLine
 10
-21.7
 20
-4.924795035123365
 30
0.0
 11
-21.60000000000001
 21
-4.926334515107395
 31
0.0
  0
LINE
  5
F106D0
330
261
100
AcDbEntity
  8
Geo
100
AcDbLine
 10
-21.60000000000001
 20
-0.2426721638283062
 30
0.0
 11
-21.50000000000002
 21
-0.3195324803911053
 31
0.0
  0
LINE
  5
F106D2
330
261
100
AcDbEntity
  8
Geo
100
AcDbLine
 10
-21.60000000000001
 20
-4.926334515107395
 30
0.0
 11
-21.50000000000002
 21
-4.926907876685545
 31
0.0
  0
LINE
  5
F106D4
330
261
100
AcDbEntity
  8
Geo
100
AcDbLine
 10
-21.50000000000002
 20
-0.3195324803911053
 30
0.0
 11
-21.40000000000001
 21
-0.3963147805669038
 31
0.0
  0
LINE
  5
F106D6
330
261
100
AcDbEntity
  8
Geo
100
AcDbLine
 10
-21.40000000000001
 20
-0.3963147805669038
 30
0.0
 11
-21.30000000000001
 21
-0.4730003173485038
 31
0.0
  0
LINE
  5
F106D8
330
261
100
AcDbEntity
  8
Geo
100
AcDbLine
 10
-21.40000000000001
 20
4.926515007414192
 30
0.0
 11
-21.30000000000001
 21
4.925155984339994
 31
0.0
  0
LINE
  5
F106DA
330
261
100
AcDbEntity
  8
Geo
100
AcDbLine
 10
-21.30000000000001
 20
-0.4730003173485038
 30
0.0
 11
-21.2
 21
-0.5495703673545052
 31
0.0
  0
LINE
  5
F106DC
330
261
100
AcDbEntity
  8
Geo
100
AcDbLine
 10
-21.30000000000001
 20
4.925155984339994
 30
0.0
 11
-21.2
 21
4.922831073985197
 31
0.0
  0
LINE
  5
F106DE
330
261
100
AcDbEntity
  8
Geo
100
AcDbLine
 10
-21.2
 20
-0.5495703673545052
 30
0.0
 11
-21.10000000000001
 21
-0.6260062354005047
 31
0.0
  0
LINE
  5
F106E0
330
261
100
AcDbEntity
  8
Geo
100
AcDbLine
 10
-21.2
 20
4.922831073985197
 30
0.0
 11
-21.10000000000001
 21
4.919540732294997
 31
0.0
  0
LINE
  5
F106E2
330
261
100
AcDbEntity
  8
Geo
100
AcDbLine
 10
-21.10000000000001
 20
-0.6260062354005047
 30
0.0
 11
-21.00000000000001
 21
-0.7022892590635053
 31
0.0
  0
LINE
  5
F106E4
330
261
100
AcDbEntity
  8
Geo
100
AcDbLine
 10
-21.10000000000001
 20
4.919540732294997
 30
0.0
 11
-21.00000000000001
 21
4.915285604548294
 31
0.0
  0
LINE
  5
F106E6
330
261
100
AcDbEntity
  8
Geo
100
AcDbLine
 10
-21.00000000000001
 20
-0.7022892590635053
 30
0.0
 11
-20.90000000000001
 21
-0.7784008132388056
 31
0.0
  0
LINE
  5
F106E8
330
261
100
AcDbEntity
  8
Geo
100
AcDbLine
 10
-21.00000000000001
 20
4.915285604548294
 30
0.0
 11
-20.90000000000001
 21
4.910066525231091
 31
0.0
  0
LINE
  5
F106EA
330
261
100
AcDbEntity
  8
Geo
100
AcDbLine
 10
-20.90000000000001
 20
-0.7784008132388056
 30
0.0
 11
-20.80000000000001
 21
-0.8543223146875043
 31
0.0
  0
LINE
  5
F106EC
330
261
100
AcDbEntity
  8
Geo
100
AcDbLine
 10
-20.90000000000001
 20
4.910066525231091
 30
0.0
 11
-20.80000000000001
 21
4.903884517872892
 31
0.0
  0
LINE
  5
F106EE
330
261
100
AcDbEntity
  8
Geo
100
AcDbLine
 10
-20.80000000000001
 20
-0.8543223146875043
 30
0.0
 11
-20.7
 21
-0.9300352265732065
 31
0.0
  0
LINE
  5
F106F0
330
261
100
AcDbEntity
  8
Geo
100
AcDbLine
 10
-20.80000000000001
 20
4.903884517872892
 30
0.0
 11
-20.7
 21
4.896740794845797
 31
0.0
  0
LINE
  5
F106F2
330
261
100
AcDbEntity
  8
Geo
100
AcDbLine
 10
-20.7
 20
-0.9300352265732065
 30
0.0
 11
-20.60000000000001
 21
-1.005521062988607
 31
0.0
  0
LINE
  5
F106F4
330
261
100
AcDbEntity
  8
Geo
100
AcDbLine
 10
-20.7
 20
4.896740794845797
 30
0.0
 11
-20.60000000000001
 21
4.888636757127194
 31
0.0
  0
LINE
  5
F106F6
330
261
100
AcDbEntity
  8
Geo
100
AcDbLine
 10
-20.60000000000001
 20
-1.005521062988607
 30
0.0
 11
-20.50000000000002
 21
-1.080761393468502
 31
0.0
  0
LINE
  5
F106F8
330
261
100
AcDbEntity
  8
Geo
100
AcDbLine
 10
-20.60000000000001
 20
4.888636757127194
 30
0.0
 11
-20.50000000000002
 21
4.879573994024294
 31
0.0
  0
LINE
  5
F106FA
330
261
100
AcDbEntity
  8
Geo
100
AcDbLine
 10
-20.50000000000002
 20
-1.080761393468502
 30
0.0
 11
-20.4
 21
-1.155737847490204
 31
0.0
  0
LINE
  5
F106FC
330
261
100
AcDbEntity
  8
Geo
100
AcDbLine
 10
-20.50000000000002
 20
4.879573994024294
 30
0.0
 11
-20.4
 21
4.869554282863294
 31
0.0
  0
LINE
  5
F106FE
330
261
100
AcDbEntity
  8
Geo
100
AcDbLine
 10
-20.4
 20
-1.155737847490204
 30
0.0
 11
-20.30000000000001
 21
-1.230432118958106
 31
0.0
  0
LINE
  5
F10700
330
261
100
AcDbEntity
  8
Geo
100
AcDbLine
 10
-20.4
 20
4.869554282863294
 30
0.0
 11
-20.30000000000001
 21
4.858579588639894
 31
0.0
  0
LINE
  5
F10702
330
261
100
AcDbEntity
  8
Geo
100
AcDbLine
 10
-20.30000000000001
 20
-1.230432118958106
 30
0.0
 11
-20.2
 21
-1.304825970674004
 31
0.0
  0
LINE
  5
F10704
330
261
100
AcDbEntity
  8
Geo
100
AcDbLine
 10
-20.30000000000001
 20
4.858579588639894
 30
0.0
 11
-20.2
 21
4.846652063634795
 31
0.0
  0
LINE
  5
F10706
330
261
100
AcDbEntity
  8
Geo
100
AcDbLine
 10
-20.2
 20
-1.304825970674004
 30
0.0
 11
-20.10000000000001
 21
-1.378901238789605
 31
0.0
  0
LINE
  5
F10708
330
261
100
AcDbEntity
  8
Geo
100
AcDbLine
 10
-20.2
 20
4.846652063634795
 30
0.0
 11
-20.10000000000001
 21
4.833774046991091
 31
0.0
  0
LINE
  5
F1070A
330
261
100
AcDbEntity
  8
Geo
100
AcDbLine
 10
-20.10000000000001
 20
-1.378901238789605
 30
0.0
 11
-20.00000000000001
 21
-1.452639837241106
 31
0.0
  0
LINE
  5
F1070C
330
261
100
AcDbEntity
  8
Geo
100
AcDbLine
 10
-20.10000000000001
 20
4.833774046991091
 30
0.0
 11
-20.00000000000001
 21
4.819948064255797
 31
0.0
  0
LINE
  5
F1070E
330
261
100
AcDbEntity
  8
Geo
100
AcDbLine
 10
-20.00000000000001
 20
-1.452639837241106
 30
0.0
 11
-19.9
 21
-1.526023762165404
 31
0.0
  0
LINE
  5
F10710
330
261
100
AcDbEntity
  8
Geo
100
AcDbLine
 10
-20.00000000000001
 20
4.819948064255797
 30
0.0
 11
-19.9
 21
4.805176826884093
 31
0.0
  0
LINE
  5
F10712
330
261
100
AcDbEntity
  8
Geo
100
AcDbLine
 10
-19.9
 20
-1.526023762165404
 30
0.0
 11
-19.80000000000001
 21
-1.599035096295706
 31
0.0
  0
LINE
  5
F10714
330
261
100
AcDbEntity
  8
Geo
100
AcDbLine
 10
-19.9
 20
4.805176826884093
 30
0.0
 11
-19.80000000000001
 21
4.789463231708392
 31
0.0
  0
LINE
  5
F10716
330
261
100
AcDbEntity
  8
Geo
100
AcDbLine
 10
-19.80000000000001
 20
-1.599035096295706
 30
0.0
 11
-19.7
 21
-1.671656013336205
 31
0.0
  0
LINE
  5
F10718
330
261
100
AcDbEntity
  8
Geo
100
AcDbLine
 10
-19.80000000000001
 20
4.789463231708392
 30
0.0
 11
-19.7
 21
4.772810360369394
 31
0.0
  0
LINE
  5
F1071A
330
261
100
AcDbEntity
  8
Geo
100
AcDbLine
 10
-19.7
 20
-1.671656013336205
 30
0.0
 11
-19.60000000000001
 21
-1.743868782314605
 31
0.0
  0
LINE
  5
F1071C
330
261
100
AcDbEntity
  8
Geo
100
AcDbLine
 10
-19.7
 20
4.772810360369394
 30
0.0
 11
-19.60000000000001
 21
4.755221478712194
 31
0.0
  0
LINE
  5
F1071E
330
261
100
AcDbEntity
  8
Geo
100
AcDbLine
 10
-19.60000000000001
 20
-1.743868782314605
 30
0.0
 11
-19.50000000000001
 21
-1.815655771911206
 31
0.0
  0
LINE
  5
F10720
330
261
100
AcDbEntity
  8
Geo
100
AcDbLine
 10
-19.60000000000001
 20
4.755221478712194
 30
0.0
 11
-19.50000000000001
 21
4.736700036145894
 31
0.0
  0
LINE
  5
F10722
330
261
100
AcDbEntity
  8
Geo
100
AcDbLine
 10
-19.50000000000001
 20
-1.815655771911206
 30
0.0
 11
-19.4
 21
-1.886999454763405
 31
0.0
  0
LINE
  5
F10724
330
261
100
AcDbEntity
  8
Geo
100
AcDbLine
 10
-19.50000000000001
 20
4.736700036145894
 30
0.0
 11
-19.4
 21
4.717249664966495
 31
0.0
  0
LINE
  5
F10726
330
261
100
AcDbEntity
  8
Geo
100
AcDbLine
 10
-19.4
 20
-1.886999454763405
 30
0.0
 11
-19.30000000000001
 21
-1.957882411746005
 31
0.0
  0
LINE
  5
F10728
330
261
100
AcDbEntity
  8
Geo
100
AcDbLine
 10
-19.4
 20
4.717249664966495
 30
0.0
 11
-19.30000000000001
 21
4.696874179645494
 31
0.0
  0
LINE
  5
F1072A
330
261
100
AcDbEntity
  8
Geo
100
AcDbLine
 10
-19.30000000000001
 20
-1.957882411746005
 30
0.0
 11
-19.2
 21
-2.028287336223105
 31
0.0
  0
LINE
  5
F1072C
330
261
100
AcDbEntity
  8
Geo
100
AcDbLine
 10
-19.30000000000001
 20
4.696874179645494
 30
0.0
 11
-19.2
 21
4.675577576081092
 31
0.0
  0
LINE
  5
F1072E
330
261
100
AcDbEntity
  8
Geo
100
AcDbLine
 10
-19.2
 20
-2.028287336223105
 30
0.0
 11
-19.10000000000001
 21
-2.098197038274607
 31
0.0
  0
LINE
  5
F10730
330
261
100
AcDbEntity
  8
Geo
100
AcDbLine
 10
-19.2
 20
4.675577576081092
 30
0.0
 11
-19.10000000000001
 21
4.653364030814795
 31
0.0
  0
LINE
  5
F10732
330
261
100
AcDbEntity
  8
Geo
100
AcDbLine
 10
-19.10000000000001
 20
-2.098197038274607
 30
0.0
 11
-19.00000000000001
 21
-2.167594448892804
 31
0.0
  0
LINE
  5
F10734
330
261
100
AcDbEntity
  8
Geo
100
AcDbLine
 10
-19.10000000000001
 20
4.653364030814795
 30
0.0
 11
-19.00000000000001
 21
4.630237900212392
 31
0.0
  0
LINE
  5
F10736
330
261
100
AcDbEntity
  8
Geo
100
AcDbLine
 10
-19.00000000000001
 20
-2.167594448892804
 30
0.0
 11
-18.9
 21
-2.236462624149904
 31
0.0
  0
LINE
  5
F10738
330
261
100
AcDbEntity
  8
Geo
100
AcDbLine
 10
-19.00000000000001
 20
4.630237900212392
 30
0.0
 11
-18.9
 21
4.606203719609496
 31
0.0
  0
LINE
  5
F1073A
330
261
100
AcDbEntity
  8
Geo
100
AcDbLine
 10
-18.9
 20
-2.236462624149904
 30
0.0
 11
-18.80000000000001
 21
-2.304784749335304
 31
0.0
  0
LINE
  5
F1073C
330
261
100
AcDbEntity
  8
Geo
100
AcDbLine
 10
-18.9
 20
4.606203719609496
 30
0.0
 11
-18.80000000000001
 21
4.581266202422096
 31
0.0
  0
LINE
  5
F1073E
330
261
100
AcDbEntity
  8
Geo
100
AcDbLine
 10
-18.80000000000001
 20
-2.304784749335304
 30
0.0
 11
-18.7
 21
-2.372544143060705
 31
0.0
  0
LINE
  5
F10740
330
261
100
AcDbEntity
  8
Geo
100
AcDbLine
 10
-18.80000000000001
 20
4.581266202422096
 30
0.0
 11
-18.7
 21
4.555430239222392
 31
0.0
  0
LINE
  5
F10742
330
261
100
AcDbEntity
  8
Geo
100
AcDbLine
 10
-18.7
 20
-2.372544143060705
 30
0.0
 11
-18.60000000000001
 21
-2.439724261333106
 31
0.0
  0
LINE
  5
F10744
330
261
100
AcDbEntity
  8
Geo
100
AcDbLine
 10
-18.7
 20
4.555430239222392
 30
0.0
 11
-18.60000000000001
 21
4.528700896779593
 31
0.0
  0
LINE
  5
F10746
330
261
100
AcDbEntity
  8
Geo
100
AcDbLine
 10
-18.60000000000001
 20
-2.439724261333106
 30
0.0
 11
-18.50000000000001
 21
-2.506308701594404
 31
0.0
  0
LINE
  5
F10748
330
261
100
AcDbEntity
  8
Geo
100
AcDbLine
 10
-18.60000000000001
 20
4.528700896779593
 30
0.0
 11
-18.50000000000001
 21
4.501083417065995
 31
0.0
  0
LINE
  5
F1074A
330
261
100
AcDbEntity
  8
Geo
100
AcDbLine
 10
-18.50000000000001
 20
-2.506308701594404
 30
0.0
 11
-18.4
 21
-2.572281206725804
 31
0.0
  0
LINE
  5
F1074C
330
261
100
AcDbEntity
  8
Geo
100
AcDbLine
 10
-18.50000000000001
 20
4.501083417065995
 30
0.0
 11
-18.4
 21
4.472583216229292
 31
0.0
  0
LINE
  5
F1074E
330
261
100
AcDbEntity
  8
Geo
100
AcDbLine
 10
-18.4
 20
-2.572281206725804
 30
0.0
 11
-18.30000000000001
 21
-2.637625669017404
 31
0.0
  0
LINE
  5
F10750
330
261
100
AcDbEntity
  8
Geo
100
AcDbLine
 10
-18.4
 20
4.472583216229292
 30
0.0
 11
-18.30000000000001
 21
4.443205883530495
 31
0.0
  0
LINE
  5
F10752
330
261
100
AcDbEntity
  8
Geo
100
AcDbLine
 10
-18.30000000000001
 20
-2.637625669017404
 30
0.0
 11
-18.2
 21
-2.702326134101003
 31
0.0
  0
LINE
  5
F10754
330
261
100
AcDbEntity
  8
Geo
100
AcDbLine
 10
-18.30000000000001
 20
4.443205883530495
 30
0.0
 11
-18.2
 21
4.412957180247293
 31
0.0
  0
LINE
  5
F10756
330
261
100
AcDbEntity
  8
Geo
100
AcDbLine
 10
-18.2
 20
-2.702326134101003
 30
0.0
 11
-18.10000000000001
 21
-2.766366804845207
 31
0.0
  0
LINE
  5
F10758
330
261
100
AcDbEntity
  8
Geo
100
AcDbLine
 10
-18.2
 20
4.412957180247293
 30
0.0
 11
-18.10000000000001
 21
4.381843038544793
 31
0.0
  0
LINE
  5
F1075A
330
261
100
AcDbEntity
  8
Geo
100
AcDbLine
 10
-18.10000000000001
 20
-2.766366804845207
 30
0.0
 11
-18.00000000000001
 21
-2.829732045213004
 31
0.0
  0
LINE
  5
F1075C
330
261
100
AcDbEntity
  8
Geo
100
AcDbLine
 10
-18.10000000000001
 20
4.381843038544793
 30
0.0
 11
-18.00000000000001
 21
4.349869560311493
 31
0.0
  0
LINE
  5
F1075E
330
261
100
AcDbEntity
  8
Geo
100
AcDbLine
 10
-18.00000000000001
 20
-2.829732045213004
 30
0.0
 11
-17.9
 21
-2.892406384078705
 31
0.0
  0
LINE
  5
F10760
330
261
100
AcDbEntity
  8
Geo
100
AcDbLine
 10
-18.00000000000001
 20
4.349869560311493
 30
0.0
 11
-17.9
 21
4.317043015963392
 31
0.0
  0
LINE
  5
F10762
330
261
100
AcDbEntity
  8
Geo
100
AcDbLine
 10
-17.9
 20
-2.892406384078705
 30
0.0
 11
-17.80000000000001
 21
-2.954374519005806
 31
0.0
  0
LINE
  5
F10764
330
261
100
AcDbEntity
  8
Geo
100
AcDbLine
 10
-17.9
 20
4.317043015963392
 30
0.0
 11
-17.80000000000001
 21
4.283369843213595
 31
0.0
  0
LINE
  5
F10766
330
261
100
AcDbEntity
  8
Geo
100
AcDbLine
 10
-17.80000000000001
 20
-2.954374519005806
 30
0.0
 11
-17.7
 21
-3.015621319983194
 31
0.0
  0
LINE
  5
F10768
330
261
100
AcDbEntity
  8
Geo
100
AcDbLine
 10
-17.80000000000001
 20
4.283369843213595
 30
0.0
 11
-17.7
 21
4.248856645810192
 31
0.0
  0
LINE
  5
F1076A
330
261
100
AcDbEntity
  8
Geo
100
AcDbLine
 10
-17.7
 20
-3.015621319983194
 30
0.0
 11
-17.60000000000001
 21
-3.076131833119065
 31
0.0
  0
LINE
  5
F1076C
330
261
100
AcDbEntity
  8
Geo
100
AcDbLine
 10
-17.7
 20
4.248856645810192
 30
0.0
 11
-17.60000000000001
 21
4.213510192240995
 31
0.0
  0
LINE
  5
F1076E
330
261
100
AcDbEntity
  8
Geo
100
AcDbLine
 10
-17.60000000000001
 20
-3.076131833119065
 30
0.0
 11
-17.50000000000001
 21
-3.135891284292135
 31
0.0
  0
LINE
  5
F10770
330
261
100
AcDbEntity
  8
Geo
100
AcDbLine
 10
-17.60000000000001
 20
4.213510192240995
 30
0.0
 11
-17.50000000000001
 21
4.177337414406196
 31
0.0
  0
LINE
  5
F10772
330
261
100
AcDbEntity
  8
Geo
100
AcDbLine
 10
-17.50000000000001
 20
-3.135891284292135
 30
0.0
 11
-17.4
 21
-3.194885082758856
 31
0.0
  0
LINE
  5
F10774
330
261
100
AcDbEntity
  8
Geo
100
AcDbLine
 10
-17.50000000000001
 20
4.177337414406196
 30
0.0
 11
-17.4
 21
4.140345406259093
 31
0.0
  0
LINE
  5
F10776
330
261
100
AcDbEntity
  8
Geo
100
AcDbLine
 10
-17.4
 20
-3.194885082758856
 30
0.0
 11
-17.30000000000001
 21
-3.253098824715856
 31
0.0
  0
LINE
  5
F10778
330
261
100
AcDbEntity
  8
Geo
100
AcDbLine
 10
-17.4
 20
4.140345406259093
 30
0.0
 11
-17.30000000000001
 21
4.102541422414592
 31
0.0
  0
LINE
  5
F1077A
330
261
100
AcDbEntity
  8
Geo
100
AcDbLine
 10
-17.30000000000001
 20
-3.253098824715856
 30
0.0
 11
-17.2
 21
-3.310518296816743
 31
0.0
  0
LINE
  5
F1077C
330
261
100
AcDbEntity
  8
Geo
100
AcDbLine
 10
-17.30000000000001
 20
4.102541422414592
 30
0.0
 11
-17.2
 21
4.063932876726592
 31
0.0
  0
LINE
  5
F1077E
330
261
100
AcDbEntity
  8
Geo
100
AcDbLine
 10
-17.2
 20
-3.310518296816743
 30
0.0
 11
-17.10000000000001
 21
-3.367129479642404
 31
0.0
  0
LINE
  5
F10780
330
261
100
AcDbEntity
  8
Geo
100
AcDbLine
 10
-17.2
 20
4.063932876726592
 30
0.0
 11
-17.10000000000001
 21
4.024527340834094
 31
0.0
  0
LINE
  5
F10782
330
261
100
AcDbEntity
  8
Geo
100
AcDbLine
 10
-17.10000000000001
 20
-3.367129479642404
 30
0.0
 11
-17.00000000000001
 21
-3.422918551123945
 31
0.0
  0
LINE
  5
F10784
330
261
100
AcDbEntity
  8
Geo
100
AcDbLine
 10
-17.10000000000001
 20
4.024527340834094
 30
0.0
 11
-17.00000000000001
 21
3.984332542676394
 31
0.0
  0
LINE
  5
F10786
330
261
100
AcDbEntity
  8
Geo
100
AcDbLine
 10
-17.00000000000001
 20
-3.422918551123945
 30
0.0
 11
-16.9
 21
-3.477871889917503
 31
0.0
  0
LINE
  5
F10788
330
261
100
AcDbEntity
  8
Geo
100
AcDbLine
 10
-17.00000000000001
 20
3.984332542676394
 30
0.0
 11
-16.9
 21
3.943356364977194
 31
0.0
  0
LINE
  5
F1078A
330
261
100
AcDbEntity
  8
Geo
100
AcDbLine
 10
-16.9
 20
-3.477871889917503
 30
0.0
 11
-16.80000000000001
 21
-3.531976078729936
 31
0.0
  0
LINE
  5
F1078C
330
261
100
AcDbEntity
  8
Geo
100
AcDbLine
 10
-16.9
 20
3.943356364977194
 30
0.0
 11
-16.80000000000001
 21
3.901606843698996
 31
0.0
  0
LINE
  5
F1078E
330
261
100
AcDbEntity
  8
Geo
100
AcDbLine
 10
-16.80000000000001
 20
-3.531976078729936
 30
0.0
 11
-16.7
 21
-3.585217907594824
 31
0.0
  0
LINE
  5
F10790
330
261
100
AcDbEntity
  8
Geo
100
AcDbLine
 10
-16.80000000000001
 20
3.901606843698996
 30
0.0
 11
-16.7
 21
3.859092166467096
 31
0.0
  0
LINE
  5
F10792
330
261
100
AcDbEntity
  8
Geo
100
AcDbLine
 10
-16.7
 20
-3.585217907594824
 30
0.0
 11
-16.60000000000001
 21
-3.637584377097756
 31
0.0
  0
LINE
  5
F10794
330
261
100
AcDbEntity
  8
Geo
100
AcDbLine
 10
-16.7
 20
3.859092166467096
 30
0.0
 11
-16.60000000000001
 21
3.815820670963791
 31
0.0
  0
LINE
  5
F10796
330
261
100
AcDbEntity
  8
Geo
100
AcDbLine
 10
-16.60000000000001
 20
-3.637584377097756
 30
0.0
 11
-16.50000000000001
 21
-3.689062701550225
 31
0.0
  0
LINE
  5
F10798
330
261
100
AcDbEntity
  8
Geo
100
AcDbLine
 10
-16.60000000000001
 20
3.815820670963791
 30
0.0
 11
-16.50000000000001
 21
3.771800843293391
 31
0.0
  0
LINE
  5
F1079A
330
261
100
AcDbEntity
  8
Geo
100
AcDbLine
 10
-16.50000000000001
 20
-3.689062701550225
 30
0.0
 11
-16.4
 21
-3.739640312111404
 31
0.0
  0
LINE
  5
F1079C
330
261
100
AcDbEntity
  8
Geo
100
AcDbLine
 10
-16.50000000000001
 20
3.771800843293391
 30
0.0
 11
-16.4
 21
3.727041316317794
 31
0.0
  0
LINE
  5
F1079E
330
261
100
AcDbEntity
  8
Geo
100
AcDbLine
 10
-16.4
 20
-3.739640312111404
 30
0.0
 11
-16.3
 21
-3.789304859856905
 31
0.0
  0
LINE
  5
F107A0
330
261
100
AcDbEntity
  8
Geo
100
AcDbLine
 10
-16.4
 20
3.727041316317794
 30
0.0
 11
-16.3
 21
3.681550867963597
 31
0.0
  0
LINE
  5
F107A2
330
261
100
AcDbEntity
  8
Geo
100
AcDbLine
 10
-16.3
 20
-3.789304859856905
 30
0.0
 11
-16.2
 21
-3.838044218793823
 31
0.0
  0
LINE
  5
F107A4
330
261
100
AcDbEntity
  8
Geo
100
AcDbLine
 10
-16.3
 20
3.681550867963597
 30
0.0
 11
-16.2
 21
3.635338419500694
 31
0.0
  0
LINE
  5
F107A6
330
261
100
AcDbEntity
  8
Geo
100
AcDbLine
 10
-16.2
 20
-3.838044218793823
 30
0.0
 11
-16.09999999999999
 21
-3.885846488821474
 31
0.0
  0
LINE
  5
F107A8
330
261
100
AcDbEntity
  8
Geo
100
AcDbLine
 10
-16.2
 20
3.635338419500694
 30
0.0
 11
-16.09999999999999
 21
3.588413033792392
 31
0.0
  0
LINE
  5
F107AA
330
261
100
AcDbEntity
  8
Geo
100
AcDbLine
 10
-16.09999999999999
 20
-3.885846488821474
 30
0.0
 11
-16.0
 21
-3.932699998636824
 31
0.0
  0
LINE
  5
F107AC
330
261
100
AcDbEntity
  8
Geo
100
AcDbLine
 10
-16.09999999999999
 20
3.588413033792392
 30
0.0
 11
-16.0
 21
3.540783913518595
 31
0.0
  0
LINE
  5
F107AE
330
261
100
AcDbEntity
  8
Geo
100
AcDbLine
 10
-16.0
 20
-3.932699998636824
 30
0.0
 11
-15.89999999999999
 21
-3.978593308584175
 31
0.0
  0
LINE
  5
F107B0
330
261
100
AcDbEntity
  8
Geo
100
AcDbLine
 10
-16.0
 20
3.540783913518595
 30
0.0
 11
-15.89999999999999
 21
3.492460399370493
 31
0.0
  0
LINE
  5
F107B2
330
261
100
AcDbEntity
  8
Geo
100
AcDbLine
 10
-15.89999999999999
 20
-3.978593308584175
 30
0.0
 11
-15.8
 21
-4.023515213448254
 31
0.0
  0
LINE
  5
F107B4
330
261
100
AcDbEntity
  8
Geo
100
AcDbLine
 10
-15.89999999999999
 20
3.492460399370493
 30
0.0
 11
-15.8
 21
3.443451968218994
 31
0.0
  0
LINE
  5
F107B6
330
261
100
AcDbEntity
  8
Geo
100
AcDbLine
 10
-15.8
 20
-4.023515213448254
 30
0.0
 11
-15.7
 21
-4.067454745190016
 31
0.0
  0
LINE
  5
F107B8
330
261
100
AcDbEntity
  8
Geo
100
AcDbLine
 10
-15.8
 20
3.443451968218994
 30
0.0
 11
-15.7
 21
3.393768231256295
 31
0.0
  0
LINE
  5
F107BA
330
261
100
AcDbEntity
  8
Geo
100
AcDbLine
 10
-15.7
 20
-4.067454745190016
 30
0.0
 11
-15.59999999999999
 21
-4.110401175624593
 31
0.0
  0
LINE
  5
F107BC
330
261
100
AcDbEntity
  8
Geo
100
AcDbLine
 10
-15.7
 20
3.393768231256295
 30
0.0
 11
-15.59999999999999
 21
3.343418932110694
 31
0.0
  0
LINE
  5
F107BE
330
261
100
AcDbEntity
  8
Geo
100
AcDbLine
 10
-15.59999999999999
 20
-4.110401175624593
 30
0.0
 11
-15.5
 21
-4.152344019040686
 31
0.0
  0
LINE
  5
F107C0
330
261
100
AcDbEntity
  8
Geo
100
AcDbLine
 10
-15.59999999999999
 20
3.343418932110694
 30
0.0
 11
-15.5
 21
3.292413944935994
 31
0.0
  0
LINE
  5
F107C2
330
261
100
AcDbEntity
  8
Geo
100
AcDbLine
 10
-15.5
 20
-4.152344019040686
 30
0.0
 11
-15.39999999999999
 21
-4.193273034760705
 31
0.0
  0
LINE
  5
F107C4
330
261
100
AcDbEntity
  8
Geo
100
AcDbLine
 10
-15.5
 20
3.292413944935994
 30
0.0
 11
-15.39999999999999
 21
3.240763272474996
 31
0.0
  0
LINE
  5
F107C6
330
261
100
AcDbEntity
  8
Geo
100
AcDbLine
 10
-15.39999999999999
 20
-4.193273034760705
 30
0.0
 11
-15.3
 21
-4.233178229641145
 31
0.0
  0
LINE
  5
F107C8
330
261
100
AcDbEntity
  8
Geo
100
AcDbLine
 10
-15.39999999999999
 20
3.240763272474996
 30
0.0
 11
-15.3
 21
3.188477044097695
 31
0.0
  0
LINE
  5
F107CA
330
261
100
AcDbEntity
  8
Geo
100
AcDbLine
 10
-15.3
 20
-4.233178229641145
 30
0.0
 11
-15.2
 21
-4.272049860512465
 31
0.0
  0
LINE
  5
F107CC
330
261
100
AcDbEntity
  8
Geo
100
AcDbLine
 10
-15.3
 20
3.188477044097695
 30
0.0
 11
-15.2
 21
3.135565513814995
 31
0.0
  0
LINE
  5
F107CE
330
261
100
AcDbEntity
  8
Geo
100
AcDbLine
 10
-15.2
 20
-4.272049860512465
 30
0.0
 11
-15.09999999999999
 21
-4.309878436557944
 31
0.0
  0
LINE
  5
F107D0
330
261
100
AcDbEntity
  8
Geo
100
AcDbLine
 10
-15.2
 20
3.135565513814995
 30
0.0
 11
-15.09999999999999
 21
3.082039058267497
 31
0.0
  0
LINE
  5
F107D2
330
261
100
AcDbEntity
  8
Geo
100
AcDbLine
 10
-15.09999999999999
 20
-4.309878436557944
 30
0.0
 11
-15.0
 21
-4.346654721631004
 31
0.0
  0
LINE
  5
F107D4
330
261
100
AcDbEntity
  8
Geo
100
AcDbLine
 10
-15.09999999999999
 20
3.082039058267497
 30
0.0
 11
-15.0
 21
3.027908174690995
 31
0.0
  0
LINE
  5
F107D6
330
261
100
AcDbEntity
  8
Geo
100
AcDbLine
 10
-15.0
 20
-4.346654721631004
 30
0.0
 11
-14.89999999999999
 21
-4.382369736510206
 31
0.0
  0
LINE
  5
F107D8
330
261
100
AcDbEntity
  8
Geo
100
AcDbLine
 10
-15.0
 20
3.027908174690995
 30
0.0
 11
-14.89999999999999
 21
2.973183478857094
 31
0.0
  0
LINE
  5
F107DA
330
261
100
AcDbEntity
  8
Geo
100
AcDbLine
 10
-14.89999999999999
 20
-4.382369736510206
 30
0.0
 11
-14.79999999999999
 21
-4.417014761091666
 31
0.0
  0
LINE
  5
F107DC
330
261
100
AcDbEntity
  8
Geo
100
AcDbLine
 10
-14.89999999999999
 20
2.973183478857094
 30
0.0
 11
-14.79999999999999
 21
2.917875702991995
 31
0.0
  0
LINE
  5
F107DE
330
261
100
AcDbEntity
  8
Geo
100
AcDbLine
 10
-14.79999999999999
 20
-4.417014761091666
 30
0.0
 11
-14.7
 21
-4.450581336518085
 31
0.0
  0
LINE
  5
F107E0
330
261
100
AcDbEntity
  8
Geo
100
AcDbLine
 10
-14.79999999999999
 20
2.917875702991995
 30
0.0
 11
-14.7
 21
2.861995693671293
 31
0.0
  0
LINE
  5
F107E2
330
261
100
AcDbEntity
  8
Geo
100
AcDbLine
 10
-14.7
 20
-4.450581336518085
 30
0.0
 11
-14.59999999999999
 21
-4.483061267244115
 31
0.0
  0
LINE
  5
F107E4
330
261
100
AcDbEntity
  8
Geo
100
AcDbLine
 10
-14.7
 20
2.861995693671293
 30
0.0
 11
-14.59999999999999
 21
2.805554409693293
 31
0.0
  0
LINE
  5
F107E6
330
261
100
AcDbEntity
  8
Geo
100
AcDbLine
 10
-14.59999999999999
 20
-4.483061267244115
 30
0.0
 11
-14.5
 21
-4.514446623037265
 31
0.0
  0
LINE
  5
F107E8
330
261
100
AcDbEntity
  8
Geo
100
AcDbLine
 10
-14.59999999999999
 20
2.805554409693293
 30
0.0
 11
-14.5
 21
2.748562919929295
 31
0.0
  0
LINE
  5
F107EA
330
261
100
AcDbEntity
  8
Geo
100
AcDbLine
 10
-14.5
 20
-4.514446623037265
 30
0.0
 11
-14.39999999999999
 21
-4.544729740914215
 31
0.0
  0
LINE
  5
F107EC
330
261
100
AcDbEntity
  8
Geo
100
AcDbLine
 10
-14.5
 20
2.748562919929295
 30
0.0
 11
-14.39999999999999
 21
2.691032401153195
 31
0.0
  0
LINE
  5
F107EE
330
261
100
AcDbEntity
  8
Geo
100
AcDbLine
 10
-14.39999999999999
 20
-4.544729740914215
 30
0.0
 11
-14.29999999999999
 21
-4.573903227011795
 31
0.0
  0
LINE
  5
F107F0
330
261
100
AcDbEntity
  8
Geo
100
AcDbLine
 10
-14.39999999999999
 20
2.691032401153195
 30
0.0
 11
-14.29999999999999
 21
2.632974135849595
 31
0.0
  0
LINE
  5
F107F2
330
261
100
AcDbEntity
  8
Geo
100
AcDbLine
 10
-14.29999999999999
 20
-4.573903227011795
 30
0.0
 11
-14.2
 21
-4.601959958392175
 31
0.0
  0
LINE
  5
F107F4
330
261
100
AcDbEntity
  8
Geo
100
AcDbLine
 10
-14.29999999999999
 20
2.632974135849595
 30
0.0
 11
-14.2
 21
2.574399510001095
 31
0.0
  0
LINE
  5
F107F6
330
261
100
AcDbEntity
  8
Geo
100
AcDbLine
 10
-14.2
 20
-4.601959958392175
 30
0.0
 11
-14.09999999999999
 21
-4.628893084782065
 31
0.0
  0
LINE
  5
F107F8
330
261
100
AcDbEntity
  8
Geo
100
AcDbLine
 10
-14.2
 20
2.574399510001095
 30
0.0
 11
-14.09999999999999
 21
2.515320010855294
 31
0.0
  0
LINE
  5
F107FA
330
261
100
AcDbEntity
  8
Geo
100
AcDbLine
 10
-14.09999999999999
 20
-4.628893084782065
 30
0.0
 11
-14.0
 21
-4.654696030245245
 31
0.0
  0
LINE
  5
F107FC
330
261
100
AcDbEntity
  8
Geo
100
AcDbLine
 10
-14.09999999999999
 20
2.515320010855294
 30
0.0
 11
-14.0
 21
2.455747224671792
 31
0.0
  0
LINE
  5
F107FE
330
261
100
AcDbEntity
  8
Geo
100
AcDbLine
 10
-14.0
 20
-4.654696030245245
 30
0.0
 11
-13.89999999999999
 21
-4.679362494788104
 31
0.0
  0
LINE
  5
F10800
330
261
100
AcDbEntity
  8
Geo
100
AcDbLine
 10
-14.0
 20
2.455747224671792
 30
0.0
 11
-13.89999999999999
 21
2.395692834450494
 31
0.0
  0
LINE
  5
F10802
330
261
100
AcDbEntity
  8
Geo
100
AcDbLine
 10
-13.89999999999999
 20
-4.679362494788104
 30
0.0
 11
-13.8
 21
-4.702886455897875
 31
0.0
  0
LINE
  5
F10804
330
261
100
AcDbEntity
  8
Geo
100
AcDbLine
 10
-13.89999999999999
 20
2.395692834450494
 30
0.0
 11
-13.8
 21
2.335168617640094
 31
0.0
  0
LINE
  5
F10806
330
261
100
AcDbEntity
  8
Geo
100
AcDbLine
 10
-13.8
 20
-4.702886455897875
 30
0.0
 11
-13.7
 21
-4.725262170013024
 31
0.0
  0
LINE
  5
F10808
330
261
100
AcDbEntity
  8
Geo
100
AcDbLine
 10
-13.8
 20
2.335168617640094
 30
0.0
 11
-13.7
 21
2.274186443828394
 31
0.0
  0
LINE
  5
F1080A
330
261
100
AcDbEntity
  8
Geo
100
AcDbLine
 10
-13.7
 20
-4.725262170013024
 30
0.0
 11
-13.59999999999999
 21
-4.746484173925665
 31
0.0
  0
LINE
  5
F1080C
330
261
100
AcDbEntity
  8
Geo
100
AcDbLine
 10
-13.7
 20
2.274186443828394
 30
0.0
 11
-13.59999999999999
 21
2.212758272414292
 31
0.0
  0
LINE
  5
F1080E
330
261
100
AcDbEntity
  8
Geo
100
AcDbLine
 10
-13.59999999999999
 20
-4.746484173925665
 30
0.0
 11
-13.5
 21
-4.766547286115365
 31
0.0
  0
LINE
  5
F10810
330
261
100
AcDbEntity
  8
Geo
100
AcDbLine
 10
-13.59999999999999
 20
2.212758272414292
 30
0.0
 11
-13.5
 21
2.150896150263095
 31
0.0
  0
LINE
  5
F10812
330
261
100
AcDbEntity
  8
Geo
100
AcDbLine
 10
-13.5
 20
-4.766547286115365
 30
0.0
 11
-13.39999999999999
 21
-4.785446608014295
 31
0.0
  0
LINE
  5
F10814
330
261
100
AcDbEntity
  8
Geo
100
AcDbLine
 10
-13.5
 20
2.150896150263095
 30
0.0
 11
-13.39999999999999
 21
2.088612209342995
 31
0.0
  0
LINE
  5
F10816
330
261
100
AcDbEntity
  8
Geo
100
AcDbLine
 10
-13.39999999999999
 20
-4.785446608014295
 30
0.0
 11
-13.3
 21
-4.803177525203265
 31
0.0
  0
LINE
  5
F10818
330
261
100
AcDbEntity
  8
Geo
100
AcDbLine
 10
-13.39999999999999
 20
2.088612209342995
 30
0.0
 11
-13.3
 21
2.025918664346695
 31
0.0
  0
LINE
  5
F1081A
330
261
100
AcDbEntity
  8
Geo
100
AcDbLine
 10
-13.3
 20
-4.803177525203265
 30
0.0
 11
-13.2
 21
-4.819735708538326
 31
0.0
  0
LINE
  5
F1081C
330
261
100
AcDbEntity
  8
Geo
100
AcDbLine
 10
-13.3
 20
2.025918664346695
 30
0.0
 11
-13.2
 21
1.962827810295394
 31
0.0
  0
LINE
  5
F1081E
330
261
100
AcDbEntity
  8
Geo
100
AcDbLine
 10
-13.2
 20
-4.819735708538326
 30
0.0
 11
-13.09999999999999
 21
-4.835117115207815
 31
0.0
  0
LINE
  5
F10820
330
261
100
AcDbEntity
  8
Geo
100
AcDbLine
 10
-13.2
 20
1.962827810295394
 30
0.0
 11
-13.09999999999999
 21
1.899352020128095
 31
0.0
  0
LINE
  5
F10822
330
261
100
AcDbEntity
  8
Geo
100
AcDbLine
 10
-13.09999999999999
 20
-4.835117115207815
 30
0.0
 11
-13.0
 21
-4.849317989719414
 31
0.0
  0
LINE
  5
F10824
330
261
100
AcDbEntity
  8
Geo
100
AcDbLine
 10
-13.09999999999999
 20
1.899352020128095
 30
0.0
 11
-13.0
 21
1.835503742274294
 31
0.0
  0
LINE
  5
F10826
330
261
100
AcDbEntity
  8
Geo
100
AcDbLine
 10
-13.0
 20
-4.849317989719414
 30
0.0
 11
-12.89999999999999
 21
-4.862334864817075
 31
0.0
  0
LINE
  5
F10828
330
261
100
AcDbEntity
  8
Geo
100
AcDbLine
 10
-13.0
 20
1.835503742274294
 30
0.0
 11
-12.89999999999999
 21
1.771295498213694
 31
0.0
  0
LINE
  5
F1082A
330
261
100
AcDbEntity
  8
Geo
100
AcDbLine
 10
-12.89999999999999
 20
-4.862334864817075
 30
0.0
 11
-12.8
 21
-4.874164562327594
 31
0.0
  0
LINE
  5
F1082C
330
261
100
AcDbEntity
  8
Geo
100
AcDbLine
 10
-12.89999999999999
 20
1.771295498213694
 30
0.0
 11
-12.8
 21
1.706739880019595
 31
0.0
  0
LINE
  5
F1082E
330
261
100
AcDbEntity
  8
Geo
100
AcDbLine
 10
-12.8
 20
-4.874164562327594
 30
0.0
 11
-12.7
 21
-4.884804193936586
 31
0.0
  0
LINE
  5
F10830
330
261
100
AcDbEntity
  8
Geo
100
AcDbLine
 10
-12.8
 20
1.706739880019595
 30
0.0
 11
-12.7
 21
1.641849547890194
 31
0.0
  0
LINE
  5
F10832
330
261
100
AcDbEntity
  8
Geo
100
AcDbLine
 10
-12.7
 20
-4.884804193936586
 30
0.0
 11
-12.59999999999999
 21
-4.894251161893675
 31
0.0
  0
LINE
  5
F10834
330
261
100
AcDbEntity
  8
Geo
100
AcDbLine
 10
-12.7
 20
1.641849547890194
 30
0.0
 11
-12.59999999999999
 21
1.576637227665393
 31
0.0
  0
LINE
  5
F10836
330
261
100
AcDbEntity
  8
Geo
100
AcDbLine
 10
-12.59999999999999
 20
-4.894251161893675
 30
0.0
 11
-12.5
 21
-4.902503159646794
 31
0.0
  0
LINE
  5
F10838
330
261
100
AcDbEntity
  8
Geo
100
AcDbLine
 10
-12.59999999999999
 20
1.576637227665393
 30
0.0
 11
-12.5
 21
1.511115708331093
 31
0.0
  0
LINE
  5
F1083A
330
261
100
AcDbEntity
  8
Geo
100
AcDbLine
 10
-12.5
 20
-4.902503159646794
 30
0.0
 11
-12.39999999999999
 21
-4.909558172405285
 31
0.0
  0
LINE
  5
F1083C
330
261
100
AcDbEntity
  8
Geo
100
AcDbLine
 10
-12.5
 20
1.511115708331093
 30
0.0
 11
-12.39999999999999
 21
1.445297839511294
 31
0.0
  0
LINE
  5
F1083E
330
261
100
AcDbEntity
  8
Geo
100
AcDbLine
 10
-12.39999999999999
 20
-4.909558172405285
 30
0.0
 11
-12.29999999999999
 21
-4.915414477631886
 31
0.0
  0
LINE
  5
F10840
330
261
100
AcDbEntity
  8
Geo
100
AcDbLine
 10
-12.39999999999999
 20
1.445297839511294
 30
0.0
 11
-12.29999999999999
 21
1.379196528947892
 31
0.0
  0
LINE
  5
F10842
330
261
100
AcDbEntity
  8
Geo
100
AcDbLine
 10
-12.29999999999999
 20
-4.915414477631886
 30
0.0
 11
-12.2
 21
-4.920070645463265
 31
0.0
  0
LINE
  5
F10844
330
261
100
AcDbEntity
  8
Geo
100
AcDbLine
 10
-12.29999999999999
 20
1.379196528947892
 30
0.0
 11
-12.2
 21
1.312824739969293
 31
0.0
  0
LINE
  5
F10846
330
261
100
AcDbEntity
  8
Geo
100
AcDbLine
 10
-12.2
 20
-4.920070645463265
 30
0.0
 11
-12.09999999999999
 21
-4.923525539059145
 31
0.0
  0
LINE
  5
F10848
330
261
100
AcDbEntity
  8
Geo
100
AcDbLine
 10
-12.2
 20
1.312824739969293
 30
0.0
 11
-12.09999999999999
 21
1.246195488948496
 31
0.0
  0
LINE
  5
F1084A
330
261
100
AcDbEntity
  8
Geo
100
AcDbLine
 10
-12.09999999999999
 20
-4.923525539059145
 30
0.0
 11
-12.0
 21
-4.925778314879895
 31
0.0
  0
LINE
  5
F1084C
330
261
100
AcDbEntity
  8
Geo
100
AcDbLine
 10
-12.09999999999999
 20
1.246195488948496
 30
0.0
 11
-12.0
 21
1.179321842749994
 31
0.0
  0
LINE
  5
F1084E
330
261
100
AcDbEntity
  8
Geo
100
AcDbLine
 10
-12.0
 20
-4.925778314879895
 30
0.0
 11
-12.0
 21
-4.934668352340255
 31
0.0
  0
LINE
  5
F10850
330
261
100
AcDbEntity
  8
Geo
100
AcDbLine
 10
-12.0
 20
-4.925778314879895
 30
0.0
 11
-12.0
 21
0.7586916713257939
 31
0.0
  0
LINE
  5
F10852
330
261
100
AcDbEntity
  8
Geo
100
AcDbLine
 10
-12.0
 20
1.179321842749994
 30
0.0
 11
-12.0
 21
1.864298064512096
 31
0.0
  0
LINE
  5
F10854
330
261
100
AcDbEntity
  8
Geo
100
AcDbLine
 10
-12.0
 20
1.179321842749994
 30
0.0
 11
-12.0
 21
-0.7586916713258045
 31
0.0
  0
LINE
  5
F10856
330
261
100
AcDbEntity
  8
Geo
100
AcDbLine
 10
-26.00000000000001
 20
-0.0000000000000036
 30
0.0
 11
-26.00000000000001
 21
-0.0000000000000036
 31
0.0
  0
LINE
  5
F10858
330
261
100
AcDbEntity
  8
Geo
100
AcDbLine
 10
-26.00000000000001
 20
-0.0000000000000036
 30
0.0
 11
-26.00000000000001
 21
-0.0000000000000036
 31
0.0
  0
LINE
  5
F1085A
330
261
100
AcDbEntity
  8
Geo
100
AcDbLine
 10
40.0
 20
4.499999999999996
 30
0.0
 11
40.0
 21
-0.0000000000000036
 31
0.0
  0
LINE
  5
F1085C
330
261
100
AcDbEntity
  8
Geo
100
AcDbLine
 10
-26.00000000000001
 20
-0.0000000000000036
 30
0.0
 11
-26.00000000000001
 21
-4.899999999999996
 31
0.0
  0
LINE
  5
F1085E
330
261
100
AcDbEntity
  8
Geo
100
AcDbLine
 10
-26.00000000000001
 20
-4.899999999999996
 30
0.0
 11
-25.90000000000001
 21
-4.999999999999995
 31
0.0
  0
LINE
  5
F10860
330
261
100
AcDbEntity
  8
Geo
100
AcDbLine
 10
-25.90000000000001
 20
-4.999999999999995
 30
0.0
 11
-12.0
 21
-4.999999999999995
 31
0.0
  0
LINE
  5
F10862
330
261
100
AcDbEntity
  8
Geo
100
AcDbLine
 10
-12.0
 20
-4.999999999999995
 30
0.0
 11
0.0
 21
-4.999999999999995
 31
0.0
  0
LINE
  5
F10864
330
261
100
AcDbEntity
  8
Geo
100
AcDbLine
 10
0.0
 20
-4.999999999999995
 30
0.0
 11
39.49999999999999
 21
-4.999999999999995
 31
0.0
  0
LINE
  5
F10866
330
261
100
AcDbEntity
  8
Geo
100
AcDbLine
 10
39.49999999999999
 20
-4.999999999999995
 30
0.0
 11
40.0
 21
-4.499999999999996
 31
0.0
  0
LINE
  5
F10868
330
261
100
AcDbEntity
  8
Geo
100
AcDbLine
 10
-26.00000000000001
 20
4.899999999999995
 30
0.0
 11
-26.00000000000001
 21
-4.899999999999996
 31
0.0
  0
LINE
  5
F1086A
330
261
100
AcDbEntity
  8
Geo
100
AcDbLine
 10
-25.90000000000001
 20
4.999999999999996
 30
0.0
 11
-25.90000000000001
 21
-4.999999999999995
 31
0.0
  0
LINE
  5
F1086C
330
261
100
AcDbEntity
  8
Geo
100
AcDbLine
 10
-12.0
 20
4.999999999999996
 30
0.0
 11
-12.0
 21
-4.999999999999995
 31
0.0
  0
LINE
  5
F1086E
330
261
100
AcDbEntity
  8
Geo
100
AcDbLine
 10
0.0
 20
4.999999999999996
 30
0.0
 11
0.0
 21
-4.999999999999995
 31
0.0
  0
LINE
  5
F10870
330
261
100
AcDbEntity
  8
Geo
100
AcDbLine
 10
39.49999999999999
 20
4.999999999999996
 30
0.0
 11
39.49999999999999
 21
-4.999999999999995
 31
0.0
  0
LINE
  5
F10872
330
261
100
AcDbEntity
  8
Geo
100
AcDbLine
 10
40.0
 20
4.499999999999996
 30
0.0
 11
40.0
 21
-4.499999999999996
 31
0.0
  0
TEXT
  5
F1089E
330
261
100
AcDbEntity
  8
Text
100
AcDbText
 10
7.550847457627129
 20
-47.4683615819209
 30
0.0
 40
2.0
  1

100
AcDbText
  0
TEXT
  5
F108B6
330
261
100
AcDbEntity
  8
Text
100
AcDbText
 10
7.550847457627129
 20
-59.54971751412429
 30
0.0
 40
2.0
  1

100
AcDbText
  0
LWPOLYLINE
  5
F108F4
330
261
100
AcDbEntity
  8
Rahmen
100
AcDbPolyline
 90
        4
 70
     1
 43
0.0
 10
-134.656779661017
 20
99.9228813559322
 10
143.466101694915
 20
99.9228813559322
 10
143.466101694915
 20
-100.174576271186
 10
-134.656779661017
 20
-100.174576271186
  0
TEXT
  5
F108F6
330
261
100
AcDbEntity
  8
Text
100
AcDbText
 10
-133.65
 20
-99.67457627118641
 30
0.0
 40
1.0
  1
ISBESketcher
100
AcDbText
  0
LWPOLYLINE
  5
F108F8
330
261
100
AcDbEntity
  8
Rahmen
100
AcDbPolyline
 90
        4
 70
     1
 43
0.0
 10
103.446610169492
 20
-97.1542372881356
 10
143.466101694915
 20
-97.1542372881356
 10
143.466101694915
 20
-100.174576271186
 10
103.446610169492
 20
-100.174576271186
  0
TEXT
  5
F108FA
330
261
100
AcDbEntity
  8
Text
100
AcDbText
 10
104.453389830508
 20
-98.15423728813559
 30
0.0
 40
0.75
  1
Ers. durch:
100
AcDbText
  0
TEXT
  5
F108FC
330
261
100
AcDbEntity
  8
Text
100
AcDbText
 10
125.34406779661
 20
-98.15423728813559
 30
0.0
 40
0.75
  1
K.-H. Maier
100
AcDbText
  0
LWPOLYLINE
  5
F108FE
330
261
100
AcDbEntity
  8
Rahmen
100
AcDbPolyline
 90
        4
 70
     1
 43
0.0
 10
63.42711864406779
 20
-97.1542372881356
 10
103.446610169492
 20
-97.1542372881356
 10
103.446610169492
 20
-100.174576271186
 10
63.42711864406779
 20
-100.174576271186
  0
TEXT
  5
F10900
330
261
100
AcDbEntity
  8
Text
100
AcDbText
 10
64.43389830508471
 20
-98.15423728813559
 30
0.0
 40
0.75
  1
Ers. für:
100
AcDbText
  0
TEXT
  5
F10902
330
261
100
AcDbEntity
  8
Text
100
AcDbText
 10
91.11355932203391
 20
-99.4127118644068
 30
0.0
 40
0.75
  1

100
AcDbText
  0
LWPOLYLINE
  5
F10904
330
261
100
AcDbEntity
  8
Rahmen
100
AcDbPolyline
 90
        4
 70
     1
 43
0.0
 10
130.126271186441
 20
-94.13389830508469
 10
143.466101694915
 20
-94.13389830508469
 10
143.466101694915
 20
-97.1542372881356
 10
130.126271186441
 20
-97.1542372881356
  0
TEXT
  5
F10906
330
261
100
AcDbEntity
  8
Text
100
AcDbText
 10
131.133050847458
 20
-95.1338983050847
 30
0.0
 40
0.75
  1
Blätter
100
AcDbText
  0
TEXT
  5
F10908
330
261
100
AcDbEntity
  8
Text
100
AcDbText
 10
141.200847457627
 20
-96.39237288135591
 30
0.0
 40
0.75
  1

100
AcDbText
  0
LWPOLYLINE
  5
F1090A
330
261
100
AcDbEntity
  8
Rahmen
100
AcDbPolyline
 90
        4
 70
     1
 43
0.0
 10
130.126271186441
 20
-91.11355932203391
 10
143.466101694915
 20
-91.11355932203391
 10
143.466101694915
 20
-94.13389830508469
 10
130.126271186441
 20
-94.13389830508469
  0
TEXT
  5
F1090C
330
261
100
AcDbEntity
  8
Text
100
AcDbText
 10
131.133050847458
 20
-92.11355932203391
 30
0.0
 40
0.75
  1
Blatt
100
AcDbText
  0
TEXT
  5
F1090E
330
261
100
AcDbEntity
  8
Text
100
AcDbText
 10
141.200847457627
 20
-93.37203389830509
 30
0.0
 40
0.75
  1

100
AcDbText
  0
LWPOLYLINE
  5
F10910
330
261
100
AcDbEntity
  8
Rahmen
100
AcDbPolyline
 90
        4
 70
     1
 43
0.0
 10
63.42711864406779
 20
-91.11355932203391
 10
130.126271186441
 20
-91.11355932203391
 10
130.126271186441
 20
-97.1542372881356
 10
63.42711864406779
 20
-97.1542372881356
  0
TEXT
  5
F10912
330
261
100
AcDbEntity
  8
Text
100
AcDbText
 10
64.43389830508471
 20
-92.11355932203391
 30
0.0
 40
0.75
  1
Datum:
100
AcDbText
  0
TEXT
  5
F10914
330
261
100
AcDbEntity
  8
Text
100
AcDbText
 10
90.8618644067797
 20
-95.1338983050847
 30
0.0
 40
0.75
  1
16.01.2013
100
AcDbText
  0
LWPOLYLINE
  5
F10916
330
261
100
AcDbEntity
  8
Rahmen
100
AcDbPolyline
 90
        4
 70
     1
 43
0.0
 10
63.42711864406779
 20
-85.07288135593221
 10
143.466101694915
 20
-85.07288135593221
 10
143.466101694915
 20
-91.11355932203391
 10
63.42711864406779
 20
-91.11355932203391
  0
TEXT
  5
F10918
330
261
100
AcDbEntity
  8
Text
100
AcDbText
 10
-148.5
 20
105.473728813559
 30
0.0
 40
1.5
  1

100
AcDbText
  0
TEXT
  5
F1091A
330
261
100
AcDbEntity
  8
Text
100
AcDbText
 10
82.5559322033898
 20
-88.90960451977399
 30
0.0
 40
2.5
  1
Schaftfräser 7525-100
100
AcDbText
  0
LWPOLYLINE
  5
F1091C
330
261
100
AcDbEntity
  8
Rahmen
100
AcDbPolyline
 90
        4
 70
     1
 43
0.0
 10
103.446610169492
 20
-79.0322033898305
 10
143.466101694915
 20
-79.0322033898305
 10
143.466101694915
 20
-85.07288135593221
 10
103.446610169492
 20
-85.07288135593221
  0
TEXT
  5
F1091E
330
261
100
AcDbEntity
  8
Text
100
AcDbText
 10
104.453389830508
 20
-80.0322033898305
 30
0.0
 40
0.75
  1
Zu bearb. Material:
100
AcDbText
  0
TEXT
  5
F10920
330
261
100
AcDbEntity
  8
Text
100
AcDbText
 10
123.330508474576
 20
-84.3110169491525
 30
0.0
 40
0.75
  1

100
AcDbText
  0
LWPOLYLINE
  5
F10922
330
261
100
AcDbEntity
  8
Rahmen
100
AcDbPolyline
 90
        4
 70
     1
 43
0.0
 10
63.42711864406779
 20
-79.0322033898305
 10
103.446610169492
 20
-79.0322033898305
 10
103.446610169492
 20
-85.07288135593221
 10
63.42711864406779
 20
-85.07288135593221
  0
TEXT
  5
F10924
330
261
100
AcDbEntity
  8
Text
100
AcDbText
 10
64.43389830508471
 20
-80.0322033898305
 30
0.0
 40
0.75
  1
Werkstoff:
100
AcDbText
  0
TEXT
  5
F10926
330
261
100
AcDbEntity
  8
Text
100
AcDbText
 10
74.50169491525429
 20
-83.0525423728813
 30
0.0
 40
0.75
  1
ø10x330 (WF15)
100
AcDbText
  0
LWPOLYLINE
  5
F10928
330
261
100
AcDbEntity
  8
Rahmen
100
AcDbPolyline
 90
        4
 70
     1
 43
0.0
 10
103.446610169492
 20
-76.01186440677969
 10
143.466101694915
 20
-76.01186440677969
 10
143.466101694915
 20
-79.0322033898305
 10
103.446610169492
 20
-79.0322033898305
  0
TEXT
  5
F1092A
330
261
100
AcDbEntity
  8
Text
100
AcDbText
 10
-148.5
 20
105.473728813559
 30
0.0
 40
1.5
  1

100
AcDbText
  0
TEXT
  5
F1092C
330
261
100
AcDbEntity
  8
Text
100
AcDbText
 10
116.283050847458
 20
-77.01186440677969
 30
0.0
 40
0.75
  1
MC0300 TOP
100
AcDbText
  0
LWPOLYLINE
  5
F1092E
330
261
100
AcDbEntity
  8
Rahmen
100
AcDbPolyline
 90
        4
 70
     1
 43
0.0
 10
63.42711864406779
 20
-76.01186440677969
 10
103.446610169492
 20
-76.01186440677969
 10
103.446610169492
 20
-79.0322033898305
 10
63.42711864406779
 20
-79.0322033898305
  0
TEXT
  5
F10930
330
261
100
AcDbEntity
  8
Text
100
AcDbText
 10
64.43389830508471
 20
-77.01186440677969
 30
0.0
 40
0.75
  1
Maßstab:
100
AcDbText
  0
TEXT
  5
F10932
330
261
100
AcDbEntity
  8
Text
100
AcDbText
 10
88.84830508474578
 20
-77.01186440677969
 30
0.0
 40
0.75
  1
1 : 1
100
AcDbText
  0
VIEWPORT
  5
294
102
{ACAD_XDICTIONARY
360
F10B3B
102
}
330
25D
100
AcDbEntity
 67
     1
  8
0
 60
     1
100
AcDbViewport
 10
0.0
 20
0.0
 30
0.0
 40
10.0
 41
10.0
 68
    -1
 69
     1
 12
0.0
 22
0.0
 13
0.0
 23
0.0
 14
1.0
 24
1.0
 15
0.0
 25
0.0
 16
0.0
 26
0.0
 36
1.0
 17
0.0
 27
0.0
 37
0.0
 42
0.0
 43
0.0
 44
0.0
 45
10.0
 50
0.0
 51
0.0000000000007958
 72
   100
 90
    32800
  1

281
     0
 71
     0
 74
     0
110
0.0
120
0.0
130
0.0
111
1.0
121
0.0
131
0.0
112
0.0
122
1.0
132
0.0
 79
     0
146
0.0
1001
VD_INVISIBLE_NOT_FOR_READ
1000
VD_INVISIBLE_NOT_FOR_READ
1001
GENIUS_GENSCREG_15
1000
PF
1040
1.0
1000
DF
1040
1.0
1000
MIN
1011
-5.0
1021
-5.0
1031
0.0
1000
MAX
1011
5.0
1021
5.0
1031
0.0
1000
FLAGS
1070
     4
1001
GENIUS_GENOBJ-N-SDF_13
1002
{
1000
OWNER
1000
GEN
1002
}
1001
GENIUS_GENODEF_13
1002
{
1000
HIER
1070
     0
1002
}
1002
{
1000
MANEDIT
1070
     0
1002
}
1002
{
1000
NOSEL
1070
     0
1002
}
1002
{
1000
BEHIND
1070
     0
1002
}
1002
{
1000
OTHER
1070
     0
1002
}
1002
{
1000
REACTOR
1002
}
  0
VIEWPORT
  5
295
102
{ACAD_XDICTIONARY
360
F10B3D
102
}
330
25D
100
AcDbEntity
 67
     1
  8
0
 60
     1
100
AcDbViewport
 10
0.0
 20
0.0
 30
0.0
 40
10.0
 41
10.0
 68
     0
 69
     2
 12
0.0
 22
0.0
 13
0.0
 23
0.0
 14
1.0
 24
1.0
 15
0.0
 25
0.0
 16
0.0
 26
0.0
 36
1.0
 17
0.0
 27
0.0
 37
0.0
 42
0.0
 43
0.0
 44
0.0
 45
10.0
 50
0.0
 51
0.0000000000007958
 72
   100
 90
   163872
  1

281
     0
 71
     0
 74
     0
110
0.0
120
0.0
130
0.0
111
1.0
121
0.0
131
0.0
112
0.0
122
1.0
132
0.0
 79
     0
146
0.0
1001
VD_INVISIBLE_NOT_FOR_READ
1000
VD_INVISIBLE_NOT_FOR_READ
1001
GENIUS_GENSCREG_15
1000
PF
1040
1.0
1000
DF
1040
1.0
1000
MIN
1011
-5.0
1021
-5.0
1031
0.0
1000
MAX
1011
5.0
1021
5.0
1031
0.0
1000
FLAGS
1070
     4
1001
GENIUS_GENOBJ-N-SDF_13
1002
{
1000
OWNER
1000
GEN
1002
}
1001
GENIUS_GENODEF_13
1002
{
1000
HIER
1070
     0
1002
}
1002
{
1000
MANEDIT
1070
     0
1002
}
1002
{
1000
NOSEL
1070
     0
1002
}
1002
{
1000
BEHIND
1070
     0
1002
}
1002
{
1000
OTHER
1070
     0
1002
}
1002
{
1000
REACTOR
1002
}
  0
ENDSEC
  0
SECTION
  2
OBJECTS
  0
DICTIONARY
  5
13
330
0
100
AcDbDictionary
281
     1
  3
ACAD_COLOR
350
FA7
  3
ACAD_GROUP
350
14
  3
ACAD_LAYOUT
350
FCF
  3
ACAD_MATERIAL
350
F7A
  3
ACAD_MLEADERSTYLE
350
FCD
  3
ACAD_MLINESTYLE
350
16
  3
ACAD_PLOTSETTINGS
350
17
  3
ACAD_PLOTSTYLENAME
350
18
  3
ACAD_SCALELIST
350
FAB
  3
ACAD_TABLESTYLE
350
FA8
  3
ACAD_VISUALSTYLE
350
F93
  3
ACDB_RECOMPOSE_DATA
350
F10B39
  3
AcDbVariableDictionary
350
F10B30
  3
AcmDictionary
350
F10989
  3
AMG
350
F1093D
  3
AMGSNAPSETTINGS
350
F109CA
  3
DWGPROPS
350
F10B3A
  0
DICTIONARY
  5
F10B26
330
252
100
AcDbDictionary
280
     1
281
     1
  3
ADSK_XREC_LAYER_RECONCILED
360
F10B27
  0
DICTIONARY
  5
F10B28
330
23F
100
AcDbDictionary
280
     1
281
     1
  3
ADSK_XREC_LAYER_RECONCILED
360
F10B29
  0
DICTIONARY
  5
F10B2A
330
240
100
AcDbDictionary
280
     1
281
     1
  3
ADSK_XREC_LAYER_RECONCILED
360
F10B2B
  0
DICTIONARY
  5
F10B2C
330
241
100
AcDbDictionary
280
     1
281
     1
  3
ADSK_XREC_LAYER_RECONCILED
360
F10B2D
  0
DICTIONARY
  5
F10B2E
330
57E
100
AcDbDictionary
280
     1
281
     1
  3
ADSK_XREC_LAYER_RECONCILED
360
F10B2F
  0
DICTIONARY
  5
F10B3F
330
296
100
AcDbDictionary
280
     1
281
     1
  3
ACAD_XREC_ROUNDTRIP
360
F10B40
  0
DICTIONARY
  5
F10B41
330
297
100
AcDbDictionary
280
     1
281
     1
  3
ACAD_XREC_ROUNDTRIP
360
F10B42
  0
DICTIONARY
  5
F10B3B
330
294
100
AcDbDictionary
280
     1
281
     1
  3
ACAD_XREC_ROUNDTRIP
360
F10B3C
  0
DICTIONARY
  5
F10B3D
330
295
100
AcDbDictionary
280
     1
281
     1
  3
ACAD_XREC_ROUNDTRIP
360
F10B3E
  0
DICTIONARY
  5
FA7
102
{ACAD_REACTORS
330
13
102
}
330
13
100
AcDbDictionary
281
     1
  0
DICTIONARY
  5
14
330
13
100
AcDbDictionary
281
     1
  0
DICTIONARY
  5
FCF
102
{ACAD_REACTORS
330
13
102
}
330
13
100
AcDbDictionary
281
     1
  3
Layout1
350
FD1
  3
Model
350
FD0
  0
DICTIONARY
  5
F7A
102
{ACAD_REACTORS
330
13
102
}
330
13
100
AcDbDictionary
281
     1
  3
ByBlock
350
F83
  3
ByLayer
350
F7B
  3
Global
350
F8B
  0
DICTIONARY
  5
FCD
102
{ACAD_REACTORS
330
13
102
}
330
13
100
AcDbDictionary
281
     1
  3
Standard
350
FCE
  0
DICTIONARY
  5
16
330
13
100
AcDbDictionary
281
     1
  3
Standard
350
FAA
  0
DICTIONARY
  5
17
102
{ACAD_REACTORS
330
13
102
}
330
13
100
AcDbDictionary
281
     1
  0
ACDBDICTIONARYWDFLT
  5
18
102
{ACAD_REACTORS
330
13
102
}
330
13
100
AcDbDictionary
281
     1
  3
Normal
350
19
100
AcDbDictionaryWithDefault
340
19
  0
DICTIONARY
  5
FAB
102
{ACAD_REACTORS
330
13
102
}
330
13
100
AcDbDictionary
281
     1
  3
A0
350
FAC
  3
A1
350
FAD
  3
A2
350
FAE
  3
A3
350
FAF
  3
A4
350
FB0
  3
A5
350
FB1
  3
A6
350
FB2
  3
A7
350
FB3
  3
A8
350
FB4
  3
A9
350
FB5
  3
B0
350
FB6
  3
B1
350
FB7
  3
B2
350
FB8
  3
B3
350
FB9
  3
B4
350
FBA
  3
B5
350
FBB
  3
B6
350
FBC
  3
B7
350
FBD
  3
B8
350
FBE
  3
B9
350
FBF
  3
C0
350
FC0
  3
C1
350
FC1
  3
C2
350
FC2
  3
C3
350
FC3
  3
C4
350
FC4
  3
C5
350
FC5
  3
C6
350
FC6
  3
C7
350
FC7
  3
C8
350
FC8
  3
C9
350
FC9
  3
D0
350
FCA
  3
D1
350
FCB
  3
D2
350
FCC
  0
DICTIONARY
  5
FA8
102
{ACAD_REACTORS
330
13
102
}
330
13
100
AcDbDictionary
281
     1
  3
Standard
350
FA9
  0
DICTIONARY
  5
F93
102
{ACAD_REACTORS
330
13
102
}
330
13
100
AcDbDictionary
281
     1
  3
2dWireframe
350
F99
  3
3D Hidden
350
F9B
  3
3dWireframe
350
F9A
  3
Basic
350
F98
  3
Brighten
350
F9F
  3
ColorChange
350
FA3
  3
Conceptual
350
F9C
  3
Dim
350
F9E
  3
EdgeColorOff
350
FA6
  3
Facepattern
350
FA2
  3
Flat
350
F94
  3
FlatWithEdges
350
F95
  3
Gouraud
350
F96
  3
GouraudWithEdges
350
F97
  3
Hidden
350
F10935
  3
JitterOff
350
FA4
  3
Linepattern
350
FA1
  3
OverhangOff
350
FA5
  3
Realistic
350
F9D
  3
Shaded
350
F1093A
  3
Shaded with edges
350
F10939
  3
Shades of Gray
350
F10936
  3
Sketchy
350
F10937
  3
Thicken
350
FA0
  3
Wireframe
350
F10934
  3
X-Ray
350
F10938
  0
XRECORD
  5
F10B39
102
{ACAD_REACTORS
330
13
102
}
330
13
100
AcDbXrecord
280
     1
 90
        1
330
FA9
  0
DICTIONARY
  5
F10B30
102
{ACAD_REACTORS
330
13
102
}
330
13
100
AcDbDictionary
281
     1
  3
CANNOSCALE
350
F10B33
  3
CMLEADERSTYLE
350
F10B32
  3
CTABLESTYLE
350
F10B31
  3
DIMASSOC
350
F10B36
  3
INDEXCTL
350
F10B35
  3
SORTENTS
350
F10B34
  3
XCLIPFRAME
350
F10B37
  0
DICTIONARY
  5
F10989
102
{ACAD_REACTORS
330
13
102
}
330
13
100
AcDbDictionary
281
     1
  3
AcmStdDictionary
350
F10994
  0
DICTIONARY
  5
F1093D
102
{ACAD_REACTORS
330
13
102
}
330
13
100
AcDbDictionary
281
     1
  0
DICTIONARY
  5
F109CA
102
{ACAD_REACTORS
330
13
102
}
330
13
100
AcDbDictionary
281
     1
  0
XRECORD
  5
F10B3A
102
{ACAD_REACTORS
330
13
102
}
330
13
100
AcDbXrecord
280
     1
  1
DWGPROPS COOKIE
  2

  3

  4

  6

  7

  8
steigner
  9

300
=
301
=
302
=
303
=
304
=
305
=
306
=
307
=
308
=
309
=
 40
0.0012174074074074
 41
2456800.683454144
 42
2456800.684670706
  1

 90
        0
  0
XRECORD
  5
F10B27
102
{ACAD_REACTORS
330
F10B26
102
}
330
F10B26
100
AcDbXrecord
280
     1
290
     1
  0
XRECORD
  5
F10B29
102
{ACAD_REACTORS
330
F10B28
102
}
330
F10B28
100
AcDbXrecord
280
     1
290
     1
  0
XRECORD
  5
F10B2B
102
{ACAD_REACTORS
330
F10B2A
102
}
330
F10B2A
100
AcDbXrecord
280
     1
290
     1
  0
XRECORD
  5
F10B2D
102
{ACAD_REACTORS
330
F10B2C
102
}
330
F10B2C
100
AcDbXrecord
280
     1
290
     1
  0
XRECORD
  5
F10B2F
102
{ACAD_REACTORS
330
F10B2E
102
}
330
F10B2E
100
AcDbXrecord
280
     1
290
     1
  0
XRECORD
  5
F10B40
102
{ACAD_REACTORS
330
F10B3F
102
}
330
F10B3F
100
AcDbXrecord
280
     1
102
SHADEPLOT
 70
     0
  0
XRECORD
  5
F10B42
102
{ACAD_REACTORS
330
F10B41
102
}
330
F10B41
100
AcDbXrecord
280
     1
102
SHADEPLOT
 70
     0
  0
XRECORD
  5
F10B3C
102
{ACAD_REACTORS
330
F10B3B
102
}
330
F10B3B
100
AcDbXrecord
280
     1
102
SHADEPLOT
 70
     0
  0
XRECORD
  5
F10B3E
102
{ACAD_REACTORS
330
F10B3D
102
}
330
F10B3D
100
AcDbXrecord
280
     1
102
SHADEPLOT
 70
     0
  0
LAYOUT
  5
FD1
102
{ACAD_XDICTIONARY
360
F10B6C
102
}
102
{ACAD_REACTORS
330
FCF
102
}
330
FCF
100
AcDbPlotSettings
  1

  2
Microsoft XPS Document Writer
  4

  6

 40
0.0
 41
0.0
 42
0.0
 43
0.0
 44
0.0
 45
0.0
 46
0.0
 47
0.0
 48
0.0
 49
0.0
140
0.0
141
0.0
142
1.0
143
1.0
 70
   688
 72
     0
 73
     0
 74
     5
  7

 75
    16
147
1.0
148
0.0
149
0.0
100
AcDbLayout
  1
Layout1
 70
     1
 71
     1
 10
0.0
 20
0.0
 11
12.0
 21
9.0
 12
0.0
 22
0.0
 32
0.0
 14
1.000000000000000E+20
 24
1.000000000000000E+20
 34
1.000000000000000E+20
 15
-1.000000000000000E+20
 25
-1.000000000000000E+20
 35
-1.000000000000000E+20
146
0.0
 13
0.0
 23
0.0
 33
0.0
 16
1.0
 26
0.0
 36
0.0
 17
0.0
 27
1.0
 37
0.0
 76
     0
330
25D
  0
LAYOUT
  5
FD0
102
{ACAD_XDICTIONARY
360
F10B6A
102
}
102
{ACAD_REACTORS
330
FCF
102
}
330
FCF
100
AcDbPlotSettings
  1

  2
Microsoft XPS Document Writer
  4

  6

 40
0.0
 41
0.0
 42
0.0
 43
0.0
 44
0.0
 45
0.0
 46
0.0
 47
0.0
 48
0.0
 49
0.0
140
0.0
141
0.0
142
1.0
143
1.0
 70
  1712
 72
     0
 73
     0
 74
     0
  7

 75
     0
147
1.0
148
0.0
149
0.0
100
AcDbLayout
  1
Model
 70
     1
 71
     0
 10
0.0
 20
0.0
 11
12.0
 21
9.0
 12
0.0
 22
0.0
 32
0.0
 14
0.0
 24
0.0
 34
0.0
 15
0.0
 25
0.0
 35
0.0
146
0.0
 13
0.0
 23
0.0
 33
0.0
 16
1.0
 26
0.0
 36
0.0
 17
0.0
 27
1.0
 37
0.0
 76
     0
330
261
331
26B
  0
MATERIAL
  5
F83
102
{ACAD_XDICTIONARY
360
F84
102
}
102
{ACAD_REACTORS
330
F7A
102
}
330
F7A
100
AcDbMaterial
  1
ByBlock
 72
     0
 43
0.0208333333333333
 43
0.0
 43
0.0
 43
0.0
 43
0.0
 43
0.0208333333333333
 43
0.0
 43
0.0
 43
0.0
 43
0.0
 43
1.0
 43
0.0
 43
0.0
 43
0.0
 43
0.0
 43
1.0
 77
     0
 47
0.0208333333333333
 47
0.0
 47
0.0
 47
0.0
 47
0.0
 47
0.0208333333333333
 47
0.0
 47
0.0
 47
0.0
 47
0.0
 47
1.0
 47
0.0
 47
0.0
 47
0.0
 47
0.0
 47
1.0
171
     0
 49
0.0208333333333333
 49
0.0
 49
0.0
 49
0.0
 49
0.0
 49
0.0208333333333333
 49
0.0
 49
0.0
 49
0.0
 49
0.0
 49
1.0
 49
0.0
 49
0.0
 49
0.0
 49
0.0
 49
1.0
175
     0
142
0.0208333333333333
142
0.0
142
0.0
142
0.0
142
0.0
142
0.0208333333333333
142
0.0
142
0.0
142
0.0
142
0.0
142
1.0
142
0.0
142
0.0
142
0.0
142
0.0
142
1.0
179
     0
144
0.0208333333333333
144
0.0
144
0.0
144
0.0
144
0.0
144
0.0208333333333333
144
0.0
144
0.0
144
0.0
144
0.0
144
1.0
144
0.0
144
0.0
144
0.0
144
0.0
144
1.0
147
0.0208333333333333
147
0.0
147
0.0
147
0.0
147
0.0
147
0.0208333333333333
147
0.0
147
0.0
147
0.0
147
0.0
147
1.0
147
0.0
147
0.0
147
0.0
147
0.0
147
1.0
  0
MATERIAL
  5
F7B
102
{ACAD_XDICTIONARY
360
F7C
102
}
102
{ACAD_REACTORS
330
F7A
102
}
330
F7A
100
AcDbMaterial
  1
ByLayer
 72
     0
 43
0.0208333333333333
 43
0.0
 43
0.0
 43
0.0
 43
0.0
 43
0.0208333333333333
 43
0.0
 43
0.0
 43
0.0
 43
0.0
 43
1.0
 43
0.0
 43
0.0
 43
0.0
 43
0.0
 43
1.0
 77
     0
 47
0.0208333333333333
 47
0.0
 47
0.0
 47
0.0
 47
0.0
 47
0.0208333333333333
 47
0.0
 47
0.0
 47
0.0
 47
0.0
 47
1.0
 47
0.0
 47
0.0
 47
0.0
 47
0.0
 47
1.0
171
     0
 49
0.0208333333333333
 49
0.0
 49
0.0
 49
0.0
 49
0.0
 49
0.0208333333333333
 49
0.0
 49
0.0
 49
0.0
 49
0.0
 49
1.0
 49
0.0
 49
0.0
 49
0.0
 49
0.0
 49
1.0
175
     0
142
0.0208333333333333
142
0.0
142
0.0
142
0.0
142
0.0
142
0.0208333333333333
142
0.0
142
0.0
142
0.0
142
0.0
142
1.0
142
0.0
142
0.0
142
0.0
142
0.0
142
1.0
179
     0
144
0.0208333333333333
144
0.0
144
0.0
144
0.0
144
0.0
144
0.0208333333333333
144
0.0
144
0.0
144
0.0
144
0.0
144
1.0
144
0.0
144
0.0
144
0.0
144
0.0
144
1.0
147
0.0208333333333333
147
0.0
147
0.0
147
0.0
147
0.0
147
0.0208333333333333
147
0.0
147
0.0
147
0.0
147
0.0
147
1.0
147
0.0
147
0.0
147
0.0
147
0.0
147
1.0
  0
MATERIAL
  5
F8B
102
{ACAD_XDICTIONARY
360
F8C
102
}
102
{ACAD_REACTORS
330
F7A
102
}
330
F7A
100
AcDbMaterial
  1
Global
 72
     0
 43
0.0208333333333333
 43
0.0
 43
0.0
 43
0.0
 43
0.0
 43
0.0208333333333333
 43
0.0
 43
0.0
 43
0.0
 43
0.0
 43
1.0
 43
0.0
 43
0.0
 43
0.0
 43
0.0
 43
1.0
 77
     0
 47
0.0208333333333333
 47
0.0
 47
0.0
 47
0.0
 47
0.0
 47
0.0208333333333333
 47
0.0
 47
0.0
 47
0.0
 47
0.0
 47
1.0
 47
0.0
 47
0.0
 47
0.0
 47
0.0
 47
1.0
171
     0
 49
0.0208333333333333
 49
0.0
 49
0.0
 49
0.0
 49
0.0
 49
0.0208333333333333
 49
0.0
 49
0.0
 49
0.0
 49
0.0
 49
1.0
 49
0.0
 49
0.0
 49
0.0
 49
0.0
 49
1.0
175
     0
142
0.0208333333333333
142
0.0
142
0.0
142
0.0
142
0.0
142
0.0208333333333333
142
0.0
142
0.0
142
0.0
142
0.0
142
1.0
142
0.0
142
0.0
142
0.0
142
0.0
142
1.0
179
     0
144
0.0208333333333333
144
0.0
144
0.0
144
0.0
144
0.0
144
0.0208333333333333
144
0.0
144
0.0
144
0.0
144
0.0
144
1.0
144
0.0
144
0.0
144
0.0
144
0.0
144
1.0
147
0.0208333333333333
147
0.0
147
0.0
147
0.0
147
0.0
147
0.0208333333333333
147
0.0
147
0.0
147
0.0
147
0.0
147
1.0
147
0.0
147
0.0
147
0.0
147
0.0
147
1.0
  0
MLEADERSTYLE
  5
FCE
102
{ACAD_REACTORS
330
FCD
102
}
330
FCD
100
AcDbMLeaderStyle
170
     2
171
     1
172
     0
 90
        2
 40
0.0
 41
0.0
173
     1
 91
-1056964608
340
256
 92
       -2
290
     1
 42
0.09
291
     1
 43
0.36
  3
Standard
 44
0.18
300

342
253
174
     1
178
     6
175
     1
176
     0
 93
-1056964608
 45
0.18
292
     0
297
     0
 46
0.18
 94
-1056964608
 47
1.0
 49
1.0
140
1.0
293
     1
141
0.0
294
     1
177
     0
142
1.0
295
     0
296
     0
143
0.125
1001
ACAD_MLEADERVER
1070
     2
  0
MLINESTYLE
  5
FAA
102
{ACAD_REACTORS
330
16
102
}
330
16
100
AcDbMlineStyle
  2
STANDARD
 70
     0
  3

 62
   256
 51
90.0
 52
90.0
 71
     2
 49
0.5
 62
   256
  6
BYLAYER
 49
-0.5
 62
   256
  6
BYLAYER
  0
ACDBPLACEHOLDER
  5
19
102
{ACAD_REACTORS
330
18
102
}
330
18
  0
SCALE
  5
FAC
102
{ACAD_REACTORS
330
FAB
102
}
330
FAB
100
AcDbScale
 70
     0
300
1:1
140
1.0
141
1.0
290
     1
  0
SCALE
  5
FAD
102
{ACAD_REACTORS
330
FAB
102
}
330
FAB
100
AcDbScale
 70
     0
300
1:2
140
1.0
141
2.0
290
     0
  0
SCALE
  5
FAE
102
{ACAD_REACTORS
330
FAB
102
}
330
FAB
100
AcDbScale
 70
     0
300
1:4
140
1.0
141
4.0
290
     0
  0
SCALE
  5
FAF
102
{ACAD_REACTORS
330
FAB
102
}
330
FAB
100
AcDbScale
 70
     0
300
1:5
140
1.0
141
5.0
290
     0
  0
SCALE
  5
FB0
102
{ACAD_REACTORS
330
FAB
102
}
330
FAB
100
AcDbScale
 70
     0
300
1:8
140
1.0
141
8.0
290
     0
  0
SCALE
  5
FB1
102
{ACAD_REACTORS
330
FAB
102
}
330
FAB
100
AcDbScale
 70
     0
300
1:10
140
1.0
141
10.0
290
     0
  0
SCALE
  5
FB2
102
{ACAD_REACTORS
330
FAB
102
}
330
FAB
100
AcDbScale
 70
     0
300
1:16
140
1.0
141
16.0
290
     0
  0
SCALE
  5
FB3
102
{ACAD_REACTORS
330
FAB
102
}
330
FAB
100
AcDbScale
 70
     0
300
1:20
140
1.0
141
20.0
290
     0
  0
SCALE
  5
FB4
102
{ACAD_REACTORS
330
FAB
102
}
330
FAB
100
AcDbScale
 70
     0
300
1:30
140
1.0
141
30.0
290
     0
  0
SCALE
  5
FB5
102
{ACAD_REACTORS
330
FAB
102
}
330
FAB
100
AcDbScale
 70
     0
300
1:40
140
1.0
141
40.0
290
     0
  0
SCALE
  5
FB6
102
{ACAD_REACTORS
330
FAB
102
}
330
FAB
100
AcDbScale
 70
     0
300
1:50
140
1.0
141
50.0
290
     0
  0
SCALE
  5
FB7
102
{ACAD_REACTORS
330
FAB
102
}
330
FAB
100
AcDbScale
 70
     0
300
1:100
140
1.0
141
100.0
290
     0
  0
SCALE
  5
FB8
102
{ACAD_REACTORS
330
FAB
102
}
330
FAB
100
AcDbScale
 70
     0
300
2:1
140
2.0
141
1.0
290
     0
  0
SCALE
  5
FB9
102
{ACAD_REACTORS
330
FAB
102
}
330
FAB
100
AcDbScale
 70
     0
300
4:1
140
4.0
141
1.0
290
     0
  0
SCALE
  5
FBA
102
{ACAD_REACTORS
330
FAB
102
}
330
FAB
100
AcDbScale
 70
     0
300
8:1
140
8.0
141
1.0
290
     0
  0
SCALE
  5
FBB
102
{ACAD_REACTORS
330
FAB
102
}
330
FAB
100
AcDbScale
 70
     0
300
10:1
140
10.0
141
1.0
290
     0
  0
SCALE
  5
FBC
102
{ACAD_REACTORS
330
FAB
102
}
330
FAB
100
AcDbScale
 70
     0
300
100:1
140
100.0
141
1.0
290
     0
  0
SCALE
  5
FBD
102
{ACAD_REACTORS
330
FAB
102
}
330
FAB
100
AcDbScale
 70
     0
300
1/128" = 1'-0"
140
0.0078125
141
12.0
290
     0
  0
SCALE
  5
FBE
102
{ACAD_REACTORS
330
FAB
102
}
330
FAB
100
AcDbScale
 70
     0
300
1/64" = 1'-0"
140
0.015625
141
12.0
290
     0
  0
SCALE
  5
FBF
102
{ACAD_REACTORS
330
FAB
102
}
330
FAB
100
AcDbScale
 70
     0
300
1/32" = 1'-0"
140
0.03125
141
12.0
290
     0
  0
SCALE
  5
FC0
102
{ACAD_REACTORS
330
FAB
102
}
330
FAB
100
AcDbScale
 70
     0
300
1/16" = 1'-0"
140
0.0625
141
12.0
290
     0
  0
SCALE
  5
FC1
102
{ACAD_REACTORS
330
FAB
102
}
330
FAB
100
AcDbScale
 70
     0
300
3/32" = 1'-0"
140
0.09375
141
12.0
290
     0
  0
SCALE
  5
FC2
102
{ACAD_REACTORS
330
FAB
102
}
330
FAB
100
AcDbScale
 70
     0
300
1/8" = 1'-0"
140
0.125
141
12.0
290
     0
  0
SCALE
  5
FC3
102
{ACAD_REACTORS
330
FAB
102
}
330
FAB
100
AcDbScale
 70
     0
300
3/16" = 1'-0"
140
0.1875
141
12.0
290
     0
  0
SCALE
  5
FC4
102
{ACAD_REACTORS
330
FAB
102
}
330
FAB
100
AcDbScale
 70
     0
300
1/4" = 1'-0"
140
0.25
141
12.0
290
     0
  0
SCALE
  5
FC5
102
{ACAD_REACTORS
330
FAB
102
}
330
FAB
100
AcDbScale
 70
     0
300
3/8" = 1'-0"
140
0.375
141
12.0
290
     0
  0
SCALE
  5
FC6
102
{ACAD_REACTORS
330
FAB
102
}
330
FAB
100
AcDbScale
 70
     0
300
1/2" = 1'-0"
140
0.5
141
12.0
290
     0
  0
SCALE
  5
FC7
102
{ACAD_REACTORS
330
FAB
102
}
330
FAB
100
AcDbScale
 70
     0
300
3/4" = 1'-0"
140
0.75
141
12.0
290
     0
  0
SCALE
  5
FC8
102
{ACAD_REACTORS
330
FAB
102
}
330
FAB
100
AcDbScale
 70
     0
300
1" = 1'-0"
140
1.0
141
12.0
290
     0
  0
SCALE
  5
FC9
102
{ACAD_REACTORS
330
FAB
102
}
330
FAB
100
AcDbScale
 70
     0
300
1-1/2" = 1'-0"
140
1.5
141
12.0
290
     0
  0
SCALE
  5
FCA
102
{ACAD_REACTORS
330
FAB
102
}
330
FAB
100
AcDbScale
 70
     0
300
3" = 1'-0"
140
3.0
141
12.0
290
     0
  0
SCALE
  5
FCB
102
{ACAD_REACTORS
330
FAB
102
}
330
FAB
100
AcDbScale
 70
     0
300
6" = 1'-0"
140
6.0
141
12.0
290
     0
  0
SCALE
  5
FCC
102
{ACAD_REACTORS
330
FAB
102
}
330
FAB
100
AcDbScale
 70
     0
300
1'-0" = 1'-0"
140
12.0
141
12.0
290
     0
  0
TABLESTYLE
  5
FA9
102
{ACAD_XDICTIONARY
360
FF8
102
}
102
{ACAD_REACTORS
330
FA8
102
}
330
FA8
100
AcDbTableStyle
  3
Standard
 70
     0
 71
     0
 40
0.06
 41
0.06
280
     0
281
     0
  7
Standard
140
0.18
170
     2
 62
     0
 63
     7
283
     0
274
    -2
284
     1
 64
     0
275
    -2
285
     1
 65
     0
276
    -2
286
     1
 66
     0
277
    -2
287
     1
 67
     0
278
    -2
288
     1
 68
     0
279
    -2
289
     1
 69
     0
  7
Standard
140
0.25
170
     5
 62
     0
 63
     7
283
     0
274
    -2
284
     1
 64
     0
275
    -2
285
     1
 65
     0
276
    -2
286
     1
 66
     0
277
    -2
287
     1
 67
     0
278
    -2
288
     1
 68
     0
279
    -2
289
     1
 69
     0
  7
Standard
140
0.18
170
     5
 62
     0
 63
     7
283
     0
274
    -2
284
     1
 64
     0
275
    -2
285
     1
 65
     0
276
    -2
286
     1
 66
     0
277
    -2
287
     1
 67
     0
278
    -2
288
     1
 68
     0
279
    -2
289
     1
 69
     0
  0
VISUALSTYLE
  5
F99
102
{ACAD_XDICTIONARY
360
F10B4D
102
}
102
{ACAD_REACTORS
330
F93
102
}
330
F93
100
AcDbVisualStyle
  2

 70
     4
 71
     0
 72
     2
 73
     0
 90
        0
 40
-0.6
 41
-30.0
 62
     5
 63
     7
 74
     1
 91
        4
 64
     7
 65
   257
 75
     1
175
     1
 42
1.0
 92
        0
 66
   257
 43
1.0
 76
     1
 77
     6
 78
     2
 67
     7
 79
     5
170
     0
171
     0
290
     0
174
     0
 93
        1
 44
0.0
173
     0
291
     0
 45
0.0
1001
ACAD
1000
AcDbSavedByObjectVersion
1070
     0
  0
VISUALSTYLE
  5
F9B
102
{ACAD_XDICTIONARY
360
F10B51
102
}
102
{ACAD_REACTORS
330
F93
102
}
330
F93
100
AcDbVisualStyle
  2

 70
     6
 71
     1
 72
     2
 73
     2
 90
        0
 40
-0.6
 41
-30.0
 62
     5
 63
     7
 74
     2
 91
        2
 64
     7
 65
   257
 75
     2
175
     1
 42
179.0
 92
        0
 66
   257
 43
1.0
 76
     1
 77
     6
 78
     2
 67
     7
 79
     3
170
     0
171
     0
290
     0
174
     0
 93
        1
 44
0.0
173
     0
291
     0
 45
0.0
1001
ACAD
1000
AcDbSavedByObjectVersion
1070
     0
  0
VISUALSTYLE
  5
F9A
102
{ACAD_XDICTIONARY
360
F10B4F
102
}
102
{ACAD_REACTORS
330
F93
102
}
330
F93
100
AcDbVisualStyle
  2

 70
     5
 71
     0
 72
     2
 73
     0
 90
        0
 40
-0.6
 41
-30.0
 62
     5
 63
     7
 74
     1
 91
        4
 64
     7
 65
   257
 75
     1
175
     1
 42
1.0
 92
        0
 66
   257
 43
1.0
 76
     1
 77
     6
 78
     2
 67
     7
 79
     5
170
     0
171
     0
290
     0
174
     0
 93
        1
 44
0.0
173
     0
291
     0
 45
0.0
1001
ACAD
1000
AcDbSavedByObjectVersion
1070
     0
  0
VISUALSTYLE
  5
F98
102
{ACAD_XDICTIONARY
360
F10B4B
102
}
102
{ACAD_REACTORS
330
F93
102
}
330
F93
100
AcDbVisualStyle
  2

 70
     7
 71
     1
 72
     0
 73
     1
 90
        0
 40
-0.6
 41
-30.0
 62
     5
 63
     7
 74
     0
 91
        4
 64
     7
 65
   257
 75
     1
175
     1
 42
1.0
 92
        8
 66
     7
 43
1.0
 76
     1
 77
     6
 78
     2
 67
     7
 79
     5
170
     0
171
     0
290
     0
174
     0
 93
        1
 44
0.0
173
     0
291
     1
 45
0.0
1001
ACAD
1000
AcDbSavedByObjectVersion
1070
     0
  0
VISUALSTYLE
  5
F9F
102
{ACAD_XDICTIONARY
360
F10B59
102
}
102
{ACAD_REACTORS
330
F93
102
}
330
F93
100
AcDbVisualStyle
  2

 70
    12
 71
     2
 72
     2
 73
     0
 90
        0
 40
-0.6
 41
-30.0
 62
     5
 63
     7
 74
     1
 91
        4
 64
     7
 65
   257
 75
     1
175
     1
 42
1.0
 92
        8
 66
     7
 43
1.0
 76
     1
 77
     6
 78
     2
 67
     7
 79
     5
170
     0
171
     0
290
     0
174
     0
 93
        1
 44
50.0
173
     0
291
     1
 45
0.0
1001
ACAD
1000
AcDbSavedByObjectVersion
1070
     0
  0
VISUALSTYLE
  5
FA3
102
{ACAD_XDICTIONARY
360
F10B61
102
}
102
{ACAD_REACTORS
330
F93
102
}
330
F93
100
AcDbVisualStyle
  2

 70
    16
 71
     2
 72
     2
 73
     3
 90
        0
 40
-0.6
 41
-30.0
 62
     5
 63
     8
 74
     1
 91
        4
 64
     7
 65
   257
 75
     1
175
     1
 42
1.0
 92
        8
 66
     8
 43
1.0
 76
     1
 77
     6
 78
     2
 67
     7
 79
     5
170
     0
171
     0
290
     0
174
     0
 93
        1
 44
0.0
173
     0
291
     1
 45
0.0
1001
ACAD
1000
AcDbSavedByObjectVersion
1070
     0
  0
VISUALSTYLE
  5
F9C
102
{ACAD_XDICTIONARY
360
F10B53
102
}
102
{ACAD_REACTORS
330
F93
102
}
330
F93
100
AcDbVisualStyle
  2

 70
     9
 71
     3
 72
     2
 73
     0
 90
        0
 40
-0.6
 41
-30.0
 62
     5
 63
     7
 74
     2
 91
        2
 64
     7
 65
   257
 75
     1
175
     1
 42
179.0
 92
        8
 66
     7
 43
1.0
 76
     1
 77
     6
 78
     2
 67
     7
 79
     3
170
     0
171
     0
290
     0
174
     0
 93
        1
 44
0.0
173
     0
291
     0
 45
0.0
1001
ACAD
1000
AcDbSavedByObjectVersion
1070
     0
  0
VISUALSTYLE
  5
F9E
102
{ACAD_XDICTIONARY
360
F10B57
102
}
102
{ACAD_REACTORS
330
F93
102
}
330
F93
100
AcDbVisualStyle
  2

 70
    11
 71
     2
 72
     2
 73
     0
 90
        0
 40
-0.6
 41
-30.0
 62
     5
 63
     7
 74
     1
 91
        4
 64
     7
 65
   257
 75
     1
175
     1
 42
1.0
 92
        8
 66
     7
 43
1.0
 76
     1
 77
     6
 78
     2
 67
     7
 79
     5
170
     0
171
     0
290
     0
174
     0
 93
        1
 44
-50.0
173
     0
291
     1
 45
0.0
1001
ACAD
1000
AcDbSavedByObjectVersion
1070
     0
  0
VISUALSTYLE
  5
FA6
102
{ACAD_XDICTIONARY
360
F10B67
102
}
102
{ACAD_REACTORS
330
F93
102
}
330
F93
100
AcDbVisualStyle
  2

 70
    22
 71
     2
 72
     2
 73
     0
 90
        0
 40
-0.6
 41
-30.0
 62
     5
 63
     7
 74
     1
 91
        4
 64
     7
 65
   257
 75
     1
175
     1
 42
1.0
 92
        8
 66
     7
 43
1.0
 76
     1
 77
     6
 78
     2
 67
     7
 79
     5
170
     0
171
     0
290
     0
174
     0
 93
        1
 44
0.0
173
     0
291
     1
 45
0.0
1001
ACAD
1000
AcDbSavedByObjectVersion
1070
     0
  0
VISUALSTYLE
  5
FA2
102
{ACAD_XDICTIONARY
360
F10B5F
102
}
102
{ACAD_REACTORS
330
F93
102
}
330
F93
100
AcDbVisualStyle
  2

 70
    15
 71
     2
 72
     2
 73
     0
 90
        0
 40
-0.6
 41
-30.0
 62
     5
 63
     7
 74
     1
 91
        4
 64
     7
 65
   257
 75
     1
175
     1
 42
1.0
 92
        8
 66
     7
 43
1.0
 76
     1
 77
     6
 78
     2
 67
     7
 79
     5
170
     0
171
     0
290
     0
174
     0
 93
        1
 44
0.0
173
     0
291
     1
 45
0.0
1001
ACAD
1000
AcDbSavedByObjectVersion
1070
     0
  0
VISUALSTYLE
  5
F94
102
{ACAD_XDICTIONARY
360
F10B43
102
}
102
{ACAD_REACTORS
330
F93
102
}
330
F93
100
AcDbVisualStyle
  2

 70
     0
 71
     2
 72
     1
 73
     1
 90
        2
 40
-0.6
 41
30.0
 62
     5
 63
     7
 74
     0
 91
        4
 64
     7
 65
   257
 75
     1
175
     1
 42
1.0
 92
        8
 66
     7
 43
1.0
 76
     1
 77
     6
 78
     2
 67
     7
 79
     5
170
     0
171
     0
290
     0
174
     0
 93
       13
 44
0.0
173
     0
291
     1
 45
0.0
1001
ACAD
1000
AcDbSavedByObjectVersion
1070
     0
  0
VISUALSTYLE
  5
F95
102
{ACAD_XDICTIONARY
360
F10B45
102
}
102
{ACAD_REACTORS
330
F93
102
}
330
F93
100
AcDbVisualStyle
  2

 70
     1
 71
     2
 72
     1
 73
     1
 90
        2
 40
-0.6
 41
30.0
 62
     5
 63
     7
 74
     1
 91
        4
 64
     7
 65
   257
 75
     1
175
     1
 42
1.0
 92
        0
 66
   257
 43
1.0
 76
     1
 77
     6
 78
     2
 67
     7
 79
     5
170
     0
171
     0
290
     0
174
     0
 93
       13
 44
0.0
173
     0
291
     1
 45
0.0
1001
ACAD
1000
AcDbSavedByObjectVersion
1070
     0
  0
VISUALSTYLE
  5
F96
102
{ACAD_XDICTIONARY
360
F10B47
102
}
102
{ACAD_REACTORS
330
F93
102
}
330
F93
100
AcDbVisualStyle
  2

 70
     2
 71
     2
 72
     2
 73
     1
 90
        2
 40
-0.6
 41
30.0
 62
     5
 63
     7
 74
     0
 91
        4
 64
     7
 65
   257
 75
     1
175
     1
 42
1.0
 92
        0
 66
     7
 43
1.0
 76
     1
 77
     6
 78
     2
 67
     7
 79
     5
170
     0
171
     0
290
     0
174
     0
 93
       13
 44
0.0
173
     0
291
     1
 45
0.0
1001
ACAD
1000
AcDbSavedByObjectVersion
1070
     0
  0
VISUALSTYLE
  5
F97
102
{ACAD_XDICTIONARY
360
F10B49
102
}
102
{ACAD_REACTORS
330
F93
102
}
330
F93
100
AcDbVisualStyle
  2

 70
     3
 71
     2
 72
     2
 73
     1
 90
        2
 40
-0.6
 41
30.0
 62
     5
 63
     7
 74
     1
 91
        4
 64
     7
 65
   257
 75
     1
175
     1
 42
1.0
 92
        0
 66
   257
 43
1.0
 76
     1
 77
     6
 78
     2
 67
     7
 79
     5
170
     0
171
     0
290
     0
174
     0
 93
       13
 44
0.0
173
     0
291
     1
 45
0.0
1001
ACAD
1000
AcDbSavedByObjectVersion
1070
     0
  0
VISUALSTYLE
  5
F10935
102
{ACAD_XDICTIONARY
360
F10B70
102
}
102
{ACAD_REACTORS
330
F93
102
}
330
F93
100
AcDbVisualStyle
  2
Hidden
 70
     6
 71
     1
 72
     2
 73
     2
 90
        0
 40
-0.6
 41
-30.0
 62
     5
 63
     7
 74
     2
 91
        2
 64
     7
 65
   257
 75
     2
175
     1
 42
40.0
 92
        0
 66
   257
 43
1.0
 76
     1
 77
     6
 78
     2
 67
     7
 79
     3
170
     0
171
     0
290
     0
174
     0
 93
        1
 44
0.0
173
     0
291
     0
 45
0.0
1001
ACAD
1000
AcDbSavedByObjectVersion
1070
     0
  0
VISUALSTYLE
  5
FA4
102
{ACAD_XDICTIONARY
360
F10B63
102
}
102
{ACAD_REACTORS
330
F93
102
}
330
F93
100
AcDbVisualStyle
  2

 70
    20
 71
     2
 72
     2
 73
     0
 90
        0
 40
-0.6
 41
-30.0
 62
     5
 63
     7
 74
     1
 91
        4
 64
     7
 65
   257
 75
     1
175
     1
 42
1.0
 92
       10
 66
     7
 43
1.0
 76
     1
 77
     6
 78
     2
 67
     7
 79
     5
170
     0
171
     0
290
     0
174
     0
 93
        1
 44
0.0
173
     0
291
     1
 45
0.0
1001
ACAD
1000
AcDbSavedByObjectVersion
1070
     0
  0
VISUALSTYLE
  5
FA1
102
{ACAD_XDICTIONARY
360
F10B5D
102
}
102
{ACAD_REACTORS
330
F93
102
}
330
F93
100
AcDbVisualStyle
  2

 70
    14
 71
     2
 72
     2
 73
     0
 90
        0
 40
-0.6
 41
-30.0
 62
     5
 63
     7
 74
     1
 91
        4
 64
     7
 65
   257
 75
     7
175
     7
 42
1.0
 92
        8
 66
     7
 43
1.0
 76
     1
 77
     6
 78
     2
 67
     7
 79
     5
170
     0
171
     0
290
     0
174
     0
 93
        1
 44
0.0
173
     0
291
     1
 45
0.0
1001
ACAD
1000
AcDbSavedByObjectVersion
1070
     0
  0
VISUALSTYLE
  5
FA5
102
{ACAD_XDICTIONARY
360
F10B65
102
}
102
{ACAD_REACTORS
330
F93
102
}
330
F93
100
AcDbVisualStyle
  2

 70
    21
 71
     2
 72
     2
 73
     0
 90
        0
 40
-0.6
 41
-30.0
 62
     5
 63
     7
 74
     1
 91
        4
 64
     7
 65
   257
 75
     1
175
     1
 42
1.0
 92
        9
 66
     7
 43
1.0
 76
     1
 77
     6
 78
     2
 67
     7
 79
     5
170
     0
171
     0
290
     0
174
     0
 93
        1
 44
0.0
173
     0
291
     1
 45
0.0
1001
ACAD
1000
AcDbSavedByObjectVersion
1070
     0
  0
VISUALSTYLE
  5
F9D
102
{ACAD_XDICTIONARY
360
F10B55
102
}
102
{ACAD_REACTORS
330
F93
102
}
330
F93
100
AcDbVisualStyle
  2

 70
     8
 71
     2
 72
     2
 73
     0
 90
        0
 40
-0.6
 41
-30.0
 62
     5
 63
     7
 74
     1
 91
        0
 64
     7
 65
   257
 75
     1
175
     1
 42
1.0
 92
        8
 66
     8
 43
1.0
 76
     1
 77
     6
 78
     2
 67
     7
 79
     5
170
     0
171
     0
290
     0
174
     0
 93
       13
 44
0.0
173
     0
291
     0
 45
0.0
1001
ACAD
1000
AcDbSavedByObjectVersion
1070
     0
  0
VISUALSTYLE
  5
F1093A
102
{ACAD_XDICTIONARY
360
F10B7A
102
}
102
{ACAD_REACTORS
330
F93
102
}
330
F93
100
AcDbVisualStyle
  2
Shaded
 70
    27
 71
     2
 72
     2
 73
     1
 90
        2
 40
-0.6
 41
30.0
 62
     5
 63
     7
 74
     0
 91
        4
 64
     7
 65
   257
 75
     1
175
     1
 42
1.0
 92
        8
 66
   257
 43
1.0
 76
     1
 77
     6
 78
     2
 67
     8
 79
     3
170
     0
171
     0
290
     0
174
     0
 93
        5
 44
0.0
173
     0
291
     0
 45
0.0
1001
ACAD
1000
AcDbSavedByObjectVersion
1070
     0
  0
VISUALSTYLE
  5
F10939
102
{ACAD_XDICTIONARY
360
F10B78
102
}
102
{ACAD_REACTORS
330
F93
102
}
330
F93
100
AcDbVisualStyle
  2
Shaded with edges
 70
    26
 71
     2
 72
     2
 73
     1
 90
        2
 40
-0.6
 41
30.0
 62
     5
 63
     7
 74
     1
 91
       10
 64
     7
 65
   257
 75
     2
175
     1
 42
1.0
 92
        8
 66
   257
 43
1.0
 76
     1
 77
     6
 78
     2
 67
     7
 79
     3
170
     0
171
     0
290
     0
174
     0
 93
        5
 44
0.0
173
     0
291
     0
 45
0.0
1001
ACAD
1000
AcDbSavedByObjectVersion
1070
     0
  0
VISUALSTYLE
  5
F10936
102
{ACAD_XDICTIONARY
360
F10B72
102
}
102
{ACAD_REACTORS
330
F93
102
}
330
F93
100
AcDbVisualStyle
  2
Shades of Gray
 70
    23
 71
     2
 72
     2
 73
     3
 90
        0
 40
-0.6
 41
-30.0
 62
     5
 63
     7
 74
     2
 91
        2
 64
     7
 65
     7
 75
     1
175
     1
 42
40.0
 92
        8
 66
     7
 43
1.0
 76
     1
 77
     6
 78
     2
 67
     7
 79
     3
170
     0
171
     0
290
     0
174
     0
 93
        1
 44
0.0
173
     0
291
     0
 45
0.0
1001
ACAD
1000
AcDbSavedByObjectVersion
1070
     0
  0
VISUALSTYLE
  5
F10937
102
{ACAD_XDICTIONARY
360
F10B74
102
}
102
{ACAD_REACTORS
330
F93
102
}
330
F93
100
AcDbVisualStyle
  2
Sketchy
 70
    24
 71
     1
 72
     2
 73
     2
 90
        0
 40
-0.6
 41
-30.0
 62
     5
 63
     7
 74
     2
 91
        2
 64
     7
 65
     7
 75
     1
175
     1
 42
40.0
 92
       11
 66
     7
 43
1.0
 76
     1
 77
     6
 78
     2
 67
     7
 79
     6
170
     0
171
     0
290
     0
174
     0
 93
        1
 44
0.0
173
     0
291
     0
 45
0.0
1001
ACAD
1000
AcDbSavedByObjectVersion
1070
     0
  0
VISUALSTYLE
  5
FA0
102
{ACAD_XDICTIONARY
360
F10B5B
102
}
102
{ACAD_REACTORS
330
F93
102
}
330
F93
100
AcDbVisualStyle
  2

 70
    13
 71
     2
 72
     2
 73
     0
 90
        0
 40
-0.6
 41
-30.0
 62
     5
 63
     7
 74
     1
 91
        4
 64
     7
 65
   257
 75
     1
175
     1
 42
1.0
 92
       12
 66
     7
 43
1.0
 76
     1
 77
     6
 78
     2
 67
     7
 79
     5
170
     0
171
     0
290
     0
174
     0
 93
        1
 44
0.0
173
     0
291
     1
 45
0.0
1001
ACAD
1000
AcDbSavedByObjectVersion
1070
     0
  0
VISUALSTYLE
  5
F10934
102
{ACAD_XDICTIONARY
360
F10B6E
102
}
102
{ACAD_REACTORS
330
F93
102
}
330
F93
100
AcDbVisualStyle
  2
Wireframe
 70
     5
 71
     0
 72
     2
 73
     0
 90
        0
 40
-0.6
 41
-30.0
 62
     5
 63
     7
 74
     1
 91
        4
 64
     7
 65
   257
 75
     1
175
     1
 42
1.0
 92
        0
 66
   257
 43
1.0
 76
     1
 77
     6
 78
     2
 67
     7
 79
     3
170
     0
171
     0
290
     0
174
     0
 93
        1
 44
0.0
173
     0
291
     0
 45
0.0
1001
ACAD
1000
AcDbSavedByObjectVersion
1070
     0
  0
VISUALSTYLE
  5
F10938
102
{ACAD_XDICTIONARY
360
F10B76
102
}
102
{ACAD_REACTORS
330
F93
102
}
330
F93
100
AcDbVisualStyle
  2
X-Ray
 70
    25
 71
     2
 72
     2
 73
     1
 90
        1
 40
0.5
 41
-30.0
 62
     5
 63
     7
 74
     1
 91
        0
 64
     7
 65
   257
 75
     1
175
     1
 42
1.0
 92
        8
 66
     7
 43
1.0
 76
     1
 77
     6
 78
     2
 67
     7
 79
     3
170
     0
171
     0
290
     0
174
     0
 93
       13
 44
0.0
173
     0
291
     0
 45
0.0
1001
ACAD
1000
AcDbSavedByObjectVersion
1070
     0
  0
DICTIONARYVAR
  5
F10B33
102
{ACAD_REACTORS
330
F10B30
102
}
330
F10B30
100
DictionaryVariables
280
     0
  1
1:1
  0
DICTIONARYVAR
  5
F10B32
102
{ACAD_REACTORS
330
F10B30
102
}
330
F10B30
100
DictionaryVariables
280
     0
  1
STANDARD
  0
DICTIONARYVAR
  5
F10B31
102
{ACAD_REACTORS
330
F10B30
102
}
330
F10B30
100
DictionaryVariables
280
     0
  1
STANDARD
  0
DICTIONARYVAR
  5
F10B36
102
{ACAD_REACTORS
330
F10B30
102
}
330
F10B30
100
DictionaryVariables
280
     0
  1
1
  0
DICTIONARYVAR
  5
F10B35
102
{ACAD_REACTORS
330
F10B30
102
}
330
F10B30
100
DictionaryVariables
280
     0
  1
0
  0
DICTIONARYVAR
  5
F10B34
102
{ACAD_REACTORS
330
F10B30
102
}
330
F10B30
100
DictionaryVariables
280
     0
  1
127
  0
DICTIONARYVAR
  5
F10B37
102
{ACAD_REACTORS
330
F10B30
102
}
330
F10B30
100
DictionaryVariables
280
     0
  1
2
  0
DICTIONARY
  5
F10994
102
{ACAD_REACTORS
330
F10989
102
}
330
F10989
100
AcDbDictionary
281
     1
  0
DICTIONARY
  5
F10B6C
330
FD1
100
AcDbDictionary
280
     1
281
     1
  3
ACAD_XREC_ROUNDTRIP
360
F10B6D
  0
DICTIONARY
  5
F10B6A
330
FD0
100
AcDbDictionary
280
     1
281
     1
  3
ACAD_XREC_ROUNDTRIP
360
F10B6B
  0
DICTIONARY
  5
F84
330
F83
100
AcDbDictionary
280
     1
281
     1
  3
ACAD_XREC_ROUNDTRIP
360
FFF
  3
BUMPTILE
360
F86
  3
DIFFUSETILE
360
F85
  3
OPACITYTILE
360
F89
  3
REFLECTIONTILE
360
F88
  3
REFRACTIONTILE
360
F8A
  3
SPECULARTILE
360
F87
  0
DICTIONARY
  5
F7C
330
F7B
100
AcDbDictionary
280
     1
281
     1
  3
ACAD_XREC_ROUNDTRIP
360
FFE
  3
BUMPTILE
360
F7E
  3
DIFFUSETILE
360
F7D
  3
OPACITYTILE
360
F81
  3
REFLECTIONTILE
360
F80
  3
REFRACTIONTILE
360
F82
  3
SPECULARTILE
360
F7F
  0
DICTIONARY
  5
F8C
330
F8B
100
AcDbDictionary
280
     1
281
     1
  3
ACAD_XREC_ROUNDTRIP
360
1000
  3
BUMPTILE
360
F8E
  3
DIFFUSETILE
360
F8D
  3
OPACITYTILE
360
F91
  3
REFLECTIONTILE
360
F90
  3
REFRACTIONTILE
360
F92
  3
SPECULARTILE
360
F8F
  0
DICTIONARY
  5
FF8
330
FA9
100
AcDbDictionary
280
     1
281
     1
  3
ACAD_ROUNDTRIP_2008_TABLESTYLE_CELLSTYLEMAP
360
F10B38
  3
ACAD_XREC_ROUNDTRIP
360
F10B69
  0
DICTIONARY
  5
F10B4D
330
F99
100
AcDbDictionary
280
     1
281
     1
  3
ACAD_XREC_ROUNDTRIP
360
F10B4E
  0
DICTIONARY
  5
F10B51
330
F9B
100
AcDbDictionary
280
     1
281
     1
  3
ACAD_XREC_ROUNDTRIP
360
F10B52
  0
DICTIONARY
  5
F10B4F
330
F9A
100
AcDbDictionary
280
     1
281
     1
  3
ACAD_XREC_ROUNDTRIP
360
F10B50
  0
DICTIONARY
  5
F10B4B
330
F98
100
AcDbDictionary
280
     1
281
     1
  3
ACAD_XREC_ROUNDTRIP
360
F10B4C
  0
DICTIONARY
  5
F10B59
330
F9F
100
AcDbDictionary
280
     1
281
     1
  3
ACAD_XREC_ROUNDTRIP
360
F10B5A
  0
DICTIONARY
  5
F10B61
330
FA3
100
AcDbDictionary
280
     1
281
     1
  3
ACAD_XREC_ROUNDTRIP
360
F10B62
  0
DICTIONARY
  5
F10B53
330
F9C
100
AcDbDictionary
280
     1
281
     1
  3
ACAD_XREC_ROUNDTRIP
360
F10B54
  0
DICTIONARY
  5
F10B57
330
F9E
100
AcDbDictionary
280
     1
281
     1
  3
ACAD_XREC_ROUNDTRIP
360
F10B58
  0
DICTIONARY
  5
F10B67
330
FA6
100
AcDbDictionary
280
     1
281
     1
  3
ACAD_XREC_ROUNDTRIP
360
F10B68
  0
DICTIONARY
  5
F10B5F
330
FA2
100
AcDbDictionary
280
     1
281
     1
  3
ACAD_XREC_ROUNDTRIP
360
F10B60
  0
DICTIONARY
  5
F10B43
330
F94
100
AcDbDictionary
280
     1
281
     1
  3
ACAD_XREC_ROUNDTRIP
360
F10B44
  0
DICTIONARY
  5
F10B45
330
F95
100
AcDbDictionary
280
     1
281
     1
  3
ACAD_XREC_ROUNDTRIP
360
F10B46
  0
DICTIONARY
  5
F10B47
330
F96
100
AcDbDictionary
280
     1
281
     1
  3
ACAD_XREC_ROUNDTRIP
360
F10B48
  0
DICTIONARY
  5
F10B49
330
F97
100
AcDbDictionary
280
     1
281
     1
  3
ACAD_XREC_ROUNDTRIP
360
F10B4A
  0
DICTIONARY
  5
F10B70
330
F10935
100
AcDbDictionary
280
     1
281
     1
  3
ACAD_XREC_ROUNDTRIP
360
F10B71
  0
DICTIONARY
  5
F10B63
330
FA4
100
AcDbDictionary
280
     1
281
     1
  3
ACAD_XREC_ROUNDTRIP
360
F10B64
  0
DICTIONARY
  5
F10B5D
330
FA1
100
AcDbDictionary
280
     1
281
     1
  3
ACAD_XREC_ROUNDTRIP
360
F10B5E
  0
DICTIONARY
  5
F10B65
330
FA5
100
AcDbDictionary
280
     1
281
     1
  3
ACAD_XREC_ROUNDTRIP
360
F10B66
  0
DICTIONARY
  5
F10B55
330
F9D
100
AcDbDictionary
280
     1
281
     1
  3
ACAD_XREC_ROUNDTRIP
360
F10B56
  0
DICTIONARY
  5
F10B7A
330
F1093A
100
AcDbDictionary
280
     1
281
     1
  3
ACAD_XREC_ROUNDTRIP
360
F10B7B
  0
DICTIONARY
  5
F10B78
330
F10939
100
AcDbDictionary
280
     1
281
     1
  3
ACAD_XREC_ROUNDTRIP
360
F10B79
  0
DICTIONARY
  5
F10B72
330
F10936
100
AcDbDictionary
280
     1
281
     1
  3
ACAD_XREC_ROUNDTRIP
360
F10B73
  0
DICTIONARY
  5
F10B74
330
F10937
100
AcDbDictionary
280
     1
281
     1
  3
ACAD_XREC_ROUNDTRIP
360
F10B75
  0
DICTIONARY
  5
F10B5B
330
FA0
100
AcDbDictionary
280
     1
281
     1
  3
ACAD_XREC_ROUNDTRIP
360
F10B5C
  0
DICTIONARY
  5
F10B6E
330
F10934
100
AcDbDictionary
280
     1
281
     1
  3
ACAD_XREC_ROUNDTRIP
360
F10B6F
  0
DICTIONARY
  5
F10B76
330
F10938
100
AcDbDictionary
280
     1
281
     1
  3
ACAD_XREC_ROUNDTRIP
360
F10B77
  0
XRECORD
  5
F10B6D
102
{ACAD_REACTORS
330
F10B6C
102
}
330
F10B6C
100
AcDbXrecord
280
     1
102
SHADEPLOT
 70
     0
102
SHADEPLOTRESLEVEL
 70
     2
102
SHADEPLOTCUSTOMDPI
 70
   300
  0
XRECORD
  5
F10B6B
102
{ACAD_REACTORS
330
F10B6A
102
}
330
F10B6A
100
AcDbXrecord
280
     1
102
SHADEPLOT
 70
     0
102
SHADEPLOTRESLEVEL
 70
     2
102
SHADEPLOTCUSTOMDPI
 70
   300
  0
XRECORD
  5
FFF
102
{ACAD_REACTORS
330
F84
102
}
330
F84
100
AcDbXrecord
280
     1
102
MATERIAL
148
0.0
149
0.0
149
0.0
 93
        0
 94
      127
282
     0
 72
     0
 77
     0
171
     0
175
     0
179
     0
273
     0
  0
XRECORD
  5
F86
102
{ACAD_REACTORS
330
F84
102
}
330
F84
100
AcDbXrecord
280
     1
270
     1
271
     1
  0
XRECORD
  5
F85
102
{ACAD_REACTORS
330
F84
102
}
330
F84
100
AcDbXrecord
280
     1
270
     1
271
     1
  0
XRECORD
  5
F89
102
{ACAD_REACTORS
330
F84
102
}
330
F84
100
AcDbXrecord
280
     1
270
     1
271
     1
  0
XRECORD
  5
F88
102
{ACAD_REACTORS
330
F84
102
}
330
F84
100
AcDbXrecord
280
     1
270
     1
271
     1
  0
XRECORD
  5
F8A
102
{ACAD_REACTORS
330
F84
102
}
330
F84
100
AcDbXrecord
280
     1
270
     1
271
     1
  0
XRECORD
  5
F87
102
{ACAD_REACTORS
330
F84
102
}
330
F84
100
AcDbXrecord
280
     1
270
     1
271
     1
  0
XRECORD
  5
FFE
102
{ACAD_REACTORS
330
F7C
102
}
330
F7C
100
AcDbXrecord
280
     1
102
MATERIAL
148
0.0
149
0.0
149
0.0
 93
        0
 94
      127
282
     0
 72
     0
 77
     0
171
     0
175
     0
179
     0
273
     0
  0
XRECORD
  5
F7E
102
{ACAD_REACTORS
330
F7C
102
}
330
F7C
100
AcDbXrecord
280
     1
270
     1
271
     1
  0
XRECORD
  5
F7D
102
{ACAD_REACTORS
330
F7C
102
}
330
F7C
100
AcDbXrecord
280
     1
270
     1
271
     1
  0
XRECORD
  5
F81
102
{ACAD_REACTORS
330
F7C
102
}
330
F7C
100
AcDbXrecord
280
     1
270
     1
271
     1
  0
XRECORD
  5
F80
102
{ACAD_REACTORS
330
F7C
102
}
330
F7C
100
AcDbXrecord
280
     1
270
     1
271
     1
  0
XRECORD
  5
F82
102
{ACAD_REACTORS
330
F7C
102
}
330
F7C
100
AcDbXrecord
280
     1
270
     1
271
     1
  0
XRECORD
  5
F7F
102
{ACAD_REACTORS
330
F7C
102
}
330
F7C
100
AcDbXrecord
280
     1
270
     1
271
     1
  0
XRECORD
  5
1000
102
{ACAD_REACTORS
330
F8C
102
}
330
F8C
100
AcDbXrecord
280
     1
102
MATERIAL
148
0.0
149
0.0
149
0.0
 93
        0
 94
      127
282
     0
 72
     0
 77
     0
171
     0
175
     0
179
     0
273
     0
  0
XRECORD
  5
F8E
102
{ACAD_REACTORS
330
F8C
102
}
330
F8C
100
AcDbXrecord
280
     1
270
     1
271
     1
  0
XRECORD
  5
F8D
102
{ACAD_REACTORS
330
F8C
102
}
330
F8C
100
AcDbXrecord
280
     1
270
     1
271
     1
  0
XRECORD
  5
F91
102
{ACAD_REACTORS
330
F8C
102
}
330
F8C
100
AcDbXrecord
280
     1
270
     1
271
     1
  0
XRECORD
  5
F90
102
{ACAD_REACTORS
330
F8C
102
}
330
F8C
100
AcDbXrecord
280
     1
270
     1
271
     1
  0
XRECORD
  5
F92
102
{ACAD_REACTORS
330
F8C
102
}
330
F8C
100
AcDbXrecord
280
     1
270
     1
271
     1
  0
XRECORD
  5
F8F
102
{ACAD_REACTORS
330
F8C
102
}
330
F8C
100
AcDbXrecord
280
     1
270
     1
271
     1
  0
CELLSTYLEMAP
  5
F10B38
102
{ACAD_REACTORS
330
FF8
102
}
330
FF8
100
AcDbCellStyleMap
 90
        3
300
CELLSTYLE
  1
TABLEFORMAT_BEGIN
 90
        5
170
     1
 91
        0
 92
    32768
 62
   257
 93
        1
300
CONTENTFORMAT
  1
CONTENTFORMAT_BEGIN
 90
        0
 91
        0
 92
      512
 93
        0
300

 40
0.0
140
1.0
 94
        5
 62
     0
340
253
144
0.25
309
CONTENTFORMAT_END
171
     1
301
MARGIN
  1
CELLMARGIN_BEGIN
 40
0.06
 40
0.06
 40
0.06
 40
0.06
 40
0.18
 40
0.18
309
CELLMARGIN_END
 94
        6
 95
        1
302
GRIDFORMAT
  1
GRIDFORMAT_BEGIN
 90
        0
 91
        1
 62
     0
 92
       -2
340
0
 93
        0
 40
0.045
309
GRIDFORMAT_END
 95
        2
302
GRIDFORMAT
  1
GRIDFORMAT_BEGIN
 90
        0
 91
        1
 62
     0
 92
       -2
340
0
 93
        0
 40
0.045
309
GRIDFORMAT_END
 95
        4
302
GRIDFORMAT
  1
GRIDFORMAT_BEGIN
 90
        0
 91
        1
 62
     0
 92
       -2
340
0
 93
        0
 40
0.045
309
GRIDFORMAT_END
 95
        8
302
GRIDFORMAT
  1
GRIDFORMAT_BEGIN
 90
        0
 91
        1
 62
     0
 92
       -2
340
0
 93
        0
 40
0.045
309
GRIDFORMAT_END
 95
       16
302
GRIDFORMAT
  1
GRIDFORMAT_BEGIN
 90
        0
 91
        1
 62
     0
 92
       -2
340
0
 93
        0
 40
0.045
309
GRIDFORMAT_END
 95
       32
302
GRIDFORMAT
  1
GRIDFORMAT_BEGIN
 90
        0
 91
        1
 62
     0
 92
       -2
340
0
 93
        0
 40
0.045
309
GRIDFORMAT_END
309
TABLEFORMAT_END
  1
CELLSTYLE_BEGIN
 90
        1
 91
        1
300
_TITLE
309
CELLSTYLE_END
300
CELLSTYLE
  1
TABLEFORMAT_BEGIN
 90
        5
170
     1
 91
        0
 92
        0
 62
   257
 93
        1
300
CONTENTFORMAT
  1
CONTENTFORMAT_BEGIN
 90
        0
 91
        0
 92
      512
 93
        0
300

 40
0.0
140
1.0
 94
        5
 62
     0
340
253
144
0.18
309
CONTENTFORMAT_END
171
     1
301
MARGIN
  1
CELLMARGIN_BEGIN
 40
0.06
 40
0.06
 40
0.06
 40
0.06
 40
0.18
 40
0.18
309
CELLMARGIN_END
 94
        6
 95
        1
302
GRIDFORMAT
  1
GRIDFORMAT_BEGIN
 90
        0
 91
        1
 62
     0
 92
       -2
340
0
 93
        0
 40
0.045
309
GRIDFORMAT_END
 95
        2
302
GRIDFORMAT
  1
GRIDFORMAT_BEGIN
 90
        0
 91
        1
 62
     0
 92
       -2
340
0
 93
        0
 40
0.045
309
GRIDFORMAT_END
 95
        4
302
GRIDFORMAT
  1
GRIDFORMAT_BEGIN
 90
        0
 91
        1
 62
     0
 92
       -2
340
0
 93
        0
 40
0.045
309
GRIDFORMAT_END
 95
        8
302
GRIDFORMAT
  1
GRIDFORMAT_BEGIN
 90
        0
 91
        1
 62
     0
 92
       -2
340
0
 93
        0
 40
0.045
309
GRIDFORMAT_END
 95
       16
302
GRIDFORMAT
  1
GRIDFORMAT_BEGIN
 90
        0
 91
        1
 62
     0
 92
       -2
340
0
 93
        0
 40
0.045
309
GRIDFORMAT_END
 95
       32
302
GRIDFORMAT
  1
GRIDFORMAT_BEGIN
 90
        0
 91
        1
 62
     0
 92
       -2
340
0
 93
        0
 40
0.045
309
GRIDFORMAT_END
309
TABLEFORMAT_END
  1
CELLSTYLE_BEGIN
 90
        2
 91
        1
300
_HEADER
309
CELLSTYLE_END
300
CELLSTYLE
  1
TABLEFORMAT_BEGIN
 90
        5
170
     1
 91
        0
 92
        0
 62
   257
 93
        1
300
CONTENTFORMAT
  1
CONTENTFORMAT_BEGIN
 90
        0
 91
        0
 92
      512
 93
        0
300

 40
0.0
140
1.0
 94
        2
 62
     0
340
253
144
0.18
309
CONTENTFORMAT_END
171
     1
301
MARGIN
  1
CELLMARGIN_BEGIN
 40
0.06
 40
0.06
 40
0.06
 40
0.06
 40
0.18
 40
0.18
309
CELLMARGIN_END
 94
        6
 95
        1
302
GRIDFORMAT
  1
GRIDFORMAT_BEGIN
 90
        0
 91
        1
 62
     0
 92
       -2
340
0
 93
        0
 40
0.045
309
GRIDFORMAT_END
 95
        2
302
GRIDFORMAT
  1
GRIDFORMAT_BEGIN
 90
        0
 91
        1
 62
     0
 92
       -2
340
0
 93
        0
 40
0.045
309
GRIDFORMAT_END
 95
        4
302
GRIDFORMAT
  1
GRIDFORMAT_BEGIN
 90
        0
 91
        1
 62
     0
 92
       -2
340
0
 93
        0
 40
0.045
309
GRIDFORMAT_END
 95
        8
302
GRIDFORMAT
  1
GRIDFORMAT_BEGIN
 90
        0
 91
        1
 62
     0
 92
       -2
340
0
 93
        0
 40
0.045
309
GRIDFORMAT_END
 95
       16
302
GRIDFORMAT
  1
GRIDFORMAT_BEGIN
 90
        0
 91
        1
 62
     0
 92
       -2
340
0
 93
        0
 40
0.045
309
GRIDFORMAT_END
 95
       32
302
GRIDFORMAT
  1
GRIDFORMAT_BEGIN
 90
        0
 91
        1
 62
     0
 92
       -2
340
0
 93
        0
 40
0.045
309
GRIDFORMAT_END
309
TABLEFORMAT_END
  1
CELLSTYLE_BEGIN
 90
        3
 91
        2
300
_DATA
309
CELLSTYLE_END
  0
XRECORD
  5
F10B69
102
{ACAD_REACTORS
330
FF8
102
}
330
FF8
100
AcDbXrecord
280
     1
102
ACAD_ROUNDTRIP_PRE2007_TABLESTYLE
 90
      512
 91
        0
  1

 92
      512
 93
        0
  2

 94
      512
 95
        0
  3

  0
XRECORD
  5
F10B4E
102
{ACAD_REACTORS
330
F10B4D
102
}
330
F10B4D
100
AcDbXrecord
280
     1
102
RTVSPropertyOp0
 70
     1
102
RTVSPropertyOp1
 70
     1
102
RTVSPropertyOp2
 70
     1
102
RTVSPropertyOp3
 70
     1
102
RTVSPropertyOp4
 70
     1
102
RTVSPropertyOp5
 70
     1
102
RTVSPropertyOp6
 70
     1
102
RTVSPropertyOp7
 70
     1
102
RTVSPropertyOp8
 70
     1
102
RTVSPropertyOp9
 70
     1
102
RTVSPropertyOp10
 70
     1
102
RTVSPropertyOp11
 70
     1
102
RTVSPropertyOp12
 70
     1
102
RTVSPropertyOp13
 70
     1
102
RTVSPropertyOp14
 70
     1
102
RTVSPropertyOp15
 70
     1
102
RTVSPropertyOp16
 70
     1
102
RTVSPropertyOp17
 70
     1
102
RTVSPropertyOp18
 70
     1
102
RTVSPropertyOp19
 70
     1
102
RTVSPropertyOp20
 70
     1
102
RTVSPropertyOp21
 70
     1
102
RTVSPropertyOp22
 70
     1
102
RTVSPropertyOp23
 70
     1
102
RTVSPropertyOp24
 70
     1
102
RTVSPropertyOp25
 70
     1
102
RTVSPropertyOp26
 70
     1
102
RTVSPropertyOp27
 70
     1
102
RTVSPropertyOp28
 70
     1
102
RTVSPropertyOp29
 70
     1
102
RTVSPropertyOp30
 70
     1
102
RTVSPropertyOp31
 70
     1
102
RTVSPropertyOp32
 70
     1
  0
XRECORD
  5
F10B52
102
{ACAD_REACTORS
330
F10B51
102
}
330
F10B51
100
AcDbXrecord
280
     1
102
RTVSPropertyOp0
 70
     1
102
RTVSPropertyOp1
 70
     1
102
RTVSPropertyOp2
 70
     1
102
RTVSPropertyOp3
 70
     1
102
RTVSPropertyOp4
 70
     1
102
RTVSPropertyOp5
 70
     1
102
RTVSPropertyOp6
 70
     1
102
RTVSPropertyOp7
 70
     1
102
RTVSPropertyOp8
 70
     1
102
RTVSPropertyOp9
 70
     1
102
RTVSPropertyOp10
 70
     1
102
RTVSPropertyOp11
 70
     1
102
RTVSPropertyOp12
 70
     1
102
RTVSPropertyOp13
 70
     1
102
RTVSPropertyOp14
 70
     1
102
RTVSPropertyOp15
 70
     1
102
RTVSPropertyOp16
 70
     1
102
RTVSPropertyOp17
 70
     1
102
RTVSPropertyOp18
 70
     1
102
RTVSPropertyOp19
 70
     1
102
RTVSPropertyOp20
 70
     1
102
RTVSPropertyOp21
 70
     1
102
RTVSPropertyOp22
 70
     1
102
RTVSPropertyOp23
 70
     1
102
RTVSPropertyOp24
 70
     1
102
RTVSPropertyOp25
 70
     1
102
RTVSPropertyOp26
 70
     1
102
RTVSPropertyOp27
 70
     1
102
RTVSPropertyOp28
 70
     1
102
RTVSPropertyOp29
 70
     1
102
RTVSPropertyOp30
 70
     1
102
RTVSPropertyOp31
 70
     1
102
RTVSPropertyOp32
 70
     1
  0
XRECORD
  5
F10B50
102
{ACAD_REACTORS
330
F10B4F
102
}
330
F10B4F
100
AcDbXrecord
280
     1
102
RTVSPropertyOp0
 70
     1
102
RTVSPropertyOp1
 70
     1
102
RTVSPropertyOp2
 70
     1
102
RTVSPropertyOp3
 70
     1
102
RTVSPropertyOp4
 70
     1
102
RTVSPropertyOp5
 70
     1
102
RTVSPropertyOp6
 70
     1
102
RTVSPropertyOp7
 70
     1
102
RTVSPropertyOp8
 70
     1
102
RTVSPropertyOp9
 70
     1
102
RTVSPropertyOp10
 70
     1
102
RTVSPropertyOp11
 70
     1
102
RTVSPropertyOp12
 70
     1
102
RTVSPropertyOp13
 70
     1
102
RTVSPropertyOp14
 70
     1
102
RTVSPropertyOp15
 70
     1
102
RTVSPropertyOp16
 70
     1
102
RTVSPropertyOp17
 70
     1
102
RTVSPropertyOp18
 70
     1
102
RTVSPropertyOp19
 70
     1
102
RTVSPropertyOp20
 70
     1
102
RTVSPropertyOp21
 70
     1
102
RTVSPropertyOp22
 70
     1
102
RTVSPropertyOp23
 70
     1
102
RTVSPropertyOp24
 70
     1
102
RTVSPropertyOp25
 70
     1
102
RTVSPropertyOp26
 70
     1
102
RTVSPropertyOp27
 70
     1
102
RTVSPropertyOp28
 70
     1
102
RTVSPropertyOp29
 70
     1
102
RTVSPropertyOp30
 70
     1
102
RTVSPropertyOp31
 70
     1
102
RTVSPropertyOp32
 70
     1
  0
XRECORD
  5
F10B4C
102
{ACAD_REACTORS
330
F10B4B
102
}
330
F10B4B
100
AcDbXrecord
280
     1
102
RTVSPropertyOp0
 70
     1
102
RTVSPropertyOp1
 70
     1
102
RTVSPropertyOp2
 70
     1
102
RTVSPropertyOp3
 70
     1
102
RTVSPropertyOp4
 70
     1
102
RTVSPropertyOp5
 70
     1
102
RTVSPropertyOp6
 70
     1
102
RTVSPropertyOp7
 70
     1
102
RTVSPropertyOp8
 70
     1
102
RTVSPropertyOp9
 70
     1
102
RTVSPropertyOp10
 70
     1
102
RTVSPropertyOp11
 70
     1
102
RTVSPropertyOp12
 70
     1
102
RTVSPropertyOp13
 70
     1
102
RTVSPropertyOp14
 70
     1
102
RTVSPropertyOp15
 70
     1
102
RTVSPropertyOp16
 70
     1
102
RTVSPropertyOp17
 70
     1
102
RTVSPropertyOp18
 70
     1
102
RTVSPropertyOp19
 70
     1
102
RTVSPropertyOp20
 70
     1
102
RTVSPropertyOp21
 70
     1
102
RTVSPropertyOp22
 70
     1
102
RTVSPropertyOp23
 70
     1
102
RTVSPropertyOp24
 70
     1
102
RTVSPropertyOp25
 70
     1
102
RTVSPropertyOp26
 70
     1
102
RTVSPropertyOp27
 70
     1
102
RTVSPropertyOp28
 70
     1
102
RTVSPropertyOp29
 70
     1
102
RTVSPropertyOp30
 70
     1
102
RTVSPropertyOp31
 70
     1
102
RTVSPropertyOp32
 70
     1
  0
XRECORD
  5
F10B5A
102
{ACAD_REACTORS
330
F10B59
102
}
330
F10B59
100
AcDbXrecord
280
     1
102
RTVSPropertyOp0
 70
     1
102
RTVSPropertyOp1
 70
     1
102
RTVSPropertyOp2
 70
     1
102
RTVSPropertyOp3
 70
     1
102
RTVSPropertyOp4
 70
     1
102
RTVSPropertyOp5
 70
     1
102
RTVSPropertyOp6
 70
     1
102
RTVSPropertyOp7
 70
     1
102
RTVSPropertyOp8
 70
     1
102
RTVSPropertyOp9
 70
     1
102
RTVSPropertyOp10
 70
     1
102
RTVSPropertyOp11
 70
     1
102
RTVSPropertyOp12
 70
     1
102
RTVSPropertyOp13
 70
     1
102
RTVSPropertyOp14
 70
     1
102
RTVSPropertyOp15
 70
     1
102
RTVSPropertyOp16
 70
     1
102
RTVSPropertyOp17
 70
     1
102
RTVSPropertyOp18
 70
     1
102
RTVSPropertyOp19
 70
     1
102
RTVSPropertyOp20
 70
     1
102
RTVSPropertyOp21
 70
     1
102
RTVSPropertyOp22
 70
     1
102
RTVSPropertyOp23
 70
     1
102
RTVSPropertyOp24
 70
     1
102
RTVSPropertyOp25
 70
     1
102
RTVSPropertyOp26
 70
     1
102
RTVSPropertyOp27
 70
     1
102
RTVSPropertyOp28
 70
     1
102
RTVSPropertyOp29
 70
     1
102
RTVSPropertyOp30
 70
     1
102
RTVSPropertyOp31
 70
     1
102
RTVSPropertyOp32
 70
     1
  0
XRECORD
  5
F10B62
102
{ACAD_REACTORS
330
F10B61
102
}
330
F10B61
100
AcDbXrecord
280
     1
102
RTVSPropertyOp0
 70
     1
102
RTVSPropertyOp1
 70
     1
102
RTVSPropertyOp2
 70
     1
102
RTVSPropertyOp3
 70
     1
102
RTVSPropertyOp4
 70
     1
102
RTVSPropertyOp5
 70
     1
102
RTVSPropertyOp6
 70
     1
102
RTVSPropertyOp7
 70
     1
102
RTVSPropertyOp8
 70
     1
102
RTVSPropertyOp9
 70
     1
102
RTVSPropertyOp10
 70
     1
102
RTVSPropertyOp11
 70
     1
102
RTVSPropertyOp12
 70
     1
102
RTVSPropertyOp13
 70
     1
102
RTVSPropertyOp14
 70
     1
102
RTVSPropertyOp15
 70
     1
102
RTVSPropertyOp16
 70
     1
102
RTVSPropertyOp17
 70
     1
102
RTVSPropertyOp18
 70
     1
102
RTVSPropertyOp19
 70
     1
102
RTVSPropertyOp20
 70
     1
102
RTVSPropertyOp21
 70
     1
102
RTVSPropertyOp22
 70
     1
102
RTVSPropertyOp23
 70
     1
102
RTVSPropertyOp24
 70
     1
102
RTVSPropertyOp25
 70
     1
102
RTVSPropertyOp26
 70
     1
102
RTVSPropertyOp27
 70
     1
102
RTVSPropertyOp28
 70
     1
102
RTVSPropertyOp29
 70
     1
102
RTVSPropertyOp30
 70
     1
102
RTVSPropertyOp31
 70
     1
102
RTVSPropertyOp32
 70
     1
  0
XRECORD
  5
F10B54
102
{ACAD_REACTORS
330
F10B53
102
}
330
F10B53
100
AcDbXrecord
280
     1
102
RTVSPropertyOp0
 70
     1
102
RTVSPropertyOp1
 70
     1
102
RTVSPropertyOp2
 70
     1
102
RTVSPropertyOp3
 70
     1
102
RTVSPropertyOp4
 70
     1
102
RTVSPropertyOp5
 70
     1
102
RTVSPropertyOp6
 70
     1
102
RTVSPropertyOp7
 70
     1
102
RTVSPropertyOp8
 70
     1
102
RTVSPropertyOp9
 70
     1
102
RTVSPropertyOp10
 70
     1
102
RTVSPropertyOp11
 70
     1
102
RTVSPropertyOp12
 70
     1
102
RTVSPropertyOp13
 70
     1
102
RTVSPropertyOp14
 70
     1
102
RTVSPropertyOp15
 70
     1
102
RTVSPropertyOp16
 70
     1
102
RTVSPropertyOp17
 70
     1
102
RTVSPropertyOp18
 70
     1
102
RTVSPropertyOp19
 70
     1
102
RTVSPropertyOp20
 70
     1
102
RTVSPropertyOp21
 70
     1
102
RTVSPropertyOp22
 70
     1
102
RTVSPropertyOp23
 70
     1
102
RTVSPropertyOp24
 70
     1
102
RTVSPropertyOp25
 70
     1
102
RTVSPropertyOp26
 70
     1
102
RTVSPropertyOp27
 70
     1
102
RTVSPropertyOp28
 70
     1
102
RTVSPropertyOp29
 70
     1
102
RTVSPropertyOp30
 70
     1
102
RTVSPropertyOp31
 70
     1
102
RTVSPropertyOp32
 70
     1
  0
XRECORD
  5
F10B58
102
{ACAD_REACTORS
330
F10B57
102
}
330
F10B57
100
AcDbXrecord
280
     1
102
RTVSPropertyOp0
 70
     1
102
RTVSPropertyOp1
 70
     1
102
RTVSPropertyOp2
 70
     1
102
RTVSPropertyOp3
 70
     1
102
RTVSPropertyOp4
 70
     1
102
RTVSPropertyOp5
 70
     1
102
RTVSPropertyOp6
 70
     1
102
RTVSPropertyOp7
 70
     1
102
RTVSPropertyOp8
 70
     1
102
RTVSPropertyOp9
 70
     1
102
RTVSPropertyOp10
 70
     1
102
RTVSPropertyOp11
 70
     1
102
RTVSPropertyOp12
 70
     1
102
RTVSPropertyOp13
 70
     1
102
RTVSPropertyOp14
 70
     1
102
RTVSPropertyOp15
 70
     1
102
RTVSPropertyOp16
 70
     1
102
RTVSPropertyOp17
 70
     1
102
RTVSPropertyOp18
 70
     1
102
RTVSPropertyOp19
 70
     1
102
RTVSPropertyOp20
 70
     1
102
RTVSPropertyOp21
 70
     1
102
RTVSPropertyOp22
 70
     1
102
RTVSPropertyOp23
 70
     1
102
RTVSPropertyOp24
 70
     1
102
RTVSPropertyOp25
 70
     1
102
RTVSPropertyOp26
 70
     1
102
RTVSPropertyOp27
 70
     1
102
RTVSPropertyOp28
 70
     1
102
RTVSPropertyOp29
 70
     1
102
RTVSPropertyOp30
 70
     1
102
RTVSPropertyOp31
 70
     1
102
RTVSPropertyOp32
 70
     1
  0
XRECORD
  5
F10B68
102
{ACAD_REACTORS
330
F10B67
102
}
330
F10B67
100
AcDbXrecord
280
     1
102
RTVSPropertyOp0
 70
     0
102
RTVSPropertyOp1
 70
     0
102
RTVSPropertyOp2
 70
     0
102
RTVSPropertyOp3
 70
     0
102
RTVSPropertyOp4
 70
     0
102
RTVSPropertyOp5
 70
     0
102
RTVSPropertyOp6
 70
     0
102
RTVSPropertyOp7
 70
     0
102
RTVSPropertyOp8
 70
     0
102
RTVSPropertyOp9
 70
     0
102
RTVSPropertyOp10
 70
     0
102
RTVSPropertyOp11
 70
     0
102
RTVSPropertyOp12
 70
     0
102
RTVSPropertyOp13
 70
     0
102
RTVSPropertyOp14
 70
     2
102
RTVSPropertyOp15
 70
     0
102
RTVSPropertyOp16
 70
     0
102
RTVSPropertyOp17
 70
     0
102
RTVSPropertyOp18
 70
     0
102
RTVSPropertyOp19
 70
     0
102
RTVSPropertyOp20
 70
     0
102
RTVSPropertyOp21
 70
     0
102
RTVSPropertyOp22
 70
     0
102
RTVSPropertyOp23
 70
     0
102
RTVSPropertyOp24
 70
     0
102
RTVSPropertyOp25
 70
     0
102
RTVSPropertyOp26
 70
     0
102
RTVSPropertyOp27
 70
     0
102
RTVSPropertyOp28
 70
     1
102
RTVSPropertyOp29
 70
     1
102
RTVSPropertyOp30
 70
     1
102
RTVSPropertyOp31
 70
     1
102
RTVSPropertyOp32
 70
     1
  0
XRECORD
  5
F10B60
102
{ACAD_REACTORS
330
F10B5F
102
}
330
F10B5F
100
AcDbXrecord
280
     1
102
RTVSPropertyOp0
 70
     1
102
RTVSPropertyOp1
 70
     1
102
RTVSPropertyOp2
 70
     1
102
RTVSPropertyOp3
 70
     1
102
RTVSPropertyOp4
 70
     1
102
RTVSPropertyOp5
 70
     1
102
RTVSPropertyOp6
 70
     1
102
RTVSPropertyOp7
 70
     1
102
RTVSPropertyOp8
 70
     1
102
RTVSPropertyOp9
 70
     1
102
RTVSPropertyOp10
 70
     1
102
RTVSPropertyOp11
 70
     1
102
RTVSPropertyOp12
 70
     1
102
RTVSPropertyOp13
 70
     1
102
RTVSPropertyOp14
 70
     1
102
RTVSPropertyOp15
 70
     1
102
RTVSPropertyOp16
 70
     1
102
RTVSPropertyOp17
 70
     1
102
RTVSPropertyOp18
 70
     1
102
RTVSPropertyOp19
 70
     1
102
RTVSPropertyOp20
 70
     1
102
RTVSPropertyOp21
 70
     1
102
RTVSPropertyOp22
 70
     1
102
RTVSPropertyOp23
 70
     1
102
RTVSPropertyOp24
 70
     1
102
RTVSPropertyOp25
 70
     1
102
RTVSPropertyOp26
 70
     1
102
RTVSPropertyOp27
 70
     1
102
RTVSPropertyOp28
 70
     1
102
RTVSPropertyOp29
 70
     1
102
RTVSPropertyOp30
 70
     1
102
RTVSPropertyOp31
 70
     1
102
RTVSPropertyOp32
 70
     1
  0
XRECORD
  5
F10B44
102
{ACAD_REACTORS
330
F10B43
102
}
330
F10B43
100
AcDbXrecord
280
     1
102
RTVSPropertyOp0
 70
     1
102
RTVSPropertyOp1
 70
     1
102
RTVSPropertyOp2
 70
     1
102
RTVSPropertyOp3
 70
     1
102
RTVSPropertyOp4
 70
     1
102
RTVSPropertyOp5
 70
     1
102
RTVSPropertyOp6
 70
     1
102
RTVSPropertyOp7
 70
     1
102
RTVSPropertyOp8
 70
     1
102
RTVSPropertyOp9
 70
     1
102
RTVSPropertyOp10
 70
     1
102
RTVSPropertyOp11
 70
     1
102
RTVSPropertyOp12
 70
     1
102
RTVSPropertyOp13
 70
     1
102
RTVSPropertyOp14
 70
     1
102
RTVSPropertyOp15
 70
     1
102
RTVSPropertyOp16
 70
     1
102
RTVSPropertyOp17
 70
     1
102
RTVSPropertyOp18
 70
     1
102
RTVSPropertyOp19
 70
     1
102
RTVSPropertyOp20
 70
     1
102
RTVSPropertyOp21
 70
     1
102
RTVSPropertyOp22
 70
     1
102
RTVSPropertyOp23
 70
     1
102
RTVSPropertyOp24
 70
     1
102
RTVSPropertyOp25
 70
     1
102
RTVSPropertyOp26
 70
     1
102
RTVSPropertyOp27
 70
     1
102
RTVSPropertyOp28
 70
     1
102
RTVSPropertyOp29
 70
     1
102
RTVSPropertyOp30
 70
     1
102
RTVSPropertyOp31
 70
     1
102
RTVSPropertyOp32
 70
     1
  0
XRECORD
  5
F10B46
102
{ACAD_REACTORS
330
F10B45
102
}
330
F10B45
100
AcDbXrecord
280
     1
102
RTVSPropertyOp0
 70
     1
102
RTVSPropertyOp1
 70
     1
102
RTVSPropertyOp2
 70
     1
102
RTVSPropertyOp3
 70
     1
102
RTVSPropertyOp4
 70
     1
102
RTVSPropertyOp5
 70
     1
102
RTVSPropertyOp6
 70
     1
102
RTVSPropertyOp7
 70
     1
102
RTVSPropertyOp8
 70
     1
102
RTVSPropertyOp9
 70
     1
102
RTVSPropertyOp10
 70
     1
102
RTVSPropertyOp11
 70
     1
102
RTVSPropertyOp12
 70
     1
102
RTVSPropertyOp13
 70
     1
102
RTVSPropertyOp14
 70
     1
102
RTVSPropertyOp15
 70
     1
102
RTVSPropertyOp16
 70
     1
102
RTVSPropertyOp17
 70
     1
102
RTVSPropertyOp18
 70
     1
102
RTVSPropertyOp19
 70
     1
102
RTVSPropertyOp20
 70
     1
102
RTVSPropertyOp21
 70
     1
102
RTVSPropertyOp22
 70
     1
102
RTVSPropertyOp23
 70
     1
102
RTVSPropertyOp24
 70
     1
102
RTVSPropertyOp25
 70
     1
102
RTVSPropertyOp26
 70
     1
102
RTVSPropertyOp27
 70
     1
102
RTVSPropertyOp28
 70
     1
102
RTVSPropertyOp29
 70
     1
102
RTVSPropertyOp30
 70
     1
102
RTVSPropertyOp31
 70
     1
102
RTVSPropertyOp32
 70
     1
  0
XRECORD
  5
F10B48
102
{ACAD_REACTORS
330
F10B47
102
}
330
F10B47
100
AcDbXrecord
280
     1
102
RTVSPropertyOp0
 70
     1
102
RTVSPropertyOp1
 70
     1
102
RTVSPropertyOp2
 70
     1
102
RTVSPropertyOp3
 70
     1
102
RTVSPropertyOp4
 70
     1
102
RTVSPropertyOp5
 70
     1
102
RTVSPropertyOp6
 70
     1
102
RTVSPropertyOp7
 70
     1
102
RTVSPropertyOp8
 70
     1
102
RTVSPropertyOp9
 70
     1
102
RTVSPropertyOp10
 70
     1
102
RTVSPropertyOp11
 70
     1
102
RTVSPropertyOp12
 70
     1
102
RTVSPropertyOp13
 70
     1
102
RTVSPropertyOp14
 70
     1
102
RTVSPropertyOp15
 70
     1
102
RTVSPropertyOp16
 70
     1
102
RTVSPropertyOp17
 70
     1
102
RTVSPropertyOp18
 70
     1
102
RTVSPropertyOp19
 70
     1
102
RTVSPropertyOp20
 70
     1
102
RTVSPropertyOp21
 70
     1
102
RTVSPropertyOp22
 70
     1
102
RTVSPropertyOp23
 70
     1
102
RTVSPropertyOp24
 70
     1
102
RTVSPropertyOp25
 70
     1
102
RTVSPropertyOp26
 70
     1
102
RTVSPropertyOp27
 70
     1
102
RTVSPropertyOp28
 70
     1
102
RTVSPropertyOp29
 70
     1
102
RTVSPropertyOp30
 70
     1
102
RTVSPropertyOp31
 70
     1
102
RTVSPropertyOp32
 70
     1
  0
XRECORD
  5
F10B4A
102
{ACAD_REACTORS
330
F10B49
102
}
330
F10B49
100
AcDbXrecord
280
     1
102
RTVSPropertyOp0
 70
     1
102
RTVSPropertyOp1
 70
     1
102
RTVSPropertyOp2
 70
     1
102
RTVSPropertyOp3
 70
     1
102
RTVSPropertyOp4
 70
     1
102
RTVSPropertyOp5
 70
     1
102
RTVSPropertyOp6
 70
     1
102
RTVSPropertyOp7
 70
     1
102
RTVSPropertyOp8
 70
     1
102
RTVSPropertyOp9
 70
     1
102
RTVSPropertyOp10
 70
     1
102
RTVSPropertyOp11
 70
     1
102
RTVSPropertyOp12
 70
     1
102
RTVSPropertyOp13
 70
     1
102
RTVSPropertyOp14
 70
     1
102
RTVSPropertyOp15
 70
     1
102
RTVSPropertyOp16
 70
     1
102
RTVSPropertyOp17
 70
     1
102
RTVSPropertyOp18
 70
     1
102
RTVSPropertyOp19
 70
     1
102
RTVSPropertyOp20
 70
     1
102
RTVSPropertyOp21
 70
     1
102
RTVSPropertyOp22
 70
     1
102
RTVSPropertyOp23
 70
     1
102
RTVSPropertyOp24
 70
     1
102
RTVSPropertyOp25
 70
     1
102
RTVSPropertyOp26
 70
     1
102
RTVSPropertyOp27
 70
     1
102
RTVSPropertyOp28
 70
     1
102
RTVSPropertyOp29
 70
     1
102
RTVSPropertyOp30
 70
     1
102
RTVSPropertyOp31
 70
     1
102
RTVSPropertyOp32
 70
     1
  0
XRECORD
  5
F10B71
102
{ACAD_REACTORS
330
F10B70
102
}
330
F10B70
100
AcDbXrecord
280
     1
102
RTVSPropertyOp0
 70
     1
102
RTVSPropertyOp1
 70
     1
102
RTVSPropertyOp2
 70
     1
102
RTVSPropertyOp3
 70
     1
102
RTVSPropertyOp4
 70
     1
102
RTVSPropertyOp5
 70
     1
102
RTVSPropertyOp6
 70
     1
102
RTVSPropertyOp7
 70
     1
102
RTVSPropertyOp8
 70
     1
102
RTVSPropertyOp9
 70
     1
102
RTVSPropertyOp10
 70
     1
102
RTVSPropertyOp11
 70
     1
102
RTVSPropertyOp12
 70
     1
102
RTVSPropertyOp13
 70
     1
102
RTVSPropertyOp14
 70
     1
102
RTVSPropertyOp15
 70
     1
102
RTVSPropertyOp16
 70
     1
102
RTVSPropertyOp17
 70
     1
102
RTVSPropertyOp18
 70
     1
102
RTVSPropertyOp19
 70
     1
102
RTVSPropertyOp20
 70
     1
102
RTVSPropertyOp21
 70
     1
102
RTVSPropertyOp22
 70
     1
102
RTVSPropertyOp23
 70
     1
102
RTVSPropertyOp24
 70
     1
102
RTVSPropertyOp25
 70
     1
102
RTVSPropertyOp26
 70
     1
102
RTVSPropertyOp27
 70
     1
102
RTVSPropertyOp28
 70
     1
102
RTVSPropertyOp29
 70
     1
102
RTVSPropertyOp30
 70
     1
102
RTVSPropertyOp31
 70
     1
102
RTVSPropertyOp32
 70
     1
  0
XRECORD
  5
F10B64
102
{ACAD_REACTORS
330
F10B63
102
}
330
F10B63
100
AcDbXrecord
280
     1
102
RTVSPropertyOp0
 70
     0
102
RTVSPropertyOp1
 70
     0
102
RTVSPropertyOp2
 70
     0
102
RTVSPropertyOp3
 70
     0
102
RTVSPropertyOp4
 70
     0
102
RTVSPropertyOp5
 70
     0
102
RTVSPropertyOp6
 70
     0
102
RTVSPropertyOp7
 70
     0
102
RTVSPropertyOp8
 70
     0
102
RTVSPropertyOp9
 70
     0
102
RTVSPropertyOp10
 70
     0
102
RTVSPropertyOp11
 70
     0
102
RTVSPropertyOp12
 70
     0
102
RTVSPropertyOp13
 70
     0
102
RTVSPropertyOp14
 70
     2
102
RTVSPropertyOp15
 70
     0
102
RTVSPropertyOp16
 70
     0
102
RTVSPropertyOp17
 70
     0
102
RTVSPropertyOp18
 70
     0
102
RTVSPropertyOp19
 70
     0
102
RTVSPropertyOp20
 70
     0
102
RTVSPropertyOp21
 70
     0
102
RTVSPropertyOp22
 70
     0
102
RTVSPropertyOp23
 70
     0
102
RTVSPropertyOp24
 70
     0
102
RTVSPropertyOp25
 70
     0
102
RTVSPropertyOp26
 70
     0
102
RTVSPropertyOp27
 70
     0
102
RTVSPropertyOp28
 70
     1
102
RTVSPropertyOp29
 70
     1
102
RTVSPropertyOp30
 70
     1
102
RTVSPropertyOp31
 70
     1
102
RTVSPropertyOp32
 70
     1
  0
XRECORD
  5
F10B5E
102
{ACAD_REACTORS
330
F10B5D
102
}
330
F10B5D
100
AcDbXrecord
280
     1
102
RTVSPropertyOp0
 70
     1
102
RTVSPropertyOp1
 70
     1
102
RTVSPropertyOp2
 70
     1
102
RTVSPropertyOp3
 70
     1
102
RTVSPropertyOp4
 70
     1
102
RTVSPropertyOp5
 70
     1
102
RTVSPropertyOp6
 70
     1
102
RTVSPropertyOp7
 70
     1
102
RTVSPropertyOp8
 70
     1
102
RTVSPropertyOp9
 70
     1
102
RTVSPropertyOp10
 70
     1
102
RTVSPropertyOp11
 70
     1
102
RTVSPropertyOp12
 70
     1
102
RTVSPropertyOp13
 70
     1
102
RTVSPropertyOp14
 70
     1
102
RTVSPropertyOp15
 70
     1
102
RTVSPropertyOp16
 70
     1
102
RTVSPropertyOp17
 70
     1
102
RTVSPropertyOp18
 70
     1
102
RTVSPropertyOp19
 70
     1
102
RTVSPropertyOp20
 70
     1
102
RTVSPropertyOp21
 70
     1
102
RTVSPropertyOp22
 70
     1
102
RTVSPropertyOp23
 70
     1
102
RTVSPropertyOp24
 70
     1
102
RTVSPropertyOp25
 70
     1
102
RTVSPropertyOp26
 70
     1
102
RTVSPropertyOp27
 70
     1
102
RTVSPropertyOp28
 70
     1
102
RTVSPropertyOp29
 70
     1
102
RTVSPropertyOp30
 70
     1
102
RTVSPropertyOp31
 70
     1
102
RTVSPropertyOp32
 70
     1
  0
XRECORD
  5
F10B66
102
{ACAD_REACTORS
330
F10B65
102
}
330
F10B65
100
AcDbXrecord
280
     1
102
RTVSPropertyOp0
 70
     0
102
RTVSPropertyOp1
 70
     0
102
RTVSPropertyOp2
 70
     0
102
RTVSPropertyOp3
 70
     0
102
RTVSPropertyOp4
 70
     0
102
RTVSPropertyOp5
 70
     0
102
RTVSPropertyOp6
 70
     0
102
RTVSPropertyOp7
 70
     0
102
RTVSPropertyOp8
 70
     0
102
RTVSPropertyOp9
 70
     0
102
RTVSPropertyOp10
 70
     0
102
RTVSPropertyOp11
 70
     0
102
RTVSPropertyOp12
 70
     0
102
RTVSPropertyOp13
 70
     0
102
RTVSPropertyOp14
 70
     2
102
RTVSPropertyOp15
 70
     0
102
RTVSPropertyOp16
 70
     0
102
RTVSPropertyOp17
 70
     0
102
RTVSPropertyOp18
 70
     0
102
RTVSPropertyOp19
 70
     0
102
RTVSPropertyOp20
 70
     0
102
RTVSPropertyOp21
 70
     0
102
RTVSPropertyOp22
 70
     0
102
RTVSPropertyOp23
 70
     0
102
RTVSPropertyOp24
 70
     0
102
RTVSPropertyOp25
 70
     0
102
RTVSPropertyOp26
 70
     0
102
RTVSPropertyOp27
 70
     0
102
RTVSPropertyOp28
 70
     1
102
RTVSPropertyOp29
 70
     1
102
RTVSPropertyOp30
 70
     1
102
RTVSPropertyOp31
 70
     1
102
RTVSPropertyOp32
 70
     1
  0
XRECORD
  5
F10B56
102
{ACAD_REACTORS
330
F10B55
102
}
330
F10B55
100
AcDbXrecord
280
     1
102
RTVSPropertyOp0
 70
     1
102
RTVSPropertyOp1
 70
     1
102
RTVSPropertyOp2
 70
     1
102
RTVSPropertyOp3
 70
     1
102
RTVSPropertyOp4
 70
     1
102
RTVSPropertyOp5
 70
     1
102
RTVSPropertyOp6
 70
     1
102
RTVSPropertyOp7
 70
     1
102
RTVSPropertyOp8
 70
     1
102
RTVSPropertyOp9
 70
     1
102
RTVSPropertyOp10
 70
     1
102
RTVSPropertyOp11
 70
     1
102
RTVSPropertyOp12
 70
     1
102
RTVSPropertyOp13
 70
     1
102
RTVSPropertyOp14
 70
     1
102
RTVSPropertyOp15
 70
     1
102
RTVSPropertyOp16
 70
     1
102
RTVSPropertyOp17
 70
     1
102
RTVSPropertyOp18
 70
     1
102
RTVSPropertyOp19
 70
     1
102
RTVSPropertyOp20
 70
     1
102
RTVSPropertyOp21
 70
     1
102
RTVSPropertyOp22
 70
     1
102
RTVSPropertyOp23
 70
     1
102
RTVSPropertyOp24
 70
     1
102
RTVSPropertyOp25
 70
     1
102
RTVSPropertyOp26
 70
     1
102
RTVSPropertyOp27
 70
     1
102
RTVSPropertyOp28
 70
     1
102
RTVSPropertyOp29
 70
     1
102
RTVSPropertyOp30
 70
     1
102
RTVSPropertyOp31
 70
     1
102
RTVSPropertyOp32
 70
     1
  0
XRECORD
  5
F10B7B
102
{ACAD_REACTORS
330
F10B7A
102
}
330
F10B7A
100
AcDbXrecord
280
     1
102
RTVSPropertyOp0
 70
     1
102
RTVSPropertyOp1
 70
     1
102
RTVSPropertyOp2
 70
     1
102
RTVSPropertyOp3
 70
     1
102
RTVSPropertyOp4
 70
     1
102
RTVSPropertyOp5
 70
     1
102
RTVSPropertyOp6
 70
     1
102
RTVSPropertyOp7
 70
     1
102
RTVSPropertyOp8
 70
     1
102
RTVSPropertyOp9
 70
     1
102
RTVSPropertyOp10
 70
     1
102
RTVSPropertyOp11
 70
     1
102
RTVSPropertyOp12
 70
     1
102
RTVSPropertyOp13
 70
     1
102
RTVSPropertyOp14
 70
     1
102
RTVSPropertyOp15
 70
     1
102
RTVSPropertyOp16
 70
     1
102
RTVSPropertyOp17
 70
     1
102
RTVSPropertyOp18
 70
     1
102
RTVSPropertyOp19
 70
     1
102
RTVSPropertyOp20
 70
     1
102
RTVSPropertyOp21
 70
     1
102
RTVSPropertyOp22
 70
     1
102
RTVSPropertyOp23
 70
     1
102
RTVSPropertyOp24
 70
     1
102
RTVSPropertyOp25
 70
     1
102
RTVSPropertyOp26
 70
     1
102
RTVSPropertyOp27
 70
     1
102
RTVSPropertyOp28
 70
     1
102
RTVSPropertyOp29
 70
     1
102
RTVSPropertyOp30
 70
     1
102
RTVSPropertyOp31
 70
     1
102
RTVSPropertyOp32
 70
     1
  0
XRECORD
  5
F10B79
102
{ACAD_REACTORS
330
F10B78
102
}
330
F10B78
100
AcDbXrecord
280
     1
102
RTVSPropertyOp0
 70
     1
102
RTVSPropertyOp1
 70
     1
102
RTVSPropertyOp2
 70
     1
102
RTVSPropertyOp3
 70
     1
102
RTVSPropertyOp4
 70
     1
102
RTVSPropertyOp5
 70
     1
102
RTVSPropertyOp6
 70
     1
102
RTVSPropertyOp7
 70
     1
102
RTVSPropertyOp8
 70
     1
102
RTVSPropertyOp9
 70
     1
102
RTVSPropertyOp10
 70
     1
102
RTVSPropertyOp11
 70
     1
102
RTVSPropertyOp12
 70
     1
102
RTVSPropertyOp13
 70
     1
102
RTVSPropertyOp14
 70
     1
102
RTVSPropertyOp15
 70
     1
102
RTVSPropertyOp16
 70
     1
102
RTVSPropertyOp17
 70
     1
102
RTVSPropertyOp18
 70
     1
102
RTVSPropertyOp19
 70
     1
102
RTVSPropertyOp20
 70
     1
102
RTVSPropertyOp21
 70
     1
102
RTVSPropertyOp22
 70
     1
102
RTVSPropertyOp23
 70
     1
102
RTVSPropertyOp24
 70
     1
102
RTVSPropertyOp25
 70
     1
102
RTVSPropertyOp26
 70
     1
102
RTVSPropertyOp27
 70
     1
102
RTVSPropertyOp28
 70
     1
102
RTVSPropertyOp29
 70
     1
102
RTVSPropertyOp30
 70
     1
102
RTVSPropertyOp31
 70
     1
102
RTVSPropertyOp32
 70
     1
  0
XRECORD
  5
F10B73
102
{ACAD_REACTORS
330
F10B72
102
}
330
F10B72
100
AcDbXrecord
280
     1
102
RTVSPropertyOp0
 70
     1
102
RTVSPropertyOp1
 70
     1
102
RTVSPropertyOp2
 70
     1
102
RTVSPropertyOp3
 70
     1
102
RTVSPropertyOp4
 70
     1
102
RTVSPropertyOp5
 70
     1
102
RTVSPropertyOp6
 70
     1
102
RTVSPropertyOp7
 70
     1
102
RTVSPropertyOp8
 70
     1
102
RTVSPropertyOp9
 70
     1
102
RTVSPropertyOp10
 70
     1
102
RTVSPropertyOp11
 70
     1
102
RTVSPropertyOp12
 70
     1
102
RTVSPropertyOp13
 70
     1
102
RTVSPropertyOp14
 70
     1
102
RTVSPropertyOp15
 70
     1
102
RTVSPropertyOp16
 70
     1
102
RTVSPropertyOp17
 70
     1
102
RTVSPropertyOp18
 70
     1
102
RTVSPropertyOp19
 70
     1
102
RTVSPropertyOp20
 70
     1
102
RTVSPropertyOp21
 70
     1
102
RTVSPropertyOp22
 70
     1
102
RTVSPropertyOp23
 70
     1
102
RTVSPropertyOp24
 70
     1
102
RTVSPropertyOp25
 70
     1
102
RTVSPropertyOp26
 70
     1
102
RTVSPropertyOp27
 70
     1
102
RTVSPropertyOp28
 70
     1
102
RTVSPropertyOp29
 70
     1
102
RTVSPropertyOp30
 70
     1
102
RTVSPropertyOp31
 70
     1
102
RTVSPropertyOp32
 70
     1
  0
XRECORD
  5
F10B75
102
{ACAD_REACTORS
330
F10B74
102
}
330
F10B74
100
AcDbXrecord
280
     1
102
RTVSPropertyOp0
 70
     1
102
RTVSPropertyOp1
 70
     1
102
RTVSPropertyOp2
 70
     1
102
RTVSPropertyOp3
 70
     1
102
RTVSPropertyOp4
 70
     1
102
RTVSPropertyOp5
 70
     1
102
RTVSPropertyOp6
 70
     1
102
RTVSPropertyOp7
 70
     1
102
RTVSPropertyOp8
 70
     1
102
RTVSPropertyOp9
 70
     1
102
RTVSPropertyOp10
 70
     1
102
RTVSPropertyOp11
 70
     1
102
RTVSPropertyOp12
 70
     1
102
RTVSPropertyOp13
 70
     1
102
RTVSPropertyOp14
 70
     1
102
RTVSPropertyOp15
 70
     1
102
RTVSPropertyOp16
 70
     1
102
RTVSPropertyOp17
 70
     1
102
RTVSPropertyOp18
 70
     1
102
RTVSPropertyOp19
 70
     1
102
RTVSPropertyOp20
 70
     1
102
RTVSPropertyOp21
 70
     1
102
RTVSPropertyOp22
 70
     1
102
RTVSPropertyOp23
 70
     1
102
RTVSPropertyOp24
 70
     1
102
RTVSPropertyOp25
 70
     1
102
RTVSPropertyOp26
 70
     1
102
RTVSPropertyOp27
 70
     1
102
RTVSPropertyOp28
 70
     1
102
RTVSPropertyOp29
 70
     1
102
RTVSPropertyOp30
 70
     1
102
RTVSPropertyOp31
 70
     1
102
RTVSPropertyOp32
 70
     1
  0
XRECORD
  5
F10B5C
102
{ACAD_REACTORS
330
F10B5B
102
}
330
F10B5B
100
AcDbXrecord
280
     1
102
RTVSPropertyOp0
 70
     1
102
RTVSPropertyOp1
 70
     1
102
RTVSPropertyOp2
 70
     1
102
RTVSPropertyOp3
 70
     1
102
RTVSPropertyOp4
 70
     1
102
RTVSPropertyOp5
 70
     1
102
RTVSPropertyOp6
 70
     1
102
RTVSPropertyOp7
 70
     1
102
RTVSPropertyOp8
 70
     1
102
RTVSPropertyOp9
 70
     1
102
RTVSPropertyOp10
 70
     1
102
RTVSPropertyOp11
 70
     1
102
RTVSPropertyOp12
 70
     1
102
RTVSPropertyOp13
 70
     1
102
RTVSPropertyOp14
 70
     1
102
RTVSPropertyOp15
 70
     1
102
RTVSPropertyOp16
 70
     1
102
RTVSPropertyOp17
 70
     1
102
RTVSPropertyOp18
 70
     1
102
RTVSPropertyOp19
 70
     1
102
RTVSPropertyOp20
 70
     1
102
RTVSPropertyOp21
 70
     1
102
RTVSPropertyOp22
 70
     1
102
RTVSPropertyOp23
 70
     1
102
RTVSPropertyOp24
 70
     1
102
RTVSPropertyOp25
 70
     1
102
RTVSPropertyOp26
 70
     1
102
RTVSPropertyOp27
 70
     1
102
RTVSPropertyOp28
 70
     1
102
RTVSPropertyOp29
 70
     1
102
RTVSPropertyOp30
 70
     1
102
RTVSPropertyOp31
 70
     1
102
RTVSPropertyOp32
 70
     1
  0
XRECORD
  5
F10B6F
102
{ACAD_REACTORS
330
F10B6E
102
}
330
F10B6E
100
AcDbXrecord
280
     1
102
RTVSPropertyOp0
 70
     1
102
RTVSPropertyOp1
 70
     1
102
RTVSPropertyOp2
 70
     1
102
RTVSPropertyOp3
 70
     1
102
RTVSPropertyOp4
 70
     1
102
RTVSPropertyOp5
 70
     1
102
RTVSPropertyOp6
 70
     1
102
RTVSPropertyOp7
 70
     1
102
RTVSPropertyOp8
 70
     1
102
RTVSPropertyOp9
 70
     1
102
RTVSPropertyOp10
 70
     1
102
RTVSPropertyOp11
 70
     1
102
RTVSPropertyOp12
 70
     1
102
RTVSPropertyOp13
 70
     1
102
RTVSPropertyOp14
 70
     1
102
RTVSPropertyOp15
 70
     1
102
RTVSPropertyOp16
 70
     1
102
RTVSPropertyOp17
 70
     1
102
RTVSPropertyOp18
 70
     1
102
RTVSPropertyOp19
 70
     1
102
RTVSPropertyOp20
 70
     1
102
RTVSPropertyOp21
 70
     1
102
RTVSPropertyOp22
 70
     1
102
RTVSPropertyOp23
 70
     1
102
RTVSPropertyOp24
 70
     1
102
RTVSPropertyOp25
 70
     1
102
RTVSPropertyOp26
 70
     1
102
RTVSPropertyOp27
 70
     1
102
RTVSPropertyOp28
 70
     1
102
RTVSPropertyOp29
 70
     1
102
RTVSPropertyOp30
 70
     1
102
RTVSPropertyOp31
 70
     1
102
RTVSPropertyOp32
 70
     1
  0
XRECORD
  5
F10B77
102
{ACAD_REACTORS
330
F10B76
102
}
330
F10B76
100
AcDbXrecord
280
     1
102
RTVSPropertyOp0
 70
     1
102
RTVSPropertyOp1
 70
     1
102
RTVSPropertyOp2
 70
     1
102
RTVSPropertyOp3
 70
     1
102
RTVSPropertyOp4
 70
     1
102
RTVSPropertyOp5
 70
     1
102
RTVSPropertyOp6
 70
     1
102
RTVSPropertyOp7
 70
     1
102
RTVSPropertyOp8
 70
     1
102
RTVSPropertyOp9
 70
     1
102
RTVSPropertyOp10
 70
     1
102
RTVSPropertyOp11
 70
     1
102
RTVSPropertyOp12
 70
     1
102
RTVSPropertyOp13
 70
     1
102
RTVSPropertyOp14
 70
     1
102
RTVSPropertyOp15
 70
     1
102
RTVSPropertyOp16
 70
     1
102
RTVSPropertyOp17
 70
     1
102
RTVSPropertyOp18
 70
     1
102
RTVSPropertyOp19
 70
     1
102
RTVSPropertyOp20
 70
     1
102
RTVSPropertyOp21
 70
     1
102
RTVSPropertyOp22
 70
     1
102
RTVSPropertyOp23
 70
     1
102
RTVSPropertyOp24
 70
     1
102
RTVSPropertyOp25
 70
     1
102
RTVSPropertyOp26
 70
     1
102
RTVSPropertyOp27
 70
     1
102
RTVSPropertyOp28
 70
     1
102
RTVSPropertyOp29
 70
     1
102
RTVSPropertyOp30
 70
     1
102
RTVSPropertyOp31
 70
     1
102
RTVSPropertyOp32
 70
     1
  0
ENDSEC
  0
EOF
