  0
SECTION
  2
HEADER
  9
$ACADVER
  1
AC1015
  9
$ACADMAINTVER
 70
    20
  9
$DWGCODEPAGE
  3
ANSI_1252
  9
$INSBASE
 10
0.0
 20
0.0
 30
0.0
  9
$EXTMIN
 10
-208.09585492228
 20
-100.103626943005
 30
0.0
  9
$EXTMAX
 10
143.354922279793
 20
106.7646657571623
 30
0.0
  9
$LIMMIN
 10
0.0
 20
0.0
  9
$LIMMAX
 10
12.0
 20
9.0
  9
$ORTHOMODE
 70
     0
  9
$REGENMODE
 70
     1
  9
$FILLMODE
 70
     1
  9
$QTEXTMODE
 70
     0
  9
$MIRRTEXT
 70
     1
  9
$LTSCALE
 40
1.0
  9
$ATTMODE
 70
     1
  9
$TEXTSIZE
 40
0.2
  9
$TRACEWID
 40
0.05
  9
$TEXTSTYLE
  7
Standard
  9
$CLAYER
  8
0
  9
$CELTYPE
  6
ByLayer
  9
$CECOLOR
 62
   256
  9
$CELTSCALE
 40
1.0
  9
$DISPSILH
 70
     0
  9
$DIMSCALE
 40
1.0
  9
$DIMASZ
 40
2.5
  9
$DIMEXO
 40
0.625
  9
$DIMDLI
 40
0.38
  9
$DIMRND
 40
0.0
  9
$DIMDLE
 40
0.0
  9
$DIMEXE
 40
1.25
  9
$DIMTP
 40
0.0
  9
$DIMTM
 40
0.000000001
  9
$DIMTXT
 40
2.5
  9
$DIMCEN
 40
0.09
  9
$DIMTSZ
 40
0.0
  9
$DIMTOL
 70
     1
  9
$DIMLIM
 70
     0
  9
$DIMTIH
 70
     0
  9
$DIMTOH
 70
     0
  9
$DIMSE1
 70
     0
  9
$DIMSE2
 70
     0
  9
$DIMTAD
 70
     1
  9
$DIMZIN
 70
     0
  9
$DIMBLK
  1
VDDIM_DEFAULT
  9
$DIMASO
 70
     1
  9
$DIMSHO
 70
     1
  9
$DIMPOST
  1

  9
$DIMAPOST
  1

  9
$DIMALT
 70
     0
  9
$DIMALTD
 70
     2
  9
$DIMALTF
 40
25.4
  9
$DIMLFAC
 40
1.0
  9
$DIMTOFL
 70
     0
  9
$DIMTVP
 40
0.0
  9
$DIMTIX
 70
     0
  9
$DIMSOXD
 70
     0
  9
$DIMSAH
 70
     0
  9
$DIMBLK1
  1

  9
$DIMBLK2
  1

  9
$DIMSTYLE
  2
BEM-ISBE
  9
$DIMCLRD
 70
     0
  9
$DIMCLRE
 70
     0
  9
$DIMCLRT
 70
     0
  9
$DIMTFAC
 40
0.5
  9
$DIMGAP
 40
0.625
  9
$DIMJUST
 70
     0
  9
$DIMSD1
 70
     0
  9
$DIMSD2
 70
     0
  9
$DIMTOLJ
 70
     1
  9
$DIMTZIN
 70
     0
  9
$DIMALTZ
 70
     0
  9
$DIMALTTZ
 70
     0
  9
$DIMUPT
 70
     0
  9
$DIMDEC
 70
     3
  9
$DIMTDEC
 70
     3
  9
$DIMALTU
 70
     2
  9
$DIMALTTD
 70
     2
  9
$DIMTXSTY
  7
Standard
  9
$DIMAUNIT
 70
     0
  9
$DIMADEC
 70
     3
  9
$DIMALTRND
 40
0.0
  9
$DIMAZIN
 70
     0
  9
$DIMDSEP
 70
    46
  9
$DIMATFIT
 70
     3
  9
$DIMFRAC
 70
     0
  9
$DIMLDRBLK
  1

  9
$DIMLUNIT
 70
     2
  9
$DIMLWD
 70
    -2
  9
$DIMLWE
 70
    -2
  9
$DIMTMOVE
 70
     0
  9
$LUNITS
 70
     2
  9
$LUPREC
 70
     4
  9
$SKETCHINC
 40
0.1
  9
$FILLETRAD
 40
0.0
  9
$AUNITS
 70
     0
  9
$AUPREC
 70
     0
  9
$MENU
  1
.
  9
$ELEVATION
 40
0.0
  9
$PELEVATION
 40
0.0
  9
$THICKNESS
 40
0.0
  9
$LIMCHECK
 70
     0
  9
$CHAMFERA
 40
0.5
  9
$CHAMFERB
 40
0.5
  9
$CHAMFERC
 40
1.0
  9
$CHAMFERD
 40
0.0
  9
$SKPOLY
 70
     0
  9
$TDCREATE
 40
2457073.643590000
  9
$TDUCREATE
 40
2457073.601923334
  9
$TDUPDATE
 40
2457073.648261760
  9
$TDUUPDATE
 40
2457073.606595093
  9
$TDINDWG
 40
0.0046729282
  9
$TDUSRTIMER
 40
0.0046728704
  9
$USRTIMER
 70
     1
  9
$ANGBASE
 50
0.0
  9
$ANGDIR
 70
     0
  9
$PDMODE
 70
     0
  9
$PDSIZE
 40
0.0
  9
$PLINEWID
 40
0.0
  9
$SPLFRAME
 70
     0
  9
$SPLINETYPE
 70
     6
  9
$SPLINESEGS
 70
     8
  9
$HANDSEED
  5
F10851
  9
$SURFTAB1
 70
     6
  9
$SURFTAB2
 70
     6
  9
$SURFTYPE
 70
     6
  9
$SURFU
 70
     6
  9
$SURFV
 70
     6
  9
$UCSBASE
  2

  9
$UCSNAME
  2

  9
$UCSORG
 10
-12.93081225216428
 20
-0.3361075863054328
 30
0.0
  9
$UCSXDIR
 10
1.0
 20
0.0
 30
0.0
  9
$UCSYDIR
 10
0.0
 20
1.0
 30
0.0
  9
$UCSORTHOREF
  2

  9
$UCSORTHOVIEW
 70
     0
  9
$UCSORGTOP
 10
0.0
 20
0.0
 30
0.0
  9
$UCSORGBOTTOM
 10
0.0
 20
0.0
 30
0.0
  9
$UCSORGLEFT
 10
0.0
 20
0.0
 30
0.0
  9
$UCSORGRIGHT
 10
0.0
 20
0.0
 30
0.0
  9
$UCSORGFRONT
 10
0.0
 20
0.0
 30
0.0
  9
$UCSORGBACK
 10
0.0
 20
0.0
 30
0.0
  9
$PUCSBASE
  2

  9
$PUCSNAME
  2

  9
$PUCSORG
 10
0.0
 20
0.0
 30
0.0
  9
$PUCSXDIR
 10
1.0
 20
0.0
 30
0.0
  9
$PUCSYDIR
 10
0.0
 20
1.0
 30
0.0
  9
$PUCSORTHOREF
  2

  9
$PUCSORTHOVIEW
 70
     0
  9
$PUCSORGTOP
 10
0.0
 20
0.0
 30
0.0
  9
$PUCSORGBOTTOM
 10
0.0
 20
0.0
 30
0.0
  9
$PUCSORGLEFT
 10
0.0
 20
0.0
 30
0.0
  9
$PUCSORGRIGHT
 10
0.0
 20
0.0
 30
0.0
  9
$PUCSORGFRONT
 10
0.0
 20
0.0
 30
0.0
  9
$PUCSORGBACK
 10
0.0
 20
0.0
 30
0.0
  9
$USERI1
 70
     0
  9
$USERI2
 70
     0
  9
$USERI3
 70
     0
  9
$USERI4
 70
     0
  9
$USERI5
 70
     0
  9
$USERR1
 40
0.0
  9
$USERR2
 40
0.0
  9
$USERR3
 40
0.0
  9
$USERR4
 40
0.0
  9
$USERR5
 40
0.0
  9
$WORLDVIEW
 70
     1
  9
$SHADEDGE
 70
     3
  9
$SHADEDIF
 70
    70
  9
$TILEMODE
 70
     1
  9
$MAXACTVP
 70
    64
  9
$PINSBASE
 10
0.0
 20
0.0
 30
0.0
  9
$PLIMCHECK
 70
     0
  9
$PEXTMIN
 10
1.000000000000000E+20
 20
1.000000000000000E+20
 30
1.000000000000000E+20
  9
$PEXTMAX
 10
-1.000000000000000E+20
 20
-1.000000000000000E+20
 30
-1.000000000000000E+20
  9
$PLIMMIN
 10
0.0
 20
0.0
  9
$PLIMMAX
 10
12.0
 20
9.0
  9
$UNITMODE
 70
     0
  9
$VISRETAIN
 70
     1
  9
$PLINEGEN
 70
     0
  9
$PSLTSCALE
 70
     1
  9
$TREEDEPTH
 70
  3020
  9
$CMLSTYLE
  2
Standard
  9
$CMLJUST
 70
     0
  9
$CMLSCALE
 40
1.0
  9
$PROXYGRAPHICS
 70
     1
  9
$MEASUREMENT
 70
     0
  9
$CELWEIGHT
370
    -1
  9
$ENDCAPS
280
     0
  9
$JOINSTYLE
280
     0
  9
$LWDISPLAY
290
     0
  9
$INSUNITS
 70
     4
  9
$HYPERLINKBASE
  1

  9
$STYLESHEET
  1

  9
$XEDIT
290
     1
  9
$CEPSNTYPE
380
     0
  9
$PSTYLEMODE
290
     0
  9
$FINGERPRINTGUID
  2
{FAEB1C30-E019-11D5-929B-00C0DF256EC4}
  9
$VERSIONGUID
  2
{C9EC5A1A-89F9-47DA-841E-58ACAF8A9EC9}
  9
$EXTNAMES
290
     1
  9
$PSVPSCALE
 40
0.0
  9
$OLESTARTUP
290
     0
  0
ENDSEC
  0
SECTION
  2
CLASSES
  0
CLASS
  1
ACDBDICTIONARYWDFLT
  2
AcDbDictionaryWithDefault
  3
ObjectDBX Classes
 90
        0
280
     0
281
     0
  0
CLASS
  1
MATERIAL
  2
AcDbMaterial
  3
ObjectDBX Classes
 90
     1153
280
     0
281
     0
  0
CLASS
  1
MLEADERSTYLE
  2
AcDbMLeaderStyle
  3
ACDB_MLEADERSTYLE_CLASS
 90
     4095
280
     0
281
     0
  0
CLASS
  1
SCALE
  2
AcDbScale
  3
ObjectDBX Classes
 90
     1153
280
     0
281
     0
  0
CLASS
  1
TABLESTYLE
  2
AcDbTableStyle
  3
ObjectDBX Classes
 90
     4095
280
     0
281
     0
  0
CLASS
  1
VISUALSTYLE
  2
AcDbVisualStyle
  3
ObjectDBX Classes
 90
     4095
280
     0
281
     0
  0
CLASS
  1
DICTIONARYVAR
  2
AcDbDictionaryVar
  3
ObjectDBX Classes
 90
        0
280
     0
281
     0
  0
CLASS
  1
CELLSTYLEMAP
  2
AcDbCellStyleMap
  3
ObjectDBX Classes
 90
     1152
280
     0
281
     0
  0
CLASS
  1
AMGSETTINGSOBJ
  2
AmgSettingsObj
  3
"AcadM|Product Description: AutoCAD Mechanical|Company: Autodesk, Inc."
 90
     1024
280
     0
281
     0
  0
CLASS
  1
ACME_DOCUMENT
  2
AcMeDbDoc
  3
AcMeServices
 90
     1024
280
     0
281
     0
  0
CLASS
  1
ACMESCOPE
  2
AcMeScope
  3
AcMeServices
 90
     1024
280
     0
281
     0
  0
CLASS
  1
ACMECOMMANDHISTORY
  2
AcMeCommandHistory
  3
AcMeServices
 90
     1024
280
     0
281
     0
  0
CLASS
  1
ACIMSYSVARMAN
  2
AcImSysVarManager
  3
AcMeServices
 90
     1024
280
     0
281
     0
  0
CLASS
  1
ACIMINTSYSVAR
  2
AcImIntSysVar
  3
AcMeServices
 90
     1024
280
     0
281
     0
  0
CLASS
  1
ACMESTATEMGR
  2
AcMeStateMgr
  3
AcMeServices
 90
     1024
280
     0
281
     0
  0
CLASS
  1
ACDBENTITYCACHE
  2
AcMeEntityCache
  3
AcMeServices
 90
     1024
280
     0
281
     0
  0
CLASS
  1
ACGREFMASTER
  2
AcGrefMaster
  3
AcAttribServices
 90
     1024
280
     0
281
     0
  0
CLASS
  1
AM_DRAWING_MGR
  2
AcDmDwgMgr
  3
AcMechDwgViewMgmt
 90
     1024
280
     0
281
     0
  0
CLASS
  1
AM_DWG_DOCUMENT
  2
AcDmDwgDocument
  3
AcMechDwgViewMgmt
 90
     1024
280
     0
281
     0
  0
CLASS
  1
AM_DWG_SHEET
  2
AcDmSheet
  3
AcMechDwgViewMgmt
 90
     1024
280
     0
281
     0
  0
CLASS
  1
AM_VIEWDIMPARMAP
  2
AcDmViewDimParMap
  3
AcMechDwgViewMgmt
 90
     1024
280
     0
281
     0
  0
CLASS
  1
AMDTINTERNALREACTOR
  2
AmdtInternalReactor
  3
AcMeServices
 90
     1024
280
     0
281
     0
  0
CLASS
  1
ACIMREALSYSVAR
  2
AcImRealSysVar
  3
AcMeServices
 90
     1024
280
     0
281
     0
  0
CLASS
  1
AM_DWGMGR_NAME
  2
AcDmDwgMgrName
  3
AcMechDwgViewMgmt
 90
     1024
280
     0
281
     0
  0
CLASS
  1
ACME_DATABASE
  2
AcMeDbDatabase
  3
AcMeServices
 90
     1024
280
     0
281
     0
  0
CLASS
  1
ACRFINSADJUSTERMGR
  2
AcRfInsAdjusterMgr
  3
AcMeServices
 90
     1024
280
     0
281
     0
  0
CLASS
  1
ACGREFACADMASTER
  2
AcGrefacadMaster
  3
AcGrefServices
 90
     1024
280
     0
281
     0
  0
CLASS
  1
AMDTMENUSTATEMGR
  2
AmdtMenuStateMgr
  3
McadcomServices
 90
     1024
280
     0
281
     0
  0
CLASS
  1
AMDTMCOMMENUSTATE
  2
AmdtMcomMenuState
  3
McadcomServices
 90
     1024
280
     0
281
     0
  0
CLASS
  1
AMIMASTER
  2
AmiMaster
  3
AmiServices
 90
     1024
280
     0
281
     0
  0
CLASS
  1
MAPIAMMOUDLE
  2
MApiAmModule
  3
MApiAmServices
 90
     1024
280
     0
281
     0
  0
CLASS
  1
ACIMSTRSYSVAR
  2
AcImStrSysVar
  3
AcMeServices
 90
     1024
280
     0
281
     0
  0
CLASS
  1
AMDTDMMENUSTATE
  2
AmdtDmMenuState
  3
AcMechDwgViewMgmt
 90
     1024
280
     0
281
     0
  0
CLASS
  1
AMDTAMMENUSTATE
  2
AmdtAmMenuState
  3
DesignerAssemblies
 90
     1024
280
     0
281
     0
  0
CLASS
  1
ACAMPROJECT
  2
AcAmProject
  3
DesignerAssemblies
 90
     1024
280
     0
281
     0
  0
CLASS
  1
ACAMGRCOMPDEF
  2
AcAmGrCompDef
  3
DesignerAssemblies
 90
     1024
280
     0
281
     0
  0
CLASS
  1
ACAMCOMPDEF
  2
AcAmCompDef
  3
DesignerAssemblies
 90
     1024
280
     0
281
     0
  0
CLASS
  1
ACAMCOMPDEFMGR
  2
AcAmCompDefMgr
  3
DesignerAssemblies
 90
     1024
280
     0
281
     0
  0
CLASS
  1
AMCONTEXTMGR
  2
AcAmContextMgr
  3
DesignerAssemblies
 90
     1024
280
     0
281
     0
  0
CLASS
  1
ACAMCONTEXTMODELER
  2
AcAmContextModeler
  3
DesignerAssemblies
 90
     1024
280
     0
281
     0
  0
CLASS
  1
ACMDATADICTIONARY
  2
AcmDataDictionary
  3
"AcmSymBB|Product Description: AutoCAD Mechanical|Company: Autodesk, Inc."
 90
     1024
280
     0
281
     0
  0
CLASS
  1
ACAMGRCOMPDEFSET
  2
AcAmGrCompDefSet
  3
DesignerAssemblies
 90
     1024
280
     0
281
     0
  0
CLASS
  1
AMDTBROWSERDBTAB
  2
AmdtBrowserDbTab
  3
McadcomServices
 90
     1024
280
     0
281
     0
  0
CLASS
  1
CBROWSERAPPOBJECT
  2
CBrowserAppObject
  3
McadcomServices
 90
     1024
280
     0
281
     0
  0
CLASS
  1
DM_PLACEHOLDER
  2
AcDmSelsetPlaceholder
  3
AcMechDwgViewMgmt
 90
     1024
280
     0
281
     0
  0
CLASS
  1
EXACXREFPANELOBJECT
  2
ExAcXREFPanelObject
  3
EXAC_ESW
 90
     1025
280
     0
281
     0
  0
CLASS
  1
NPOCOLLECTION
  2
AcDbImpNonPersistentObjectsCollection
  3
ObjectDBX Classes
 90
     1153
280
     0
281
     0
  0
CLASS
  1
ACMSTANDARDANSI
  2
AcmStandardANSI
  3
"Amdt_StdImp|Product Description: AutoCAD Mechanical|Company: Autodesk, Inc."
 90
     1024
280
     0
281
     0
  0
CLASS
  1
ACMSURFSTANDARDANSI
  2
AcmSurfTextStdANSI
  3
"Amdt_StdImp|Product Description: AutoCAD Mechanical|Company: Autodesk, Inc."
 90
     1024
280
     0
281
     0
  0
CLASS
  1
ACMFCFSTANDARDANSI
  2
AcmFCFStdANSI
  3
"Amdt_StdImp|Product Description: AutoCAD Mechanical|Company: Autodesk, Inc."
 90
     1024
280
     0
281
     0
  0
CLASS
  1
ACMWELDSTANDARDANSI
  2
AcmWeldingStdANSI
  3
"Amdt_StdImp|Product Description: AutoCAD Mechanical|Company: Autodesk, Inc."
 90
     1024
280
     0
281
     0
  0
CLASS
  1
ACMIDSTANDARDANSI
  2
AcmIdStdANSI
  3
"Amdt_StdImp|Product Description: AutoCAD Mechanical|Company: Autodesk, Inc."
 90
     1024
280
     0
281
     0
  0
CLASS
  1
ACMDATUMSTANDARDANSI
  2
AcmDatumStdANSI
  3
"Amdt_StdImp|Product Description: AutoCAD Mechanical|Company: Autodesk, Inc."
 90
     1024
280
     0
281
     0
  0
CLASS
  1
ACMBOMSTANDARDANSI
  2
AcmBOMStdANSI
  3
"Amdt_StdImp|Product Description: AutoCAD Mechanical|Company: Autodesk, Inc."
 90
     1024
280
     0
281
     0
  0
CLASS
  1
ACMDETAILSTANDARDANSI
  2
AmdtDetailSymStdANSI
  3
"Amdt_StdImp|Product Description: AutoCAD Mechanical|Company: Autodesk, Inc."
 90
     1024
280
     0
281
     0
  0
CLASS
  1
ACMSECTIONSTANDARDANSI
  2
AmdtSectionSymStdANSI
  3
"Amdt_StdImp|Product Description: AutoCAD Mechanical|Company: Autodesk, Inc."
 90
     1024
280
     0
281
     0
  0
CLASS
  1
ACMCENTERLINESTANDARDANSI
  2
AmdtCenterLineStdANSI
  3
"Amdt_StdImp|Product Description: AutoCAD Mechanical|Company: Autodesk, Inc."
 90
     1024
280
     0
281
     0
  0
CLASS
  1
ACMTHREADLINESTANDARDANSI
  2
AmdtThreadLineStdANSI
  3
"Amdt_StdImp|Product Description: AutoCAD Mechanical|Company: Autodesk, Inc."
 90
     1024
280
     0
281
     0
  0
CLASS
  1
ACMNOTESTANDARDANSI
  2
AmdtNoteStdANSI
  3
"Amdt_StdImp|Product Description: AutoCAD Mechanical|Company: Autodesk, Inc."
 90
     1024
280
     0
281
     0
  0
CLASS
  1
ACMTAPERSTANDARDANSI
  2
AcmTaperStdANSI
  3
"Amdt_StdImp|Product Description: AutoCAD Mechanical|Company: Autodesk, Inc."
 90
     1024
280
     0
281
     0
  0
CLASS
  1
ACMANOOTATIONVIEWSTANDARDANSI
  2
AmdtAnViewStdANSI
  3
"Amdt_StdImp|Product Description: AutoCAD Mechanical|Company: Autodesk, Inc."
 90
     1024
280
     0
281
     0
  0
CLASS
  1
ACAMGLAYSTD
  2
AcAmgLayStd
  3
"AmgLay|Product Description: AutoCAD Mechanical|Company: Autodesk, Inc."
 90
     1024
280
     0
281
     0
  0
CLASS
  1
ACAMGDIMSTD
  2
AcAmgDimStd
  3
"AmgDim|Product Description: AutoCAD Mechanical|Company: Autodesk, Inc."
 90
     1024
280
     0
281
     0
  0
CLASS
  1
AMGOBJPROPCFG
  2
AmgObjPropCfg
  3
"AmgLay|Product Description: AutoCAD Mechanical|Company: Autodesk, Inc."
 90
     1025
280
     0
281
     0
  0
CLASS
  1
ACAMGHOLECHARTSTDANSI
  2
AcAmgHoleChartStdANSI
  3
AmgDim|Product Description: AutoCAD Mechanical|Company: Autodesk, Inc.
 90
     1024
280
     0
281
     0
  0
CLASS
  1
ACAMGTITLESTD
  2
AcAmgTitleStd
  3
"AmgTitle|Product Description: AutoCAD Mechanical|Company: Autodesk, Inc."
 90
     4095
280
     0
281
     0
  0
CLASS
  1
AMDTNOTETEMPLATEDB
  2
AmdtNoteTemplateDB
  3
AcmSymBB|Product Description: AutoCAD Mechanical|Company: Autodesk, Inc.
 90
     1024
280
     0
281
     0
  0
CLASS
  1
ACAMGFILTERDAT
  2
AcAmgFilterDat
  3
"AcadM|Product Description: AutoCAD Mechanical|Company: Autodesk, Inc."
 90
     1024
280
     0
281
     0
  0
CLASS
  1
ACDBPLACEHOLDER
  2
AcDbPlaceHolder
  3
ObjectDBX Classes
 90
        0
280
     0
281
     0
  0
CLASS
  1
LAYOUT
  2
AcDbLayout
  3
ObjectDBX Classes
 90
        0
280
     0
281
     0
  0
ENDSEC
  0
SECTION
  2
TABLES
  0
TABLE
  2
VPORT
  5
24A
330
0
100
AcDbSymbolTable
 70
     1
  0
VPORT
  5
26B
330
24A
100
AcDbSymbolTableRecord
100
AcDbViewportTableRecord
  2
*Active
 70
     0
 10
0.0
 20
0.0
 11
1.0
 21
1.0
 12
0.5699554867371149
 22
-14.24161244811671
 13
0.0
 23
0.0
 14
10.0
 24
10.0
 15
10.0
 25
10.0
 16
0.0
 26
0.0
 36
1.0
 17
0.0
 27
0.0
 37
0.0
 40
224.0221714359036
 41
1.670673076923076
 42
1.0
 43
0.0
 44
0.0
 50
0.0
 51
0.0000000000007958
 71
     0
 72
   100
 73
     1
 74
     3
 75
     0
 76
     0
 77
     0
 78
     1
281
     0
 65
     0
110
0.0
120
0.0
130
0.0
111
1.0
121
0.0
131
0.0
112
0.0
122
1.0
132
0.0
 79
     0
146
0.0
  0
ENDTAB
  0
TABLE
  2
LTYPE
  5
247
330
0
100
AcDbSymbolTable
 70
    36
  0
LTYPE
  5
256
330
247
100
AcDbSymbolTableRecord
100
AcDbLinetypeTableRecord
  2
ByBlock
 70
     0
  3

 72
    65
 73
     0
 40
0.0
  0
LTYPE
  5
257
330
247
100
AcDbSymbolTableRecord
100
AcDbLinetypeTableRecord
  2
ByLayer
 70
     0
  3

 72
    65
 73
     0
 40
0.0
  0
LTYPE
  5
258
330
247
100
AcDbSymbolTableRecord
100
AcDbLinetypeTableRecord
  2
Continuous
 70
     0
  3
Solid line
 72
    65
 73
     0
 40
0.0
  0
LTYPE
  5
273
330
247
100
AcDbSymbolTableRecord
100
AcDbLinetypeTableRecord
  2
CENTER
 70
     0
  3
Center ____ _ ____ _ ____ _ ____ _ ____ _ ____
 72
    65
 73
     4
 40
2.0
 49
1.25
 74
     0
 49
-0.25
 74
     0
 49
0.25
 74
     0
 49
-0.25
 74
     0
  0
LTYPE
  5
274
330
247
100
AcDbSymbolTableRecord
100
AcDbLinetypeTableRecord
  2
DASHDOT
 70
     0
  3
Dashdot __ . __ . __ . __ . __ . __ . __ . __
 72
    65
 73
     4
 40
1.0
 49
0.5
 74
     0
 49
-0.25
 74
     0
 49
0.0
 74
     0
 49
-0.25
 74
     0
  0
LTYPE
  5
275
330
247
100
AcDbSymbolTableRecord
100
AcDbLinetypeTableRecord
  2
DASHED
 70
     0
  3
Dashed __ __ __ __ __ __ __ __ __ __ __ __ __ _
 72
    65
 73
     2
 40
0.75
 49
0.5
 74
     0
 49
-0.25
 74
     0
  0
LTYPE
  5
276
330
247
100
AcDbSymbolTableRecord
100
AcDbLinetypeTableRecord
  2
HIDDEN
 70
     0
  3
Hidden __ __ __ __ __ __ __ __ __ __ __ __ __ __
 72
    65
 73
     2
 40
0.375
 49
0.25
 74
     0
 49
-0.125
 74
     0
  0
LTYPE
  5
277
330
247
100
AcDbSymbolTableRecord
100
AcDbLinetypeTableRecord
  2
HIDDEN2
 70
     0
  3
Hidden2 _ _ _ _ _ _ _ _ _ _ _ _ _ _ _ _ _
 72
    65
 73
     2
 40
0.1875
 49
0.125
 74
     0
 49
-0.0625
 74
     0
  0
LTYPE
  5
278
330
247
100
AcDbSymbolTableRecord
100
AcDbLinetypeTableRecord
  2
BORDER
 70
     0
  3
Border __ __ . __ __ . __ __ . __ __ . __ __ .
 72
    65
 73
     6
 40
1.75
 49
0.5
 74
     0
 49
-0.25
 74
     0
 49
0.5
 74
     0
 49
-0.25
 74
     0
 49
0.0
 74
     0
 49
-0.25
 74
     0
  0
LTYPE
  5
279
330
247
100
AcDbSymbolTableRecord
100
AcDbLinetypeTableRecord
  2
BORDER2
 70
     0
  3
Border2 __.__.__.__.__.__.__.__.__.__.__.
 72
    65
 73
     6
 40
0.875
 49
0.25
 74
     0
 49
-0.125
 74
     0
 49
0.25
 74
     0
 49
-0.125
 74
     0
 49
0.0
 74
     0
 49
-0.125
 74
     0
  0
LTYPE
  5
27A
330
247
100
AcDbSymbolTableRecord
100
AcDbLinetypeTableRecord
  2
BORDERX2
 70
     0
  3
Borderx2  ____  ____  .  ____  ____  .  ___
 72
    65
 73
     6
 40
3.5
 49
1.0
 74
     0
 49
-0.5
 74
     0
 49
1.0
 74
     0
 49
-0.5
 74
     0
 49
0.0
 74
     0
 49
-0.5
 74
     0
  0
LTYPE
  5
27B
330
247
100
AcDbSymbolTableRecord
100
AcDbLinetypeTableRecord
  2
CENTER2
 70
     0
  3
Center2  ___ _ ___ _ ___ _ ___ _ ___ _ ___
 72
    65
 73
     4
 40
1.125
 49
0.75
 74
     0
 49
-0.125
 74
     0
 49
0.125
 74
     0
 49
-0.125
 74
     0
  0
LTYPE
  5
27C
330
247
100
AcDbSymbolTableRecord
100
AcDbLinetypeTableRecord
  2
CENTERX2
 70
     0
  3
Centerx2  ________  __  ________  __  _____
 72
    65
 73
     4
 40
4.0
 49
2.5
 74
     0
 49
-0.5
 74
     0
 49
0.5
 74
     0
 49
-0.5
 74
     0
  0
LTYPE
  5
27D
330
247
100
AcDbSymbolTableRecord
100
AcDbLinetypeTableRecord
  2
DASHDOT2
 70
     0
  3
Dashdot2  _._._._._._._._._._._._._._._.
 72
    65
 73
     4
 40
0.5
 49
0.25
 74
     0
 49
-0.125
 74
     0
 49
0.0
 74
     0
 49
-0.125
 74
     0
  0
LTYPE
  5
27E
330
247
100
AcDbSymbolTableRecord
100
AcDbLinetypeTableRecord
  2
DASHDOTX2
 70
     0
  3
Dashdotx2 ____  .  ____  .  ____  .  ___
 72
    65
 73
     4
 40
2.0
 49
1.0
 74
     0
 49
-0.5
 74
     0
 49
0.0
 74
     0
 49
-0.5
 74
     0
  0
LTYPE
  5
27F
330
247
100
AcDbSymbolTableRecord
100
AcDbLinetypeTableRecord
  2
DASHED2
 70
     0
  3
Dashed2 _ _ _ _ _ _ _ _ _ _ _ _ _ _ _ _ _
 72
    65
 73
     2
 40
0.375
 49
0.25
 74
     0
 49
-0.125
 74
     0
  0
LTYPE
  5
280
330
247
100
AcDbSymbolTableRecord
100
AcDbLinetypeTableRecord
  2
DASHEDX2
 70
     0
  3
Dashedx2 ____  ____  ____  ____  ____  ___
 72
    65
 73
     2
 40
1.5
 49
1.0
 74
     0
 49
-0.5
 74
     0
  0
LTYPE
  5
281
330
247
100
AcDbSymbolTableRecord
100
AcDbLinetypeTableRecord
  2
DIVIDE
 70
     0
  3
Divide ____ . . ____ . . ____ . . ____ . . ____
 72
    65
 73
     6
 40
1.25
 49
0.5
 74
     0
 49
-0.25
 74
     0
 49
0.0
 74
     0
 49
-0.25
 74
     0
 49
0.0
 74
     0
 49
-0.25
 74
     0
  0
LTYPE
  5
282
330
247
100
AcDbSymbolTableRecord
100
AcDbLinetypeTableRecord
  2
DIVIDE2
 70
     0
  3
Divide2 __..__..__..__..__..__..__..__.._
 72
    65
 73
     6
 40
0.625
 49
0.25
 74
     0
 49
-0.125
 74
     0
 49
0.0
 74
     0
 49
-0.125
 74
     0
 49
0.0
 74
     0
 49
-0.125
 74
     0
  0
LTYPE
  5
283
330
247
100
AcDbSymbolTableRecord
100
AcDbLinetypeTableRecord
  2
DIVIDEX2
 70
     0
  3
Dividex2 ________  .  .  ________  .  .  _
 72
    65
 73
     6
 40
2.5
 49
1.0
 74
     0
 49
-0.5
 74
     0
 49
0.0
 74
     0
 49
-0.5
 74
     0
 49
0.0
 74
     0
 49
-0.5
 74
     0
  0
LTYPE
  5
284
330
247
100
AcDbSymbolTableRecord
100
AcDbLinetypeTableRecord
  2
DOT
 70
     0
  3
Dot . . . . . . . . . . . . . . . . . . . . . . . .
 72
    65
 73
     2
 40
0.25
 49
0.0
 74
     0
 49
-0.25
 74
     0
  0
LTYPE
  5
285
330
247
100
AcDbSymbolTableRecord
100
AcDbLinetypeTableRecord
  2
DOT2
 70
     0
  3
Dot2 ........................................
 72
    65
 73
     2
 40
0.125
 49
0.0
 74
     0
 49
-0.125
 74
     0
  0
LTYPE
  5
286
330
247
100
AcDbSymbolTableRecord
100
AcDbLinetypeTableRecord
  2
DOTX2
 70
     0
  3
Dotx2 .  .  .  .  .  .  .  .  .  .  .  .  .  .
 72
    65
 73
     2
 40
0.5
 49
0.0
 74
     0
 49
-0.5
 74
     0
  0
LTYPE
  5
287
330
247
100
AcDbSymbolTableRecord
100
AcDbLinetypeTableRecord
  2
HIDDENX2
 70
     0
  3
Hiddenx2 ____ ____ ____ ____ ____ ____ ____
 72
    65
 73
     2
 40
0.75
 49
0.5
 74
     0
 49
-0.25
 74
     0
  0
LTYPE
  5
288
330
247
100
AcDbSymbolTableRecord
100
AcDbLinetypeTableRecord
  2
PHANTOM
 70
     0
  3
Phantom ______  __  __  ______  __  __  ______
 72
    65
 73
     6
 40
2.5
 49
1.25
 74
     0
 49
-0.25
 74
     0
 49
0.25
 74
     0
 49
-0.25
 74
     0
 49
0.25
 74
     0
 49
-0.25
 74
     0
  0
LTYPE
  5
289
330
247
100
AcDbSymbolTableRecord
100
AcDbLinetypeTableRecord
  2
PHANTOM2
 70
     0
  3
Phantom2 ___ _ _ ___ _ _ ___ _ _ ___ _ _
 72
    65
 73
     6
 40
1.25
 49
0.625
 74
     0
 49
-0.125
 74
     0
 49
0.125
 74
     0
 49
-0.125
 74
     0
 49
0.125
 74
     0
 49
-0.125
 74
     0
  0
LTYPE
  5
28A
330
247
100
AcDbSymbolTableRecord
100
AcDbLinetypeTableRecord
  2
PHANTOMX2
 70
     0
  3
Phantomx2 ____________    ____    ____   _
 72
    65
 73
     6
 40
5.0
 49
2.5
 74
     0
 49
-0.5
 74
     0
 49
0.5
 74
     0
 49
-0.5
 74
     0
 49
0.5
 74
     0
 49
-0.5
 74
     0
  0
LTYPE
  5
F106BE
330
247
100
AcDbSymbolTableRecord
100
AcDbLinetypeTableRecord
  2
AM_ISO02W050
 70
     0
  3
__ __ __ __ __ __ __ __ __ __ __ __ __ __ __
 72
    65
 73
     2
 40
7.5
 49
6.0
 74
     0
 49
-1.5
 74
     0
  0
LTYPE
  5
F106BF
330
247
100
AcDbSymbolTableRecord
100
AcDbLinetypeTableRecord
  2
AM_ISO08W050
 70
     0
  3
____ . ____ . ____ . ____ . ____ . ____ . ____
 72
    65
 73
     4
 40
18.0
 49
12.0
 74
     0
 49
-1.5
 74
     0
 49
3.0
 74
     0
 49
-1.5
 74
     0
  0
LTYPE
  5
F106C0
330
247
100
AcDbSymbolTableRecord
100
AcDbLinetypeTableRecord
  2
AM_ISO09W050
 70
     0
  3
_____ . . _____ . . _____ . . ____ .. ____
 72
    65
 73
     6
 40
22.5
 49
12.0
 74
     0
 49
-1.5
 74
     0
 49
3.0
 74
     0
 49
-1.5
 74
     0
 49
3.0
 74
     0
 49
-1.5
 74
     0
  0
LTYPE
  5
F106C1
330
247
100
AcDbSymbolTableRecord
100
AcDbLinetypeTableRecord
  2
Amconstr
 70
     0
  3
_______________________
 72
    65
 73
     2
 40
9999.0
 49
9999.0
 74
     0
 49
0.0
 74
     0
  0
LTYPE
  5
F106C2
330
247
100
AcDbSymbolTableRecord
100
AcDbLinetypeTableRecord
  2
AM_ISO08W050x2
 70
     0
  3
__ . __ . __ . __ . __ . __
 72
    65
 73
     4
 40
9.0
 49
6.0
 74
     0
 49
-0.75
 74
     0
 49
1.5
 74
     0
 49
-0.75
 74
     0
  0
LTYPE
  5
F106C3
330
247
100
AcDbSymbolTableRecord
100
AcDbLinetypeTableRecord
  2
AM_ISO02W050x2
 70
     0
  3
 _ _ _ _ _ _ _ _ _ _ _ _
 72
    65
 73
     2
 40
3.75
 49
3.0
 74
     0
 49
-0.75
 74
     0
  0
LTYPE
  5
F106C6
330
247
100
AcDbSymbolTableRecord
100
AcDbLinetypeTableRecord
  2
Amzigzag
 70
     0
  3
/\/-/\/-/\/-/\/-/\/-/\/
 72
    65
 73
     2
 40
11.0001
 49
0.0001
 74
     4
 75
   136
340
F106C5
 46
0.04
 50
0.0
 44
0.0
 45
0.0
 49
-11.0
 74
     0
  0
LTYPE
  5
F106C7
330
247
100
AcDbSymbolTableRecord
100
AcDbLinetypeTableRecord
  2
Amzigzag2
 70
     0
  3
/\/-/\/-/\/-/\/-/\/-/\/
 72
    65
 73
     2
 40
0.4401
 49
0.0001
 74
     4
 75
   136
340
F106C5
 46
0.0016
 50
0.0
 44
0.0
 45
0.0
 49
-0.4400000000000001
 74
     0
  0
LTYPE
  5
F106D5
330
247
100
AcDbSymbolTableRecord
100
AcDbLinetypeTableRecord
  2
ACANSTGB
 70
     0
  3
__ . . __ . .
 72
    65
 73
     6
 40
0.35433070866
 49
0.15748031496
 74
     0
 49
-0.03937007874
 74
     0
 49
0.03937007874
 74
     0
 49
-0.03937007874
 74
     0
 49
0.03937007874
 74
     0
 49
-0.03937007874
 74
     0
  0
LTYPE
  5
F106D6
330
247
100
AcDbSymbolTableRecord
100
AcDbLinetypeTableRecord
  2
ACANSTGL
 70
     0
  3
_ _ _ _ _
 72
    65
 73
     2
 40
0.11811023622
 49
0.07874015748
 74
     0
 49
-0.03937007874
 74
     0
  0
ENDTAB
  0
TABLE
  2
LAYER
  5
244
330
0
100
AcDbSymbolTable
 70
     6
  0
LAYER
  5
252
102
{ACAD_XDICTIONARY
360
F107F7
102
}
330
244
100
AcDbSymbolTableRecord
100
AcDbLayerTableRecord
  2
0
 70
     0
 62
     7
  6
Continuous
370
     0
390
19
  0
LAYER
  5
23F
102
{ACAD_XDICTIONARY
360
F107F9
102
}
330
244
100
AcDbSymbolTableRecord
100
AcDbLayerTableRecord
  2
Bemassung
 70
     0
 62
     7
  6
Continuous
370
     0
390
19
  0
LAYER
  5
240
102
{ACAD_XDICTIONARY
360
F107FB
102
}
330
244
100
AcDbSymbolTableRecord
100
AcDbLayerTableRecord
  2
Rahmen
 70
     0
 62
     7
  6
Continuous
370
     0
390
19
  0
LAYER
  5
241
102
{ACAD_XDICTIONARY
360
F107FD
102
}
330
244
100
AcDbSymbolTableRecord
100
AcDbLayerTableRecord
  2
Geo
 70
     0
 62
     7
  6
Continuous
370
     0
390
19
  0
LAYER
  5
33A
330
244
100
AcDbSymbolTableRecord
100
AcDbLayerTableRecord
  2
Defpoints
 70
     0
 62
     7
  6
Continuous
290
     0
370
    -3
390
19
  0
LAYER
  5
57E
102
{ACAD_XDICTIONARY
360
F107FF
102
}
330
244
100
AcDbSymbolTableRecord
100
AcDbLayerTableRecord
  2
Text
 70
     0
 62
     7
  6
Continuous
370
     0
390
19
1001
AcAecLayerStandard
1000

1000

  0
ENDTAB
  0
TABLE
  2
STYLE
  5
245
330
0
100
AcDbSymbolTable
 70
     5
  0
STYLE
  5
253
330
245
100
AcDbSymbolTableRecord
100
AcDbTextStyleTableRecord
  2
Standard
 70
     0
 40
0.0
 41
1.0
 50
0.0
 71
     0
 42
0.2
  3
Arial
  4

1001
ACAD
1000
Arial
1071
        0
  0
STYLE
  5
132
330
245
100
AcDbSymbolTableRecord
100
AcDbTextStyleTableRecord
  2
Beschriftung
 70
     0
 40
0.0
 41
1.0
 50
0.0
 71
     0
 42
0.2
  3
Arial
  4

1001
ACAD
1000
Arial
1071
        0
1001
AcadAnnotative
1000
AnnotativeData
1070
     1
1070
     1
  0
STYLE
  5
F106C5
330
245
100
AcDbSymbolTableRecord
100
AcDbTextStyleTableRecord
  2

 70
     1
 40
0.0
 41
1.0
 50
0.0
 71
     0
 42
0.2
  3
genltshp.shx
  4

  0
STYLE
  5
F106D3
330
245
100
AcDbSymbolTableRecord
100
AcDbTextStyleTableRecord
  2
ACANSTS
 70
     0
 40
1.0
 41
1.0
 50
0.0
 71
     0
 42
0.2
  3
romans.shx
  4

  0
STYLE
  5
F106D4
330
245
100
AcDbSymbolTableRecord
100
AcDbTextStyleTableRecord
  2
ACANSGDT
 70
     0
 40
0.0
 41
1.0
 50
0.0
 71
     0
 42
0.2
  3
amgdt.shx
  4

  0
ENDTAB
  0
TABLE
  2
VIEW
  5
248
330
0
100
AcDbSymbolTable
 70
     0
  0
ENDTAB
  0
TABLE
  2
UCS
  5
249
330
0
100
AcDbSymbolTable
 70
     0
  0
ENDTAB
  0
TABLE
  2
APPID
  5
24B
330
0
100
AcDbSymbolTable
 70
    28
  0
APPID
  5
254
330
24B
100
AcDbSymbolTableRecord
100
AcDbRegAppTableRecord
  2
ACAD
 70
     0
  0
APPID
  5
26C
330
24B
100
AcDbSymbolTableRecord
100
AcDbRegAppTableRecord
  2
VD_INVISIBLE_NOT_FOR_READ
 70
     0
  0
APPID
  5
26D
330
24B
100
AcDbSymbolTableRecord
100
AcDbRegAppTableRecord
  2
VD_TEMPHATCH
 70
     0
  0
APPID
  5
26E
330
24B
100
AcDbSymbolTableRecord
100
AcDbRegAppTableRecord
  2
VDEXTRAPARAM
 70
     0
  0
APPID
  5
26F
330
24B
100
AcDbSymbolTableRecord
100
AcDbRegAppTableRecord
  2
PE_URL
 70
     0
  0
APPID
  5
270
330
24B
100
AcDbSymbolTableRecord
100
AcDbRegAppTableRecord
  2
VD_UNKNOWN
 70
     0
  0
APPID
  5
28F
330
24B
100
AcDbSymbolTableRecord
100
AcDbRegAppTableRecord
  2
AcadAnnotative
 70
     0
  0
APPID
  5
290
330
24B
100
AcDbSymbolTableRecord
100
AcDbRegAppTableRecord
  2
ACAD_DSTYLE_DIMJAG
 70
     0
  0
APPID
  5
291
330
24B
100
AcDbSymbolTableRecord
100
AcDbRegAppTableRecord
  2
ACAD_DSTYLE_DIMTALN
 70
     0
  0
APPID
  5
293
330
24B
100
AcDbSymbolTableRecord
100
AcDbRegAppTableRecord
  2
ACAD_PSEXT
 70
     0
  0
APPID
  5
42A
330
24B
100
AcDbSymbolTableRecord
100
AcDbRegAppTableRecord
  2
ACAD_MLEADERVER
 70
     0
  0
APPID
  5
532
330
24B
100
AcDbSymbolTableRecord
100
AcDbRegAppTableRecord
  2
ACAD_EXEMPT_FROM_CAD_STANDARDS
 70
     0
  0
APPID
  5
57F
330
24B
100
AcDbSymbolTableRecord
100
AcDbRegAppTableRecord
  2
AcAecLayerStandard
 70
     0
  0
APPID
  5
F10658
330
24B
100
AcDbSymbolTableRecord
100
AcDbRegAppTableRecord
  2
MCAD_NO_VIS
 70
     0
  0
APPID
  5
F10659
330
24B
100
AcDbSymbolTableRecord
100
AcDbRegAppTableRecord
  2
ACAD_TEMP_GRAPHIC
 70
     0
  0
APPID
  5
F10682
330
24B
100
AcDbSymbolTableRecord
100
AcDbRegAppTableRecord
  2
AD_DRAW
 70
     0
  0
APPID
  5
F10685
330
24B
100
AcDbSymbolTableRecord
100
AcDbRegAppTableRecord
  2
ACATTRIBSERVICES
 70
     0
  0
APPID
  5
F1069E
330
24B
100
AcDbSymbolTableRecord
100
AcDbRegAppTableRecord
  2
DESIGNERASSEMBLIES
 70
     0
  0
APPID
  5
F106A3
330
24B
100
AcDbSymbolTableRecord
100
AcDbRegAppTableRecord
  2
ACADM_DIM_EDIT
 70
     0
  0
APPID
  5
F106A4
330
24B
100
AcDbSymbolTableRecord
100
AcDbRegAppTableRecord
  2
AMDT_DM_ADJ
 70
     0
  0
APPID
  5
F106BC
330
24B
100
AcDbSymbolTableRecord
100
AcDbRegAppTableRecord
  2
ACAD_DSTYLE_DIMBREAK
 70
     0
  0
APPID
  5
F106DD
330
24B
100
AcDbSymbolTableRecord
100
AcDbRegAppTableRecord
  2
GENIUS_GENSCREG_15
 70
     0
  0
APPID
  5
F106DE
330
24B
100
AcDbSymbolTableRecord
100
AcDbRegAppTableRecord
  2
GENIUS_GENODEF_13
 70
     0
  0
APPID
  5
F106DF
330
24B
100
AcDbSymbolTableRecord
100
AcDbRegAppTableRecord
  2
GENIUS_GENOBJ-N-SDF_13
 70
     0
  0
APPID
  5
F1084D
330
24B
100
AcDbSymbolTableRecord
100
AcDbRegAppTableRecord
  2
ACAD_DSTYLE_DIMARC_LENGTH_SYMBOL
 70
     0
  0
APPID
  5
F1084E
330
24B
100
AcDbSymbolTableRecord
100
AcDbRegAppTableRecord
  2
ACAD_DSTYLE_DIM_LINETYPE
 70
     0
  0
APPID
  5
F1084F
330
24B
100
AcDbSymbolTableRecord
100
AcDbRegAppTableRecord
  2
ACAD_DSTYLE_DIM_EXT1_LINETYPE
 70
     0
  0
APPID
  5
F10850
330
24B
100
AcDbSymbolTableRecord
100
AcDbRegAppTableRecord
  2
ACAD_DSTYLE_DIM_EXT2_LINETYPE
 70
     0
  0
ENDTAB
  0
TABLE
  2
DIMSTYLE
  5
24C
330
0
100
AcDbSymbolTable
 70
     9
100
AcDbDimStyleTable
 71
     2
340
27
340
269
  0
DIMSTYLE
105
269
330
24C
100
AcDbSymbolTableRecord
100
AcDbDimStyleTableRecord
  2
Standard
 70
     0
172
     1
174
     1
288
     1
340
253
342
23C
  0
DIMSTYLE
105
137
330
24C
100
AcDbSymbolTableRecord
100
AcDbDimStyleTableRecord
  2
Beschriftung
 70
     0
 41
2.5
 42
0.625
 44
1.25
 73
     0
 74
     0
 77
     1
140
2.5
147
0.625
172
     1
174
     1
271
     2
288
     1
340
253
342
23C
1001
AcadAnnotative
1000
AnnotativeData
1070
     1
1070
     1
1001
ACAD_DSTYLE_DIMJAG
1070
   388
1040
1.5
1001
ACAD_DSTYLE_DIMTALN
1070
   392
1070
     0
  0
DIMSTYLE
105
27
102
{ACAD_REACTORS
330
F1000D
330
F10017
330
F10021
330
F10026
330
F10008
330
F1001C
102
}
330
24C
100
AcDbSymbolTableRecord
100
AcDbDimStyleTableRecord
  2
BEM-ISBE
 70
     0
 41
2.5
 42
0.625
 44
1.25
 48
0.000000001
 71
     1
 73
     0
 74
     0
 77
     1
140
2.5
146
0.5
147
0.625
171
     3
172
     1
179
     3
271
     3
272
     3
274
     3
340
253
342
23C
1001
ACAD_DSTYLE_DIMJAG
1070
   388
1040
1.5
1001
ACAD_DSTYLE_DIMTALN
1070
   392
1070
     1
  0
DIMSTYLE
105
F106BB
102
{ACAD_REACTORS
330
F106AB
102
}
330
24C
100
AcDbSymbolTableRecord
100
AcDbDimStyleTableRecord
  2
AM_ANSI
 70
     0
  4
mm
 41
0.12
 42
0.05
 43
0.5
 44
0.1
 47
0.1
 48
0.1
 78
     7
 79
     2
140
0.12
141
0.0
146
0.71
147
0.06
176
   256
177
   256
178
     2
274
     4
284
     7
340
253
371
    -1
372
    -1
1001
ACAD_DSTYLE_DIMJAG
1070
   388
1040
1.5
1001
ACAD_DSTYLE_DIMBREAK
1070
   391
1040
0.125
1001
ACAD_DSTYLE_DIMARC_LENGTH_SYMBOL
1070
   379
1070
     1
1001
ACAD_DSTYLE_DIM_LINETYPE
1070
   380
1005
256
1001
ACAD_DSTYLE_DIM_EXT1_LINETYPE
1070
   381
1005
256
1001
ACAD_DSTYLE_DIM_EXT2_LINETYPE
1070
   382
1005
256
  0
DIMSTYLE
105
F106C8
330
24C
100
AcDbSymbolTableRecord
100
AcDbDimStyleTableRecord
  2
AM_ANSI$3
 70
     0
  4
mm
 41
0.12
 42
0.05
 43
0.5
 44
0.1
 47
0.1
 48
0.1
 78
     7
 79
     2
140
0.12
141
0.0
146
0.71
147
0.06
176
   256
177
   256
178
     2
274
     4
284
     7
288
     1
289
     0
340
253
371
    -1
372
    -1
1001
ACAD_DSTYLE_DIMBREAK
1070
   391
1040
0.125
1001
ACAD_DSTYLE_DIMJAG
1070
   388
1040
1.5
1001
ACAD_DSTYLE_DIMARC_LENGTH_SYMBOL
1070
   379
1070
     1
1001
ACAD_DSTYLE_DIM_LINETYPE
1070
   380
1005
256
1001
ACAD_DSTYLE_DIM_EXT1_LINETYPE
1070
   381
1005
256
1001
ACAD_DSTYLE_DIM_EXT2_LINETYPE
1070
   382
1005
256
  0
DIMSTYLE
105
F106C9
330
24C
100
AcDbSymbolTableRecord
100
AcDbDimStyleTableRecord
  2
AM_ANSI$4
 70
     0
  4
mm
 41
0.12
 42
0.05
 43
0.5
 44
0.1
 47
0.1
 48
0.1
 78
     7
 79
     2
140
0.12
141
0.0
146
0.71
147
0.06
176
   256
177
   256
178
     2
274
     4
284
     7
288
     1
289
     0
340
253
371
    -1
372
    -1
1001
ACAD_DSTYLE_DIMBREAK
1070
   391
1040
0.125
1001
ACAD_DSTYLE_DIMJAG
1070
   388
1040
1.5
1001
ACAD_DSTYLE_DIMARC_LENGTH_SYMBOL
1070
   379
1070
     1
1001
ACAD_DSTYLE_DIM_LINETYPE
1070
   380
1005
256
1001
ACAD_DSTYLE_DIM_EXT1_LINETYPE
1070
   381
1005
256
1001
ACAD_DSTYLE_DIM_EXT2_LINETYPE
1070
   382
1005
256
  0
DIMSTYLE
105
F106CA
330
24C
100
AcDbSymbolTableRecord
100
AcDbDimStyleTableRecord
  2
AM_ANSI$7
 70
     0
  4
mm
 41
0.12
 42
0.05
 43
0.5
 44
0.1
 47
0.1
 48
0.1
 78
     7
 79
     2
140
0.12
141
0.0
146
0.71
147
0.06
176
   256
177
   256
178
     2
274
     4
284
     7
340
253
371
    -1
372
    -1
1001
ACAD_DSTYLE_DIMBREAK
1070
   391
1040
0.125
1001
ACAD_DSTYLE_DIMJAG
1070
   388
1040
1.5
1001
ACAD_DSTYLE_DIMARC_LENGTH_SYMBOL
1070
   379
1070
     1
1001
ACAD_DSTYLE_DIM_LINETYPE
1070
   380
1005
256
1001
ACAD_DSTYLE_DIM_EXT1_LINETYPE
1070
   381
1005
256
1001
ACAD_DSTYLE_DIM_EXT2_LINETYPE
1070
   382
1005
256
  0
DIMSTYLE
105
F106CB
330
24C
100
AcDbSymbolTableRecord
100
AcDbDimStyleTableRecord
  2
AM_ANSI$SF
 70
     0
  4
mm
 41
0.12
 42
0.05
 43
0.5
 44
0.1
 47
0.1
 48
0.1
 75
     1
 76
     1
 78
     7
 79
     2
140
0.12
141
0.0
146
0.71
147
0.06
176
   256
177
   256
178
     2
274
     4
284
     7
340
253
371
    -1
372
    -1
1001
ACAD_DSTYLE_DIMBREAK
1070
   391
1040
0.125
1001
ACAD_DSTYLE_DIMJAG
1070
   388
1040
1.5
1001
ACAD_DSTYLE_DIMARC_LENGTH_SYMBOL
1070
   379
1070
     1
1001
ACAD_DSTYLE_DIM_LINETYPE
1070
   380
1005
256
1001
ACAD_DSTYLE_DIM_EXT1_LINETYPE
1070
   381
1005
256
1001
ACAD_DSTYLE_DIM_EXT2_LINETYPE
1070
   382
1005
256
  0
DIMSTYLE
105
F106D0
330
24C
100
AcDbSymbolTableRecord
100
AcDbDimStyleTableRecord
  2
AM_ANSI$SH
 70
     0
  4
mm
 41
0.12
 42
0.05
 43
0.5
 44
0.1
 47
0.1
 48
0.1
 75
     1
 76
     1
 78
     7
 79
     2
140
0.12
141
0.0
146
0.71
147
0.06
173
     1
176
   256
177
   256
178
     2
274
     4
284
     7
340
253
343
F106CC
371
    -1
372
    -1
1001
ACAD_DSTYLE_DIMBREAK
1070
   391
1040
0.125
1001
ACAD_DSTYLE_DIMJAG
1070
   388
1040
1.5
1001
ACAD_DSTYLE_DIMARC_LENGTH_SYMBOL
1070
   379
1070
     1
1001
ACAD_DSTYLE_DIM_LINETYPE
1070
   380
1005
256
1001
ACAD_DSTYLE_DIM_EXT1_LINETYPE
1070
   381
1005
256
1001
ACAD_DSTYLE_DIM_EXT2_LINETYPE
1070
   382
1005
256
  0
ENDTAB
  0
TABLE
  2
BLOCK_RECORD
  5
243
330
0
100
AcDbSymbolTable
 70
    13
  0
BLOCK_RECORD
  5
261
330
243
100
AcDbSymbolTableRecord
100
AcDbBlockTableRecord
  2
*Model_Space
340
FD0
  0
BLOCK_RECORD
  5
25D
330
243
100
AcDbSymbolTableRecord
100
AcDbBlockTableRecord
  2
*Paper_Space
340
FD1
  0
BLOCK_RECORD
  5
265
330
243
100
AcDbSymbolTableRecord
100
AcDbBlockTableRecord
  2
*Paper_Space0
340
0
  0
BLOCK_RECORD
  5
23C
330
243
100
AcDbSymbolTableRecord
100
AcDbBlockTableRecord
  2
VDDIM_DEFAULT
340
0
102
{BLKREFS
331
F106E5
331
F106E6
331
F10704
331
F10705
331
F107C0
331
F107C1
331
F107C9
331
F107CA
331
F107D2
331
F107D3
331
F107DD
331
F107DE
331
F107E8
331
F107E9
331
F107F1
331
F107F2
102
}
  0
BLOCK_RECORD
  5
23E
330
243
100
AcDbSymbolTableRecord
100
AcDbBlockTableRecord
  2
VDDIM_NONE
340
0
  0
BLOCK_RECORD
  5
F10002
330
243
100
AcDbSymbolTableRecord
100
AcDbBlockTableRecord
  2
*D3
340
0
  0
BLOCK_RECORD
  5
F1000C
330
243
100
AcDbSymbolTableRecord
100
AcDbBlockTableRecord
  2
*D4
340
0
  0
BLOCK_RECORD
  5
F10016
330
243
100
AcDbSymbolTableRecord
100
AcDbBlockTableRecord
  2
*D5
340
0
  0
BLOCK_RECORD
  5
F10020
330
243
100
AcDbSymbolTableRecord
100
AcDbBlockTableRecord
  2
*D6
340
0
  0
BLOCK_RECORD
  5
F10025
330
243
100
AcDbSymbolTableRecord
100
AcDbBlockTableRecord
  2
*D7
340
0
  0
BLOCK_RECORD
  5
F10011
330
243
100
AcDbSymbolTableRecord
100
AcDbBlockTableRecord
  2
*D8
340
0
  0
BLOCK_RECORD
  5
F10007
330
243
100
AcDbSymbolTableRecord
100
AcDbBlockTableRecord
  2
*D9
340
0
  0
BLOCK_RECORD
  5
F1001B
330
243
100
AcDbSymbolTableRecord
100
AcDbBlockTableRecord
  2
*D10
340
0
  0
BLOCK_RECORD
  5
F106CC
330
243
100
AcDbSymbolTableRecord
100
AcDbBlockTableRecord
  2
GENAXEH
340
0
  0
ENDTAB
  0
ENDSEC
  0
SECTION
  2
BLOCKS
  0
BLOCK
  5
262
330
261
100
AcDbEntity
  8
0
100
AcDbBlockBegin
  2
*Model_Space
 70
     0
 10
0.0
 20
0.0
 30
0.0
  3
*Model_Space
  1

  0
ENDBLK
  5
263
330
261
100
AcDbEntity
  8
0
100
AcDbBlockEnd
  0
BLOCK
  5
25E
330
25D
100
AcDbEntity
 67
     1
  8
0
100
AcDbBlockBegin
  2
*Paper_Space
 70
     0
 10
0.0
 20
0.0
 30
0.0
  3
*Paper_Space
  1

  0
ENDBLK
  5
25F
330
25D
100
AcDbEntity
 67
     1
  8
0
100
AcDbBlockEnd
  0
BLOCK
  5
266
330
265
100
AcDbEntity
  8
0
100
AcDbBlockBegin
  2
*Paper_Space0
 70
     0
 10
0.0
 20
0.0
 30
0.0
  3
*Paper_Space0
  1

  0
VIEWPORT
  5
296
102
{ACAD_XDICTIONARY
360
F10810
102
}
330
265
100
AcDbEntity
  8
0
 60
     1
100
AcDbViewport
 10
0.0
 20
0.0
 30
0.0
 40
10.0
 41
10.0
 69
     0
 12
0.0
 22
0.0
 13
0.0
 23
0.0
 14
1.0
 24
1.0
 15
0.0
 25
0.0
 16
0.0
 26
0.0
 36
1.0
 17
0.0
 27
0.0
 37
0.0
 42
0.0
 43
0.0
 44
0.0
 45
10.0
 50
0.0
 51
0.0000000000007958
 72
   100
 90
   163872
  1

281
     0
 71
     0
 74
     0
110
0.0
120
0.0
130
0.0
111
1.0
121
0.0
131
0.0
112
0.0
122
1.0
132
0.0
 79
     0
146
0.0
1001
VD_INVISIBLE_NOT_FOR_READ
1000
VD_INVISIBLE_NOT_FOR_READ
  0
VIEWPORT
  5
297
102
{ACAD_XDICTIONARY
360
F10812
102
}
330
265
100
AcDbEntity
  8
0
 60
     1
100
AcDbViewport
 10
0.0
 20
0.0
 30
0.0
 40
10.0
 41
10.0
 69
     0
 12
0.0
 22
0.0
 13
0.0
 23
0.0
 14
1.0
 24
1.0
 15
0.0
 25
0.0
 16
0.0
 26
0.0
 36
1.0
 17
0.0
 27
0.0
 37
0.0
 42
0.0
 43
0.0
 44
0.0
 45
10.0
 50
0.0
 51
0.0000000000007958
 72
   100
 90
   163872
  1

281
     0
 71
     0
 74
     0
110
0.0
120
0.0
130
0.0
111
1.0
121
0.0
131
0.0
112
0.0
122
1.0
132
0.0
 79
     0
146
0.0
1001
VD_INVISIBLE_NOT_FOR_READ
1000
VD_INVISIBLE_NOT_FOR_READ
  0
ENDBLK
  5
267
330
265
100
AcDbEntity
  8
0
100
AcDbBlockEnd
  0
BLOCK
  5
28B
330
23C
100
AcDbEntity
  8
0
100
AcDbBlockBegin
  2
VDDIM_DEFAULT
 70
     0
 10
0.0
 20
0.0
 30
0.0
  3
VDDIM_DEFAULT
  1

  0
LWPOLYLINE
  5
23D
330
23C
100
AcDbEntity
  8
0
  6
Continuous
 62
     0
100
AcDbPolyline
 90
        4
 70
     0
 43
0.0
 10
0.0
 20
0.0
 10
-1.0
 20
-0.1665
 10
-1.0
 20
0.1665
 10
0.0
 20
0.0
1001
VDEXTRAPARAM
1071
        1
1071
        0
1071
        0
1040
1.0
1000

1000

1040
0.0
1040
0.0
  0
HATCH
  5
292
330
23C
100
AcDbEntity
  8
0
  6
Continuous
 62
     0
100
AcDbHatch
 10
0.0
 20
0.0
 30
0.0
210
0.0
220
0.0
230
1.0
  2
SOLID
 70
     1
 71
     0
 91
        1
 92
        2
 72
     0
 73
     1
 93
        3
 10
0.0
 20
0.0
 10
-1.0
 20
-0.1665
 10
-1.0
 20
0.1665
 97
        0
 75
     0
 76
     1
 98
        1
 10
0.0
 20
0.0
1001
VDEXTRAPARAM
1071
        1
1071
        0
1071
        0
1040
1.0
1000

1000

1040
0.0
1040
0.0
1001
VD_TEMPHATCH
1000
VD_TEMPHATCH
  0
ENDBLK
  5
28C
330
23C
100
AcDbEntity
  8
0
100
AcDbBlockEnd
  0
BLOCK
  5
28D
330
23E
100
AcDbEntity
  8
0
100
AcDbBlockBegin
  2
VDDIM_NONE
 70
     0
 10
0.0
 20
0.0
 30
0.0
  3
VDDIM_NONE
  1

  0
ENDBLK
  5
28E
330
23E
100
AcDbEntity
  8
0
100
AcDbBlockEnd
  0
BLOCK
  5
F1002A
330
F10002
100
AcDbEntity
  8
0
100
AcDbBlockBegin
  2
*D3
 70
     1
 10
0.0
 20
0.0
 30
0.0
  3
*D3
  1

  0
LINE
  5
F106E0
330
F10002
100
AcDbEntity
  8
Bemassung
 62
     0
370
    -2
100
AcDbLine
 10
-89.8953488372094
 20
10.8110465116279
 30
0.0
 11
-89.8953488372094
 21
48.4360465116279
 31
0.0
  0
LINE
  5
F106E1
330
F10002
100
AcDbEntity
  8
Bemassung
 62
     0
370
    -2
100
AcDbLine
 10
-89.82534883720942
 20
36.3110465116279
 30
0.0
 11
-89.82534883720942
 21
48.4360465116279
 31
0.0
  0
LINE
  5
F106E2
330
F10002
100
AcDbEntity
  8
Bemassung
 62
     0
370
    -2
100
AcDbLine
 10
-92.3953488372094
 20
47.1860465116279
 30
0.0
 11
-94.8953488372094
 21
47.1860465116279
 31
0.0
  0
LINE
  5
F106E3
330
F10002
100
AcDbEntity
  8
Bemassung
 62
     0
370
    -2
100
AcDbLine
 10
-87.32534883720942
 20
47.1860465116279
 30
0.0
 11
-77.08148799137039
 21
47.1860465116279
 31
0.0
  0
LINE
  5
F106E4
330
F10002
100
AcDbEntity
  8
Bemassung
 62
     0
370
    -2
100
AcDbLine
 10
-89.8953488372094
 20
47.1860465116279
 30
0.0
 11
-89.82534883720942
 21
47.1860465116279
 31
0.0
  0
INSERT
  5
F106E5
330
F10002
100
AcDbEntity
  8
Bemassung
 62
     0
370
    -2
100
AcDbBlockReference
  2
VDDIM_DEFAULT
 10
-89.8953488372094
 20
47.1860465116279
 30
0.0
 41
2.5
 42
2.5
 43
2.5
  0
INSERT
  5
F106E6
330
F10002
100
AcDbEntity
  8
Bemassung
 62
     0
370
    -2
100
AcDbBlockReference
  2
VDDIM_DEFAULT
 10
-89.82534883720942
 20
47.1860465116279
 30
0.0
 41
2.5
 42
2.5
 43
2.5
 50
180.0
  0
MTEXT
  5
F106E7
330
F10002
100
AcDbEntity
  8
Bemassung
 62
     0
100
AcDbMText
 10
-80.95341841428991
 20
47.8110465116279
 30
0.0
 40
2.5
 41
0.0
 71
     8
 72
     1
  1
\A1;0.07
 73
     1
 44
1.0
1001
ACAD
1000
MTEXTBEGIN
1070
    73
1070
     1
1070
    44
1040
1.0
1070
    74
1070
     0
1000
MTEXTEND
  0
POINT
  5
F106E8
330
F10002
100
AcDbEntity
  8
Defpoints
 62
     0
100
AcDbPoint
 10
-89.8953488372094
 20
10.1860465116279
 30
0.0
  0
POINT
  5
F106E9
330
F10002
100
AcDbEntity
  8
Defpoints
 62
     0
100
AcDbPoint
 10
-89.82534883720942
 20
35.6860465116279
 30
0.0
  0
POINT
  5
F106EA
330
F10002
100
AcDbEntity
  8
Defpoints
 62
     0
100
AcDbPoint
 10
-89.82534883720942
 20
47.1860465116279
 30
0.0
  0
ENDBLK
  5
F10033
330
F10002
100
AcDbEntity
  8
0
100
AcDbBlockEnd
  0
BLOCK
  5
F10034
330
F1000C
100
AcDbEntity
  8
0
100
AcDbBlockBegin
  2
*D4
 70
     1
 10
0.0
 20
0.0
 30
0.0
  3
*D4
  1

  0
LINE
  5
F107C6
330
F1000C
100
AcDbEntity
  8
Bemassung
 62
     0
370
    -2
100
AcDbLine
 10
-26.93081225216428
 20
0.288892413694569
 30
0.0
 11
-26.93081225216428
 21
18.82530691574889
 31
0.0
  0
LINE
  5
F107C7
330
F1000C
100
AcDbEntity
  8
Bemassung
 62
     0
370
    -2
100
AcDbLine
 10
-18.93081225216428
 20
-1.211107586305431
 30
0.0
 11
-18.93081225216428
 21
18.82530691574889
 31
0.0
  0
LINE
  5
F107C8
330
F1000C
100
AcDbEntity
  8
Bemassung
 62
     0
370
    -2
100
AcDbLine
 10
-24.43081225216428
 20
17.57530691574889
 30
0.0
 11
-21.43081225216428
 21
17.57530691574889
 31
0.0
  0
INSERT
  5
F107C9
330
F1000C
100
AcDbEntity
  8
Bemassung
 62
     0
370
    -2
100
AcDbBlockReference
  2
VDDIM_DEFAULT
 10
-26.93081225216428
 20
17.57530691574889
 30
0.0
 41
2.5
 42
2.5
 43
2.5
 50
180.0
  0
INSERT
  5
F107CA
330
F1000C
100
AcDbEntity
  8
Bemassung
 62
     0
370
    -2
100
AcDbBlockReference
  2
VDDIM_DEFAULT
 10
-18.93081225216428
 20
17.57530691574889
 30
0.0
 41
2.5
 42
2.5
 43
2.5
  0
MTEXT
  5
F107CB
330
F1000C
100
AcDbEntity
  8
Bemassung
 62
     0
100
AcDbMText
 10
-22.84675559257889
 20
18.20030691574889
 30
0.0
 40
2.5
 41
0.0
 71
     8
 72
     1
  1
\A1;8
 73
     1
 44
1.0
1001
ACAD
1000
MTEXTBEGIN
1070
    73
1070
     1
1070
    44
1040
1.0
1070
    74
1070
     0
1000
MTEXTEND
  0
POINT
  5
F107CC
330
F1000C
100
AcDbEntity
  8
Defpoints
 62
     0
100
AcDbPoint
 10
-26.93081225216428
 20
-0.336107586305431
 30
0.0
  0
POINT
  5
F107CD
330
F1000C
100
AcDbEntity
  8
Defpoints
 62
     0
100
AcDbPoint
 10
-18.93081225216428
 20
-1.836107586305431
 30
0.0
  0
POINT
  5
F107CE
330
F1000C
100
AcDbEntity
  8
Defpoints
 62
     0
100
AcDbPoint
 10
-18.93081225216428
 20
17.57530691574889
 30
0.0
  0
ENDBLK
  5
F1003D
330
F1000C
100
AcDbEntity
  8
0
100
AcDbBlockEnd
  0
BLOCK
  5
F1003E
330
F10016
100
AcDbEntity
  8
0
100
AcDbBlockBegin
  2
*D5
 70
     1
 10
0.0
 20
0.0
 30
0.0
  3
*D5
  1

  0
LINE
  5
F107CF
330
F10016
100
AcDbEntity
  8
Bemassung
 62
     0
370
    -2
100
AcDbLine
 10
-12.93081225216428
 20
3.288892413694568
 30
0.0
 11
-12.93081225216428
 21
23.91389241369457
 31
0.0
  0
LINE
  5
F107D0
330
F10016
100
AcDbEntity
  8
Bemassung
 62
     0
370
    -2
100
AcDbLine
 10
23.06918774783573
 20
2.88889241369457
 30
0.0
 11
23.06918774783573
 21
23.91389241369457
 31
0.0
  0
LINE
  5
F107D1
330
F10016
100
AcDbEntity
  8
Bemassung
 62
     0
370
    -2
100
AcDbLine
 10
-10.43081225216428
 20
22.66389241369457
 30
0.0
 11
20.56918774783573
 21
22.66389241369457
 31
0.0
  0
INSERT
  5
F107D2
330
F10016
100
AcDbEntity
  8
Bemassung
 62
     0
370
    -2
100
AcDbBlockReference
  2
VDDIM_DEFAULT
 10
-12.93081225216428
 20
22.66389241369457
 30
0.0
 41
2.5
 42
2.5
 43
2.5
 50
180.0
  0
INSERT
  5
F107D3
330
F10016
100
AcDbEntity
  8
Bemassung
 62
     0
370
    -2
100
AcDbBlockReference
  2
VDDIM_DEFAULT
 10
23.06918774783573
 20
22.66389241369457
 30
0.0
 41
2.5
 42
2.5
 43
2.5
  0
MTEXT
  5
F107D4
330
F10016
100
AcDbEntity
  8
Bemassung
 62
     0
100
AcDbMText
 10
5.069187747835727
 20
23.28889241369457
 30
0.0
 40
2.5
 41
0.0
 71
     8
 72
     1
  1
\A1;36
 73
     1
 44
1.0
1001
ACAD
1000
MTEXTBEGIN
1070
    73
1070
     1
1070
    44
1040
1.0
1070
    74
1070
     0
1000
MTEXTEND
  0
POINT
  5
F107D5
330
F10016
100
AcDbEntity
  8
Defpoints
 62
     0
100
AcDbPoint
 10
-12.93081225216428
 20
2.663892413694568
 30
0.0
  0
POINT
  5
F107D6
330
F10016
100
AcDbEntity
  8
Defpoints
 62
     0
100
AcDbPoint
 10
23.06918774783573
 20
2.26389241369457
 30
0.0
  0
POINT
  5
F107D7
330
F10016
100
AcDbEntity
  8
Defpoints
 62
     0
100
AcDbPoint
 10
23.06918774783573
 20
22.66389241369457
 30
0.0
  0
ENDBLK
  5
F10047
330
F10016
100
AcDbEntity
  8
0
100
AcDbBlockEnd
  0
BLOCK
  5
F10048
330
F10020
100
AcDbEntity
  8
0
100
AcDbBlockBegin
  2
*D6
 70
     1
 10
0.0
 20
0.0
 30
0.0
  3
*D6
  1

  0
LINE
  5
F107E3
330
F10020
100
AcDbEntity
  8
Bemassung
 62
     0
370
    -2
100
AcDbLine
 10
-21.93081225216428
 20
-1.211107586305431
 30
0.0
 11
-21.93081225216428
 21
9.516927600621748
 31
0.0
  0
LINE
  5
F107E4
330
F10020
100
AcDbEntity
  8
Bemassung
 62
     0
370
    -2
100
AcDbLine
 10
-26.93081225216428
 20
0.288892413694569
 30
0.0
 11
-26.93081225216428
 21
9.516927600621748
 31
0.0
  0
LINE
  5
F107E5
330
F10020
100
AcDbEntity
  8
Bemassung
 62
     0
370
    -2
100
AcDbLine
 10
-19.43081225216428
 20
8.266927600621748
 30
0.0
 11
-16.93081225216428
 21
8.266927600621748
 31
0.0
  0
LINE
  5
F107E6
330
F10020
100
AcDbEntity
  8
Bemassung
 62
     0
370
    -2
100
AcDbLine
 10
-29.43081225216428
 20
8.266927600621748
 30
0.0
 11
-34.8383838756295
 21
8.266927600621748
 31
0.0
  0
LINE
  5
F107E7
330
F10020
100
AcDbEntity
  8
Bemassung
 62
     0
370
    -2
100
AcDbLine
 10
-21.93081225216428
 20
8.266927600621748
 30
0.0
 11
-26.93081225216428
 21
8.266927600621748
 31
0.0
  0
INSERT
  5
F107E8
330
F10020
100
AcDbEntity
  8
Bemassung
 62
     0
370
    -2
100
AcDbBlockReference
  2
VDDIM_DEFAULT
 10
-21.93081225216428
 20
8.266927600621748
 30
0.0
 41
2.5
 42
2.5
 43
2.5
 50
180.0
  0
INSERT
  5
F107E9
330
F10020
100
AcDbEntity
  8
Bemassung
 62
     0
370
    -2
100
AcDbBlockReference
  2
VDDIM_DEFAULT
 10
-26.93081225216428
 20
8.266927600621748
 30
0.0
 41
2.5
 42
2.5
 43
2.5
  0
MTEXT
  5
F107EA
330
F10020
100
AcDbEntity
  8
Bemassung
 62
     0
100
AcDbMText
 10
-33.38459806389689
 20
8.891927600621748
 30
0.0
 40
2.5
 41
0.0
 71
     8
 72
     1
  1
\A1;5
 73
     1
 44
1.0
1001
ACAD
1000
MTEXTBEGIN
1070
    73
1070
     1
1070
    44
1040
1.0
1070
    74
1070
     0
1000
MTEXTEND
  0
POINT
  5
F107EB
330
F10020
100
AcDbEntity
  8
Defpoints
 62
     0
100
AcDbPoint
 10
-21.93081225216428
 20
-1.836107586305431
 30
0.0
  0
POINT
  5
F107EC
330
F10020
100
AcDbEntity
  8
Defpoints
 62
     0
100
AcDbPoint
 10
-26.93081225216428
 20
-0.336107586305431
 30
0.0
  0
POINT
  5
F107ED
330
F10020
100
AcDbEntity
  8
Defpoints
 62
     0
100
AcDbPoint
 10
-26.93081225216428
 20
8.266927600621748
 30
0.0
  0
ENDBLK
  5
F10051
330
F10020
100
AcDbEntity
  8
0
100
AcDbBlockEnd
  0
BLOCK
  5
F10052
330
F10025
100
AcDbEntity
  8
0
100
AcDbBlockBegin
  2
*D7
 70
     1
 10
0.0
 20
0.0
 30
0.0
  3
*D7
  1

  0
LINE
  5
F107EE
330
F10025
100
AcDbEntity
  8
Bemassung
 62
     0
370
    -2
100
AcDbLine
 10
23.06918774783573
 20
2.88889241369457
 30
0.0
 11
23.06918774783574
 21
38.91389241369458
 31
0.0
  0
LINE
  5
F107EF
330
F10025
100
AcDbEntity
  8
Bemassung
 62
     0
370
    -2
100
AcDbLine
 10
-26.93081225216428
 20
0.288892413694569
 30
0.0
 11
-26.93081225216428
 21
38.91389241369458
 31
0.0
  0
LINE
  5
F107F0
330
F10025
100
AcDbEntity
  8
Bemassung
 62
     0
370
    -2
100
AcDbLine
 10
20.56918774783574
 20
37.66389241369458
 30
0.0
 11
-24.43081225216428
 21
37.66389241369458
 31
0.0
  0
INSERT
  5
F107F1
330
F10025
100
AcDbEntity
  8
Bemassung
 62
     0
370
    -2
100
AcDbBlockReference
  2
VDDIM_DEFAULT
 10
23.06918774783574
 20
37.66389241369458
 30
0.0
 41
2.5
 42
2.5
 43
2.5
  0
INSERT
  5
F107F2
330
F10025
100
AcDbEntity
  8
Bemassung
 62
     0
370
    -2
100
AcDbBlockReference
  2
VDDIM_DEFAULT
 10
-26.93081225216428
 20
37.66389241369458
 30
0.0
 41
2.5
 42
2.5
 43
2.5
 50
180.0
  0
MTEXT
  5
F107F3
330
F10025
100
AcDbEntity
  8
Bemassung
 62
     0
100
AcDbMText
 10
-1.930812252164269
 20
38.28889241369458
 30
0.0
 40
2.5
 41
0.0
 71
     8
 72
     1
  1
\A1;50
 73
     1
 44
1.0
1001
ACAD
1000
MTEXTBEGIN
1070
    73
1070
     1
1070
    44
1040
1.0
1070
    74
1070
     0
1000
MTEXTEND
  0
POINT
  5
F107F4
330
F10025
100
AcDbEntity
  8
Defpoints
 62
     0
100
AcDbPoint
 10
23.06918774783573
 20
2.26389241369457
 30
0.0
  0
POINT
  5
F107F5
330
F10025
100
AcDbEntity
  8
Defpoints
 62
     0
100
AcDbPoint
 10
-26.93081225216428
 20
-0.336107586305431
 30
0.0
  0
POINT
  5
F107F6
330
F10025
100
AcDbEntity
  8
Defpoints
 62
     0
100
AcDbPoint
 10
-26.93081225216428
 20
37.66389241369458
 30
0.0
  0
ENDBLK
  5
F1005B
330
F10025
100
AcDbEntity
  8
0
100
AcDbBlockEnd
  0
BLOCK
  5
F1005C
330
F10011
100
AcDbEntity
  8
0
100
AcDbBlockBegin
  2
*D8
 70
     1
 10
0.0
 20
0.0
 30
0.0
  3
*D8
  1

  0
ARC
  5
F106FF
330
F10011
100
AcDbEntity
  8
Bemassung
 62
     0
370
    -2
100
AcDbCircle
 10
-76.2972726258561
 20
37.18604651162791
 30
0.0
 40
15.95023787355243
100
AcDbArc
 50
341.9648440151139
 51
360.0
  0
LINE
  5
F10700
330
F10011
100
AcDbEntity
  8
Bemassung
 62
     0
370
    -2
100
AcDbLine
 10
-61.13072212418461
 20
32.24784500671191
 30
0.0
 11
-62.96329939275272
 21
26.61950528337648
 31
0.0
  0
ARC
  5
F10701
330
F10011
100
AcDbEntity
  8
Bemassung
 62
     0
370
    -2
100
AcDbCircle
 10
-76.2972726258561
 20
37.18604651162791
 30
0.0
 40
15.95023787355243
100
AcDbArc
 50
342.0207726130843
 51
351.0103863065421
  0
ARC
  5
F10702
330
F10011
100
AcDbEntity
  8
Bemassung
 62
     0
370
    -2
100
AcDbCircle
 10
-76.2972726258561
 20
37.18604651162791
 30
0.0
 40
15.95023787355243
100
AcDbArc
 50
23.98961369345775
 51
32.97922738691557
  0
ARC
  5
F10703
330
F10011
100
AcDbEntity
  8
Bemassung
 62
     0
370
    -2
100
AcDbCircle
 10
-76.2972726258561
 20
37.18604651162791
 30
0.0
 40
15.95023787355243
100
AcDbArc
 50
360.0
 51
14.99999999999992
  0
INSERT
  5
F10704
330
F10011
100
AcDbEntity
  8
Bemassung
 62
     0
370
    -2
100
AcDbBlockReference
  2
VDDIM_DEFAULT
 10
-60.34703475230367
 20
37.18604651162789
 30
0.0
 41
2.5
 42
2.5
 43
2.5
 50
85.50519315327104
  0
INSERT
  5
F10705
330
F10011
100
AcDbEntity
  8
Bemassung
 62
     0
370
    -2
100
AcDbBlockReference
  2
VDDIM_DEFAULT
 10
-60.89052592833777
 20
41.31427184721878
 30
0.0
 41
2.5
 42
2.5
 43
2.5
 50
289.4948068467288
  0
MTEXT
  5
F10706
330
F10011
100
AcDbEntity
  8
Bemassung
 62
     0
100
AcDbMText
 10
-61.45271905331094
 20
29.24017483708388
 30
0.0
 40
2.5
 41
0.0
 71
     8
 72
     1
  1
\A1;15\U+00B0
 11
-0.3096004927364851
 21
-0.9508667282523484
 31
0.0
 73
     1
 44
1.0
1001
ACAD
1000
MTEXTBEGIN
1070
    73
1070
     1
1070
    44
1040
1.0
1070
    74
1070
     0
1000
MTEXTEND
  0
POINT
  5
F10707
330
F10011
100
AcDbEntity
  8
Defpoints
 62
     0
100
AcDbPoint
 10
-60.58935470559271
 20
39.95577625172432
 30
0.0
  0
POINT
  5
F10708
330
F10011
100
AcDbEntity
  8
Defpoints
 62
     0
100
AcDbPoint
 10
-58.95867427575971
 20
41.8319099374238
 30
0.0
  0
POINT
  5
F10709
330
F10011
100
AcDbEntity
  8
Defpoints
 62
     0
100
AcDbPoint
 10
-76.2972726258561
 20
37.18604651162791
 30
0.0
  0
POINT
  5
F1070A
330
F10011
100
AcDbEntity
  8
Defpoints
 62
     0
100
AcDbPoint
 10
-58.3470347523037
 20
37.1860465116279
 30
0.0
  0
POINT
  5
F1070B
330
F10011
100
AcDbEntity
  8
Defpoints
 62
     0
100
AcDbPoint
 10
-76.2972726258561
 20
37.18604651162791
 30
0.0
  0
ENDBLK
  5
F10067
330
F10011
100
AcDbEntity
  8
0
100
AcDbBlockEnd
  0
BLOCK
  5
F10068
330
F10007
100
AcDbEntity
  8
0
100
AcDbBlockBegin
  2
*D9
 70
     1
 10
0.0
 20
0.0
 30
0.0
  3
*D9
  1

  0
LINE
  5
F107BB
330
F10007
100
AcDbEntity
  8
Bemassung
 62
     0
370
    -2
100
AcDbLine
 10
-27.48581225216429
 20
-1.836107586305431
 30
0.0
 11
-41.64792894852332
 21
-1.836107586305426
 31
0.0
  0
LINE
  5
F107BC
330
F10007
100
AcDbEntity
  8
Bemassung
 62
     0
370
    -2
100
AcDbLine
 10
-27.48581225216429
 20
1.163892413694568
 30
0.0
 11
-41.64792894852332
 21
1.163892413694573
 31
0.0
  0
LINE
  5
F107BD
330
F10007
100
AcDbEntity
  8
Bemassung
 62
     0
370
    -2
100
AcDbLine
 10
-40.39792894852332
 20
3.663892413694572
 30
0.0
 11
-40.39792894852332
 21
6.163892413694572
 31
0.0
  0
LINE
  5
F107BE
330
F10007
100
AcDbEntity
  8
Bemassung
 62
     0
370
    -2
100
AcDbLine
 10
-40.39792894852332
 20
-4.336107586305427
 30
0.0
 11
-40.39792894852332
 21
-12.44490704060285
 31
0.0
  0
LINE
  5
F107BF
330
F10007
100
AcDbEntity
  8
Bemassung
 62
     0
370
    -2
100
AcDbLine
 10
-40.39792894852332
 20
1.163892413694572
 30
0.0
 11
-40.39792894852332
 21
-1.836107586305427
 31
0.0
  0
INSERT
  5
F107C0
330
F10007
100
AcDbEntity
  8
Bemassung
 62
     0
370
    -2
100
AcDbBlockReference
  2
VDDIM_DEFAULT
 10
-40.39792894852332
 20
1.163892413694572
 30
0.0
 41
2.5
 42
2.5
 43
2.5
 50
270.0
  0
INSERT
  5
F107C1
330
F10007
100
AcDbEntity
  8
Bemassung
 62
     0
370
    -2
100
AcDbBlockReference
  2
VDDIM_DEFAULT
 10
-40.39792894852332
 20
-1.836107586305427
 30
0.0
 41
2.5
 42
2.5
 43
2.5
 50
90.0
  0
MTEXT
  5
F107C2
330
F10007
100
AcDbEntity
  8
Bemassung
 62
     0
100
AcDbMText
 10
-41.02292894852332
 20
-9.640507313454151
 30
0.0
 40
2.5
 41
0.0
 71
     8
 72
     1
  1
\A1;%%c3
 11
0.0000000000000001
 21
1.0
 31
0.0
 73
     1
 44
1.0
1001
ACAD
1000
MTEXTBEGIN
1070
    73
1070
     1
1070
    44
1040
1.0
1070
    74
1070
     0
1000
MTEXTEND
  0
POINT
  5
F107C3
330
F10007
100
AcDbEntity
  8
Defpoints
 62
     0
100
AcDbPoint
 10
-26.86081225216429
 20
-1.836107586305431
 30
0.0
  0
POINT
  5
F107C4
330
F10007
100
AcDbEntity
  8
Defpoints
 62
     0
100
AcDbPoint
 10
-26.86081225216429
 20
1.163892413694568
 30
0.0
  0
POINT
  5
F107C5
330
F10007
100
AcDbEntity
  8
Defpoints
 62
     0
100
AcDbPoint
 10
-40.39792894852332
 20
1.163892413694572
 30
0.0
  0
ENDBLK
  5
F10071
330
F10007
100
AcDbEntity
  8
0
100
AcDbBlockEnd
  0
BLOCK
  5
F10072
330
F1001B
100
AcDbEntity
  8
0
100
AcDbBlockBegin
  2
*D10
 70
     1
 10
0.0
 20
0.0
 30
0.0
  3
*D10
  1

  0
LINE
  5
F107D8
330
F1001B
100
AcDbEntity
  8
Bemassung
 62
     0
370
    -2
100
AcDbLine
 10
23.29418774783574
 20
-3.336107586305435
 30
0.0
 11
34.31918774783574
 21
-3.336107586305438
 31
0.0
  0
LINE
  5
F107D9
330
F1001B
100
AcDbEntity
  8
Bemassung
 62
     0
370
    -2
100
AcDbLine
 10
23.29418774783574
 20
2.663892413694568
 30
0.0
 11
34.31918774783574
 21
2.663892413694565
 31
0.0
  0
LINE
  5
F107DA
330
F1001B
100
AcDbEntity
  8
Bemassung
 62
     0
370
    -2
100
AcDbLine
 10
33.06918774783574
 20
-5.836107586305437
 30
0.0
 11
33.06918774783574
 21
-8.336107586305438
 31
0.0
  0
LINE
  5
F107DB
330
F1001B
100
AcDbEntity
  8
Bemassung
 62
     0
370
    -2
100
AcDbLine
 10
33.06918774783574
 20
5.163892413694566
 30
0.0
 11
33.06918774783574
 21
18.12603429636851
 31
0.0
  0
LINE
  5
F107DC
330
F1001B
100
AcDbEntity
  8
Bemassung
 62
     0
370
    -2
100
AcDbLine
 10
33.06918774783574
 20
-3.336107586305437
 30
0.0
 11
33.06918774783574
 21
2.663892413694565
 31
0.0
  0
INSERT
  5
F107DD
330
F1001B
100
AcDbEntity
  8
Bemassung
 62
     0
370
    -2
100
AcDbBlockReference
  2
VDDIM_DEFAULT
 10
33.06918774783574
 20
-3.336107586305437
 30
0.0
 41
2.5
 42
2.5
 43
2.5
 50
90.0
  0
INSERT
  5
F107DE
330
F1001B
100
AcDbEntity
  8
Bemassung
 62
     0
370
    -2
100
AcDbBlockReference
  2
VDDIM_DEFAULT
 10
33.06918774783574
 20
2.663892413694565
 30
0.0
 41
2.5
 42
2.5
 43
2.5
 50
270.0
  0
MTEXT
  5
F107DF
330
F1001B
100
AcDbEntity
  8
Bemassung
 62
     0
100
AcDbMText
 10
32.44418774783574
 20
12.89496335503154
 30
0.0
 40
2.5
 41
0.0
 71
     8
 72
     1
  1
\A1;%%c6 h6
 11
0.0000000000000001
 21
1.0
 31
0.0
 73
     1
 44
1.0
1001
ACAD
1000
MTEXTBEGIN
1070
    73
1070
     1
1070
    44
1040
1.0
1070
    74
1070
     0
1000
MTEXTEND
  0
POINT
  5
F107E0
330
F1001B
100
AcDbEntity
  8
Defpoints
 62
     0
100
AcDbPoint
 10
22.66918774783574
 20
-3.336107586305434
 30
0.0
  0
POINT
  5
F107E1
330
F1001B
100
AcDbEntity
  8
Defpoints
 62
     0
100
AcDbPoint
 10
22.66918774783574
 20
2.663892413694568
 30
0.0
  0
POINT
  5
F107E2
330
F1001B
100
AcDbEntity
  8
Defpoints
 62
     0
100
AcDbPoint
 10
33.06918774783574
 20
2.663892413694565
 30
0.0
  0
ENDBLK
  5
F1007B
330
F1001B
100
AcDbEntity
  8
0
100
AcDbBlockEnd
  0
BLOCK
  5
F106CE
330
F106CC
100
AcDbEntity
  8
0
100
AcDbBlockBegin
  2
GENAXEH
 70
     0
 10
0.0
 20
0.0
 30
0.0
  3
GENAXEH
  1

  0
LINE
  5
F106CD
330
F106CC
100
AcDbEntity
  8
0
100
AcDbLine
 10
-1.0
 20
0.0
 30
0.0
 11
1.0
 21
0.0
 31
0.0
  0
ENDBLK
  5
F106CF
330
F106CC
100
AcDbEntity
  8
0
100
AcDbBlockEnd
  0
ENDSEC
  0
SECTION
  2
ENTITIES
  0
DIMENSION
  5
F1000D
330
261
100
AcDbEntity
  8
Bemassung
100
AcDbDimension
  2
*D4
 10
-18.93081225216428
 20
17.57530691574889
 30
0.0
 11
-22.84675559257889
 21
17.57530691574889
 31
0.0
 70
   160
  1
<>
 71
     8
 42
8.0
  3
BEM-ISBE
100
AcDbAlignedDimension
 13
-26.93081225216428
 23
-0.336107586305431
 33
0.0
 14
-18.93081225216428
 24
-1.836107586305431
 34
0.0
100
AcDbRotatedDimension
1001
ACAD
1000
DSTYLE
1002
{
1070
   147
1040
0.625
1070
    72
1070
     0
1070
    71
1070
     0
1070
   284
1070
     8
1070
    78
1070
     8
1070
   144
1040
1.0
1070
    47
1040
1.0
1070
    48
1040
0.0
1002
}
  0
DIMENSION
  5
F10017
330
261
100
AcDbEntity
  8
Bemassung
100
AcDbDimension
  2
*D5
 10
23.06918774783573
 20
22.66389241369457
 30
0.0
 11
5.069187747835727
 21
24.56617754329894
 31
0.0
 70
    32
  1
<>
 71
     8
 42
36.00000000000001
  3
BEM-ISBE
100
AcDbAlignedDimension
 13
-12.93081225216428
 23
2.663892413694568
 33
0.0
 14
23.06918774783573
 24
2.26389241369457
 34
0.0
100
AcDbRotatedDimension
1001
ACAD
1000
DSTYLE
1002
{
1070
   147
1040
0.625
1070
    72
1070
     0
1070
    71
1070
     0
1070
   284
1070
     8
1070
    78
1070
     8
1070
   144
1040
1.0
1070
    47
1040
2.0
1070
    48
1040
0.0
1002
}
  0
DIMENSION
  5
F10021
330
261
100
AcDbEntity
  8
Bemassung
100
AcDbDimension
  2
*D6
 10
-26.93081225216428
 20
8.266927600621748
 30
0.0
 11
-33.38459806389689
 21
8.266927600621748
 31
0.0
 70
   160
  1
<>
 71
     8
 42
5.0
  3
BEM-ISBE
100
AcDbAlignedDimension
 13
-21.93081225216428
 23
-1.836107586305431
 33
0.0
 14
-26.93081225216428
 24
-0.336107586305431
 34
0.0
100
AcDbRotatedDimension
1001
ACAD
1000
DSTYLE
1002
{
1070
   147
1040
0.625
1070
    72
1070
     0
1070
    71
1070
     0
1070
   284
1070
     8
1070
    78
1070
     8
1070
   144
1040
1.0
1070
    47
1040
1.0
1070
    48
1040
0.0
1002
}
  0
DIMENSION
  5
F10026
330
261
100
AcDbEntity
  8
Bemassung
100
AcDbDimension
  2
*D7
 10
-26.93081225216428
 20
37.66389241369458
 30
0.0
 11
-1.930812252164269
 21
39.56532488299881
 31
0.0
 70
    32
  1
<>
 71
     8
 42
50.00000000000001
  3
BEM-ISBE
100
AcDbAlignedDimension
 13
23.06918774783573
 23
2.26389241369457
 33
0.0
 14
-26.93081225216428
 24
-0.336107586305431
 34
0.0
100
AcDbRotatedDimension
1001
ACAD
1000
DSTYLE
1002
{
1070
   147
1040
0.625
1070
    72
1070
     0
1070
    71
1070
     0
1070
   284
1070
     8
1070
    78
1070
     8
1070
   144
1040
1.0
1070
    47
1040
2.0
1070
    48
1040
0.0
1002
}
  0
DIMENSION
  5
F10008
330
261
100
AcDbEntity
  8
Bemassung
100
AcDbDimension
  2
*D9
 10
-40.39792894852332
 20
1.163892413694572
 30
0.0
 11
-40.39792894852332
 21
-9.640507313454151
 31
0.0
 70
   160
  1
%%c<>
 71
     8
 42
3.0
  3
BEM-ISBE
100
AcDbAlignedDimension
 13
-26.86081225216429
 23
-1.836107586305431
 33
0.0
 14
-26.86081225216429
 24
1.163892413694568
 34
0.0
 50
90.0
100
AcDbRotatedDimension
1001
ACAD
1000
DSTYLE
1002
{
1070
   147
1040
0.625
1070
    72
1070
     0
1070
    71
1070
     0
1070
   284
1070
     8
1070
    78
1070
     8
1070
   144
1040
1.0
1070
    47
1040
0.0
1070
    48
1040
-0.048
1002
}
  0
DIMENSION
  5
F1001C
330
261
100
AcDbEntity
  8
Bemassung
100
AcDbDimension
  2
*D10
 10
33.06918774783574
 20
2.663892413694565
 30
0.0
 11
31.09783713392032
 21
12.89496335503154
 31
0.0
 70
    32
  1
%%c<> h6
 71
     8
 42
6.000000000000003
  3
BEM-ISBE
100
AcDbAlignedDimension
 13
22.66918774783574
 23
-3.336107586305434
 33
0.0
 14
22.66918774783574
 24
2.663892413694568
 34
0.0
 50
90.0
100
AcDbRotatedDimension
1001
ACAD
1000
DSTYLE
1002
{
1070
   284
1070
     8
1070
    78
1070
     8
1070
   144
1040
1.0
1070
   147
1040
0.625
1070
    72
1070
     0
1070
    71
1070
     0
1002
}
  0
LINE
  5
F1007C
330
261
100
AcDbEntity
  8
Geo
100
AcDbLine
 10
-26.93081225216428
 20
-0.336107586305431
 30
0.0
 11
-26.93081225216428
 21
1.093892413694568
 31
0.0
  0
LINE
  5
F1007E
330
261
100
AcDbEntity
  8
Geo
100
AcDbLine
 10
-26.93081225216428
 20
1.093892413694568
 30
0.0
 11
-26.86081225216429
 21
1.163892413694568
 31
0.0
  0
LINE
  5
F10080
330
261
100
AcDbEntity
  8
Geo
100
AcDbLine
 10
-26.86081225216429
 20
1.163892413694568
 30
0.0
 11
-18.93081225216428
 21
1.163892413694568
 31
0.0
  0
LINE
  5
F10082
330
261
100
AcDbEntity
  8
Geo
100
AcDbLine
 10
-18.93081225216428
 20
1.163892413694568
 30
0.0
 11
-13.33273604081096
 21
2.663892413694568
 31
0.0
  0
LINE
  5
F10084
330
261
100
AcDbEntity
  8
Geo
100
AcDbLine
 10
-13.33273604081096
 20
2.663892413694568
 30
0.0
 11
-12.93081225216428
 21
2.663892413694568
 31
0.0
  0
LINE
  5
F10086
330
261
100
AcDbEntity
  8
Geo
100
AcDbLine
 10
-12.93081225216428
 20
2.663892413694568
 30
0.0
 11
2.069187747835734
 21
2.663892413694568
 31
0.0
  0
LINE
  5
F10088
330
261
100
AcDbEntity
  8
Geo
100
AcDbLine
 10
2.069187747835734
 20
2.663892413694568
 30
0.0
 11
2.969187747835732
 21
1.76389241369457
 31
0.0
  0
LINE
  5
F1008A
330
261
100
AcDbEntity
  8
Geo
100
AcDbLine
 10
2.969187747835732
 20
1.76389241369457
 30
0.0
 11
7.169187747835735
 21
1.76389241369457
 31
0.0
  0
LINE
  5
F1008C
330
261
100
AcDbEntity
  8
Geo
100
AcDbLine
 10
7.169187747835735
 20
1.76389241369457
 30
0.0
 11
8.069187747835734
 21
2.663892413694568
 31
0.0
  0
LINE
  5
F1008E
330
261
100
AcDbEntity
  8
Geo
100
AcDbLine
 10
8.069187747835734
 20
2.663892413694568
 30
0.0
 11
22.66918774783574
 21
2.663892413694568
 31
0.0
  0
LINE
  5
F10090
330
261
100
AcDbEntity
  8
Geo
100
AcDbLine
 10
22.66918774783574
 20
2.663892413694568
 30
0.0
 11
23.06918774783573
 21
2.26389241369457
 31
0.0
  0
LINE
  5
F10092
330
261
100
AcDbEntity
  8
Geo
100
AcDbLine
 10
-26.63081225216429
 20
1.163781624735968
 30
0.0
 11
-26.53081225216429
 21
1.16272995835677
 31
0.0
  0
LINE
  5
F10094
330
261
100
AcDbEntity
  8
Geo
100
AcDbLine
 10
-26.53081225216429
 20
1.16272995835677
 30
0.0
 11
-26.43081225216428
 21
1.157699887845069
 31
0.0
  0
LINE
  5
F10096
330
261
100
AcDbEntity
  8
Geo
100
AcDbLine
 10
-26.43081225216428
 20
1.157699887845069
 30
0.0
 11
-26.33081225216429
 21
1.14870476464997
 31
0.0
  0
LINE
  5
F10098
330
261
100
AcDbEntity
  8
Geo
100
AcDbLine
 10
-26.33081225216429
 20
1.14870476464997
 30
0.0
 11
-26.23081225216428
 21
1.135768464764773
 31
0.0
  0
LINE
  5
F1009A
330
261
100
AcDbEntity
  8
Geo
100
AcDbLine
 10
-26.23081225216428
 20
1.135768464764773
 30
0.0
 11
-26.13081225216428
 21
1.118925325352471
 31
0.0
  0
LINE
  5
F1009C
330
261
100
AcDbEntity
  8
Geo
100
AcDbLine
 10
-26.13081225216428
 20
1.118925325352471
 30
0.0
 11
-26.03081225216429
 21
1.09822005360337
 31
0.0
  0
LINE
  5
F1009E
330
261
100
AcDbEntity
  8
Geo
100
AcDbLine
 10
-26.03081225216429
 20
1.09822005360337
 30
0.0
 11
-25.93081225216428
 21
1.073707608067962
 31
0.0
  0
LINE
  5
F100A0
330
261
100
AcDbEntity
  8
Geo
100
AcDbLine
 10
-25.93081225216428
 20
1.073707608067962
 30
0.0
 11
-25.83081225216429
 21
1.045453052778569
 31
0.0
  0
LINE
  5
F100A2
330
261
100
AcDbEntity
  8
Geo
100
AcDbLine
 10
-25.83081225216429
 20
1.045453052778569
 30
0.0
 11
-25.73081225216428
 21
1.013531384548464
 31
0.0
  0
LINE
  5
F100A4
330
261
100
AcDbEntity
  8
Geo
100
AcDbLine
 10
-25.73081225216428
 20
1.013531384548464
 30
0.0
 11
-25.63081225216429
 21
0.9780273339059704
 31
0.0
  0
LINE
  5
F100A6
330
261
100
AcDbEntity
  8
Geo
100
AcDbLine
 10
-25.63081225216429
 20
0.9780273339059704
 30
0.0
 11
-25.53081225216429
 21
0.9390351401914642
 31
0.0
  0
LINE
  5
F100A8
330
261
100
AcDbEntity
  8
Geo
100
AcDbLine
 10
-25.53081225216429
 20
0.9390351401914642
 30
0.0
 11
-25.43081225216428
 21
0.8966583014160676
 31
0.0
  0
LINE
  5
F100AA
330
261
100
AcDbEntity
  8
Geo
100
AcDbLine
 10
-25.43081225216428
 20
0.8966583014160676
 30
0.0
 11
-25.33081225216429
 21
0.8510092995435627
 31
0.0
  0
LINE
  5
F100AC
330
261
100
AcDbEntity
  8
Geo
100
AcDbLine
 10
-25.33081225216429
 20
0.8510092995435627
 30
0.0
 11
-25.23081225216428
 21
0.8022093019267728
 31
0.0
  0
LINE
  5
F100AE
330
261
100
AcDbEntity
  8
Geo
100
AcDbLine
 10
-25.23081225216428
 20
0.8022093019267728
 30
0.0
 11
-25.13081225216428
 21
0.7503878396899637
 31
0.0
  0
LINE
  5
F100B0
330
261
100
AcDbEntity
  8
Geo
100
AcDbLine
 10
-25.13081225216428
 20
0.7503878396899637
 30
0.0
 11
-25.03081225216429
 21
0.6956824639108703
 31
0.0
  0
LINE
  5
F100B2
330
261
100
AcDbEntity
  8
Geo
100
AcDbLine
 10
-25.03081225216429
 20
0.6956824639108703
 30
0.0
 11
-24.93081225216428
 21
0.6382383805150696
 31
0.0
  0
LINE
  5
F100B4
330
261
100
AcDbEntity
  8
Geo
100
AcDbLine
 10
-24.93081225216428
 20
0.6382383805150696
 30
0.0
 11
-24.83081225216429
 21
0.5782080648522694
 31
0.0
  0
LINE
  5
F100B6
330
261
100
AcDbEntity
  8
Geo
100
AcDbLine
 10
-24.83081225216429
 20
0.5782080648522694
 30
0.0
 11
-24.73081225216428
 21
0.5157508569768652
 31
0.0
  0
LINE
  5
F100B8
330
261
100
AcDbEntity
  8
Geo
100
AcDbLine
 10
-24.73081225216428
 20
0.5157508569768652
 30
0.0
 11
-24.63081225216428
 21
0.451032538707473
 31
0.0
  0
LINE
  5
F100BA
330
261
100
AcDbEntity
  8
Geo
100
AcDbLine
 10
-24.63081225216428
 20
0.451032538707473
 30
0.0
 11
-24.53081225216429
 21
0.38422489358787
 31
0.0
  0
LINE
  5
F100BC
330
261
100
AcDbEntity
  8
Geo
100
AcDbLine
 10
-24.53081225216429
 20
0.38422489358787
 30
0.0
 11
-24.43081225216428
 21
0.3155052509171696
 31
0.0
  0
LINE
  5
F100BE
330
261
100
AcDbEntity
  8
Geo
100
AcDbLine
 10
-24.43081225216428
 20
0.3155052509171696
 30
0.0
 11
-24.33081225216429
 21
0.2450560150602712
 31
0.0
  0
LINE
  5
F100C0
330
261
100
AcDbEntity
  8
Geo
100
AcDbLine
 10
-24.33081225216429
 20
0.2450560150602712
 30
0.0
 11
-24.23081225216428
 21
0.1730641812869678
 31
0.0
  0
LINE
  5
F100C2
330
261
100
AcDbEntity
  8
Geo
100
AcDbLine
 10
-24.23081225216428
 20
0.1730641812869678
 30
0.0
 11
-24.13081225216429
 21
0.0997208394255651
 31
0.0
  0
LINE
  5
F100C4
330
261
100
AcDbEntity
  8
Geo
100
AcDbLine
 10
-24.13081225216429
 20
0.0997208394255651
 30
0.0
 11
-24.03081225216429
 21
0.025220666647968
 31
0.0
  0
LINE
  5
F100C6
330
261
100
AcDbEntity
  8
Geo
100
AcDbLine
 10
-24.03081225216429
 20
0.025220666647968
 30
0.0
 11
-23.93081225216428
 21
-0.0502385892670319
 31
0.0
  0
LINE
  5
F100C8
330
261
100
AcDbEntity
  8
Geo
100
AcDbLine
 10
-23.93081225216428
 20
-0.0502385892670319
 30
0.0
 11
-23.83081225216429
 21
-0.1264566348208262
 31
0.0
  0
LINE
  5
F100CA
330
261
100
AcDbEntity
  8
Geo
100
AcDbLine
 10
-23.83081225216429
 20
-0.1264566348208262
 30
0.0
 11
-23.73081225216428
 21
-0.2032311624395291
 31
0.0
  0
LINE
  5
F100CC
330
261
100
AcDbEntity
  8
Geo
100
AcDbLine
 10
-23.73081225216428
 20
-0.2032311624395291
 30
0.0
 11
-23.63081225216428
 21
-0.2803583874641333
 31
0.0
  0
LINE
  5
F100CE
330
261
100
AcDbEntity
  8
Geo
100
AcDbLine
 10
-23.63081225216428
 20
-0.2803583874641333
 30
0.0
 11
-23.53081225216429
 21
-0.3576335890615354
 31
0.0
  0
LINE
  5
F100D0
330
261
100
AcDbEntity
  8
Geo
100
AcDbLine
 10
-23.53081225216429
 20
-0.3576335890615354
 30
0.0
 11
-23.43081225216428
 21
-0.4348516536206333
 31
0.0
  0
LINE
  5
F100D2
330
261
100
AcDbEntity
  8
Geo
100
AcDbLine
 10
-23.43081225216428
 20
-0.4348516536206333
 30
0.0
 11
-23.33081225216429
 21
-0.511807619190428
 31
0.0
  0
LINE
  5
F100D4
330
261
100
AcDbEntity
  8
Geo
100
AcDbLine
 10
-23.33081225216429
 20
-0.511807619190428
 30
0.0
 11
-23.23081225216428
 21
-0.5882972195164271
 31
0.0
  0
LINE
  5
F100D6
330
261
100
AcDbEntity
  8
Geo
100
AcDbLine
 10
-23.23081225216428
 20
-0.5882972195164271
 30
0.0
 11
-23.13081225216429
 21
-0.6641174262296304
 31
0.0
  0
LINE
  5
F100D8
330
261
100
AcDbEntity
  8
Geo
100
AcDbLine
 10
-23.13081225216429
 20
-0.6641174262296304
 30
0.0
 11
-23.03081225216429
 21
-0.7390669877503342
 31
0.0
  0
LINE
  5
F100DA
330
261
100
AcDbEntity
  8
Geo
100
AcDbLine
 10
-23.03081225216429
 20
-0.7390669877503342
 30
0.0
 11
-22.93081225216428
 21
-0.8129469634752268
 31
0.0
  0
LINE
  5
F100DC
330
261
100
AcDbEntity
  8
Geo
100
AcDbLine
 10
-22.93081225216428
 20
-0.8129469634752268
 30
0.0
 11
-22.83081225216427
 21
-0.8855612518309285
 31
0.0
  0
LINE
  5
F100DE
330
261
100
AcDbEntity
  8
Geo
100
AcDbLine
 10
-22.83081225216427
 20
-0.8855612518309285
 30
0.0
 11
-22.73081225216428
 21
-0.9567171107915299
 31
0.0
  0
LINE
  5
F100E0
330
261
100
AcDbEntity
  8
Geo
100
AcDbLine
 10
-22.73081225216428
 20
-0.9567171107915299
 30
0.0
 11
-22.63081225216427
 21
-1.026225669478932
 31
0.0
  0
LINE
  5
F100E2
330
261
100
AcDbEntity
  8
Geo
100
AcDbLine
 10
-22.63081225216427
 20
-1.026225669478932
 30
0.0
 11
-22.53081225216428
 21
-1.093902429487435
 31
0.0
  0
LINE
  5
F100E4
330
261
100
AcDbEntity
  8
Geo
100
AcDbLine
 10
-22.53081225216428
 20
-1.093902429487435
 30
0.0
 11
-22.43081225216428
 21
-1.15956775460323
 31
0.0
  0
LINE
  5
F100E6
330
261
100
AcDbEntity
  8
Geo
100
AcDbLine
 10
-22.43081225216428
 20
-1.15956775460323
 30
0.0
 11
-22.33081225216427
 21
-1.223047347617431
 31
0.0
  0
LINE
  5
F100E8
330
261
100
AcDbEntity
  8
Geo
100
AcDbLine
 10
-22.33081225216427
 20
-1.223047347617431
 30
0.0
 11
-22.23081225216428
 21
-1.284172712967432
 31
0.0
  0
LINE
  5
F100EA
330
261
100
AcDbEntity
  8
Geo
100
AcDbLine
 10
-22.23081225216428
 20
-1.284172712967432
 30
0.0
 11
-22.13081225216427
 21
-1.342781603979531
 31
0.0
  0
LINE
  5
F100EC
330
261
100
AcDbEntity
  8
Geo
100
AcDbLine
 10
-22.13081225216427
 20
-1.342781603979531
 30
0.0
 11
-22.03081225216427
 21
-1.398718453524224
 31
0.0
  0
LINE
  5
F100EE
330
261
100
AcDbEntity
  8
Geo
100
AcDbLine
 10
-22.03081225216427
 20
-1.398718453524224
 30
0.0
 11
-21.93081225216428
 21
-1.451834786942633
 31
0.0
  0
LINE
  5
F100F0
330
261
100
AcDbEntity
  8
Geo
100
AcDbLine
 10
-21.93081225216428
 20
-1.451834786942633
 30
0.0
 11
-21.83081225216427
 21
-1.49327526087513
 31
0.0
  0
LINE
  5
F100F2
330
261
100
AcDbEntity
  8
Geo
100
AcDbLine
 10
-21.83081225216427
 20
-1.49327526087513
 30
0.0
 11
-21.73081225216428
 21
-1.531641631231728
 31
0.0
  0
LINE
  5
F100F4
330
261
100
AcDbEntity
  8
Geo
100
AcDbLine
 10
-21.73081225216428
 20
-1.531641631231728
 30
0.0
 11
-21.63081225216427
 21
-1.56702921630903
 31
0.0
  0
LINE
  5
F100F6
330
261
100
AcDbEntity
  8
Geo
100
AcDbLine
 10
-21.63081225216427
 20
-1.56702921630903
 30
0.0
 11
-21.53081225216427
 21
-1.599542187710433
 31
0.0
  0
LINE
  5
F100F8
330
261
100
AcDbEntity
  8
Geo
100
AcDbLine
 10
-21.53081225216427
 20
-1.599542187710433
 30
0.0
 11
-21.43081225216428
 21
-1.629292149368026
 31
0.0
  0
LINE
  5
F100FA
330
261
100
AcDbEntity
  8
Geo
100
AcDbLine
 10
-21.43081225216428
 20
-1.629292149368026
 30
0.0
 11
-21.33081225216427
 21
-1.656396799788829
 31
0.0
  0
LINE
  5
F100FC
330
261
100
AcDbEntity
  8
Geo
100
AcDbLine
 10
-21.33081225216427
 20
-1.656396799788829
 30
0.0
 11
-21.23081225216428
 21
-1.680978679527029
 31
0.0
  0
LINE
  5
F100FE
330
261
100
AcDbEntity
  8
Geo
100
AcDbLine
 10
-21.23081225216428
 20
-1.680978679527029
 30
0.0
 11
-21.13081225216427
 21
-1.703164004779438
 31
0.0
  0
LINE
  5
F10100
330
261
100
AcDbEntity
  8
Geo
100
AcDbLine
 10
-21.13081225216427
 20
-1.703164004779438
 30
0.0
 11
-21.03081225216428
 21
-1.723081587025333
 31
0.0
  0
LINE
  5
F10102
330
261
100
AcDbEntity
  8
Geo
100
AcDbLine
 10
-21.03081225216428
 20
-1.723081587025333
 30
0.0
 11
-20.93081225216428
 21
-1.740861837773728
 31
0.0
  0
LINE
  5
F10104
330
261
100
AcDbEntity
  8
Geo
100
AcDbLine
 10
-20.93081225216428
 20
-1.740861837773728
 30
0.0
 11
-20.83081225216427
 21
-1.756635856741937
 31
0.0
  0
LINE
  5
F10106
330
261
100
AcDbEntity
  8
Geo
100
AcDbLine
 10
-20.83081225216427
 20
-1.756635856741937
 30
0.0
 11
-20.73081225216428
 21
-1.770534601154331
 31
0.0
  0
LINE
  5
F10108
330
261
100
AcDbEntity
  8
Geo
100
AcDbLine
 10
-20.73081225216428
 20
-1.770534601154331
 30
0.0
 11
-20.63081225216427
 21
-1.78268813331973
 31
0.0
  0
LINE
  5
F1010A
330
261
100
AcDbEntity
  8
Geo
100
AcDbLine
 10
-20.63081225216427
 20
-1.78268813331973
 30
0.0
 11
-20.53081225216427
 21
-1.793224943209935
 31
0.0
  0
LINE
  5
F1010C
330
261
100
AcDbEntity
  8
Geo
100
AcDbLine
 10
-20.53081225216427
 20
-1.793224943209935
 30
0.0
 11
-20.43081225216428
 21
-1.802271342410229
 31
0.0
  0
LINE
  5
F1010E
330
261
100
AcDbEntity
  8
Geo
100
AcDbLine
 10
-20.43081225216428
 20
-1.802271342410229
 30
0.0
 11
-20.33081225216427
 21
-1.809950925543631
 31
0.0
  0
LINE
  5
F10110
330
261
100
AcDbEntity
  8
Geo
100
AcDbLine
 10
-20.33081225216427
 20
-1.809950925543631
 30
0.0
 11
-20.23081225216428
 21
-1.816384095073729
 31
0.0
  0
LINE
  5
F10112
330
261
100
AcDbEntity
  8
Geo
100
AcDbLine
 10
-20.23081225216428
 20
-1.816384095073729
 30
0.0
 11
-20.13081225216427
 21
-1.821687645255131
 31
0.0
  0
LINE
  5
F10114
330
261
100
AcDbEntity
  8
Geo
100
AcDbLine
 10
-20.13081225216427
 20
-1.821687645255131
 30
0.0
 11
-20.03081225216428
 21
-1.825974400930228
 31
0.0
  0
LINE
  5
F10116
330
261
100
AcDbEntity
  8
Geo
100
AcDbLine
 10
-20.03081225216428
 20
-1.825974400930228
 30
0.0
 11
-19.93081225216428
 21
-1.829352906844128
 31
0.0
  0
LINE
  5
F10118
330
261
100
AcDbEntity
  8
Geo
100
AcDbLine
 10
-19.93081225216428
 20
-1.829352906844128
 30
0.0
 11
-19.83081225216427
 21
-1.831927163174526
 31
0.0
  0
LINE
  5
F1011A
330
261
100
AcDbEntity
  8
Geo
100
AcDbLine
 10
-19.83081225216427
 20
-1.831927163174526
 30
0.0
 11
-19.73081225216428
 21
-1.833796403035734
 31
0.0
  0
LINE
  5
F1011C
330
261
100
AcDbEntity
  8
Geo
100
AcDbLine
 10
-19.73081225216428
 20
-1.833796403035734
 30
0.0
 11
-19.63081225216427
 21
-1.835054907809436
 31
0.0
  0
LINE
  5
F1011E
330
261
100
AcDbEntity
  8
Geo
100
AcDbLine
 10
-19.63081225216427
 20
-1.835054907809436
 30
0.0
 11
-19.53081225216427
 21
-1.83579185628433
 31
0.0
  0
LINE
  5
F10120
330
261
100
AcDbEntity
  8
Geo
100
AcDbLine
 10
-19.53081225216427
 20
-1.83579185628433
 30
0.0
 11
-19.43081225216428
 21
-1.836091203732436
 31
0.0
  0
LINE
  5
F10122
330
261
100
AcDbEntity
  8
Geo
100
AcDbLine
 10
-19.43081225216428
 20
-1.836091203732436
 30
0.0
 11
-19.33081225216427
 21
-1.836107586305431
 31
0.0
  0
LINE
  5
F10124
330
261
100
AcDbEntity
  8
Geo
100
AcDbLine
 10
-26.93081225216428
 20
0.7020881527222756
 30
0.0
 11
-26.83081225216429
 21
0.6983369471578769
 31
0.0
  0
LINE
  5
F10126
330
261
100
AcDbEntity
  8
Geo
100
AcDbLine
 10
-26.83081225216429
 20
0.6983369471578769
 30
0.0
 11
-26.73081225216428
 21
0.6410192176698644
 31
0.0
  0
LINE
  5
F10128
330
261
100
AcDbEntity
  8
Geo
100
AcDbLine
 10
-26.73081225216428
 20
0.6410192176698644
 30
0.0
 11
-26.63081225216429
 21
0.5811078746653707
 31
0.0
  0
LINE
  5
F1012A
330
261
100
AcDbEntity
  8
Geo
100
AcDbLine
 10
-26.63081225216429
 20
0.5811078746653707
 30
0.0
 11
-26.53081225216429
 21
0.5187619424062718
 31
0.0
  0
LINE
  5
F1012C
330
261
100
AcDbEntity
  8
Geo
100
AcDbLine
 10
-26.53081225216429
 20
0.5187619424062718
 30
0.0
 11
-26.43081225216428
 21
0.4541469073495677
 31
0.0
  0
LINE
  5
F1012E
330
261
100
AcDbEntity
  8
Geo
100
AcDbLine
 10
-26.43081225216428
 20
0.4541469073495677
 30
0.0
 11
-26.33081225216429
 21
0.3874342788915683
 31
0.0
  0
LINE
  5
F10130
330
261
100
AcDbEntity
  8
Geo
100
AcDbLine
 10
-26.33081225216429
 20
0.3874342788915683
 30
0.0
 11
-26.23081225216428
 21
0.3188011341261685
 31
0.0
  0
LINE
  5
F10132
330
261
100
AcDbEntity
  8
Geo
100
AcDbLine
 10
-26.23081225216428
 20
0.3188011341261685
 30
0.0
 11
-26.13081225216428
 21
0.2484296478246648
 31
0.0
  0
LINE
  5
F10134
330
261
100
AcDbEntity
  8
Geo
100
AcDbLine
 10
-26.13081225216428
 20
0.2484296478246648
 30
0.0
 11
-26.03081225216429
 21
0.1765066088840683
 31
0.0
  0
LINE
  5
F10136
330
261
100
AcDbEntity
  8
Geo
100
AcDbLine
 10
-26.03081225216429
 20
0.1765066088840683
 30
0.0
 11
-25.93081225216428
 21
0.1032229245286729
 31
0.0
  0
LINE
  5
F10138
330
261
100
AcDbEntity
  8
Geo
100
AcDbLine
 10
-25.93081225216428
 20
0.1032229245286729
 30
0.0
 11
-25.83081225216429
 21
0.0287731135800655
 31
0.0
  0
LINE
  5
F1013A
330
261
100
AcDbEntity
  8
Geo
100
AcDbLine
 10
-25.83081225216429
 20
0.0287731135800655
 30
0.0
 11
-25.73081225216428
 21
-0.046645209859733
 31
0.0
  0
LINE
  5
F1013C
330
261
100
AcDbEntity
  8
Geo
100
AcDbLine
 10
-25.73081225216428
 20
-0.046645209859733
 30
0.0
 11
-25.63081225216429
 21
-0.1228318609404297
 31
0.0
  0
LINE
  5
F1013E
330
261
100
AcDbEntity
  8
Geo
100
AcDbLine
 10
-25.63081225216429
 20
-0.1228318609404297
 30
0.0
 11
-25.53081225216429
 21
-0.1995846154191341
 31
0.0
  0
LINE
  5
F10140
330
261
100
AcDbEntity
  8
Geo
100
AcDbLine
 10
-25.53081225216429
 20
-0.1995846154191341
 30
0.0
 11
-25.43081225216428
 21
-0.2766997464300331
 31
0.0
  0
LINE
  5
F10142
330
261
100
AcDbEntity
  8
Geo
100
AcDbLine
 10
-25.43081225216428
 20
-0.2766997464300331
 30
0.0
 11
-25.33081225216429
 21
-0.3539725652412287
 31
0.0
  0
LINE
  5
F10144
330
261
100
AcDbEntity
  8
Geo
100
AcDbLine
 10
-25.33081225216429
 20
-0.3539725652412287
 30
0.0
 11
-25.23081225216428
 21
-0.4311979645664295
 31
0.0
  0
LINE
  5
F10146
330
261
100
AcDbEntity
  8
Geo
100
AcDbLine
 10
-25.23081225216428
 20
-0.4311979645664295
 30
0.0
 11
-25.13081225216428
 21
-0.508170962985929
 31
0.0
  0
LINE
  5
F10148
330
261
100
AcDbEntity
  8
Geo
100
AcDbLine
 10
-25.13081225216428
 20
-0.508170962985929
 30
0.0
 11
-25.03081225216429
 21
-0.5846872490344311
 31
0.0
  0
LINE
  5
F1014A
330
261
100
AcDbEntity
  8
Geo
100
AcDbLine
 10
-25.03081225216429
 20
-0.5846872490344311
 30
0.0
 11
-24.93081225216428
 21
-0.6605437235101306
 31
0.0
  0
LINE
  5
F1014C
330
261
100
AcDbEntity
  8
Geo
100
AcDbLine
 10
-24.93081225216428
 20
-0.6605437235101306
 30
0.0
 11
-24.83081225216429
 21
-0.7355390385670262
 31
0.0
  0
LINE
  5
F1014E
330
261
100
AcDbEntity
  8
Geo
100
AcDbLine
 10
-24.83081225216429
 20
-0.7355390385670262
 30
0.0
 11
-24.73081225216428
 21
-0.8094741321569287
 31
0.0
  0
LINE
  5
F10150
330
261
100
AcDbEntity
  8
Geo
100
AcDbLine
 10
-24.73081225216428
 20
-0.8094741321569287
 30
0.0
 11
-24.63081225216428
 21
-0.882152756405631
 31
0.0
  0
LINE
  5
F10152
330
261
100
AcDbEntity
  8
Geo
100
AcDbLine
 10
-24.63081225216428
 20
-0.882152756405631
 30
0.0
 11
-24.53081225216429
 21
-0.9533819985188287
 31
0.0
  0
LINE
  5
F10154
330
261
100
AcDbEntity
  8
Geo
100
AcDbLine
 10
-24.53081225216429
 20
-0.9533819985188287
 30
0.0
 11
-24.43081225216428
 21
-1.022972792835432
 31
0.0
  0
LINE
  5
F10156
330
261
100
AcDbEntity
  8
Geo
100
AcDbLine
 10
-24.43081225216428
 20
-1.022972792835432
 30
0.0
 11
-24.33081225216429
 21
-1.090740422669732
 31
0.0
  0
LINE
  5
F10158
330
261
100
AcDbEntity
  8
Geo
100
AcDbLine
 10
-24.33081225216429
 20
-1.090740422669732
 30
0.0
 11
-24.23081225216428
 21
-1.156505010609635
 31
0.0
  0
LINE
  5
F1015A
330
261
100
AcDbEntity
  8
Geo
100
AcDbLine
 10
-24.23081225216428
 20
-1.156505010609635
 30
0.0
 11
-24.13081225216429
 21
-1.220091995970328
 31
0.0
  0
LINE
  5
F1015C
330
261
100
AcDbEntity
  8
Geo
100
AcDbLine
 10
-24.13081225216429
 20
-1.220091995970328
 30
0.0
 11
-24.03081225216429
 21
-1.281332598134724
 31
0.0
  0
LINE
  5
F1015E
330
261
100
AcDbEntity
  8
Geo
100
AcDbLine
 10
-24.03081225216429
 20
-1.281332598134724
 30
0.0
 11
-23.93081225216428
 21
-1.340064264553227
 31
0.0
  0
LINE
  5
F10160
330
261
100
AcDbEntity
  8
Geo
100
AcDbLine
 10
-23.93081225216428
 20
-1.340064264553227
 30
0.0
 11
-23.83081225216429
 21
-1.396131102210233
 31
0.0
  0
LINE
  5
F10162
330
261
100
AcDbEntity
  8
Geo
100
AcDbLine
 10
-23.83081225216429
 20
-1.396131102210233
 30
0.0
 11
-23.73081225216428
 21
-1.449384291416031
 31
0.0
  0
LINE
  5
F10164
330
261
100
AcDbEntity
  8
Geo
100
AcDbLine
 10
-23.73081225216428
 20
-1.449384291416031
 30
0.0
 11
-23.63081225216428
 21
-1.499682480822031
 31
0.0
  0
LINE
  5
F10166
330
261
100
AcDbEntity
  8
Geo
100
AcDbLine
 10
-23.63081225216428
 20
-1.499682480822031
 30
0.0
 11
-23.53081225216429
 21
-1.546892162613929
 31
0.0
  0
LINE
  5
F10168
330
261
100
AcDbEntity
  8
Geo
100
AcDbLine
 10
-23.53081225216429
 20
-1.546892162613929
 30
0.0
 11
-23.43081225216428
 21
-1.590888026884933
 31
0.0
  0
LINE
  5
F1016A
330
261
100
AcDbEntity
  8
Geo
100
AcDbLine
 10
-23.43081225216428
 20
-1.590888026884933
 30
0.0
 11
-23.33081225216429
 21
-1.63155329424903
 31
0.0
  0
LINE
  5
F1016C
330
261
100
AcDbEntity
  8
Geo
100
AcDbLine
 10
-23.33081225216429
 20
-1.63155329424903
 30
0.0
 11
-23.23081225216428
 21
-1.668780025811528
 31
0.0
  0
LINE
  5
F1016E
330
261
100
AcDbEntity
  8
Geo
100
AcDbLine
 10
-23.23081225216428
 20
-1.668780025811528
 30
0.0
 11
-23.13081225216429
 21
-1.702469409674328
 31
0.0
  0
LINE
  5
F10170
330
261
100
AcDbEntity
  8
Geo
100
AcDbLine
 10
-23.13081225216429
 20
-1.702469409674328
 30
0.0
 11
-23.03081225216429
 21
-1.732532023215135
 31
0.0
  0
LINE
  5
F10172
330
261
100
AcDbEntity
  8
Geo
100
AcDbLine
 10
-23.03081225216429
 20
-1.732532023215135
 30
0.0
 11
-22.93081225216428
 21
-1.758888070443532
 31
0.0
  0
LINE
  5
F10174
330
261
100
AcDbEntity
  8
Geo
100
AcDbLine
 10
-22.93081225216428
 20
-1.758888070443532
 30
0.0
 11
-22.83081225216427
 21
-1.781467593806532
 31
0.0
  0
LINE
  5
F10176
330
261
100
AcDbEntity
  8
Geo
100
AcDbLine
 10
-22.83081225216427
 20
-1.781467593806532
 30
0.0
 11
-22.73081225216428
 21
-1.800210659878032
 31
0.0
  0
LINE
  5
F10178
330
261
100
AcDbEntity
  8
Geo
100
AcDbLine
 10
-22.73081225216428
 20
-1.800210659878032
 30
0.0
 11
-22.63081225216427
 21
-1.815067518442127
 31
0.0
  0
LINE
  5
F1017A
330
261
100
AcDbEntity
  8
Geo
100
AcDbLine
 10
-22.63081225216427
 20
-1.815067518442127
 30
0.0
 11
-22.53081225216428
 21
-1.825998734546224
 31
0.0
  0
LINE
  5
F1017C
330
261
100
AcDbEntity
  8
Geo
100
AcDbLine
 10
-22.53081225216428
 20
-1.825998734546224
 30
0.0
 11
-22.43081225216428
 21
-1.832975293174435
 31
0.0
  0
LINE
  5
F1017E
330
261
100
AcDbEntity
  8
Geo
100
AcDbLine
 10
-22.43081225216428
 20
-1.832975293174435
 30
0.0
 11
-22.33081225216427
 21
-1.835978676262534
 31
0.0
  0
LINE
  5
F10180
330
261
100
AcDbEntity
  8
Geo
100
AcDbLine
 10
-26.93081225216428
 20
-1.74627700129163
 30
0.0
 11
-26.83081225216429
 21
-1.826164319236632
 31
0.0
  0
LINE
  5
F10182
330
261
100
AcDbEntity
  8
Geo
100
AcDbLine
 10
-26.83081225216429
 20
-1.826164319236632
 30
0.0
 11
-26.73081225216428
 21
-1.833067268127535
 31
0.0
  0
LINE
  5
F10184
330
261
100
AcDbEntity
  8
Geo
100
AcDbLine
 10
-26.73081225216428
 20
-1.833067268127535
 30
0.0
 11
-26.63081225216429
 21
-1.83599679734683
 31
0.0
  0
LINE
  5
F10186
330
261
100
AcDbEntity
  8
Geo
100
AcDbLine
 10
-19.43081225216428
 20
1.163892413694568
 30
0.0
 11
-19.33081225216427
 21
1.163816414613172
 31
0.0
  0
LINE
  5
F10188
330
261
100
AcDbEntity
  8
Geo
100
AcDbLine
 10
-19.33081225216427
 20
1.163816414613172
 30
0.0
 11
-19.23081225216428
 21
1.163471081057174
 31
0.0
  0
LINE
  5
F1018A
330
261
100
AcDbEntity
  8
Geo
100
AcDbLine
 10
-19.23081225216428
 20
1.163471081057174
 30
0.0
 11
-19.13081225216427
 21
1.162907834654376
 31
0.0
  0
LINE
  5
F1018C
330
261
100
AcDbEntity
  8
Geo
100
AcDbLine
 10
-19.13081225216427
 20
1.162907834654376
 30
0.0
 11
-19.03081225216427
 21
1.162189000665165
 31
0.0
  0
LINE
  5
F1018E
330
261
100
AcDbEntity
  8
Geo
100
AcDbLine
 10
-19.03081225216427
 20
1.162189000665165
 30
0.0
 11
-18.93081225216428
 21
1.161371402608466
 31
0.0
  0
LINE
  5
F10190
330
261
100
AcDbEntity
  8
Geo
100
AcDbLine
 10
-18.93081225216428
 20
1.161371402608466
 30
0.0
 11
-18.83081225216427
 21
1.187240783283563
 31
0.0
  0
LINE
  5
F10192
330
261
100
AcDbEntity
  8
Geo
100
AcDbLine
 10
-18.83081225216427
 20
1.187240783283563
 30
0.0
 11
-18.73081225216427
 21
1.21307753724097
 31
0.0
  0
LINE
  5
F10194
330
261
100
AcDbEntity
  8
Geo
100
AcDbLine
 10
-18.73081225216427
 20
1.21307753724097
 30
0.0
 11
-18.63081225216427
 21
1.238924011241373
 31
0.0
  0
LINE
  5
F10196
330
261
100
AcDbEntity
  8
Geo
100
AcDbLine
 10
-18.63081225216427
 20
1.238924011241373
 30
0.0
 11
-18.53081225216427
 21
1.264819528147569
 31
0.0
  0
LINE
  5
F10198
330
261
100
AcDbEntity
  8
Geo
100
AcDbLine
 10
-18.53081225216427
 20
1.264819528147569
 30
0.0
 11
-18.43081225216428
 21
1.290799904934765
 31
0.0
  0
LINE
  5
F1019A
330
261
100
AcDbEntity
  8
Geo
100
AcDbLine
 10
-18.43081225216428
 20
1.290799904934765
 30
0.0
 11
-18.33081225216427
 21
1.316896972783069
 31
0.0
  0
LINE
  5
F1019C
330
261
100
AcDbEntity
  8
Geo
100
AcDbLine
 10
-18.33081225216427
 20
1.316896972783069
 30
0.0
 11
-18.23081225216428
 21
1.343138097967568
 31
0.0
  0
LINE
  5
F1019E
330
261
100
AcDbEntity
  8
Geo
100
AcDbLine
 10
-18.23081225216428
 20
1.343138097967568
 30
0.0
 11
-18.13081225216427
 21
1.369545702355068
 31
0.0
  0
LINE
  5
F101A0
330
261
100
AcDbEntity
  8
Geo
100
AcDbLine
 10
-18.13081225216427
 20
1.369545702355068
 30
0.0
 11
-18.03081225216427
 21
1.396136782437665
 31
0.0
  0
LINE
  5
F101A2
330
261
100
AcDbEntity
  8
Geo
100
AcDbLine
 10
-18.03081225216427
 20
1.396136782437665
 30
0.0
 11
-17.93081225216428
 21
1.422922426003168
 31
0.0
  0
LINE
  5
F101A4
330
261
100
AcDbEntity
  8
Geo
100
AcDbLine
 10
-22.33081225216427
 20
1.163763503651672
 30
0.0
 11
-22.23081225216428
 21
1.162785739240568
 31
0.0
  0
LINE
  5
F101A6
330
261
100
AcDbEntity
  8
Geo
100
AcDbLine
 10
-22.23081225216428
 20
1.162785739240568
 30
0.0
 11
-22.13081225216427
 21
1.157829422636268
 31
0.0
  0
LINE
  5
F101A8
330
261
100
AcDbEntity
  8
Geo
100
AcDbLine
 10
-22.13081225216427
 20
1.157829422636268
 30
0.0
 11
-22.03081225216427
 21
1.148907709520869
 31
0.0
  0
LINE
  5
F101AA
330
261
100
AcDbEntity
  8
Geo
100
AcDbLine
 10
-22.03081225216427
 20
1.148907709520869
 30
0.0
 11
-21.93081225216428
 21
1.136044281033569
 31
0.0
  0
LINE
  5
F101AC
330
261
100
AcDbEntity
  8
Geo
100
AcDbLine
 10
-21.93081225216428
 20
1.136044281033569
 30
0.0
 11
-21.83081225216427
 21
1.137381569330372
 31
0.0
  0
LINE
  5
F101AE
330
261
100
AcDbEntity
  8
Geo
100
AcDbLine
 10
-21.83081225216427
 20
1.137381569330372
 30
0.0
 11
-21.73081225216428
 21
1.138652633967467
 31
0.0
  0
LINE
  5
F101B0
330
261
100
AcDbEntity
  8
Geo
100
AcDbLine
 10
-21.73081225216428
 20
1.138652633967467
 30
0.0
 11
-21.63081225216427
 21
1.139859934356671
 31
0.0
  0
LINE
  5
F101B2
330
261
100
AcDbEntity
  8
Geo
100
AcDbLine
 10
-21.63081225216427
 20
1.139859934356671
 30
0.0
 11
-21.53081225216427
 21
1.141005868060169
 31
0.0
  0
LINE
  5
F101B4
330
261
100
AcDbEntity
  8
Geo
100
AcDbLine
 10
-21.53081225216427
 20
1.141005868060169
 30
0.0
 11
-21.43081225216428
 21
1.142092770357464
 31
0.0
  0
LINE
  5
F101B6
330
261
100
AcDbEntity
  8
Geo
100
AcDbLine
 10
-21.43081225216428
 20
1.142092770357464
 30
0.0
 11
-21.33081225216427
 21
1.14312291383937
 31
0.0
  0
LINE
  5
F101B8
330
261
100
AcDbEntity
  8
Geo
100
AcDbLine
 10
-21.33081225216427
 20
1.14312291383937
 30
0.0
 11
-21.23081225216428
 21
1.144098508026672
 31
0.0
  0
LINE
  5
F101BA
330
261
100
AcDbEntity
  8
Geo
100
AcDbLine
 10
-21.23081225216428
 20
1.144098508026672
 30
0.0
 11
-21.13081225216427
 21
1.145021699013668
 31
0.0
  0
LINE
  5
F101BC
330
261
100
AcDbEntity
  8
Geo
100
AcDbLine
 10
-21.13081225216427
 20
1.145021699013668
 30
0.0
 11
-21.03081225216428
 21
1.14589456913427
 31
0.0
  0
LINE
  5
F101BE
330
261
100
AcDbEntity
  8
Geo
100
AcDbLine
 10
-21.03081225216428
 20
1.14589456913427
 30
0.0
 11
-20.93081225216428
 21
1.146719136650368
 31
0.0
  0
LINE
  5
F101C0
330
261
100
AcDbEntity
  8
Geo
100
AcDbLine
 10
-20.93081225216428
 20
1.146719136650368
 30
0.0
 11
-20.83081225216427
 21
1.147497355460664
 31
0.0
  0
LINE
  5
F101C2
330
261
100
AcDbEntity
  8
Geo
100
AcDbLine
 10
-20.83081225216427
 20
1.147497355460664
 30
0.0
 11
-20.73081225216428
 21
1.148231114829769
 31
0.0
  0
LINE
  5
F101C4
330
261
100
AcDbEntity
  8
Geo
100
AcDbLine
 10
-20.73081225216428
 20
1.148231114829769
 30
0.0
 11
-20.63081225216427
 21
1.148922239135565
 31
0.0
  0
LINE
  5
F101C6
330
261
100
AcDbEntity
  8
Geo
100
AcDbLine
 10
-20.63081225216427
 20
1.148922239135565
 30
0.0
 11
-20.53081225216427
 21
1.149572487635268
 31
0.0
  0
LINE
  5
F101C8
330
261
100
AcDbEntity
  8
Geo
100
AcDbLine
 10
-20.53081225216427
 20
1.149572487635268
 30
0.0
 11
-20.43081225216428
 21
1.150183554247071
 31
0.0
  0
LINE
  5
F101CA
330
261
100
AcDbEntity
  8
Geo
100
AcDbLine
 10
-20.43081225216428
 20
1.150183554247071
 30
0.0
 11
-20.33081225216427
 21
1.150757067348671
 31
0.0
  0
LINE
  5
F101CC
330
261
100
AcDbEntity
  8
Geo
100
AcDbLine
 10
-20.33081225216427
 20
1.150757067348671
 30
0.0
 11
-20.23081225216428
 21
1.151294589590769
 31
0.0
  0
LINE
  5
F101CE
330
261
100
AcDbEntity
  8
Geo
100
AcDbLine
 10
-20.23081225216428
 20
1.151294589590769
 30
0.0
 11
-20.13081225216427
 21
1.151797617724568
 31
0.0
  0
LINE
  5
F101D0
330
261
100
AcDbEntity
  8
Geo
100
AcDbLine
 10
-20.13081225216427
 20
1.151797617724568
 30
0.0
 11
-20.03081225216428
 21
1.15226758244227
 31
0.0
  0
LINE
  5
F101D2
330
261
100
AcDbEntity
  8
Geo
100
AcDbLine
 10
-20.03081225216428
 20
1.15226758244227
 30
0.0
 11
-19.93081225216428
 21
1.152705848230965
 31
0.0
  0
LINE
  5
F101D4
330
261
100
AcDbEntity
  8
Geo
100
AcDbLine
 10
-19.93081225216428
 20
1.152705848230965
 30
0.0
 11
-19.83081225216427
 21
1.153113713238063
 31
0.0
  0
LINE
  5
F101D6
330
261
100
AcDbEntity
  8
Geo
100
AcDbLine
 10
-19.83081225216427
 20
1.153113713238063
 30
0.0
 11
-19.73081225216428
 21
1.153492409147567
 31
0.0
  0
LINE
  5
F101D8
330
261
100
AcDbEntity
  8
Geo
100
AcDbLine
 10
-19.73081225216428
 20
1.153492409147567
 30
0.0
 11
-19.63081225216427
 21
1.153843101067067
 31
0.0
  0
LINE
  5
F101DA
330
261
100
AcDbEntity
  8
Geo
100
AcDbLine
 10
-19.63081225216427
 20
1.153843101067067
 30
0.0
 11
-19.53081225216427
 21
1.154166887424565
 31
0.0
  0
LINE
  5
F101DC
330
261
100
AcDbEntity
  8
Geo
100
AcDbLine
 10
-19.53081225216427
 20
1.154166887424565
 30
0.0
 11
-19.43081225216428
 21
1.154464799874368
 31
0.0
  0
LINE
  5
F101DE
330
261
100
AcDbEntity
  8
Geo
100
AcDbLine
 10
-19.43081225216428
 20
1.154464799874368
 30
0.0
 11
-19.33081225216427
 21
1.154737803211965
 31
0.0
  0
LINE
  5
F101E0
330
261
100
AcDbEntity
  8
Geo
100
AcDbLine
 10
-19.33081225216427
 20
1.154737803211965
 30
0.0
 11
-19.23081225216428
 21
1.154986795296274
 31
0.0
  0
LINE
  5
F101E2
330
261
100
AcDbEntity
  8
Geo
100
AcDbLine
 10
-19.23081225216428
 20
1.154986795296274
 30
0.0
 11
-19.13081225216427
 21
1.155212606980171
 31
0.0
  0
LINE
  5
F101E4
330
261
100
AcDbEntity
  8
Geo
100
AcDbLine
 10
-19.13081225216427
 20
1.155212606980171
 30
0.0
 11
-19.03081225216427
 21
1.155416002047566
 31
0.0
  0
LINE
  5
F101E6
330
261
100
AcDbEntity
  8
Geo
100
AcDbLine
 10
-19.03081225216427
 20
1.155416002047566
 30
0.0
 11
-18.93081225216428
 21
1.155597677157871
 31
0.0
  0
LINE
  5
F101E8
330
261
100
AcDbEntity
  8
Geo
100
AcDbLine
 10
-18.93081225216428
 20
1.155597677157871
 30
0.0
 11
-18.83081225216427
 21
1.182407878409968
 31
0.0
  0
LINE
  5
F101EA
330
261
100
AcDbEntity
  8
Geo
100
AcDbLine
 10
-18.83081225216427
 20
1.182407878409968
 30
0.0
 11
-18.73081225216427
 21
1.209202555190373
 31
0.0
  0
LINE
  5
F101EC
330
261
100
AcDbEntity
  8
Geo
100
AcDbLine
 10
-18.73081225216427
 20
1.209202555190373
 30
0.0
 11
-18.63081225216427
 21
1.235981128932969
 31
0.0
  0
LINE
  5
F101EE
330
261
100
AcDbEntity
  8
Geo
100
AcDbLine
 10
-18.63081225216427
 20
1.235981128932969
 30
0.0
 11
-18.53081225216427
 21
1.262742984343965
 31
0.0
  0
LINE
  5
F101F0
330
261
100
AcDbEntity
  8
Geo
100
AcDbLine
 10
-18.53081225216427
 20
1.262742984343965
 30
0.0
 11
-18.43081225216428
 21
1.289487463361375
 31
0.0
  0
LINE
  5
F101F2
330
261
100
AcDbEntity
  8
Geo
100
AcDbLine
 10
-18.43081225216428
 20
1.289487463361375
 30
0.0
 11
-18.33081225216427
 21
1.316213859116373
 31
0.0
  0
LINE
  5
F101F4
330
261
100
AcDbEntity
  8
Geo
100
AcDbLine
 10
-18.33081225216427
 20
1.316213859116373
 30
0.0
 11
-18.23081225216428
 21
1.342921409898167
 31
0.0
  0
LINE
  5
F101F6
330
261
100
AcDbEntity
  8
Geo
100
AcDbLine
 10
-18.23081225216428
 20
1.342921409898167
 30
0.0
 11
-18.13081225216427
 21
1.369609293120966
 31
0.0
  0
LINE
  5
F101F8
330
261
100
AcDbEntity
  8
Geo
100
AcDbLine
 10
-18.13081225216427
 20
1.369609293120966
 30
0.0
 11
-18.03081225216427
 21
1.39627661929537
 31
0.0
  0
LINE
  5
F101FA
330
261
100
AcDbEntity
  8
Geo
100
AcDbLine
 10
-18.03081225216427
 20
1.39627661929537
 30
0.0
 11
-17.93081225216428
 21
1.422922426003168
 31
0.0
  0
LINE
  5
F101FC
330
261
100
AcDbEntity
  8
Geo
100
AcDbLine
 10
-26.93081225216428
 20
-0.0601842919446298
 30
0.0
 11
-26.83081225216429
 21
-0.1156728136105301
 31
0.0
  0
LINE
  5
F101FE
330
261
100
AcDbEntity
  8
Geo
100
AcDbLine
 10
-26.83081225216429
 20
-0.1156728136105301
 30
0.0
 11
-26.73081225216428
 21
-0.1851483253966322
 31
0.0
  0
LINE
  5
F10200
330
261
100
AcDbEntity
  8
Geo
100
AcDbLine
 10
-26.73081225216428
 20
-0.1851483253966322
 30
0.0
 11
-26.63081225216429
 21
-0.2549527281469324
 31
0.0
  0
LINE
  5
F10202
330
261
100
AcDbEntity
  8
Geo
100
AcDbLine
 10
-26.63081225216429
 20
-0.2549527281469324
 30
0.0
 11
-26.53081225216429
 21
-0.3249339408483323
 31
0.0
  0
LINE
  5
F10204
330
261
100
AcDbEntity
  8
Geo
100
AcDbLine
 10
-26.53081225216429
 20
-0.3249339408483323
 30
0.0
 11
-26.43081225216428
 21
-0.3949394972767308
 31
0.0
  0
LINE
  5
F10206
330
261
100
AcDbEntity
  8
Geo
100
AcDbLine
 10
-26.43081225216428
 20
-0.3949394972767308
 30
0.0
 11
-26.33081225216429
 21
-0.4648168781708293
 31
0.0
  0
LINE
  5
F10208
330
261
100
AcDbEntity
  8
Geo
100
AcDbLine
 10
-26.33081225216429
 20
-0.4648168781708293
 30
0.0
 11
-26.23081225216428
 21
-0.5344138435220316
 31
0.0
  0
LINE
  5
F1020A
330
261
100
AcDbEntity
  8
Geo
100
AcDbLine
 10
-26.23081225216428
 20
-0.5344138435220316
 30
0.0
 11
-26.13081225216428
 21
-0.6035787642557296
 31
0.0
  0
LINE
  5
F1020C
330
261
100
AcDbEntity
  8
Geo
100
AcDbLine
 10
-26.13081225216428
 20
-0.6035787642557296
 30
0.0
 11
-26.03081225216429
 21
-0.6721609525814359
 31
0.0
  0
LINE
  5
F1020E
330
261
100
AcDbEntity
  8
Geo
100
AcDbLine
 10
-26.03081225216429
 20
-0.6721609525814359
 30
0.0
 11
-25.93081225216428
 21
-0.7400109902925323
 31
0.0
  0
LINE
  5
F10210
330
261
100
AcDbEntity
  8
Geo
100
AcDbLine
 10
-25.93081225216428
 20
-0.7400109902925323
 30
0.0
 11
-25.83081225216429
 21
-0.8069810542995341
 31
0.0
  0
LINE
  5
F10212
330
261
100
AcDbEntity
  8
Geo
100
AcDbLine
 10
-25.83081225216429
 20
-0.8069810542995341
 30
0.0
 11
-25.73081225216428
 21
-0.8729252386887296
 31
0.0
  0
LINE
  5
F10214
330
261
100
AcDbEntity
  8
Geo
100
AcDbLine
 10
-25.73081225216428
 20
-0.8729252386887296
 30
0.0
 11
-25.63081225216429
 21
-0.9376998726028276
 31
0.0
  0
LINE
  5
F10216
330
261
100
AcDbEntity
  8
Geo
100
AcDbLine
 10
-25.63081225216429
 20
-0.9376998726028276
 30
0.0
 11
-25.53081225216429
 21
-1.001163833253933
 31
0.0
  0
LINE
  5
F10218
330
261
100
AcDbEntity
  8
Geo
100
AcDbLine
 10
-25.53081225216429
 20
-1.001163833253933
 30
0.0
 11
-25.43081225216428
 21
-1.063178853382929
 31
0.0
  0
LINE
  5
F1021A
330
261
100
AcDbEntity
  8
Geo
100
AcDbLine
 10
-25.43081225216428
 20
-1.063178853382929
 30
0.0
 11
-25.33081225216429
 21
-1.123609822499531
 31
0.0
  0
LINE
  5
F1021C
330
261
100
AcDbEntity
  8
Geo
100
AcDbLine
 10
-25.33081225216429
 20
-1.123609822499531
 30
0.0
 11
-25.23081225216428
 21
-1.182325081243732
 31
0.0
  0
LINE
  5
F1021E
330
261
100
AcDbEntity
  8
Geo
100
AcDbLine
 10
-25.23081225216428
 20
-1.182325081243732
 30
0.0
 11
-25.13081225216428
 21
-1.239196708228128
 31
0.0
  0
LINE
  5
F10220
330
261
100
AcDbEntity
  8
Geo
100
AcDbLine
 10
-25.13081225216428
 20
-1.239196708228128
 30
0.0
 11
-25.03081225216429
 21
-1.294100798737531
 31
0.0
  0
LINE
  5
F10222
330
261
100
AcDbEntity
  8
Geo
100
AcDbLine
 10
-25.03081225216429
 20
-1.294100798737531
 30
0.0
 11
-24.93081225216428
 21
-1.346917734676729
 31
0.0
  0
LINE
  5
F10224
330
261
100
AcDbEntity
  8
Geo
100
AcDbLine
 10
-24.93081225216428
 20
-1.346917734676729
 30
0.0
 11
-24.83081225216429
 21
-1.397532445178931
 31
0.0
  0
LINE
  5
F10226
330
261
100
AcDbEntity
  8
Geo
100
AcDbLine
 10
-24.83081225216429
 20
-1.397532445178931
 30
0.0
 11
-24.73081225216428
 21
-1.445834657307933
 31
0.0
  0
LINE
  5
F10228
330
261
100
AcDbEntity
  8
Geo
100
AcDbLine
 10
-24.73081225216428
 20
-1.445834657307933
 30
0.0
 11
-24.63081225216428
 21
-1.491719136307033
 31
0.0
  0
LINE
  5
F1022A
330
261
100
AcDbEntity
  8
Geo
100
AcDbLine
 10
-24.63081225216428
 20
-1.491719136307033
 30
0.0
 11
-24.53081225216429
 21
-1.535085914870627
 31
0.0
  0
LINE
  5
F1022C
330
261
100
AcDbEntity
  8
Geo
100
AcDbLine
 10
-24.53081225216429
 20
-1.535085914870627
 30
0.0
 11
-24.43081225216428
 21
-1.575840510941027
 31
0.0
  0
LINE
  5
F1022E
330
261
100
AcDbEntity
  8
Geo
100
AcDbLine
 10
-24.43081225216428
 20
-1.575840510941027
 30
0.0
 11
-24.33081225216429
 21
-1.613894133553635
 31
0.0
  0
LINE
  5
F10230
330
261
100
AcDbEntity
  8
Geo
100
AcDbLine
 10
-24.33081225216429
 20
-1.613894133553635
 30
0.0
 11
-24.23081225216428
 21
-1.649163876283331
 31
0.0
  0
LINE
  5
F10232
330
261
100
AcDbEntity
  8
Geo
100
AcDbLine
 10
-24.23081225216428
 20
-1.649163876283331
 30
0.0
 11
-24.13081225216429
 21
-1.681572897871134
 31
0.0
  0
LINE
  5
F10234
330
261
100
AcDbEntity
  8
Geo
100
AcDbLine
 10
-24.13081225216429
 20
-1.681572897871134
 30
0.0
 11
-24.03081225216429
 21
-1.711050589635533
 31
0.0
  0
LINE
  5
F10236
330
261
100
AcDbEntity
  8
Geo
100
AcDbLine
 10
-24.03081225216429
 20
-1.711050589635533
 30
0.0
 11
-23.93081225216428
 21
-1.737532729306131
 31
0.0
  0
LINE
  5
F10238
330
261
100
AcDbEntity
  8
Geo
100
AcDbLine
 10
-23.93081225216428
 20
-1.737532729306131
 30
0.0
 11
-23.83081225216429
 21
-1.760961620943135
 31
0.0
  0
LINE
  5
F1023A
330
261
100
AcDbEntity
  8
Geo
100
AcDbLine
 10
-23.83081225216429
 20
-1.760961620943135
 30
0.0
 11
-23.73081225216428
 21
-1.781286220637532
 31
0.0
  0
LINE
  5
F1023C
330
261
100
AcDbEntity
  8
Geo
100
AcDbLine
 10
-23.73081225216428
 20
-1.781286220637532
 30
0.0
 11
-23.63081225216428
 21
-1.798462247719434
 31
0.0
  0
LINE
  5
F1023E
330
261
100
AcDbEntity
  8
Geo
100
AcDbLine
 10
-23.63081225216428
 20
-1.798462247719434
 30
0.0
 11
-23.53081225216429
 21
-1.812452281231429
 31
0.0
  0
LINE
  5
F10240
330
261
100
AcDbEntity
  8
Geo
100
AcDbLine
 10
-23.53081225216429
 20
-1.812452281231429
 30
0.0
 11
-23.43081225216428
 21
-1.823225841455929
 31
0.0
  0
LINE
  5
F10242
330
261
100
AcDbEntity
  8
Geo
100
AcDbLine
 10
-23.43081225216428
 20
-1.823225841455929
 30
0.0
 11
-23.33081225216429
 21
-1.830759456321132
 31
0.0
  0
LINE
  5
F10244
330
261
100
AcDbEntity
  8
Geo
100
AcDbLine
 10
-23.33081225216429
 20
-1.830759456321132
 30
0.0
 11
-23.23081225216428
 21
-1.835036712538936
 31
0.0
  0
LINE
  5
F10246
330
261
100
AcDbEntity
  8
Geo
100
AcDbLine
 10
-26.93081225216428
 20
-1.290640122323729
 30
0.0
 11
-26.83081225216429
 21
-1.388393659362229
 31
0.0
  0
LINE
  5
F10248
330
261
100
AcDbEntity
  8
Geo
100
AcDbLine
 10
-26.83081225216429
 20
-1.388393659362229
 30
0.0
 11
-26.73081225216428
 21
-1.437129239563333
 31
0.0
  0
LINE
  5
F1024A
330
261
100
AcDbEntity
  8
Geo
100
AcDbLine
 10
-26.73081225216428
 20
-1.437129239563333
 30
0.0
 11
-26.63081225216429
 21
-1.483466052898734
 31
0.0
  0
LINE
  5
F1024C
330
261
100
AcDbEntity
  8
Geo
100
AcDbLine
 10
-26.63081225216429
 20
-1.483466052898734
 30
0.0
 11
-26.53081225216429
 21
-1.527303146574134
 31
0.0
  0
LINE
  5
F1024E
330
261
100
AcDbEntity
  8
Geo
100
AcDbLine
 10
-26.53081225216429
 20
-1.527303146574134
 30
0.0
 11
-26.43081225216428
 21
-1.56854501386843
 31
0.0
  0
LINE
  5
F10250
330
261
100
AcDbEntity
  8
Geo
100
AcDbLine
 10
-26.43081225216428
 20
-1.56854501386843
 30
0.0
 11
-26.33081225216429
 21
-1.607101802212227
 31
0.0
  0
LINE
  5
F10252
330
261
100
AcDbEntity
  8
Geo
100
AcDbLine
 10
-26.33081225216429
 20
-1.607101802212227
 30
0.0
 11
-26.23081225216428
 21
-1.642889508946431
 31
0.0
  0
LINE
  5
F10254
330
261
100
AcDbEntity
  8
Geo
100
AcDbLine
 10
-26.23081225216428
 20
-1.642889508946431
 30
0.0
 11
-26.13081225216428
 21
-1.675830164337533
 31
0.0
  0
LINE
  5
F10256
330
261
100
AcDbEntity
  8
Geo
100
AcDbLine
 10
-26.13081225216428
 20
-1.675830164337533
 30
0.0
 11
-26.03081225216429
 21
-1.705852001447532
 31
0.0
  0
LINE
  5
F10258
330
261
100
AcDbEntity
  8
Geo
100
AcDbLine
 10
-26.03081225216429
 20
-1.705852001447532
 30
0.0
 11
-25.93081225216428
 21
-1.732889612490829
 31
0.0
  0
LINE
  5
F1025A
330
261
100
AcDbEntity
  8
Geo
100
AcDbLine
 10
-25.93081225216428
 20
-1.732889612490829
 30
0.0
 11
-25.83081225216429
 21
-1.756884091336729
 31
0.0
  0
LINE
  5
F1025C
330
261
100
AcDbEntity
  8
Geo
100
AcDbLine
 10
-25.83081225216429
 20
-1.756884091336729
 30
0.0
 11
-25.73081225216428
 21
-1.777783161846336
 31
0.0
  0
LINE
  5
F1025E
330
261
100
AcDbEntity
  8
Geo
100
AcDbLine
 10
-25.73081225216428
 20
-1.777783161846336
 30
0.0
 11
-25.63081225216429
 21
-1.795541291765431
 31
0.0
  0
LINE
  5
F10260
330
261
100
AcDbEntity
  8
Geo
100
AcDbLine
 10
-25.63081225216429
 20
-1.795541291765431
 30
0.0
 11
-25.53081225216429
 21
-1.810119791924229
 31
0.0
  0
LINE
  5
F10262
330
261
100
AcDbEntity
  8
Geo
100
AcDbLine
 10
-25.53081225216429
 20
-1.810119791924229
 30
0.0
 11
-25.43081225216428
 21
-1.821486900528633
 31
0.0
  0
LINE
  5
F10264
330
261
100
AcDbEntity
  8
Geo
100
AcDbLine
 10
-25.43081225216428
 20
-1.821486900528633
 30
0.0
 11
-25.33081225216429
 21
-1.82961785235863
 31
0.0
  0
LINE
  5
F10266
330
261
100
AcDbEntity
  8
Geo
100
AcDbLine
 10
-25.33081225216429
 20
-1.82961785235863
 30
0.0
 11
-25.23081225216428
 21
-1.834494932723529
 31
0.0
  0
LINE
  5
F10268
330
261
100
AcDbEntity
  8
Geo
100
AcDbLine
 10
-23.23081225216428
 20
1.162821539928067
 30
0.0
 11
-23.13081225216429
 21
1.163833118752968
 31
0.0
  0
LINE
  5
F1026A
330
261
100
AcDbEntity
  8
Geo
100
AcDbLine
 10
-23.13081225216429
 20
1.163833118752968
 30
0.0
 11
-23.03081225216429
 21
1.161576816284963
 31
0.0
  0
LINE
  5
F1026C
330
261
100
AcDbEntity
  8
Geo
100
AcDbLine
 10
-23.03081225216429
 20
1.161576816284963
 30
0.0
 11
-22.93081225216428
 21
1.156057548270567
 31
0.0
  0
LINE
  5
F1026E
330
261
100
AcDbEntity
  8
Geo
100
AcDbLine
 10
-22.93081225216428
 20
1.156057548270567
 30
0.0
 11
-22.83081225216427
 21
1.14728733939377
 31
0.0
  0
LINE
  5
F10270
330
261
100
AcDbEntity
  8
Geo
100
AcDbLine
 10
-22.83081225216427
 20
1.14728733939377
 30
0.0
 11
-22.73081225216428
 21
1.135285297077466
 31
0.0
  0
LINE
  5
F10272
330
261
100
AcDbEntity
  8
Geo
100
AcDbLine
 10
-22.73081225216428
 20
1.135285297077466
 30
0.0
 11
-22.63081225216427
 21
1.120077569855169
 31
0.0
  0
LINE
  5
F10274
330
261
100
AcDbEntity
  8
Geo
100
AcDbLine
 10
-22.63081225216427
 20
1.120077569855169
 30
0.0
 11
-22.53081225216428
 21
1.101697290401268
 31
0.0
  0
LINE
  5
F10276
330
261
100
AcDbEntity
  8
Geo
100
AcDbLine
 10
-22.53081225216428
 20
1.101697290401268
 30
0.0
 11
-22.43081225216428
 21
1.080184503346373
 31
0.0
  0
LINE
  5
F10278
330
261
100
AcDbEntity
  8
Geo
100
AcDbLine
 10
-22.43081225216428
 20
1.080184503346373
 30
0.0
 11
-22.33081225216427
 21
1.055586078032966
 31
0.0
  0
LINE
  5
F1027A
330
261
100
AcDbEntity
  8
Geo
100
AcDbLine
 10
-22.33081225216427
 20
1.055586078032966
 30
0.0
 11
-22.23081225216428
 21
1.027955606401967
 31
0.0
  0
LINE
  5
F1027C
330
261
100
AcDbEntity
  8
Geo
100
AcDbLine
 10
-22.23081225216428
 20
1.027955606401967
 30
0.0
 11
-22.13081225216427
 21
0.9973532862339666
 31
0.0
  0
LINE
  5
F1027E
330
261
100
AcDbEntity
  8
Geo
100
AcDbLine
 10
-22.13081225216427
 20
0.9973532862339666
 30
0.0
 11
-22.03081225216427
 21
0.9638457899975705
 31
0.0
  0
LINE
  5
F10280
330
261
100
AcDbEntity
  8
Geo
100
AcDbLine
 10
-22.03081225216427
 20
0.9638457899975705
 30
0.0
 11
-21.93081225216428
 21
0.9275061195919676
 31
0.0
  0
LINE
  5
F10282
330
261
100
AcDbEntity
  8
Geo
100
AcDbLine
 10
-21.93081225216428
 20
0.9275061195919676
 30
0.0
 11
-21.83081225216427
 21
0.8955354471916692
 31
0.0
  0
LINE
  5
F10284
330
261
100
AcDbEntity
  8
Geo
100
AcDbLine
 10
-21.83081225216427
 20
0.8955354471916692
 30
0.0
 11
-21.73081225216428
 21
0.8625621103069676
 31
0.0
  0
LINE
  5
F10286
330
261
100
AcDbEntity
  8
Geo
100
AcDbLine
 10
-21.73081225216428
 20
0.8625621103069676
 30
0.0
 11
-21.63081225216427
 21
0.8287558929246685
 31
0.0
  0
LINE
  5
F10288
330
261
100
AcDbEntity
  8
Geo
100
AcDbLine
 10
-21.63081225216427
 20
0.8287558929246685
 30
0.0
 11
-21.53081225216427
 21
0.7942792168694695
 31
0.0
  0
LINE
  5
F1028A
330
261
100
AcDbEntity
  8
Geo
100
AcDbLine
 10
-21.53081225216427
 20
0.7942792168694695
 30
0.0
 11
-21.43081225216428
 21
0.7592869697957667
 31
0.0
  0
LINE
  5
F1028C
330
261
100
AcDbEntity
  8
Geo
100
AcDbLine
 10
-21.43081225216428
 20
0.7592869697957667
 30
0.0
 11
-21.33081225216427
 21
0.7239263978433712
 31
0.0
  0
LINE
  5
F1028E
330
261
100
AcDbEntity
  8
Geo
100
AcDbLine
 10
-21.33081225216427
 20
0.7239263978433712
 30
0.0
 11
-21.23081225216428
 21
0.6883370573820713
 31
0.0
  0
LINE
  5
F10290
330
261
100
AcDbEntity
  8
Geo
100
AcDbLine
 10
-21.23081225216428
 20
0.6883370573820713
 30
0.0
 11
-21.13081225216427
 21
0.6526508203794706
 31
0.0
  0
LINE
  5
F10292
330
261
100
AcDbEntity
  8
Geo
100
AcDbLine
 10
-21.13081225216427
 20
0.6526508203794706
 30
0.0
 11
-21.03081225216428
 21
0.6169919280740715
 31
0.0
  0
LINE
  5
F10294
330
261
100
AcDbEntity
  8
Geo
100
AcDbLine
 10
-21.03081225216428
 20
0.6169919280740715
 30
0.0
 11
-20.93081225216428
 21
0.5814770878090627
 31
0.0
  0
LINE
  5
F10296
330
261
100
AcDbEntity
  8
Geo
100
AcDbLine
 10
-20.93081225216428
 20
0.5814770878090627
 30
0.0
 11
-20.83081225216427
 21
0.5462156080861718
 31
0.0
  0
LINE
  5
F10298
330
261
100
AcDbEntity
  8
Geo
100
AcDbLine
 10
-20.83081225216427
 20
0.5462156080861718
 30
0.0
 11
-20.73081225216428
 21
0.5113095671126687
 31
0.0
  0
LINE
  5
F1029A
330
261
100
AcDbEntity
  8
Geo
100
AcDbLine
 10
-20.73081225216428
 20
0.5113095671126687
 30
0.0
 11
-20.63081225216427
 21
0.4768540103530654
 31
0.0
  0
LINE
  5
F1029C
330
261
100
AcDbEntity
  8
Geo
100
AcDbLine
 10
-20.63081225216427
 20
0.4768540103530654
 30
0.0
 11
-20.53081225216427
 21
0.4429371728368637
 31
0.0
  0
LINE
  5
F1029E
330
261
100
AcDbEntity
  8
Geo
100
AcDbLine
 10
-20.53081225216427
 20
0.4429371728368637
 30
0.0
 11
-20.43081225216428
 21
0.4096407222262713
 31
0.0
  0
LINE
  5
F102A0
330
261
100
AcDbEntity
  8
Geo
100
AcDbLine
 10
-20.43081225216428
 20
0.4096407222262713
 30
0.0
 11
-20.33081225216427
 21
0.3770400189021643
 31
0.0
  0
LINE
  5
F102A2
330
261
100
AcDbEntity
  8
Geo
100
AcDbLine
 10
-20.33081225216427
 20
0.3770400189021643
 30
0.0
 11
-20.23081225216428
 21
0.3452043895789743
 31
0.0
  0
LINE
  5
F102A4
330
261
100
AcDbEntity
  8
Geo
100
AcDbLine
 10
-20.23081225216428
 20
0.3452043895789743
 30
0.0
 11
-20.13081225216427
 21
0.3141974112132715
 31
0.0
  0
LINE
  5
F102A6
330
261
100
AcDbEntity
  8
Geo
100
AcDbLine
 10
-20.13081225216427
 20
0.3141974112132715
 30
0.0
 11
-20.03081225216428
 21
0.2840772022189739
 31
0.0
  0
LINE
  5
F102A8
330
261
100
AcDbEntity
  8
Geo
100
AcDbLine
 10
-20.03081225216428
 20
0.2840772022189739
 30
0.0
 11
-19.93081225216428
 21
0.2548967182413691
 31
0.0
  0
LINE
  5
F102AA
330
261
100
AcDbEntity
  8
Geo
100
AcDbLine
 10
-19.93081225216428
 20
0.2548967182413691
 30
0.0
 11
-19.83081225216427
 21
0.2267040499801709
 31
0.0
  0
LINE
  5
F102AC
330
261
100
AcDbEntity
  8
Geo
100
AcDbLine
 10
-19.83081225216427
 20
0.2267040499801709
 30
0.0
 11
-19.73081225216428
 21
0.1995427207713689
 31
0.0
  0
LINE
  5
F102AE
330
261
100
AcDbEntity
  8
Geo
100
AcDbLine
 10
-19.73081225216428
 20
0.1995427207713689
 30
0.0
 11
-19.63081225216427
 21
0.1734519818585696
 31
0.0
  0
LINE
  5
F102B0
330
261
100
AcDbEntity
  8
Geo
100
AcDbLine
 10
-19.63081225216427
 20
0.1734519818585696
 30
0.0
 11
-19.53081225216427
 21
0.1484671034810674
 31
0.0
  0
LINE
  5
F102B2
330
261
100
AcDbEntity
  8
Geo
100
AcDbLine
 10
-19.53081225216427
 20
0.1484671034810674
 30
0.0
 11
-19.43081225216428
 21
0.1246196601042726
 31
0.0
  0
LINE
  5
F102B4
330
261
100
AcDbEntity
  8
Geo
100
AcDbLine
 10
-19.43081225216428
 20
0.1246196601042726
 30
0.0
 11
-19.33081225216427
 21
0.1019378082932718
 31
0.0
  0
LINE
  5
F102B6
330
261
100
AcDbEntity
  8
Geo
100
AcDbLine
 10
-19.33081225216427
 20
0.1019378082932718
 30
0.0
 11
-19.23081225216428
 21
0.080446555900565
 31
0.0
  0
LINE
  5
F102B8
330
261
100
AcDbEntity
  8
Geo
100
AcDbLine
 10
-19.23081225216428
 20
0.080446555900565
 30
0.0
 11
-19.13081225216427
 21
0.0601680213934728
 31
0.0
  0
LINE
  5
F102BA
330
261
100
AcDbEntity
  8
Geo
100
AcDbLine
 10
-19.13081225216427
 20
0.0601680213934728
 30
0.0
 11
-19.03081225216427
 21
0.0411216822891731
 31
0.0
  0
LINE
  5
F102BC
330
261
100
AcDbEntity
  8
Geo
100
AcDbLine
 10
-19.03081225216427
 20
0.0411216822891731
 30
0.0
 11
-18.93081225216428
 21
0.0233246117977686
 31
0.0
  0
LINE
  5
F102BE
330
261
100
AcDbEntity
  8
Geo
100
AcDbLine
 10
-18.93081225216428
 20
0.0233246117977686
 30
0.0
 11
-18.83081225216427
 21
0.0129170087325648
 31
0.0
  0
LINE
  5
F102C0
330
261
100
AcDbEntity
  8
Geo
100
AcDbLine
 10
-18.83081225216427
 20
0.0129170087325648
 30
0.0
 11
-18.73081225216427
 21
0.0032414527186688
 31
0.0
  0
LINE
  5
F102C2
330
261
100
AcDbEntity
  8
Geo
100
AcDbLine
 10
-18.73081225216427
 20
0.0032414527186688
 30
0.0
 11
-18.63081225216427
 21
-0.0056218687353322
 31
0.0
  0
LINE
  5
F102C4
330
261
100
AcDbEntity
  8
Geo
100
AcDbLine
 10
-18.63081225216427
 20
-0.0056218687353322
 30
0.0
 11
-18.53081225216427
 21
-0.0135936746675327
 31
0.0
  0
LINE
  5
F102C6
330
261
100
AcDbEntity
  8
Geo
100
AcDbLine
 10
-18.53081225216427
 20
-0.0135936746675327
 30
0.0
 11
-18.43081225216428
 21
-0.020595549697731
 31
0.0
  0
LINE
  5
F102C8
330
261
100
AcDbEntity
  8
Geo
100
AcDbLine
 10
-18.43081225216428
 20
-0.020595549697731
 30
0.0
 11
-18.33081225216427
 21
-0.0265499017522259
 31
0.0
  0
LINE
  5
F102CA
330
261
100
AcDbEntity
  8
Geo
100
AcDbLine
 10
-18.33081225216427
 20
-0.0265499017522259
 30
0.0
 11
-18.23081225216428
 21
-0.0313799206859287
 31
0.0
  0
LINE
  5
F102CC
330
261
100
AcDbEntity
  8
Geo
100
AcDbLine
 10
-18.23081225216428
 20
-0.0313799206859287
 30
0.0
 11
-18.13081225216427
 21
-0.0350095399936308
 31
0.0
  0
LINE
  5
F102CE
330
261
100
AcDbEntity
  8
Geo
100
AcDbLine
 10
-18.13081225216427
 20
-0.0350095399936308
 30
0.0
 11
-18.03081225216427
 21
-0.0373634037811357
 31
0.0
  0
LINE
  5
F102D0
330
261
100
AcDbEntity
  8
Geo
100
AcDbLine
 10
-18.03081225216427
 20
-0.0373634037811357
 30
0.0
 11
-17.93081225216428
 21
-0.0383668411532341
 31
0.0
  0
LINE
  5
F102D2
330
261
100
AcDbEntity
  8
Geo
100
AcDbLine
 10
-25.23081225216428
 20
1.162279760112667
 30
0.0
 11
-25.13081225216428
 21
1.163892343446171
 31
0.0
  0
LINE
  5
F102D4
330
261
100
AcDbEntity
  8
Geo
100
AcDbLine
 10
-25.13081225216428
 20
1.163892343446171
 30
0.0
 11
-25.03081225216429
 21
1.16223691645537
 31
0.0
  0
LINE
  5
F102D6
330
261
100
AcDbEntity
  8
Geo
100
AcDbLine
 10
-25.03081225216429
 20
1.16223691645537
 30
0.0
 11
-24.93081225216428
 21
1.157317085775467
 31
0.0
  0
LINE
  5
F102D8
330
261
100
AcDbEntity
  8
Geo
100
AcDbLine
 10
-24.93081225216428
 20
1.157317085775467
 30
0.0
 11
-24.83081225216429
 21
1.149143570111966
 31
0.0
  0
LINE
  5
F102DA
330
261
100
AcDbEntity
  8
Geo
100
AcDbLine
 10
-24.83081225216429
 20
1.149143570111966
 30
0.0
 11
-24.73081225216428
 21
1.137734176888066
 31
0.0
  0
LINE
  5
F102DC
330
261
100
AcDbEntity
  8
Geo
100
AcDbLine
 10
-24.73081225216428
 20
1.137734176888066
 30
0.0
 11
-24.63081225216428
 21
1.123113763448067
 31
0.0
  0
LINE
  5
F102DE
330
261
100
AcDbEntity
  8
Geo
100
AcDbLine
 10
-24.63081225216428
 20
1.123113763448067
 30
0.0
 11
-24.53081225216429
 21
1.105314182901565
 31
0.0
  0
LINE
  5
F102E0
330
261
100
AcDbEntity
  8
Geo
100
AcDbLine
 10
-24.53081225216429
 20
1.105314182901565
 30
0.0
 11
-24.43081225216428
 21
1.08437421472577
 31
0.0
  0
LINE
  5
F102E2
330
261
100
AcDbEntity
  8
Geo
100
AcDbLine
 10
-24.43081225216428
 20
1.08437421472577
 30
0.0
 11
-24.33081225216429
 21
1.060339480277463
 31
0.0
  0
LINE
  5
F102E4
330
261
100
AcDbEntity
  8
Geo
100
AcDbLine
 10
-24.33081225216429
 20
1.060339480277463
 30
0.0
 11
-24.23081225216428
 21
1.033262343399464
 31
0.0
  0
LINE
  5
F102E6
330
261
100
AcDbEntity
  8
Geo
100
AcDbLine
 10
-24.23081225216428
 20
1.033262343399464
 30
0.0
 11
-24.13081225216429
 21
1.003201796336462
 31
0.0
  0
LINE
  5
F102E8
330
261
100
AcDbEntity
  8
Geo
100
AcDbLine
 10
-24.13081225216429
 20
1.003201796336462
 30
0.0
 11
-24.03081225216429
 21
0.9702233312101711
 31
0.0
  0
LINE
  5
F102EA
330
261
100
AcDbEntity
  8
Geo
100
AcDbLine
 10
-24.03081225216429
 20
0.9702233312101711
 30
0.0
 11
-23.93081225216428
 21
0.9343987973336709
 31
0.0
  0
LINE
  5
F102EC
330
261
100
AcDbEntity
  8
Geo
100
AcDbLine
 10
-23.93081225216428
 20
0.9343987973336709
 30
0.0
 11
-23.83081225216429
 21
0.895806244674965
 31
0.0
  0
LINE
  5
F102EE
330
261
100
AcDbEntity
  8
Geo
100
AcDbLine
 10
-23.83081225216429
 20
0.895806244674965
 30
0.0
 11
-23.73081225216428
 21
0.8545297538117679
 31
0.0
  0
LINE
  5
F102F0
330
261
100
AcDbEntity
  8
Geo
100
AcDbLine
 10
-23.73081225216428
 20
0.8545297538117679
 30
0.0
 11
-23.63081225216428
 21
0.8106592527470652
 31
0.0
  0
LINE
  5
F102F2
330
261
100
AcDbEntity
  8
Geo
100
AcDbLine
 10
-23.63081225216428
 20
0.8106592527470652
 30
0.0
 11
-23.53081225216429
 21
0.7642903209856727
 31
0.0
  0
LINE
  5
F102F4
330
261
100
AcDbEntity
  8
Geo
100
AcDbLine
 10
-23.53081225216429
 20
0.7642903209856727
 30
0.0
 11
-23.43081225216428
 21
0.7155239812974657
 31
0.0
  0
LINE
  5
F102F6
330
261
100
AcDbEntity
  8
Geo
100
AcDbLine
 10
-23.43081225216428
 20
0.7155239812974657
 30
0.0
 11
-23.33081225216429
 21
0.6644664796217726
 31
0.0
  0
LINE
  5
F102F8
330
261
100
AcDbEntity
  8
Geo
100
AcDbLine
 10
-23.33081225216429
 20
0.6644664796217726
 30
0.0
 11
-23.23081225216428
 21
0.6112290535921688
 31
0.0
  0
LINE
  5
F102FA
330
261
100
AcDbEntity
  8
Geo
100
AcDbLine
 10
-23.23081225216428
 20
0.6112290535921688
 30
0.0
 11
-23.13081225216429
 21
0.5559276901860671
 31
0.0
  0
LINE
  5
F102FC
330
261
100
AcDbEntity
  8
Geo
100
AcDbLine
 10
-23.13081225216429
 20
0.5559276901860671
 30
0.0
 11
-23.03081225216429
 21
0.4986828730268656
 31
0.0
  0
LINE
  5
F102FE
330
261
100
AcDbEntity
  8
Geo
100
AcDbLine
 10
-23.03081225216429
 20
0.4986828730268656
 30
0.0
 11
-22.93081225216428
 21
0.439619319889367
 31
0.0
  0
LINE
  5
F10300
330
261
100
AcDbEntity
  8
Geo
100
AcDbLine
 10
-22.93081225216428
 20
0.439619319889367
 30
0.0
 11
-22.83081225216427
 21
0.3788657109804703
 31
0.0
  0
LINE
  5
F10302
330
261
100
AcDbEntity
  8
Geo
100
AcDbLine
 10
-22.83081225216427
 20
0.3788657109804703
 30
0.0
 11
-22.73081225216428
 21
0.3165544085872725
 31
0.0
  0
LINE
  5
F10304
330
261
100
AcDbEntity
  8
Geo
100
AcDbLine
 10
-22.73081225216428
 20
0.3165544085872725
 30
0.0
 11
-22.63081225216427
 21
0.2528211687023685
 31
0.0
  0
LINE
  5
F10306
330
261
100
AcDbEntity
  8
Geo
100
AcDbLine
 10
-22.63081225216427
 20
0.2528211687023685
 30
0.0
 11
-22.53081225216428
 21
0.1878048452563661
 31
0.0
  0
LINE
  5
F10308
330
261
100
AcDbEntity
  8
Geo
100
AcDbLine
 10
-22.53081225216428
 20
0.1878048452563661
 30
0.0
 11
-22.43081225216428
 21
0.1216470875999676
 31
0.0
  0
LINE
  5
F1030A
330
261
100
AcDbEntity
  8
Geo
100
AcDbLine
 10
-22.43081225216428
 20
0.1216470875999676
 30
0.0
 11
-22.33081225216427
 21
0.0544920318966646
 31
0.0
  0
LINE
  5
F1030C
330
261
100
AcDbEntity
  8
Geo
100
AcDbLine
 10
-22.33081225216427
 20
0.0544920318966646
 30
0.0
 11
-22.23081225216428
 21
-0.0135140129031299
 31
0.0
  0
LINE
  5
F1030E
330
261
100
AcDbEntity
  8
Geo
100
AcDbLine
 10
-22.23081225216428
 20
-0.0135140129031299
 30
0.0
 11
-22.13081225216427
 21
-0.0822228838215296
 31
0.0
  0
LINE
  5
F10310
330
261
100
AcDbEntity
  8
Geo
100
AcDbLine
 10
-22.13081225216427
 20
-0.0822228838215296
 30
0.0
 11
-22.03081225216427
 21
-0.1514848866516303
 31
0.0
  0
LINE
  5
F10312
330
261
100
AcDbEntity
  8
Geo
100
AcDbLine
 10
-22.03081225216427
 20
-0.1514848866516303
 30
0.0
 11
-21.93081225216428
 21
-0.2211491220930313
 31
0.0
  0
LINE
  5
F10314
330
261
100
AcDbEntity
  8
Geo
100
AcDbLine
 10
-21.93081225216428
 20
-0.2211491220930313
 30
0.0
 11
-21.83081225216427
 21
-0.2147671319234305
 31
0.0
  0
LINE
  5
F10316
330
261
100
AcDbEntity
  8
Geo
100
AcDbLine
 10
-21.83081225216427
 20
-0.2147671319234305
 30
0.0
 11
-21.73081225216428
 21
-0.2085372188644285
 31
0.0
  0
LINE
  5
F10318
330
261
100
AcDbEntity
  8
Geo
100
AcDbLine
 10
-21.73081225216428
 20
-0.2085372188644285
 30
0.0
 11
-21.63081225216427
 21
-0.2024593351860275
 31
0.0
  0
LINE
  5
F1031A
330
261
100
AcDbEntity
  8
Geo
100
AcDbLine
 10
-21.63081225216427
 20
-0.2024593351860275
 30
0.0
 11
-21.53081225216427
 21
-0.1965334217206376
 31
0.0
  0
LINE
  5
F1031C
330
261
100
AcDbEntity
  8
Geo
100
AcDbLine
 10
-21.53081225216427
 20
-0.1965334217206376
 30
0.0
 11
-21.43081225216428
 21
-0.1907594087873292
 31
0.0
  0
LINE
  5
F1031E
330
261
100
AcDbEntity
  8
Geo
100
AcDbLine
 10
-21.43081225216428
 20
-0.1907594087873292
 30
0.0
 11
-21.33081225216427
 21
-0.1851372170924321
 31
0.0
  0
LINE
  5
F10320
330
261
100
AcDbEntity
  8
Geo
100
AcDbLine
 10
-21.33081225216427
 20
-0.1851372170924321
 30
0.0
 11
-21.23081225216428
 21
-0.1796667586077305
 31
0.0
  0
LINE
  5
F10322
330
261
100
AcDbEntity
  8
Geo
100
AcDbLine
 10
-21.23081225216428
 20
-0.1796667586077305
 30
0.0
 11
-21.13081225216427
 21
-0.1743479374247343
 31
0.0
  0
LINE
  5
F10324
330
261
100
AcDbEntity
  8
Geo
100
AcDbLine
 10
-21.13081225216427
 20
-0.1743479374247343
 30
0.0
 11
-21.03081225216428
 21
-0.1691806505867319
 31
0.0
  0
LINE
  5
F10326
330
261
100
AcDbEntity
  8
Geo
100
AcDbLine
 10
-21.03081225216428
 20
-0.1691806505867319
 30
0.0
 11
-20.93081225216428
 21
-0.1641647888972315
 31
0.0
  0
LINE
  5
F10328
330
261
100
AcDbEntity
  8
Geo
100
AcDbLine
 10
-20.93081225216428
 20
-0.1641647888972315
 30
0.0
 11
-20.83081225216427
 21
-0.1593002377054304
 31
0.0
  0
LINE
  5
F1032A
330
261
100
AcDbEntity
  8
Geo
100
AcDbLine
 10
-20.83081225216427
 20
-0.1593002377054304
 30
0.0
 11
-20.73081225216428
 21
-0.1545868776687271
 31
0.0
  0
LINE
  5
F1032C
330
261
100
AcDbEntity
  8
Geo
100
AcDbLine
 10
-20.73081225216428
 20
-0.1545868776687271
 30
0.0
 11
-20.63081225216427
 21
-0.1500245854918276
 31
0.0
  0
LINE
  5
F1032E
330
261
100
AcDbEntity
  8
Geo
100
AcDbLine
 10
-20.63081225216427
 20
-0.1500245854918276
 30
0.0
 11
-20.53081225216427
 21
-0.1456132346428305
 31
0.0
  0
LINE
  5
F10330
330
261
100
AcDbEntity
  8
Geo
100
AcDbLine
 10
-20.53081225216427
 20
-0.1456132346428305
 30
0.0
 11
-20.43081225216428
 21
-0.1413526960463258
 31
0.0
  0
LINE
  5
F10332
330
261
100
AcDbEntity
  8
Geo
100
AcDbLine
 10
-20.43081225216428
 20
-0.1413526960463258
 30
0.0
 11
-20.33081225216427
 21
-0.137242838753231
 31
0.0
  0
LINE
  5
F10334
330
261
100
AcDbEntity
  8
Geo
100
AcDbLine
 10
-20.33081225216427
 20
-0.137242838753231
 30
0.0
 11
-20.23081225216428
 21
-0.1332835305879314
 31
0.0
  0
LINE
  5
F10336
330
261
100
AcDbEntity
  8
Geo
100
AcDbLine
 10
-20.23081225216428
 20
-0.1332835305879314
 30
0.0
 11
-20.13081225216427
 21
-0.1294746387715264
 31
0.0
  0
LINE
  5
F10338
330
261
100
AcDbEntity
  8
Geo
100
AcDbLine
 10
-20.13081225216427
 20
-0.1294746387715264
 30
0.0
 11
-20.03081225216428
 21
-0.1258160305232323
 31
0.0
  0
LINE
  5
F1033A
330
261
100
AcDbEntity
  8
Geo
100
AcDbLine
 10
-20.03081225216428
 20
-0.1258160305232323
 30
0.0
 11
-19.93081225216428
 21
-0.1223075736378263
 31
0.0
  0
LINE
  5
F1033C
330
261
100
AcDbEntity
  8
Geo
100
AcDbLine
 10
-19.93081225216428
 20
-0.1223075736378263
 30
0.0
 11
-19.83081225216427
 21
-0.1189491370403317
 31
0.0
  0
LINE
  5
F1033E
330
261
100
AcDbEntity
  8
Geo
100
AcDbLine
 10
-19.83081225216427
 20
-0.1189491370403317
 30
0.0
 11
-19.73081225216428
 21
-0.1157405913182288
 31
0.0
  0
LINE
  5
F10340
330
261
100
AcDbEntity
  8
Geo
100
AcDbLine
 10
-19.73081225216428
 20
-0.1157405913182288
 30
0.0
 11
-19.63081225216427
 21
-0.112681809230331
 31
0.0
  0
LINE
  5
F10342
330
261
100
AcDbEntity
  8
Geo
100
AcDbLine
 10
-19.63081225216427
 20
-0.112681809230331
 30
0.0
 11
-19.53081225216427
 21
-0.1097726661924341
 31
0.0
  0
LINE
  5
F10344
330
261
100
AcDbEntity
  8
Geo
100
AcDbLine
 10
-19.53081225216427
 20
-0.1097726661924341
 30
0.0
 11
-19.43081225216428
 21
-0.1070130407412293
 31
0.0
  0
LINE
  5
F10346
330
261
100
AcDbEntity
  8
Geo
100
AcDbLine
 10
-19.43081225216428
 20
-0.1070130407412293
 30
0.0
 11
-19.33081225216427
 21
-0.1044028149744349
 31
0.0
  0
LINE
  5
F10348
330
261
100
AcDbEntity
  8
Geo
100
AcDbLine
 10
-19.33081225216427
 20
-0.1044028149744349
 30
0.0
 11
-19.23081225216428
 21
-0.1019418749681336
 31
0.0
  0
LINE
  5
F1034A
330
261
100
AcDbEntity
  8
Geo
100
AcDbLine
 10
-19.23081225216428
 20
-0.1019418749681336
 30
0.0
 11
-19.13081225216427
 21
-0.0996301111724307
 31
0.0
  0
LINE
  5
F1034C
330
261
100
AcDbEntity
  8
Geo
100
AcDbLine
 10
-19.13081225216427
 20
-0.0996301111724307
 30
0.0
 11
-19.03081225216427
 21
-0.0974674187831326
 31
0.0
  0
LINE
  5
F1034E
330
261
100
AcDbEntity
  8
Geo
100
AcDbLine
 10
-19.03081225216427
 20
-0.0974674187831326
 30
0.0
 11
-18.93081225216428
 21
-0.0954536980913332
 31
0.0
  0
LINE
  5
F10350
330
261
100
AcDbEntity
  8
Geo
100
AcDbLine
 10
-18.93081225216428
 20
-0.0954536980913332
 30
0.0
 11
-18.83081225216427
 21
-0.0892566749269364
 31
0.0
  0
LINE
  5
F10352
330
261
100
AcDbEntity
  8
Geo
100
AcDbLine
 10
-18.83081225216427
 20
-0.0892566749269364
 30
0.0
 11
-18.73081225216427
 21
-0.0831471318941297
 31
0.0
  0
LINE
  5
F10354
330
261
100
AcDbEntity
  8
Geo
100
AcDbLine
 10
-18.73081225216427
 20
-0.0831471318941297
 30
0.0
 11
-18.63081225216427
 21
-0.0771329555879348
 31
0.0
  0
LINE
  5
F10356
330
261
100
AcDbEntity
  8
Geo
100
AcDbLine
 10
-18.63081225216427
 20
-0.0771329555879348
 30
0.0
 11
-18.53081225216427
 21
-0.0712220334206322
 31
0.0
  0
LINE
  5
F10358
330
261
100
AcDbEntity
  8
Geo
100
AcDbLine
 10
-18.53081225216427
 20
-0.0712220334206322
 30
0.0
 11
-18.43081225216428
 21
-0.0654222544389356
 31
0.0
  0
LINE
  5
F1035A
330
261
100
AcDbEntity
  8
Geo
100
AcDbLine
 10
-18.43081225216428
 20
-0.0654222544389356
 30
0.0
 11
-18.33081225216427
 21
-0.0597415101421319
 31
0.0
  0
LINE
  5
F1035C
330
261
100
AcDbEntity
  8
Geo
100
AcDbLine
 10
-18.33081225216427
 20
-0.0597415101421319
 30
0.0
 11
-18.23081225216428
 21
-0.0541876952981326
 31
0.0
  0
LINE
  5
F1035E
330
261
100
AcDbEntity
  8
Geo
100
AcDbLine
 10
-18.23081225216428
 20
-0.0541876952981326
 30
0.0
 11
-18.13081225216427
 21
-0.0487687087537268
 31
0.0
  0
LINE
  5
F10360
330
261
100
AcDbEntity
  8
Geo
100
AcDbLine
 10
-18.13081225216427
 20
-0.0487687087537268
 30
0.0
 11
-18.03081225216427
 21
-0.0434924542378283
 31
0.0
  0
LINE
  5
F10362
330
261
100
AcDbEntity
  8
Geo
100
AcDbLine
 10
-18.03081225216427
 20
-0.0434924542378283
 30
0.0
 11
-17.93081225216428
 21
-0.0383668411532341
 31
0.0
  0
LINE
  5
F10364
330
261
100
AcDbEntity
  8
Geo
100
AcDbLine
 10
-26.93081225216428
 20
0.5613224289458714
 30
0.0
 11
-26.83081225216429
 21
0.5519802781322696
 31
0.0
  0
LINE
  5
F10366
330
261
100
AcDbEntity
  8
Geo
100
AcDbLine
 10
-26.93081225216428
 20
0.3718674141949663
 30
0.0
 11
-26.83081225216429
 21
0.3570169186436729
 31
0.0
  0
LINE
  5
F10368
330
261
100
AcDbEntity
  8
Geo
100
AcDbLine
 10
-26.93081225216428
 20
-1.406642895179331
 30
0.0
 11
-26.83081225216429
 21
-1.497847534469634
 31
0.0
  0
LINE
  5
F1036A
330
261
100
AcDbEntity
  8
Geo
100
AcDbLine
 10
-26.93081225216428
 20
-1.523632503648137
 30
0.0
 11
-26.83081225216429
 21
-1.606015563265131
 31
0.0
  0
LINE
  5
F1036C
330
261
100
AcDbEntity
  8
Geo
100
AcDbLine
 10
-26.83081225216429
 20
0.5519802781322696
 30
0.0
 11
-26.73081225216428
 21
0.4894600817720658
 31
0.0
  0
LINE
  5
F1036E
330
261
100
AcDbEntity
  8
Geo
100
AcDbLine
 10
-26.83081225216429
 20
0.3570169186436729
 30
0.0
 11
-26.73081225216428
 21
0.2895058739468652
 31
0.0
  0
LINE
  5
F10370
330
261
100
AcDbEntity
  8
Geo
100
AcDbLine
 10
-26.83081225216429
 20
-1.497847534469634
 30
0.0
 11
-26.73081225216428
 21
-1.539795752649034
 31
0.0
  0
LINE
  5
F10372
330
261
100
AcDbEntity
  8
Geo
100
AcDbLine
 10
-26.83081225216429
 20
-1.606015563265131
 30
0.0
 11
-26.73081225216428
 21
-1.638906538936829
 31
0.0
  0
LINE
  5
F10374
330
261
100
AcDbEntity
  8
Geo
100
AcDbLine
 10
-26.73081225216428
 20
0.4894600817720658
 30
0.0
 11
-26.63081225216429
 21
0.42474855931777
 31
0.0
  0
LINE
  5
F10376
330
261
100
AcDbEntity
  8
Geo
100
AcDbLine
 10
-26.73081225216428
 20
0.2895058739468652
 30
0.0
 11
-26.63081225216429
 21
0.2203342468976714
 31
0.0
  0
LINE
  5
F10378
330
261
100
AcDbEntity
  8
Geo
100
AcDbLine
 10
-26.73081225216428
 20
-1.539795752649034
 30
0.0
 11
-26.63081225216429
 21
-1.579121527135633
 31
0.0
  0
LINE
  5
F1037A
330
261
100
AcDbEntity
  8
Geo
100
AcDbLine
 10
-26.73081225216428
 20
-1.638906538936829
 30
0.0
 11
-26.63081225216429
 21
-1.668959140857133
 31
0.0
  0
LINE
  5
F1037C
330
261
100
AcDbEntity
  8
Geo
100
AcDbLine
 10
-26.63081225216429
 20
0.42474855931777
 30
0.0
 11
-26.53081225216429
 21
0.3580174762747745
 31
0.0
  0
LINE
  5
F1037E
330
261
100
AcDbEntity
  8
Geo
100
AcDbLine
 10
-26.63081225216429
 20
0.2203342468976714
 30
0.0
 11
-26.53081225216429
 21
0.1496856415751679
 31
0.0
  0
LINE
  5
F10380
330
261
100
AcDbEntity
  8
Geo
100
AcDbLine
 10
-26.63081225216429
 20
-1.579121527135633
 30
0.0
 11
-26.53081225216429
 21
-1.615739179900835
 31
0.0
  0
LINE
  5
F10382
330
261
100
AcDbEntity
  8
Geo
100
AcDbLine
 10
-26.63081225216429
 20
-1.668959140857133
 30
0.0
 11
-26.53081225216429
 21
-1.69610789421403
 31
0.0
  0
LINE
  5
F10384
330
261
100
AcDbEntity
  8
Geo
100
AcDbLine
 10
-26.53081225216429
 20
0.3580174762747745
 30
0.0
 11
-26.43081225216428
 21
0.2894439587215629
 31
0.0
  0
LINE
  5
F10386
330
261
100
AcDbEntity
  8
Geo
100
AcDbLine
 10
-26.53081225216429
 20
0.1496856415751679
 30
0.0
 11
-26.43081225216428
 21
0.0777475824406651
 31
0.0
  0
LINE
  5
F10388
330
261
100
AcDbEntity
  8
Geo
100
AcDbLine
 10
-26.53081225216429
 20
-1.615739179900835
 30
0.0
 11
-26.43081225216428
 21
-1.649568933029435
 31
0.0
  0
LINE
  5
F1038A
330
261
100
AcDbEntity
  8
Geo
100
AcDbLine
 10
-26.53081225216429
 20
-1.69610789421403
 30
0.0
 11
-26.43081225216428
 21
-1.720293650734028
 31
0.0
  0
LINE
  5
F1038C
330
261
100
AcDbEntity
  8
Geo
100
AcDbLine
 10
-26.43081225216428
 20
0.2894439587215629
 30
0.0
 11
-26.33081225216429
 21
0.2192100231592704
 31
0.0
  0
LINE
  5
F1038E
330
261
100
AcDbEntity
  8
Geo
100
AcDbLine
 10
-26.43081225216428
 20
0.0777475824406651
 30
0.0
 11
-26.33081225216429
 21
0.0047110165871729
 31
0.0
  0
LINE
  5
F10390
330
261
100
AcDbEntity
  8
Geo
100
AcDbLine
 10
-26.43081225216428
 20
-1.649568933029435
 30
0.0
 11
-26.33081225216429
 21
-1.680537082529632
 31
0.0
  0
LINE
  5
F10392
330
261
100
AcDbEntity
  8
Geo
100
AcDbLine
 10
-26.43081225216428
 20
-1.720293650734028
 30
0.0
 11
-26.33081225216429
 21
-1.741463717546629
 31
0.0
  0
LINE
  5
F10394
330
261
100
AcDbEntity
  8
Geo
100
AcDbLine
 10
-26.33081225216429
 20
0.2192100231592704
 30
0.0
 11
-26.23081225216428
 21
0.1475020933803677
 31
0.0
  0
LINE
  5
F10396
330
261
100
AcDbEntity
  8
Geo
100
AcDbLine
 10
-26.33081225216429
 20
0.0047110165871729
 30
0.0
 11
-26.23081225216428
 21
-0.0692301930972263
 31
0.0
  0
LINE
  5
F10398
330
261
100
AcDbEntity
  8
Geo
100
AcDbLine
 10
-26.33081225216429
 20
-1.680537082529632
 30
0.0
 11
-26.23081225216428
 21
-1.708576158909934
 31
0.0
  0
LINE
  5
F1039A
330
261
100
AcDbEntity
  8
Geo
100
AcDbLine
 10
-26.33081225216429
 20
-1.741463717546629
 30
0.0
 11
-26.23081225216428
 21
-1.759571971985131
 31
0.0
  0
LINE
  5
F1039C
330
261
100
AcDbEntity
  8
Geo
100
AcDbLine
 10
-26.23081225216428
 20
0.1475020933803677
 30
0.0
 11
-26.13081225216428
 21
0.0745105056393669
 31
0.0
  0
LINE
  5
F1039E
330
261
100
AcDbEntity
  8
Geo
100
AcDbLine
 10
-26.23081225216428
 20
-0.0692301930972263
 30
0.0
 11
-26.13081225216428
 21
-0.1438797825041291
 31
0.0
  0
LINE
  5
F103A0
330
261
100
AcDbEntity
  8
Geo
100
AcDbLine
 10
-26.23081225216428
 20
-1.708576158909934
 30
0.0
 11
-26.13081225216428
 21
-1.733625074173531
 31
0.0
  0
LINE
  5
F103A2
330
261
100
AcDbEntity
  8
Geo
100
AcDbLine
 10
-26.23081225216428
 20
-1.759571971985131
 30
0.0
 11
-26.13081225216428
 21
-1.774578962072531
 31
0.0
  0
LINE
  5
F103A4
330
261
100
AcDbEntity
  8
Geo
100
AcDbLine
 10
-26.13081225216428
 20
0.0745105056393669
 30
0.0
 11
-26.03081225216429
 21
0.0004290034377732
 31
0.0
  0
LINE
  5
F103A6
330
261
100
AcDbEntity
  8
Geo
100
AcDbLine
 10
-26.13081225216428
 20
-0.1438797825041291
 30
0.0
 11
-26.03081225216429
 21
-0.2190396072542313
 31
0.0
  0
LINE
  5
F103A8
330
261
100
AcDbEntity
  8
Geo
100
AcDbLine
 10
-26.13081225216428
 20
-1.733625074173531
 30
0.0
 11
-26.03081225216429
 21
-1.755629254908726
 31
0.0
  0
LINE
  5
F103AA
330
261
100
AcDbEntity
  8
Geo
100
AcDbLine
 10
-26.13081225216428
 20
-1.774578962072531
 30
0.0
 11
-26.03081225216429
 21
-1.786451992475029
 31
0.0
  0
LINE
  5
F103AC
330
261
100
AcDbEntity
  8
Geo
100
AcDbLine
 10
-26.03081225216429
 20
0.0004290034377732
 30
0.0
 11
-25.93081225216428
 21
-0.0745457767339346
 31
0.0
  0
LINE
  5
F103AE
330
261
100
AcDbEntity
  8
Geo
100
AcDbLine
 10
-26.03081225216429
 20
-0.2190396072542313
 30
0.0
 11
-25.93081225216428
 21
-0.2945101686371316
 31
0.0
  0
LINE
  5
F103B0
330
261
100
AcDbEntity
  8
Geo
100
AcDbLine
 10
-26.03081225216429
 20
-1.755629254908726
 30
0.0
 11
-25.93081225216428
 21
-1.774540761186827
 31
0.0
  0
LINE
  5
F103B2
330
261
100
AcDbEntity
  8
Geo
100
AcDbLine
 10
-26.03081225216429
 20
-1.786451992475029
 30
0.0
 11
-25.93081225216428
 21
-1.795165195734128
 31
0.0
  0
LINE
  5
F103B4
330
261
100
AcDbEntity
  8
Geo
100
AcDbLine
 10
-25.93081225216428
 20
-0.0745457767339346
 30
0.0
 11
-25.83081225216429
 21
-0.150214827333933
 31
0.0
  0
LINE
  5
F103B6
330
261
100
AcDbEntity
  8
Geo
100
AcDbLine
 10
-25.93081225216428
 20
-0.2945101686371316
 30
0.0
 11
-25.83081225216429
 21
-0.370091143145828
 31
0.0
  0
LINE
  5
F103B8
330
261
100
AcDbEntity
  8
Geo
100
AcDbLine
 10
-25.93081225216428
 20
-1.774540761186827
 30
0.0
 11
-25.83081225216429
 21
-1.790318391007225
 31
0.0
  0
LINE
  5
F103BA
330
261
100
AcDbEntity
  8
Geo
100
AcDbLine
 10
-25.93081225216428
 20
-1.795165195734128
 30
0.0
 11
-25.83081225216429
 21
-1.80069958862353
 31
0.0
  0
LINE
  5
F103BC
330
261
100
AcDbEntity
  8
Geo
100
AcDbLine
 10
-25.83081225216429
 20
-0.150214827333933
 30
0.0
 11
-25.73081225216428
 21
-0.2263772980001306
 31
0.0
  0
LINE
  5
F103BE
330
261
100
AcDbEntity
  8
Geo
100
AcDbLine
 10
-25.83081225216429
 20
-0.370091143145828
 30
0.0
 11
-25.73081225216428
 21
-0.4455819142008295
 31
0.0
  0
LINE
  5
F103C0
330
261
100
AcDbEntity
  8
Geo
100
AcDbLine
 10
-25.83081225216429
 20
-1.790318391007225
 30
0.0
 11
-25.73081225216428
 21
-1.802927770063526
 31
0.0
  0
LINE
  5
F103C2
330
261
100
AcDbEntity
  8
Geo
100
AcDbLine
 10
-25.83081225216429
 20
-1.80069958862353
 30
0.0
 11
-25.73081225216428
 21
-1.803043113507136
 31
0.0
  0
LINE
  5
F103C4
330
261
100
AcDbEntity
  8
Geo
100
AcDbLine
 10
-25.73081225216428
 20
-0.2263772980001306
 30
0.0
 11
-25.63081225216429
 21
-0.3028310286725286
 31
0.0
  0
LINE
  5
F103C6
330
261
100
AcDbEntity
  8
Geo
100
AcDbLine
 10
-25.73081225216428
 20
-0.4455819142008295
 30
0.0
 11
-25.63081225216429
 21
-0.520782104652227
 31
0.0
  0
LINE
  5
F103C8
330
261
100
AcDbEntity
  8
Geo
100
AcDbLine
 10
-25.73081225216428
 20
-1.802927770063526
 30
0.0
 11
-25.63081225216429
 21
-1.812341426634027
 31
0.0
  0
LINE
  5
F103CA
330
261
100
AcDbEntity
  8
Geo
100
AcDbLine
 10
-25.63081225216429
 20
-0.3028310286725286
 30
0.0
 11
-25.53081225216429
 21
-0.3793730861918334
 31
0.0
  0
LINE
  5
F103CC
330
261
100
AcDbEntity
  8
Geo
100
AcDbLine
 10
-25.63081225216429
 20
-0.520782104652227
 30
0.0
 11
-25.53081225216429
 21
-0.595492108645729
 31
0.0
  0
LINE
  5
F103CE
330
261
100
AcDbEntity
  8
Geo
100
AcDbLine
 10
-25.63081225216429
 20
-1.812341426634027
 30
0.0
 11
-25.53081225216429
 21
-1.818538851433032
 31
0.0
  0
LINE
  5
F103D0
330
261
100
AcDbEntity
  8
Geo
100
AcDbLine
 10
-25.63081225216429
 20
1.129975491998273
 30
0.0
 11
-25.53081225216429
 21
1.125928926526562
 31
0.0
  0
LINE
  5
F103D2
330
261
100
AcDbEntity
  8
Geo
100
AcDbLine
 10
-25.53081225216429
 20
-0.3793730861918334
 30
0.0
 11
-25.43081225216428
 21
-0.4558003029505287
 31
0.0
  0
LINE
  5
F103D4
330
261
100
AcDbEntity
  8
Geo
100
AcDbLine
 10
-25.53081225216429
 20
-0.595492108645729
 30
0.0
 11
-25.43081225216428
 21
-0.6695136214419293
 31
0.0
  0
LINE
  5
F103D6
330
261
100
AcDbEntity
  8
Geo
100
AcDbLine
 10
-25.53081225216429
 20
-1.818538851433032
 30
0.0
 11
-25.43081225216428
 21
-1.821506542294528
 31
0.0
  0
LINE
  5
F103D8
330
261
100
AcDbEntity
  8
Geo
100
AcDbLine
 10
-25.53081225216429
 20
1.125928926526562
 30
0.0
 11
-25.43081225216428
 21
1.118697060626764
 31
0.0
  0
LINE
  5
F103DA
330
261
100
AcDbEntity
  8
Geo
100
AcDbLine
 10
-25.43081225216428
 20
-0.4558003029505287
 30
0.0
 11
-25.33081225216429
 21
-0.5319098161662268
 31
0.0
  0
LINE
  5
F103DC
330
261
100
AcDbEntity
  8
Geo
100
AcDbLine
 10
-25.43081225216428
 20
-0.6695136214419293
 30
0.0
 11
-25.33081225216429
 21
-0.7426501657819316
 31
0.0
  0
LINE
  5
F103DE
330
261
100
AcDbEntity
  8
Geo
100
AcDbLine
 10
-25.43081225216428
 20
1.118697060626764
 30
0.0
 11
-25.33081225216429
 21
1.108295650174568
 31
0.0
  0
LINE
  5
F103E0
330
261
100
AcDbEntity
  8
Geo
100
AcDbLine
 10
-25.33081225216429
 20
-0.5319098161662268
 30
0.0
 11
-25.23081225216428
 21
-0.6074996063449376
 31
0.0
  0
LINE
  5
F103E2
330
261
100
AcDbEntity
  8
Geo
100
AcDbLine
 10
-25.33081225216429
 20
-0.7426501657819316
 30
0.0
 11
-25.23081225216428
 21
-0.8147076134019357
 31
0.0
  0
LINE
  5
F103E4
330
261
100
AcDbEntity
  8
Geo
100
AcDbLine
 10
-25.33081225216429
 20
1.149022860977666
 30
0.0
 11
-25.23081225216428
 21
1.145518737696967
 31
0.0
  0
LINE
  5
F103E6
330
261
100
AcDbEntity
  8
Geo
100
AcDbLine
 10
-25.33081225216429
 20
1.108295650174568
 30
0.0
 11
-25.23081225216428
 21
1.09474735644877
 31
0.0
  0
LINE
  5
F103E8
330
261
100
AcDbEntity
  8
Geo
100
AcDbLine
 10
-25.23081225216428
 20
-0.6074996063449376
 30
0.0
 11
-25.13081225216428
 21
-0.6823690335078326
 31
0.0
  0
LINE
  5
F103EA
330
261
100
AcDbEntity
  8
Geo
100
AcDbLine
 10
-25.23081225216428
 20
-0.8147076134019357
 30
0.0
 11
-25.13081225216428
 21
-0.8854947003131314
 31
0.0
  0
LINE
  5
F103EC
330
261
100
AcDbEntity
  8
Geo
100
AcDbLine
 10
-25.23081225216428
 20
1.145518737696967
 30
0.0
 11
-25.13081225216428
 21
1.138786634182871
 31
0.0
  0
LINE
  5
F103EE
330
261
100
AcDbEntity
  8
Geo
100
AcDbLine
 10
-25.23081225216428
 20
1.09474735644877
 30
0.0
 11
-25.13081225216428
 21
1.078081696760065
 31
0.0
  0
LINE
  5
F103F0
330
261
100
AcDbEntity
  8
Geo
100
AcDbLine
 10
-25.13081225216428
 20
-0.6823690335078326
 30
0.0
 11
-25.03081225216429
 21
-0.7563193697542303
 31
0.0
  0
LINE
  5
F103F2
330
261
100
AcDbEntity
  8
Geo
100
AcDbLine
 10
-25.13081225216428
 20
-0.8854947003131314
 30
0.0
 11
-25.03081225216429
 21
-0.9548235344787343
 31
0.0
  0
LINE
  5
F103F4
330
261
100
AcDbEntity
  8
Geo
100
AcDbLine
 10
-25.13081225216428
 20
1.138786634182871
 30
0.0
 11
-25.03081225216429
 21
1.128841217491668
 31
0.0
  0
LINE
  5
F103F6
330
261
100
AcDbEntity
  8
Geo
100
AcDbLine
 10
-25.13081225216428
 20
1.078081696760065
 30
0.0
 11
-25.03081225216429
 21
1.058334980141964
 31
0.0
  0
LINE
  5
F103F8
330
261
100
AcDbEntity
  8
Geo
100
AcDbLine
 10
-25.03081225216429
 20
-0.7563193697542303
 30
0.0
 11
-24.93081225216428
 21
-0.8291543267510306
 31
0.0
  0
LINE
  5
F103FA
330
261
100
AcDbEntity
  8
Geo
100
AcDbLine
 10
-25.03081225216429
 20
-0.9548235344787343
 30
0.0
 11
-24.93081225216428
 21
-1.022510094540628
 31
0.0
  0
LINE
  5
F103FC
330
261
100
AcDbEntity
  8
Geo
100
AcDbLine
 10
-25.03081225216429
 20
1.128841217491668
 30
0.0
 11
-24.93081225216428
 21
1.115704155440766
 31
0.0
  0
LINE
  5
F103FE
330
261
100
AcDbEntity
  8
Geo
100
AcDbLine
 10
-25.03081225216429
 20
1.058334980141964
 30
0.0
 11
-24.93081225216428
 21
1.035550228245774
 31
0.0
  0
LINE
  5
F10400
330
261
100
AcDbEntity
  8
Geo
100
AcDbLine
 10
-24.93081225216428
 20
-0.8291543267510306
 30
0.0
 11
-24.83081225216429
 21
-0.9006805767456285
 31
0.0
  0
LINE
  5
F10402
330
261
100
AcDbEntity
  8
Geo
100
AcDbLine
 10
-24.93081225216428
 20
-1.022510094540628
 30
0.0
 11
-24.83081225216429
 21
-1.088374718272632
 31
0.0
  0
LINE
  5
F10404
330
261
100
AcDbEntity
  8
Geo
100
AcDbLine
 10
-24.93081225216428
 20
1.115704155440766
 30
0.0
 11
-24.83081225216429
 21
1.099404069401067
 31
0.0
  0
LINE
  5
F10406
330
261
100
AcDbEntity
  8
Geo
100
AcDbLine
 10
-24.93081225216428
 20
1.035550228245774
 30
0.0
 11
-24.83081225216429
 21
1.009777081610167
 31
0.0
  0
LINE
  5
F10408
330
261
100
AcDbEntity
  8
Geo
100
AcDbLine
 10
-24.83081225216429
 20
-0.9006805767456285
 30
0.0
 11
-24.73081225216428
 21
-0.9707082657213348
 31
0.0
  0
LINE
  5
F1040A
330
261
100
AcDbEntity
  8
Geo
100
AcDbLine
 10
-24.83081225216429
 20
-1.088374718272632
 30
0.0
 11
-24.73081225216428
 21
-1.152242579461933
 31
0.0
  0
LINE
  5
F1040C
330
261
100
AcDbEntity
  8
Geo
100
AcDbLine
 10
-24.83081225216429
 20
1.099404069401067
 30
0.0
 11
-24.73081225216428
 21
1.079976471940668
 31
0.0
  0
LINE
  5
F1040E
330
261
100
AcDbEntity
  8
Geo
100
AcDbLine
 10
-24.83081225216429
 20
1.009777081610167
 30
0.0
 11
-24.73081225216428
 21
0.9810716915103725
 31
0.0
  0
LINE
  5
F10410
330
261
100
AcDbEntity
  8
Geo
100
AcDbLine
 10
-24.73081225216428
 20
-0.9707082657213348
 30
0.0
 11
-24.63081225216428
 21
-1.039051517331131
 31
0.0
  0
LINE
  5
F10412
330
261
100
AcDbEntity
  8
Geo
100
AcDbLine
 10
-24.73081225216428
 20
-1.152242579461933
 30
0.0
 11
-24.63081225216428
 21
-1.213944151955729
 31
0.0
  0
LINE
  5
F10414
330
261
100
AcDbEntity
  8
Geo
100
AcDbLine
 10
-24.73081225216428
 20
1.079976471940668
 30
0.0
 11
-24.63081225216428
 21
1.057463689454166
 31
0.0
  0
LINE
  5
F10416
330
261
100
AcDbEntity
  8
Geo
100
AcDbLine
 10
-24.73081225216428
 20
0.9810716915103725
 30
0.0
 11
-24.63081225216428
 21
0.9494965976237708
 31
0.0
  0
LINE
  5
F10418
330
261
100
AcDbEntity
  8
Geo
100
AcDbLine
 10
-24.63081225216428
 20
-1.039051517331131
 30
0.0
 11
-24.53081225216429
 21
-1.105528926274935
 31
0.0
  0
LINE
  5
F1041A
330
261
100
AcDbEntity
  8
Geo
100
AcDbLine
 10
-24.63081225216428
 20
-1.213944151955729
 30
0.0
 11
-24.53081225216429
 21
-1.273315659638228
 31
0.0
  0
LINE
  5
F1041C
330
261
100
AcDbEntity
  8
Geo
100
AcDbLine
 10
-24.63081225216428
 20
1.057463689454166
 30
0.0
 11
-24.53081225216429
 21
1.031914769947569
 31
0.0
  0
LINE
  5
F1041E
330
261
100
AcDbEntity
  8
Geo
100
AcDbLine
 10
-24.63081225216428
 20
0.9494965976237708
 30
0.0
 11
-24.53081225216429
 21
0.9151205917752704
 31
0.0
  0
LINE
  5
F10420
330
261
100
AcDbEntity
  8
Geo
100
AcDbLine
 10
-24.53081225216429
 20
-1.105528926274935
 30
0.0
 11
-24.43081225216428
 21
-1.169964039808228
 31
0.0
  0
LINE
  5
F10422
330
261
100
AcDbEntity
  8
Geo
100
AcDbLine
 10
-24.53081225216429
 20
-1.273315659638228
 30
0.0
 11
-24.43081225216428
 21
-1.330199511146631
 31
0.0
  0
LINE
  5
F10424
330
261
100
AcDbEntity
  8
Geo
100
AcDbLine
 10
-24.53081225216429
 20
1.031914769947569
 30
0.0
 11
-24.43081225216428
 21
1.00338537617867
 31
0.0
  0
LINE
  5
F10426
330
261
100
AcDbEntity
  8
Geo
100
AcDbLine
 10
-24.53081225216429
 20
0.9151205917752704
 30
0.0
 11
-24.43081225216428
 21
0.8780185680630694
 31
0.0
  0
LINE
  5
F10428
330
261
100
AcDbEntity
  8
Geo
100
AcDbLine
 10
-24.43081225216428
 20
-1.169964039808228
 30
0.0
 11
-24.33081225216429
 21
-1.23218582610513
 31
0.0
  0
LINE
  5
F1042A
330
261
100
AcDbEntity
  8
Geo
100
AcDbLine
 10
-24.43081225216428
 20
-1.330199511146631
 30
0.0
 11
-24.33081225216429
 21
-1.384444718169532
 31
0.0
  0
LINE
  5
F1042C
330
261
100
AcDbEntity
  8
Geo
100
AcDbLine
 10
-24.43081225216428
 20
1.00338537617867
 30
0.0
 11
-24.33081225216429
 21
0.9719376643860684
 31
0.0
  0
LINE
  5
F1042E
330
261
100
AcDbEntity
  8
Geo
100
AcDbLine
 10
-24.43081225216428
 20
0.8780185680630694
 30
0.0
 11
-24.33081225216429
 21
0.8382713596886688
 31
0.0
  0
LINE
  5
F10430
330
261
100
AcDbEntity
  8
Geo
100
AcDbLine
 10
-24.33081225216429
 20
-1.23218582610513
 30
0.0
 11
-24.23081225216428
 21
-1.292029128232634
 31
0.0
  0
LINE
  5
F10432
330
261
100
AcDbEntity
  8
Geo
100
AcDbLine
 10
-24.33081225216429
 20
-1.384444718169532
 30
0.0
 11
-24.23081225216428
 21
-1.435907296219227
 31
0.0
  0
LINE
  5
F10434
330
261
100
AcDbEntity
  8
Geo
100
AcDbLine
 10
-24.33081225216429
 20
0.9719376643860684
 30
0.0
 11
-24.23081225216428
 21
0.9376401488706704
 31
0.0
  0
LINE
  5
F10436
330
261
100
AcDbEntity
  8
Geo
100
AcDbLine
 10
-24.33081225216429
 20
0.8382713596886688
 30
0.0
 11
-24.23081225216428
 21
0.7959655628477691
 31
0.0
  0
LINE
  5
F10438
330
261
100
AcDbEntity
  8
Geo
100
AcDbLine
 10
-24.23081225216428
 20
-1.292029128232634
 30
0.0
 11
-24.13081225216429
 21
-1.349335102531433
 31
0.0
  0
LINE
  5
F1043A
330
261
100
AcDbEntity
  8
Geo
100
AcDbLine
 10
-24.23081225216428
 20
-1.435907296219227
 30
0.0
 11
-24.13081225216429
 21
-1.484450646814032
 31
0.0
  0
LINE
  5
F1043C
330
261
100
AcDbEntity
  8
Geo
100
AcDbLine
 10
-24.23081225216428
 20
0.9376401488706704
 30
0.0
 11
-24.13081225216429
 21
0.9005675527258745
 31
0.0
  0
LINE
  5
F1043E
330
261
100
AcDbEntity
  8
Geo
100
AcDbLine
 10
-24.23081225216428
 20
0.7959655628477691
 30
0.0
 11
-24.13081225216429
 21
0.7511933480651721
 31
0.0
  0
LINE
  5
F10440
330
261
100
AcDbEntity
  8
Geo
100
AcDbLine
 10
-24.13081225216429
 20
-1.349335102531433
 30
0.0
 11
-24.03081225216429
 21
-1.403951640238432
 31
0.0
  0
LINE
  5
F10442
330
261
100
AcDbEntity
  8
Geo
100
AcDbLine
 10
-24.13081225216429
 20
-1.484450646814032
 30
0.0
 11
-24.03081225216429
 21
-1.52994592005453
 31
0.0
  0
LINE
  5
F10444
330
261
100
AcDbEntity
  8
Geo
100
AcDbLine
 10
-24.13081225216429
 20
0.9005675527258745
 30
0.0
 11
-24.03081225216429
 21
0.8608006450401646
 31
0.0
  0
LINE
  5
F10446
330
261
100
AcDbEntity
  8
Geo
100
AcDbLine
 10
-24.13081225216429
 20
0.7511933480651721
 30
0.0
 11
-24.03081225216429
 21
0.7040522593854633
 31
0.0
  0
LINE
  5
F10448
330
261
100
AcDbEntity
  8
Geo
100
AcDbLine
 10
-24.03081225216429
 20
-1.403951640238432
 30
0.0
 11
-23.93081225216428
 21
-1.455733771233127
 31
0.0
  0
LINE
  5
F1044A
330
261
100
AcDbEntity
  8
Geo
100
AcDbLine
 10
-24.03081225216429
 20
-1.52994592005453
 30
0.0
 11
-23.93081225216428
 21
-1.572272356633931
 31
0.0
  0
LINE
  5
F1044C
330
261
100
AcDbEntity
  8
Geo
100
AcDbLine
 10
-24.03081225216429
 20
0.8608006450401646
 30
0.0
 11
-23.93081225216428
 21
0.8184260649275643
 31
0.0
  0
LINE
  5
F1044E
330
261
100
AcDbEntity
  8
Geo
100
AcDbLine
 10
-24.03081225216429
 20
0.7040522593854633
 30
0.0
 11
-23.93081225216428
 21
0.6546450018566717
 31
0.0
  0
LINE
  5
F10450
330
261
100
AcDbEntity
  8
Geo
100
AcDbLine
 10
-23.93081225216428
 20
-1.455733771233127
 30
0.0
 11
-23.83081225216429
 21
-1.504544048835931
 31
0.0
  0
LINE
  5
F10452
330
261
100
AcDbEntity
  8
Geo
100
AcDbLine
 10
-23.93081225216428
 20
-1.572272356633931
 30
0.0
 11
-23.83081225216429
 21
-1.611317608372132
 31
0.0
  0
LINE
  5
F10454
330
261
100
AcDbEntity
  8
Geo
100
AcDbLine
 10
-23.93081225216428
 20
0.8184260649275643
 30
0.0
 11
-23.83081225216429
 21
0.7735361327691664
 31
0.0
  0
LINE
  5
F10456
330
261
100
AcDbEntity
  8
Geo
100
AcDbLine
 10
-23.93081225216428
 20
0.6546450018566717
 30
0.0
 11
-23.83081225216429
 21
0.6030792177687659
 31
0.0
  0
LINE
  5
F10458
330
261
100
AcDbEntity
  8
Geo
100
AcDbLine
 10
-23.83081225216429
 20
-1.504544048835931
 30
0.0
 11
-23.73081225216428
 21
-1.550252914636132
 31
0.0
  0
LINE
  5
F1045A
330
261
100
AcDbEntity
  8
Geo
100
AcDbLine
 10
-23.83081225216429
 20
-1.611317608372132
 30
0.0
 11
-23.73081225216428
 21
-1.646978036425025
 31
0.0
  0
LINE
  5
F1045C
330
261
100
AcDbEntity
  8
Geo
100
AcDbLine
 10
-23.83081225216429
 20
0.7735361327691664
 30
0.0
 11
-23.73081225216428
 21
0.7262286490773704
 31
0.0
  0
LINE
  5
F1045E
330
261
100
AcDbEntity
  8
Geo
100
AcDbLine
 10
-23.83081225216429
 20
0.6030792177687659
 30
0.0
 11
-23.73081225216428
 21
0.5494672521369708
 31
0.0
  0
LINE
  5
F10460
330
261
100
AcDbEntity
  8
Geo
100
AcDbLine
 10
-23.73081225216428
 20
-1.550252914636132
 30
0.0
 11
-23.63081225216428
 21
-1.592739042382532
 31
0.0
  0
LINE
  5
F10462
330
261
100
AcDbEntity
  8
Geo
100
AcDbLine
 10
-23.73081225216428
 20
-1.646978036425025
 30
0.0
 11
-23.63081225216428
 21
-1.679158986375334
 31
0.0
  0
LINE
  5
F10464
330
261
100
AcDbEntity
  8
Geo
100
AcDbLine
 10
-23.73081225216428
 20
0.7262286490773704
 30
0.0
 11
-23.63081225216428
 21
0.6766066814204664
 31
0.0
  0
LINE
  5
F10466
330
261
100
AcDbEntity
  8
Geo
100
AcDbLine
 10
-23.73081225216428
 20
0.5494672521369708
 30
0.0
 11
-23.63081225216428
 21
0.49392590793817
 31
0.0
  0
LINE
  5
F10468
330
261
100
AcDbEntity
  8
Geo
100
AcDbLine
 10
-23.63081225216428
 20
-1.592739042382532
 30
0.0
 11
-23.53081225216429
 21
-1.63188966002243
 31
0.0
  0
LINE
  5
F1046A
330
261
100
AcDbEntity
  8
Geo
100
AcDbLine
 10
-23.63081225216428
 20
-1.679158986375334
 30
0.0
 11
-23.53081225216429
 21
-1.70777503947643
 31
0.0
  0
LINE
  5
F1046C
330
261
100
AcDbEntity
  8
Geo
100
AcDbLine
 10
-23.63081225216428
 20
0.6766066814204664
 30
0.0
 11
-23.53081225216429
 21
0.6247783398718667
 31
0.0
  0
LINE
  5
F1046E
330
261
100
AcDbEntity
  8
Geo
100
AcDbLine
 10
-23.63081225216428
 20
0.49392590793817
 30
0.0
 11
-23.53081225216429
 21
0.4365761916355666
 31
0.0
  0
LINE
  5
F10470
330
261
100
AcDbEntity
  8
Geo
100
AcDbLine
 10
-23.53081225216429
 20
-1.63188966002243
 30
0.0
 11
-23.43081225216428
 21
-1.667600849036332
 31
0.0
  0
LINE
  5
F10472
330
261
100
AcDbEntity
  8
Geo
100
AcDbLine
 10
-23.53081225216429
 20
-1.70777503947643
 30
0.0
 11
-23.43081225216428
 21
-1.732750239381935
 31
0.0
  0
LINE
  5
F10474
330
261
100
AcDbEntity
  8
Geo
100
AcDbLine
 10
-23.53081225216429
 20
0.6247783398718667
 30
0.0
 11
-23.43081225216428
 21
0.5708565414738729
 31
0.0
  0
LINE
  5
F10476
330
261
100
AcDbEntity
  8
Geo
100
AcDbLine
 10
-23.53081225216429
 20
0.4365761916355666
 30
0.0
 11
-23.43081225216428
 21
0.3775430495449683
 31
0.0
  0
LINE
  5
F10478
330
261
100
AcDbEntity
  8
Geo
100
AcDbLine
 10
-23.43081225216428
 20
-1.667600849036332
 30
0.0
 11
-23.33081225216429
 21
-1.699777820270632
 31
0.0
  0
LINE
  5
F1047A
330
261
100
AcDbEntity
  8
Geo
100
AcDbLine
 10
-23.43081225216428
 20
-1.732750239381935
 30
0.0
 11
-23.33081225216429
 21
-1.754018293758228
 31
0.0
  0
LINE
  5
F1047C
330
261
100
AcDbEntity
  8
Geo
100
AcDbLine
 10
-23.43081225216428
 20
0.5708565414738729
 30
0.0
 11
-23.33081225216429
 21
0.5149587642276714
 31
0.0
  0
LINE
  5
F1047E
330
261
100
AcDbEntity
  8
Geo
100
AcDbLine
 10
-23.43081225216428
 20
0.3775430495449683
 30
0.0
 11
-23.33081225216429
 21
0.3169550956175655
 31
0.0
  0
LINE
  5
F10480
330
261
100
AcDbEntity
  8
Geo
100
AcDbLine
 10
-23.33081225216429
 20
-1.699777820270632
 30
0.0
 11
-23.23081225216428
 21
-1.728335165539725
 31
0.0
  0
LINE
  5
F10482
330
261
100
AcDbEntity
  8
Geo
100
AcDbLine
 10
-23.33081225216429
 20
-1.754018293758228
 30
0.0
 11
-23.23081225216428
 21
-1.771522750246028
 31
0.0
  0
LINE
  5
F10484
330
261
100
AcDbEntity
  8
Geo
100
AcDbLine
 10
-23.33081225216429
 20
0.5149587642276714
 30
0.0
 11
-23.23081225216428
 21
0.4572067911478684
 31
0.0
  0
LINE
  5
F10486
330
261
100
AcDbEntity
  8
Geo
100
AcDbLine
 10
-23.33081225216429
 20
0.3169550956175655
 30
0.0
 11
-23.23081225216428
 21
0.254944331232366
 31
0.0
  0
LINE
  5
F10488
330
261
100
AcDbEntity
  8
Geo
100
AcDbLine
 10
-23.23081225216428
 20
-1.728335165539725
 30
0.0
 11
-23.13081225216429
 21
-1.753197084326828
 31
0.0
  0
LINE
  5
F1048A
330
261
100
AcDbEntity
  8
Geo
100
AcDbLine
 10
-23.23081225216428
 20
-1.771522750246028
 30
0.0
 11
-23.13081225216429
 21
-1.785217146303629
 31
0.0
  0
LINE
  5
F1048C
330
261
100
AcDbEntity
  8
Geo
100
AcDbLine
 10
-23.23081225216428
 20
0.4572067911478684
 30
0.0
 11
-23.13081225216429
 21
0.3977264449365663
 31
0.0
  0
LINE
  5
F1048E
330
261
100
AcDbEntity
  8
Geo
100
AcDbLine
 10
-23.23081225216428
 20
0.254944331232366
 30
0.0
 11
-23.13081225216429
 21
0.1916458576076678
 31
0.0
  0
LINE
  5
F10490
330
261
100
AcDbEntity
  8
Geo
100
AcDbLine
 10
-23.13081225216429
 20
-1.753197084326828
 30
0.0
 11
-23.03081225216429
 21
-1.774297584983429
 31
0.0
  0
LINE
  5
F10492
330
261
100
AcDbEntity
  8
Geo
100
AcDbLine
 10
-23.13081225216429
 20
-1.785217146303629
 30
0.0
 11
-23.03081225216429
 21
-1.79506513253353
 31
0.0
  0
LINE
  5
F10494
330
261
100
AcDbEntity
  8
Geo
100
AcDbLine
 10
-23.13081225216429
 20
0.3977264449365663
 30
0.0
 11
-23.03081225216429
 21
0.3366473138567727
 31
0.0
  0
LINE
  5
F10496
330
261
100
AcDbEntity
  8
Geo
100
AcDbLine
 10
-23.13081225216429
 20
0.1916458576076678
 30
0.0
 11
-23.03081225216429
 21
0.1271975814601731
 31
0.0
  0
LINE
  5
F10498
330
261
100
AcDbEntity
  8
Geo
100
AcDbLine
 10
-23.03081225216429
 20
-1.774297584983429
 30
0.0
 11
-22.93081225216428
 21
-1.79158065989263
 31
0.0
  0
LINE
  5
F1049A
330
261
100
AcDbEntity
  8
Geo
100
AcDbLine
 10
-23.03081225216429
 20
-1.79506513253353
 30
0.0
 11
-22.93081225216428
 21
-1.80104056916523
 31
0.0
  0
LINE
  5
F1049C
330
261
100
AcDbEntity
  8
Geo
100
AcDbLine
 10
-23.03081225216429
 20
0.3366473138567727
 30
0.0
 11
-22.93081225216428
 21
0.2741024694020666
 31
0.0
  0
LINE
  5
F1049E
330
261
100
AcDbEntity
  8
Geo
100
AcDbLine
 10
-23.03081225216429
 20
0.1271975814601731
 30
0.0
 11
-22.93081225216428
 21
0.0617399145510689
 31
0.0
  0
LINE
  5
F104A0
330
261
100
AcDbEntity
  8
Geo
100
AcDbLine
 10
-22.93081225216428
 20
-1.79158065989263
 30
0.0
 11
-22.83081225216427
 21
-1.805000434131635
 31
0.0
  0
LINE
  5
F104A2
330
261
100
AcDbEntity
  8
Geo
100
AcDbLine
 10
-22.93081225216428
 20
-1.80104056916523
 30
0.0
 11
-22.83081225216427
 21
-1.803127595439434
 31
0.0
  0
LINE
  5
F104A4
330
261
100
AcDbEntity
  8
Geo
100
AcDbLine
 10
-22.93081225216428
 20
0.2741024694020666
 30
0.0
 11
-22.83081225216427
 21
0.2102281763769724
 31
0.0
  0
LINE
  5
F104A6
330
261
100
AcDbEntity
  8
Geo
100
AcDbLine
 10
-22.93081225216428
 20
0.0617399145510689
 30
0.0
 11
-22.83081225216427
 21
-0.0045845322255289
 31
0.0
  0
LINE
  5
F104A8
330
261
100
AcDbEntity
  8
Geo
100
AcDbLine
 10
-22.83081225216427
 20
-1.805000434131635
 30
0.0
 11
-22.73081225216428
 21
-1.814521287238832
 31
0.0
  0
LINE
  5
F104AA
330
261
100
AcDbEntity
  8
Geo
100
AcDbLine
 10
-22.83081225216427
 20
0.2102281763769724
 30
0.0
 11
-22.73081225216428
 21
0.1451635960208719
 31
0.0
  0
LINE
  5
F104AC
330
261
100
AcDbEntity
  8
Geo
100
AcDbLine
 10
-22.83081225216427
 20
-0.0045845322255289
 30
0.0
 11
-22.73081225216428
 21
-0.0716312595448301
 31
0.0
  0
LINE
  5
F104AE
330
261
100
AcDbEntity
  8
Geo
100
AcDbLine
 10
-22.73081225216428
 20
-1.814521287238832
 30
0.0
 11
-22.63081225216427
 21
-1.820117947761829
 31
0.0
  0
LINE
  5
F104B0
330
261
100
AcDbEntity
  8
Geo
100
AcDbLine
 10
-22.73081225216428
 20
1.129105499096169
 30
0.0
 11
-22.63081225216427
 21
1.123409421522566
 31
0.0
  0
LINE
  5
F104B2
330
261
100
AcDbEntity
  8
Geo
100
AcDbLine
 10
-22.73081225216428
 20
0.1451635960208719
 30
0.0
 11
-22.63081225216427
 21
0.0790504828206693
 31
0.0
  0
LINE
  5
F104B4
330
261
100
AcDbEntity
  8
Geo
100
AcDbLine
 10
-22.73081225216428
 20
-0.0716312595448301
 30
0.0
 11
-22.63081225216427
 21
-0.1392541944688332
 31
0.0
  0
LINE
  5
F104B6
330
261
100
AcDbEntity
  8
Geo
100
AcDbLine
 10
-22.63081225216427
 20
1.123409421522566
 30
0.0
 11
-22.53081225216428
 21
1.113839309357167
 31
0.0
  0
LINE
  5
F104B8
330
261
100
AcDbEntity
  8
Geo
100
AcDbLine
 10
-22.63081225216427
 20
0.0790504828206693
 30
0.0
 11
-22.53081225216428
 21
0.0120328756738673
 31
0.0
  0
LINE
  5
F104BA
330
261
100
AcDbEntity
  8
Geo
100
AcDbLine
 10
-22.63081225216427
 20
-0.1392541944688332
 30
0.0
 11
-22.53081225216428
 21
-0.207306008690729
 31
0.0
  0
LINE
  5
F104BC
330
261
100
AcDbEntity
  8
Geo
100
AcDbLine
 10
-22.53081225216428
 20
1.149560387725969
 30
0.0
 11
-22.43081225216428
 21
1.147274552507965
 31
0.0
  0
LINE
  5
F104BE
330
261
100
AcDbEntity
  8
Geo
100
AcDbLine
 10
-22.53081225216428
 20
1.113839309357167
 30
0.0
 11
-22.43081225216428
 21
1.100420564801765
 31
0.0
  0
LINE
  5
F104C0
330
261
100
AcDbEntity
  8
Geo
100
AcDbLine
 10
-22.53081225216428
 20
0.0120328756738673
 30
0.0
 11
-22.43081225216428
 21
-0.0557432159243305
 31
0.0
  0
LINE
  5
F104C2
330
261
100
AcDbEntity
  8
Geo
100
AcDbLine
 10
-22.53081225216428
 20
-0.207306008690729
 30
0.0
 11
-22.43081225216428
 21
-0.2756384395161291
 31
0.0
  0
LINE
  5
F104C4
330
261
100
AcDbEntity
  8
Geo
100
AcDbLine
 10
-22.43081225216428
 20
1.147274552507965
 30
0.0
 11
-22.33081225216427
 21
1.141051336849869
 31
0.0
  0
LINE
  5
F104C6
330
261
100
AcDbEntity
  8
Geo
100
AcDbLine
 10
-22.43081225216428
 20
1.100420564801765
 30
0.0
 11
-22.33081225216427
 21
1.083188805584967
 31
0.0
  0
LINE
  5
F104C8
330
261
100
AcDbEntity
  8
Geo
100
AcDbLine
 10
-22.43081225216428
 20
-0.0557432159243305
 30
0.0
 11
-22.33081225216427
 21
-0.1241301299892257
 31
0.0
  0
LINE
  5
F104CA
330
261
100
AcDbEntity
  8
Geo
100
AcDbLine
 10
-22.43081225216428
 20
-0.2756384395161291
 30
0.0
 11
-22.33081225216427
 21
-0.3441026128783307
 31
0.0
  0
LINE
  5
F104CC
330
261
100
AcDbEntity
  8
Geo
100
AcDbLine
 10
-22.33081225216427
 20
1.141051336849869
 30
0.0
 11
-22.23081225216428
 21
1.130907259197464
 31
0.0
  0
LINE
  5
F104CE
330
261
100
AcDbEntity
  8
Geo
100
AcDbLine
 10
-22.33081225216427
 20
1.083188805584967
 30
0.0
 11
-22.23081225216428
 21
1.062189770420872
 31
0.0
  0
LINE
  5
F104D0
330
261
100
AcDbEntity
  8
Geo
100
AcDbLine
 10
-22.33081225216427
 20
-0.1241301299892257
 30
0.0
 11
-22.23081225216428
 21
-0.1929788737528355
 31
0.0
  0
LINE
  5
F104D2
330
261
100
AcDbEntity
  8
Geo
100
AcDbLine
 10
-22.33081225216427
 20
-0.3441026128783307
 30
0.0
 11
-22.23081225216428
 21
-0.4125493676868289
 31
0.0
  0
LINE
  5
F104D4
330
261
100
AcDbEntity
  8
Geo
100
AcDbLine
 10
-22.23081225216428
 20
1.130907259197464
 30
0.0
 11
-22.13081225216427
 21
1.116869245244465
 31
0.0
  0
LINE
  5
F104D6
330
261
100
AcDbEntity
  8
Geo
100
AcDbLine
 10
-22.23081225216428
 20
1.062189770420872
 30
0.0
 11
-22.13081225216427
 21
1.037479197603872
 31
0.0
  0
LINE
  5
F104D8
330
261
100
AcDbEntity
  8
Geo
100
AcDbLine
 10
-22.23081225216428
 20
-0.1929788737528355
 30
0.0
 11
-22.13081225216427
 21
-0.2621394482713342
 31
0.0
  0
LINE
  5
F104DA
330
261
100
AcDbEntity
  8
Geo
100
AcDbLine
 10
-22.23081225216428
 20
-0.4125493676868289
 30
0.0
 11
-22.13081225216427
 21
-0.4808295808003323
 31
0.0
  0
LINE
  5
F104DC
330
261
100
AcDbEntity
  8
Geo
100
AcDbLine
 10
-22.13081225216427
 20
1.116869245244465
 30
0.0
 11
-22.03081225216427
 21
1.098974556462565
 31
0.0
  0
LINE
  5
F104DE
330
261
100
AcDbEntity
  8
Geo
100
AcDbLine
 10
-22.13081225216427
 20
1.037479197603872
 30
0.0
 11
-22.03081225216427
 21
1.009122677060872
 31
0.0
  0
LINE
  5
F104E0
330
261
100
AcDbEntity
  8
Geo
100
AcDbLine
 10
-22.13081225216427
 20
-0.2621394482713342
 30
0.0
 11
-22.03081225216427
 21
-0.3314611752231329
 31
0.0
  0
LINE
  5
F104E2
330
261
100
AcDbEntity
  8
Geo
100
AcDbLine
 10
-22.13081225216427
 20
-0.4808295808003323
 30
0.0
 11
-22.03081225216427
 21
-0.5487944919176329
 31
0.0
  0
LINE
  5
F104E4
330
261
100
AcDbEntity
  8
Geo
100
AcDbLine
 10
-22.03081225216427
 20
1.098974556462565
 30
0.0
 11
-21.93081225216428
 21
1.077270691197369
 31
0.0
  0
LINE
  5
F104E6
330
261
100
AcDbEntity
  8
Geo
100
AcDbLine
 10
-22.03081225216427
 20
1.009122677060872
 30
0.0
 11
-21.93081225216428
 21
0.9771954762542733
 31
0.0
  0
LINE
  5
F104E8
330
261
100
AcDbEntity
  8
Geo
100
AcDbLine
 10
-22.03081225216427
 20
-0.3314611752231329
 30
0.0
 11
-21.93081225216428
 21
-0.4007930251884347
 31
0.0
  0
LINE
  5
F104EA
330
261
100
AcDbEntity
  8
Geo
100
AcDbLine
 10
-22.03081225216427
 20
-0.5487944919176329
 30
0.0
 11
-21.93081225216428
 21
-0.616296027677727
 31
0.0
  0
LINE
  5
F104EC
330
261
100
AcDbEntity
  8
Geo
100
AcDbLine
 10
-26.93081225216428
 20
-0.336107586305431
 30
0.0
 11
-26.93081225216428
 21
-0.336107586305431
 31
0.0
  0
LINE
  5
F104EE
330
261
100
AcDbEntity
  8
Geo
100
AcDbLine
 10
-26.93081225216428
 20
-0.336107586305431
 30
0.0
 11
-26.93081225216428
 21
-0.336107586305431
 31
0.0
  0
LINE
  5
F104F0
330
261
100
AcDbEntity
  8
Geo
100
AcDbLine
 10
-27.93081225216428
 20
-0.336107586305431
 30
0.0
 11
-27.63081225216428
 21
-0.336107586305431
 31
0.0
  0
LINE
  5
F104F2
330
261
100
AcDbEntity
  8
Geo
100
AcDbLine
 10
-27.50331225216429
 20
-0.336107586305431
 30
0.0
 11
-27.41831225216428
 21
-0.336107586305431
 31
0.0
  0
LINE
  5
F104F4
330
261
100
AcDbEntity
  8
Geo
100
AcDbLine
 10
-27.20581225216429
 20
-0.336107586305431
 30
0.0
 11
-26.78081225216429
 21
-0.336107586305431
 31
0.0
  0
LINE
  5
F104F6
330
261
100
AcDbEntity
  8
Geo
100
AcDbLine
 10
-26.65331225216429
 20
-0.336107586305431
 30
0.0
 11
-26.56831225216429
 21
-0.336107586305431
 31
0.0
  0
LINE
  5
F104F8
330
261
100
AcDbEntity
  8
Geo
100
AcDbLine
 10
-26.35581225216428
 20
-0.336107586305431
 30
0.0
 11
-25.93081225216428
 21
-0.336107586305431
 31
0.0
  0
LINE
  5
F104FA
330
261
100
AcDbEntity
  8
Geo
100
AcDbLine
 10
23.06918774783573
 20
2.26389241369457
 30
0.0
 11
23.06918774783573
 21
-0.336107586305431
 31
0.0
  0
LINE
  5
F104FC
330
261
100
AcDbEntity
  8
Geo
100
AcDbLine
 10
-26.93081225216428
 20
-0.336107586305431
 30
0.0
 11
-26.93081225216428
 21
-1.76610758630543
 31
0.0
  0
LINE
  5
F104FE
330
261
100
AcDbEntity
  8
Geo
100
AcDbLine
 10
-26.93081225216428
 20
-1.76610758630543
 30
0.0
 11
-26.86081225216429
 21
-1.836107586305431
 31
0.0
  0
LINE
  5
F10500
330
261
100
AcDbEntity
  8
Geo
100
AcDbLine
 10
-26.86081225216429
 20
-1.836107586305431
 30
0.0
 11
-18.93081225216428
 21
-1.836107586305431
 31
0.0
  0
LINE
  5
F10502
330
261
100
AcDbEntity
  8
Geo
100
AcDbLine
 10
-18.93081225216428
 20
-1.836107586305431
 30
0.0
 11
-13.33273604081096
 21
-3.336107586305434
 31
0.0
  0
LINE
  5
F10504
330
261
100
AcDbEntity
  8
Geo
100
AcDbLine
 10
-13.33273604081096
 20
-3.336107586305434
 30
0.0
 11
-12.93081225216428
 21
-3.336107586305434
 31
0.0
  0
LINE
  5
F10506
330
261
100
AcDbEntity
  8
Geo
100
AcDbLine
 10
-12.93081225216428
 20
-3.336107586305434
 30
0.0
 11
22.66918774783574
 21
-3.336107586305434
 31
0.0
  0
LINE
  5
F10508
330
261
100
AcDbEntity
  8
Geo
100
AcDbLine
 10
22.66918774783574
 20
-3.336107586305434
 30
0.0
 11
23.06918774783573
 21
-2.936107586305432
 31
0.0
  0
LINE
  5
F1050A
330
261
100
AcDbEntity
  8
Geo
100
AcDbLine
 10
-26.93081225216428
 20
1.093892413694568
 30
0.0
 11
-26.93081225216428
 21
-1.76610758630543
 31
0.0
  0
LINE
  5
F1050C
330
261
100
AcDbEntity
  8
Geo
100
AcDbLine
 10
-26.86081225216429
 20
1.163892413694568
 30
0.0
 11
-26.86081225216429
 21
-1.836107586305431
 31
0.0
  0
LINE
  5
F1050E
330
261
100
AcDbEntity
  8
Geo
100
AcDbLine
 10
-26.86081225216429
 20
1.163892413694568
 30
0.0
 11
-26.86081225216429
 21
-1.836107586305431
 31
0.0
  0
LINE
  5
F10510
330
261
100
AcDbEntity
  8
Geo
100
AcDbLine
 10
-18.93081225216428
 20
1.163892413694568
 30
0.0
 11
-18.93081225216428
 21
-1.836107586305431
 31
0.0
  0
LINE
  5
F10512
330
261
100
AcDbEntity
  8
Geo
100
AcDbLine
 10
-18.93081225216428
 20
1.163892413694568
 30
0.0
 11
-18.93081225216428
 21
-1.836107586305431
 31
0.0
  0
LINE
  5
F10514
330
261
100
AcDbEntity
  8
Geo
100
AcDbLine
 10
-13.33273604081096
 20
2.663892413694568
 30
0.0
 11
-13.33273604081096
 21
-3.336107586305434
 31
0.0
  0
LINE
  5
F10516
330
261
100
AcDbEntity
  8
Geo
100
AcDbLine
 10
-12.93081225216428
 20
2.663892413694568
 30
0.0
 11
-12.93081225216428
 21
-3.336107586305434
 31
0.0
  0
LINE
  5
F10518
330
261
100
AcDbEntity
  8
Geo
100
AcDbLine
 10
-12.93081225216428
 20
2.663892413694568
 30
0.0
 11
-12.93081225216428
 21
-3.336107586305434
 31
0.0
  0
LINE
  5
F1051A
330
261
100
AcDbEntity
  8
Geo
100
AcDbLine
 10
22.66918774783574
 20
2.663892413694568
 30
0.0
 11
22.66918774783574
 21
-3.336107586305434
 31
0.0
  0
LINE
  5
F1051C
330
261
100
AcDbEntity
  8
Geo
100
AcDbLine
 10
23.06918774783573
 20
2.26389241369457
 30
0.0
 11
23.06918774783573
 21
-2.936107586305432
 31
0.0
  0
TEXT
  5
F10540
330
261
100
AcDbEntity
  8
Text
100
AcDbText
 10
-18.2253886010363
 20
-62.2392055267703
 30
0.0
 40
2.0
  1

100
AcDbText
  0
TEXT
  5
F10550
330
261
100
AcDbEntity
  8
Text
100
AcDbText
 10
-18.2253886010363
 20
-70.1278065630397
 30
0.0
 40
2.0
  1

100
AcDbText
  0
TEXT
  5
F105F4
330
261
100
AcDbEntity
  8
Text
100
AcDbText
 10
91.12694300518128
 20
-64.29274611398961
 30
0.0
 40
1.5
  1

100
AcDbText
  0
TEXT
  5
F105F8
330
261
100
AcDbEntity
  8
Text
100
AcDbText
 10
121.321243523316
 20
-64.29274611398961
 30
0.0
 40
1.5
  1

100
AcDbText
  0
TEXT
  5
F105FC
330
261
100
AcDbEntity
  8
Text
100
AcDbText
 10
91.12694300518128
 20
-67.28497409326429
 30
0.0
 40
1.5
  1

100
AcDbText
  0
TEXT
  5
F10600
330
261
100
AcDbEntity
  8
Text
100
AcDbText
 10
121.321243523316
 20
-67.28497409326429
 30
0.0
 40
1.5
  1

100
AcDbText
  0
LWPOLYLINE
  5
F1060A
330
261
100
AcDbEntity
  8
Rahmen
100
AcDbPolyline
 90
        4
 70
     1
 43
0.0
 10
-134.650259067358
 20
99.8316062176166
 10
143.354922279793
 20
99.8316062176166
 10
143.354922279793
 20
-100.103626943005
 10
-134.650259067358
 20
-100.103626943005
  0
LWPOLYLINE
  5
F1060E
330
261
100
AcDbEntity
  8
Rahmen
100
AcDbPolyline
 90
        4
 70
     1
 43
0.0
 10
103.367875647668
 20
-97.11139896373062
 10
143.354922279793
 20
-97.11139896373062
 10
143.354922279793
 20
-100.103626943005
 10
103.367875647668
 20
-100.103626943005
  0
TEXT
  5
F10610
330
261
100
AcDbEntity
  8
Text
100
AcDbText
 10
104.455958549223
 20
-98.11139896373061
 30
0.0
 40
0.75
  1
Ers. durch:
100
AcDbText
  0
LWPOLYLINE
  5
F10614
330
261
100
AcDbEntity
  8
Rahmen
100
AcDbPolyline
 90
        4
 70
     1
 43
0.0
 10
63.380829015544
 20
-97.11139896373062
 10
103.367875647668
 20
-97.11139896373062
 10
103.367875647668
 20
-100.103626943005
 10
63.380829015544
 20
-100.103626943005
  0
TEXT
  5
F10616
330
261
100
AcDbEntity
  8
Text
100
AcDbText
 10
64.46891191709839
 20
-98.11139896373061
 30
0.0
 40
0.75
  1
Ers. für:
100
AcDbText
  0
TEXT
  5
F10618
330
261
100
AcDbEntity
  8
Text
100
AcDbText
 10
91.39896373056991
 20
-99.4715025906736
 30
0.0
 40
0.75
  1

100
AcDbText
  0
LWPOLYLINE
  5
F1061A
330
261
100
AcDbEntity
  8
Rahmen
100
AcDbPolyline
 90
        4
 70
     1
 43
0.0
 10
130.025906735751
 20
-94.119170984456
 10
143.354922279793
 20
-94.119170984456
 10
143.354922279793
 20
-97.11139896373062
 10
130.025906735751
 20
-97.11139896373062
  0
TEXT
  5
F1061C
330
261
100
AcDbEntity
  8
Text
100
AcDbText
 10
131.113989637306
 20
-95.119170984456
 30
0.0
 40
0.75
  1
Blätter
100
AcDbText
  0
TEXT
  5
F1061E
330
261
100
AcDbEntity
  8
Text
100
AcDbText
 10
141.178756476684
 20
-96.479274611399
 30
0.0
 40
0.75
  1

100
AcDbText
  0
LWPOLYLINE
  5
F10620
330
261
100
AcDbEntity
  8
Rahmen
100
AcDbPolyline
 90
        4
 70
     1
 43
0.0
 10
130.025906735751
 20
-91.12694300518128
 10
143.354922279793
 20
-91.12694300518128
 10
143.354922279793
 20
-94.119170984456
 10
130.025906735751
 20
-94.119170984456
  0
TEXT
  5
F10622
330
261
100
AcDbEntity
  8
Text
100
AcDbText
 10
131.113989637306
 20
-92.12694300518128
 30
0.0
 40
0.75
  1
Blatt
100
AcDbText
  0
TEXT
  5
F10624
330
261
100
AcDbEntity
  8
Text
100
AcDbText
 10
141.178756476684
 20
-93.48704663212428
 30
0.0
 40
0.75
  1

100
AcDbText
  0
LWPOLYLINE
  5
F10626
330
261
100
AcDbEntity
  8
Rahmen
100
AcDbPolyline
 90
        4
 70
     1
 43
0.0
 10
63.380829015544
 20
-91.12694300518128
 10
130.025906735751
 20
-91.12694300518128
 10
130.025906735751
 20
-97.11139896373062
 10
63.380829015544
 20
-97.11139896373062
  0
TEXT
  5
F10628
330
261
100
AcDbEntity
  8
Text
100
AcDbText
 10
64.46891191709839
 20
-92.12694300518128
 30
0.0
 40
0.75
  1
Datum:
100
AcDbText
  0
LWPOLYLINE
  5
F1062C
330
261
100
AcDbEntity
  8
Rahmen
100
AcDbPolyline
 90
        4
 70
     1
 43
0.0
 10
63.380829015544
 20
-85.14248704663208
 10
143.354922279793
 20
-85.14248704663208
 10
143.354922279793
 20
-91.12694300518128
 10
63.380829015544
 20
-91.12694300518128
  0
TEXT
  5
F1062E
330
261
100
AcDbEntity
  8
Text
100
AcDbText
 10
-208.09585492228
 20
103.0
 30
0.0
 40
1.5
  1

100
AcDbText
  0
TEXT
  5
F10630
330
261
100
AcDbEntity
  8
Text
100
AcDbText
 10
82.1502590673575
 20
-89.01986183074269
 30
0.0
 40
2.5
  1
7300-030
100
AcDbText
  0
LWPOLYLINE
  5
F10632
330
261
100
AcDbEntity
  8
Rahmen
100
AcDbPolyline
 90
        4
 70
     1
 43
0.0
 10
103.367875647668
 20
-79.1580310880829
 10
143.354922279793
 20
-79.1580310880829
 10
143.354922279793
 20
-85.14248704663208
 10
103.367875647668
 20
-85.14248704663208
  0
TEXT
  5
F10634
330
261
100
AcDbEntity
  8
Text
100
AcDbText
 10
104.455958549223
 20
-80.1580310880829
 30
0.0
 40
0.75
  1
Zu bearb. Material:
100
AcDbText
  0
LWPOLYLINE
  5
F10638
330
261
100
AcDbEntity
  8
Rahmen
100
AcDbPolyline
 90
        4
 70
     1
 43
0.0
 10
63.380829015544
 20
-79.1580310880829
 10
103.367875647668
 20
-79.1580310880829
 10
103.367875647668
 20
-85.14248704663208
 10
63.380829015544
 20
-85.14248704663208
  0
TEXT
  5
F1063A
330
261
100
AcDbEntity
  8
Text
100
AcDbText
 10
64.46891191709839
 20
-80.1580310880829
 30
0.0
 40
0.75
  1
Werkstoff:
100
AcDbText
  0
LWPOLYLINE
  5
F1063E
330
261
100
AcDbEntity
  8
Rahmen
100
AcDbPolyline
 90
        4
 70
     1
 43
0.0
 10
103.367875647668
 20
-76.16580310880831
 10
143.354922279793
 20
-76.16580310880831
 10
143.354922279793
 20
-79.1580310880829
 10
103.367875647668
 20
-79.1580310880829
  0
TEXT
  5
F10640
330
261
100
AcDbEntity
  8
Text
100
AcDbText
 10
-208.09585492228
 20
103.0
 30
0.0
 40
1.5
  1

100
AcDbText
  0
LWPOLYLINE
  5
F10644
330
261
100
AcDbEntity
  8
Rahmen
100
AcDbPolyline
 90
        4
 70
     1
 43
0.0
 10
63.380829015544
 20
-76.16580310880831
 10
103.367875647668
 20
-76.16580310880831
 10
103.367875647668
 20
-79.1580310880829
 10
63.380829015544
 20
-79.1580310880829
  0
TEXT
  5
F10646
330
261
100
AcDbEntity
  8
Text
100
AcDbText
 10
64.46891191709839
 20
-77.1658031088083
 30
0.0
 40
0.75
  1
Maßstab:
100
AcDbText
  0
VIEWPORT
  5
294
102
{ACAD_XDICTIONARY
360
F1080C
102
}
330
25D
100
AcDbEntity
 67
     1
  8
0
 60
     1
100
AcDbViewport
 10
0.0
 20
0.0
 30
0.0
 40
10.0
 41
10.0
 68
    -1
 69
     1
 12
0.0
 22
0.0
 13
0.0
 23
0.0
 14
1.0
 24
1.0
 15
0.0
 25
0.0
 16
0.0
 26
0.0
 36
1.0
 17
0.0
 27
0.0
 37
0.0
 42
0.0
 43
0.0
 44
0.0
 45
10.0
 50
0.0
 51
0.0000000000007958
 72
   100
 90
    32800
  1

281
     0
 71
     0
 74
     0
110
0.0
120
0.0
130
0.0
111
1.0
121
0.0
131
0.0
112
0.0
122
1.0
132
0.0
 79
     0
146
0.0
1001
VD_INVISIBLE_NOT_FOR_READ
1000
VD_INVISIBLE_NOT_FOR_READ
1001
GENIUS_GENSCREG_15
1000
PF
1040
1.0
1000
DF
1040
1.0
1000
MIN
1011
-5.0
1021
-5.0
1031
0.0
1000
MAX
1011
5.0
1021
5.0
1031
0.0
1000
FLAGS
1070
     4
1001
GENIUS_GENODEF_13
1002
{
1000
HIER
1070
     0
1002
}
1002
{
1000
MANEDIT
1070
     0
1002
}
1002
{
1000
NOSEL
1070
     0
1002
}
1002
{
1000
BEHIND
1070
     0
1002
}
1002
{
1000
OTHER
1070
     0
1002
}
1002
{
1000
REACTOR
1002
}
1001
GENIUS_GENOBJ-N-SDF_13
1002
{
1000
OWNER
1000
GEN
1002
}
  0
VIEWPORT
  5
295
102
{ACAD_XDICTIONARY
360
F1080E
102
}
330
25D
100
AcDbEntity
 67
     1
  8
0
 60
     1
100
AcDbViewport
 10
0.0
 20
0.0
 30
0.0
 40
10.0
 41
10.0
 68
     0
 69
     2
 12
0.0
 22
0.0
 13
0.0
 23
0.0
 14
1.0
 24
1.0
 15
0.0
 25
0.0
 16
0.0
 26
0.0
 36
1.0
 17
0.0
 27
0.0
 37
0.0
 42
0.0
 43
0.0
 44
0.0
 45
10.0
 50
0.0
 51
0.0000000000007958
 72
   100
 90
   163872
  1

281
     0
 71
     0
 74
     0
110
0.0
120
0.0
130
0.0
111
1.0
121
0.0
131
0.0
112
0.0
122
1.0
132
0.0
 79
     0
146
0.0
1001
VD_INVISIBLE_NOT_FOR_READ
1000
VD_INVISIBLE_NOT_FOR_READ
1001
GENIUS_GENSCREG_15
1000
PF
1040
1.0
1000
DF
1040
1.0
1000
MIN
1011
-5.0
1021
-5.0
1031
0.0
1000
MAX
1011
5.0
1021
5.0
1031
0.0
1000
FLAGS
1070
     4
1001
GENIUS_GENOBJ-N-SDF_13
1002
{
1000
OWNER
1000
GEN
1002
}
1001
GENIUS_GENODEF_13
1002
{
1000
HIER
1070
     0
1002
}
1002
{
1000
MANEDIT
1070
     0
1002
}
1002
{
1000
NOSEL
1070
     0
1002
}
1002
{
1000
BEHIND
1070
     0
1002
}
1002
{
1000
OTHER
1070
     0
1002
}
1002
{
1000
REACTOR
1002
}
  0
ENDSEC
  0
SECTION
  2
OBJECTS
  0
DICTIONARY
  5
13
330
0
100
AcDbDictionary
281
     1
  3
ACAD_COLOR
350
FA7
  3
ACAD_GROUP
350
14
  3
ACAD_LAYOUT
350
FCF
  3
ACAD_MATERIAL
350
F7A
  3
ACAD_MLEADERSTYLE
350
FCD
  3
ACAD_MLINESTYLE
350
16
  3
ACAD_PLOTSETTINGS
350
17
  3
ACAD_PLOTSTYLENAME
350
18
  3
ACAD_SCALELIST
350
FAB
  3
ACAD_TABLESTYLE
350
FA8
  3
ACAD_VISUALSTYLE
350
F93
  3
ACDB_RECOMPOSE_DATA
350
F1080A
  3
AcDbVariableDictionary
350
F10801
  3
AcmDictionary
350
F1069F
  3
AMG
350
F10653
  3
AMGSNAPSETTINGS
350
F10734
  3
DWGPROPS
350
F1080B
  0
DICTIONARY
  5
F107F7
330
252
100
AcDbDictionary
280
     1
281
     1
  3
ADSK_XREC_LAYER_RECONCILED
360
F107F8
  0
DICTIONARY
  5
F107F9
330
23F
100
AcDbDictionary
280
     1
281
     1
  3
ADSK_XREC_LAYER_RECONCILED
360
F107FA
  0
DICTIONARY
  5
F107FB
330
240
100
AcDbDictionary
280
     1
281
     1
  3
ADSK_XREC_LAYER_RECONCILED
360
F107FC
  0
DICTIONARY
  5
F107FD
330
241
100
AcDbDictionary
280
     1
281
     1
  3
ADSK_XREC_LAYER_RECONCILED
360
F107FE
  0
DICTIONARY
  5
F107FF
330
57E
100
AcDbDictionary
280
     1
281
     1
  3
ADSK_XREC_LAYER_RECONCILED
360
F10800
  0
DICTIONARY
  5
F10810
330
296
100
AcDbDictionary
280
     1
281
     1
  3
ACAD_XREC_ROUNDTRIP
360
F10811
  0
DICTIONARY
  5
F10812
330
297
100
AcDbDictionary
280
     1
281
     1
  3
ACAD_XREC_ROUNDTRIP
360
F10813
  0
DICTIONARY
  5
F1080C
330
294
100
AcDbDictionary
280
     1
281
     1
  3
ACAD_XREC_ROUNDTRIP
360
F1080D
  0
DICTIONARY
  5
F1080E
330
295
100
AcDbDictionary
280
     1
281
     1
  3
ACAD_XREC_ROUNDTRIP
360
F1080F
  0
DICTIONARY
  5
FA7
102
{ACAD_REACTORS
330
13
102
}
330
13
100
AcDbDictionary
281
     1
  0
DICTIONARY
  5
14
330
13
100
AcDbDictionary
281
     1
  0
DICTIONARY
  5
FCF
102
{ACAD_REACTORS
330
13
102
}
330
13
100
AcDbDictionary
281
     1
  3
Layout1
350
FD1
  3
Model
350
FD0
  0
DICTIONARY
  5
F7A
102
{ACAD_REACTORS
330
13
102
}
330
13
100
AcDbDictionary
281
     1
  3
ByBlock
350
F83
  3
ByLayer
350
F7B
  3
Global
350
F8B
  0
DICTIONARY
  5
FCD
102
{ACAD_REACTORS
330
13
102
}
330
13
100
AcDbDictionary
281
     1
  3
Standard
350
FCE
  0
DICTIONARY
  5
16
330
13
100
AcDbDictionary
281
     1
  3
Standard
350
FAA
  0
DICTIONARY
  5
17
102
{ACAD_REACTORS
330
13
102
}
330
13
100
AcDbDictionary
281
     1
  0
ACDBDICTIONARYWDFLT
  5
18
102
{ACAD_REACTORS
330
13
102
}
330
13
100
AcDbDictionary
281
     1
  3
Normal
350
19
100
AcDbDictionaryWithDefault
340
19
  0
DICTIONARY
  5
FAB
102
{ACAD_REACTORS
330
13
102
}
330
13
100
AcDbDictionary
281
     1
  3
A0
350
FAC
  3
A1
350
FAD
  3
A2
350
FAE
  3
A3
350
FAF
  3
A4
350
FB0
  3
A5
350
FB1
  3
A6
350
FB2
  3
A7
350
FB3
  3
A8
350
FB4
  3
A9
350
FB5
  3
B0
350
FB6
  3
B1
350
FB7
  3
B2
350
FB8
  3
B3
350
FB9
  3
B4
350
FBA
  3
B5
350
FBB
  3
B6
350
FBC
  3
B7
350
FBD
  3
B8
350
FBE
  3
B9
350
FBF
  3
C0
350
FC0
  3
C1
350
FC1
  3
C2
350
FC2
  3
C3
350
FC3
  3
C4
350
FC4
  3
C5
350
FC5
  3
C6
350
FC6
  3
C7
350
FC7
  3
C8
350
FC8
  3
C9
350
FC9
  3
D0
350
FCA
  3
D1
350
FCB
  3
D2
350
FCC
  0
DICTIONARY
  5
FA8
102
{ACAD_REACTORS
330
13
102
}
330
13
100
AcDbDictionary
281
     1
  3
Standard
350
FA9
  0
DICTIONARY
  5
F93
102
{ACAD_REACTORS
330
13
102
}
330
13
100
AcDbDictionary
281
     1
  3
2dWireframe
350
F99
  3
3D Hidden
350
F9B
  3
3dWireframe
350
F9A
  3
Basic
350
F98
  3
Brighten
350
F9F
  3
ColorChange
350
FA3
  3
Conceptual
350
F9C
  3
Dim
350
F9E
  3
EdgeColorOff
350
FA6
  3
Facepattern
350
FA2
  3
Flat
350
F94
  3
FlatWithEdges
350
F95
  3
Gouraud
350
F96
  3
GouraudWithEdges
350
F97
  3
Hidden
350
F1064B
  3
JitterOff
350
FA4
  3
Linepattern
350
FA1
  3
OverhangOff
350
FA5
  3
Realistic
350
F9D
  3
Shaded
350
F10650
  3
Shaded with edges
350
F1064F
  3
Shades of Gray
350
F1064C
  3
Sketchy
350
F1064D
  3
Thicken
350
FA0
  3
Wireframe
350
F1064A
  3
X-Ray
350
F1064E
  0
XRECORD
  5
F1080A
102
{ACAD_REACTORS
330
13
102
}
330
13
100
AcDbXrecord
280
     1
 90
        1
330
FA9
  0
DICTIONARY
  5
F10801
102
{ACAD_REACTORS
330
13
102
}
330
13
100
AcDbDictionary
281
     1
  3
CANNOSCALE
350
F10804
  3
CMLEADERSTYLE
350
F10803
  3
CTABLESTYLE
350
F10802
  3
DIMASSOC
350
F10807
  3
INDEXCTL
350
F10806
  3
SORTENTS
350
F10805
  3
XCLIPFRAME
350
F10808
  0
DICTIONARY
  5
F1069F
102
{ACAD_REACTORS
330
13
102
}
330
13
100
AcDbDictionary
281
     1
  3
AcmStdDictionary
350
F106AA
  0
DICTIONARY
  5
F10653
102
{ACAD_REACTORS
330
13
102
}
330
13
100
AcDbDictionary
281
     1
  0
DICTIONARY
  5
F10734
102
{ACAD_REACTORS
330
13
102
}
330
13
100
AcDbDictionary
281
     1
  0
XRECORD
  5
F1080B
102
{ACAD_REACTORS
330
13
102
}
330
13
100
AcDbXrecord
280
     1
  1
DWGPROPS COOKIE
  2

  3

  4

  6

  7

  8
Steigner
  9

300
=
301
=
302
=
303
=
304
=
305
=
306
=
307
=
308
=
309
=
 40
0.0046726736111111
 41
2457073.64359
 42
2457073.64826176
  1

 90
        0
  0
XRECORD
  5
F107F8
102
{ACAD_REACTORS
330
F107F7
102
}
330
F107F7
100
AcDbXrecord
280
     1
290
     1
  0
XRECORD
  5
F107FA
102
{ACAD_REACTORS
330
F107F9
102
}
330
F107F9
100
AcDbXrecord
280
     1
290
     1
  0
XRECORD
  5
F107FC
102
{ACAD_REACTORS
330
F107FB
102
}
330
F107FB
100
AcDbXrecord
280
     1
290
     1
  0
XRECORD
  5
F107FE
102
{ACAD_REACTORS
330
F107FD
102
}
330
F107FD
100
AcDbXrecord
280
     1
290
     1
  0
XRECORD
  5
F10800
102
{ACAD_REACTORS
330
F107FF
102
}
330
F107FF
100
AcDbXrecord
280
     1
290
     1
  0
XRECORD
  5
F10811
102
{ACAD_REACTORS
330
F10810
102
}
330
F10810
100
AcDbXrecord
280
     1
102
SHADEPLOT
 70
     0
  0
XRECORD
  5
F10813
102
{ACAD_REACTORS
330
F10812
102
}
330
F10812
100
AcDbXrecord
280
     1
102
SHADEPLOT
 70
     0
  0
XRECORD
  5
F1080D
102
{ACAD_REACTORS
330
F1080C
102
}
330
F1080C
100
AcDbXrecord
280
     1
102
SHADEPLOT
 70
     0
  0
XRECORD
  5
F1080F
102
{ACAD_REACTORS
330
F1080E
102
}
330
F1080E
100
AcDbXrecord
280
     1
102
SHADEPLOT
 70
     0
  0
LAYOUT
  5
FD1
102
{ACAD_XDICTIONARY
360
F1083D
102
}
102
{ACAD_REACTORS
330
FCF
102
}
330
FCF
100
AcDbPlotSettings
  1

  2
Microsoft XPS Document Writer
  4

  6

 40
0.0
 41
0.0
 42
0.0
 43
0.0
 44
0.0
 45
0.0
 46
0.0
 47
0.0
 48
0.0
 49
0.0
140
0.0
141
0.0
142
1.0
143
1.0
 70
   688
 72
     0
 73
     0
 74
     5
  7

 75
    16
147
1.0
148
0.0
149
0.0
100
AcDbLayout
  1
Layout1
 70
     1
 71
     1
 10
0.0
 20
0.0
 11
12.0
 21
9.0
 12
0.0
 22
0.0
 32
0.0
 14
1.000000000000000E+20
 24
1.000000000000000E+20
 34
1.000000000000000E+20
 15
-1.000000000000000E+20
 25
-1.000000000000000E+20
 35
-1.000000000000000E+20
146
0.0
 13
0.0
 23
0.0
 33
0.0
 16
1.0
 26
0.0
 36
0.0
 17
0.0
 27
1.0
 37
0.0
 76
     0
330
25D
  0
LAYOUT
  5
FD0
102
{ACAD_XDICTIONARY
360
F1083B
102
}
102
{ACAD_REACTORS
330
FCF
102
}
330
FCF
100
AcDbPlotSettings
  1

  2
Microsoft XPS Document Writer
  4

  6

 40
0.0
 41
0.0
 42
0.0
 43
0.0
 44
0.0
 45
0.0
 46
0.0
 47
0.0
 48
0.0
 49
0.0
140
0.0
141
0.0
142
1.0
143
1.0
 70
  1712
 72
     0
 73
     0
 74
     0
  7

 75
     0
147
1.0
148
0.0
149
0.0
100
AcDbLayout
  1
Model
 70
     1
 71
     0
 10
0.0
 20
0.0
 11
12.0
 21
9.0
 12
0.0
 22
0.0
 32
0.0
 14
0.0
 24
0.0
 34
0.0
 15
0.0
 25
0.0
 35
0.0
146
0.0
 13
0.0
 23
0.0
 33
0.0
 16
1.0
 26
0.0
 36
0.0
 17
0.0
 27
1.0
 37
0.0
 76
     0
330
261
331
26B
  0
MATERIAL
  5
F83
102
{ACAD_XDICTIONARY
360
F84
102
}
102
{ACAD_REACTORS
330
F7A
102
}
330
F7A
100
AcDbMaterial
  1
ByBlock
 72
     0
 43
0.0208333333333333
 43
0.0
 43
0.0
 43
0.0
 43
0.0
 43
0.0208333333333333
 43
0.0
 43
0.0
 43
0.0
 43
0.0
 43
1.0
 43
0.0
 43
0.0
 43
0.0
 43
0.0
 43
1.0
 77
     0
 47
0.0208333333333333
 47
0.0
 47
0.0
 47
0.0
 47
0.0
 47
0.0208333333333333
 47
0.0
 47
0.0
 47
0.0
 47
0.0
 47
1.0
 47
0.0
 47
0.0
 47
0.0
 47
0.0
 47
1.0
171
     0
 49
0.0208333333333333
 49
0.0
 49
0.0
 49
0.0
 49
0.0
 49
0.0208333333333333
 49
0.0
 49
0.0
 49
0.0
 49
0.0
 49
1.0
 49
0.0
 49
0.0
 49
0.0
 49
0.0
 49
1.0
175
     0
142
0.0208333333333333
142
0.0
142
0.0
142
0.0
142
0.0
142
0.0208333333333333
142
0.0
142
0.0
142
0.0
142
0.0
142
1.0
142
0.0
142
0.0
142
0.0
142
0.0
142
1.0
179
     0
144
0.0208333333333333
144
0.0
144
0.0
144
0.0
144
0.0
144
0.0208333333333333
144
0.0
144
0.0
144
0.0
144
0.0
144
1.0
144
0.0
144
0.0
144
0.0
144
0.0
144
1.0
147
0.0208333333333333
147
0.0
147
0.0
147
0.0
147
0.0
147
0.0208333333333333
147
0.0
147
0.0
147
0.0
147
0.0
147
1.0
147
0.0
147
0.0
147
0.0
147
0.0
147
1.0
  0
MATERIAL
  5
F7B
102
{ACAD_XDICTIONARY
360
F7C
102
}
102
{ACAD_REACTORS
330
F7A
102
}
330
F7A
100
AcDbMaterial
  1
ByLayer
 72
     0
 43
0.0208333333333333
 43
0.0
 43
0.0
 43
0.0
 43
0.0
 43
0.0208333333333333
 43
0.0
 43
0.0
 43
0.0
 43
0.0
 43
1.0
 43
0.0
 43
0.0
 43
0.0
 43
0.0
 43
1.0
 77
     0
 47
0.0208333333333333
 47
0.0
 47
0.0
 47
0.0
 47
0.0
 47
0.0208333333333333
 47
0.0
 47
0.0
 47
0.0
 47
0.0
 47
1.0
 47
0.0
 47
0.0
 47
0.0
 47
0.0
 47
1.0
171
     0
 49
0.0208333333333333
 49
0.0
 49
0.0
 49
0.0
 49
0.0
 49
0.0208333333333333
 49
0.0
 49
0.0
 49
0.0
 49
0.0
 49
1.0
 49
0.0
 49
0.0
 49
0.0
 49
0.0
 49
1.0
175
     0
142
0.0208333333333333
142
0.0
142
0.0
142
0.0
142
0.0
142
0.0208333333333333
142
0.0
142
0.0
142
0.0
142
0.0
142
1.0
142
0.0
142
0.0
142
0.0
142
0.0
142
1.0
179
     0
144
0.0208333333333333
144
0.0
144
0.0
144
0.0
144
0.0
144
0.0208333333333333
144
0.0
144
0.0
144
0.0
144
0.0
144
1.0
144
0.0
144
0.0
144
0.0
144
0.0
144
1.0
147
0.0208333333333333
147
0.0
147
0.0
147
0.0
147
0.0
147
0.0208333333333333
147
0.0
147
0.0
147
0.0
147
0.0
147
1.0
147
0.0
147
0.0
147
0.0
147
0.0
147
1.0
  0
MATERIAL
  5
F8B
102
{ACAD_XDICTIONARY
360
F8C
102
}
102
{ACAD_REACTORS
330
F7A
102
}
330
F7A
100
AcDbMaterial
  1
Global
 72
     0
 43
0.0208333333333333
 43
0.0
 43
0.0
 43
0.0
 43
0.0
 43
0.0208333333333333
 43
0.0
 43
0.0
 43
0.0
 43
0.0
 43
1.0
 43
0.0
 43
0.0
 43
0.0
 43
0.0
 43
1.0
 77
     0
 47
0.0208333333333333
 47
0.0
 47
0.0
 47
0.0
 47
0.0
 47
0.0208333333333333
 47
0.0
 47
0.0
 47
0.0
 47
0.0
 47
1.0
 47
0.0
 47
0.0
 47
0.0
 47
0.0
 47
1.0
171
     0
 49
0.0208333333333333
 49
0.0
 49
0.0
 49
0.0
 49
0.0
 49
0.0208333333333333
 49
0.0
 49
0.0
 49
0.0
 49
0.0
 49
1.0
 49
0.0
 49
0.0
 49
0.0
 49
0.0
 49
1.0
175
     0
142
0.0208333333333333
142
0.0
142
0.0
142
0.0
142
0.0
142
0.0208333333333333
142
0.0
142
0.0
142
0.0
142
0.0
142
1.0
142
0.0
142
0.0
142
0.0
142
0.0
142
1.0
179
     0
144
0.0208333333333333
144
0.0
144
0.0
144
0.0
144
0.0
144
0.0208333333333333
144
0.0
144
0.0
144
0.0
144
0.0
144
1.0
144
0.0
144
0.0
144
0.0
144
0.0
144
1.0
147
0.0208333333333333
147
0.0
147
0.0
147
0.0
147
0.0
147
0.0208333333333333
147
0.0
147
0.0
147
0.0
147
0.0
147
1.0
147
0.0
147
0.0
147
0.0
147
0.0
147
1.0
  0
MLEADERSTYLE
  5
FCE
102
{ACAD_REACTORS
330
FCD
102
}
330
FCD
100
AcDbMLeaderStyle
170
     2
171
     1
172
     0
 90
        2
 40
0.0
 41
0.0
173
     1
 91
-1056964608
340
256
 92
       -2
290
     1
 42
0.09
291
     1
 43
0.36
  3
Standard
 44
0.18
300

342
253
174
     1
178
     6
175
     1
176
     0
 93
-1056964608
 45
0.18
292
     0
297
     0
 46
0.18
 94
-1056964608
 47
1.0
 49
1.0
140
1.0
293
     1
141
0.0
294
     1
177
     0
142
1.0
295
     0
296
     0
143
0.125
1001
ACAD_MLEADERVER
1070
     2
  0
MLINESTYLE
  5
FAA
102
{ACAD_REACTORS
330
16
102
}
330
16
100
AcDbMlineStyle
  2
STANDARD
 70
     0
  3

 62
   256
 51
90.0
 52
90.0
 71
     2
 49
0.5
 62
   256
  6
BYLAYER
 49
-0.5
 62
   256
  6
BYLAYER
  0
ACDBPLACEHOLDER
  5
19
102
{ACAD_REACTORS
330
18
102
}
330
18
  0
SCALE
  5
FAC
102
{ACAD_REACTORS
330
FAB
102
}
330
FAB
100
AcDbScale
 70
     0
300
1:1
140
1.0
141
1.0
290
     1
  0
SCALE
  5
FAD
102
{ACAD_REACTORS
330
FAB
102
}
330
FAB
100
AcDbScale
 70
     0
300
1:2
140
1.0
141
2.0
290
     0
  0
SCALE
  5
FAE
102
{ACAD_REACTORS
330
FAB
102
}
330
FAB
100
AcDbScale
 70
     0
300
1:4
140
1.0
141
4.0
290
     0
  0
SCALE
  5
FAF
102
{ACAD_REACTORS
330
FAB
102
}
330
FAB
100
AcDbScale
 70
     0
300
1:5
140
1.0
141
5.0
290
     0
  0
SCALE
  5
FB0
102
{ACAD_REACTORS
330
FAB
102
}
330
FAB
100
AcDbScale
 70
     0
300
1:8
140
1.0
141
8.0
290
     0
  0
SCALE
  5
FB1
102
{ACAD_REACTORS
330
FAB
102
}
330
FAB
100
AcDbScale
 70
     0
300
1:10
140
1.0
141
10.0
290
     0
  0
SCALE
  5
FB2
102
{ACAD_REACTORS
330
FAB
102
}
330
FAB
100
AcDbScale
 70
     0
300
1:16
140
1.0
141
16.0
290
     0
  0
SCALE
  5
FB3
102
{ACAD_REACTORS
330
FAB
102
}
330
FAB
100
AcDbScale
 70
     0
300
1:20
140
1.0
141
20.0
290
     0
  0
SCALE
  5
FB4
102
{ACAD_REACTORS
330
FAB
102
}
330
FAB
100
AcDbScale
 70
     0
300
1:30
140
1.0
141
30.0
290
     0
  0
SCALE
  5
FB5
102
{ACAD_REACTORS
330
FAB
102
}
330
FAB
100
AcDbScale
 70
     0
300
1:40
140
1.0
141
40.0
290
     0
  0
SCALE
  5
FB6
102
{ACAD_REACTORS
330
FAB
102
}
330
FAB
100
AcDbScale
 70
     0
300
1:50
140
1.0
141
50.0
290
     0
  0
SCALE
  5
FB7
102
{ACAD_REACTORS
330
FAB
102
}
330
FAB
100
AcDbScale
 70
     0
300
1:100
140
1.0
141
100.0
290
     0
  0
SCALE
  5
FB8
102
{ACAD_REACTORS
330
FAB
102
}
330
FAB
100
AcDbScale
 70
     0
300
2:1
140
2.0
141
1.0
290
     0
  0
SCALE
  5
FB9
102
{ACAD_REACTORS
330
FAB
102
}
330
FAB
100
AcDbScale
 70
     0
300
4:1
140
4.0
141
1.0
290
     0
  0
SCALE
  5
FBA
102
{ACAD_REACTORS
330
FAB
102
}
330
FAB
100
AcDbScale
 70
     0
300
8:1
140
8.0
141
1.0
290
     0
  0
SCALE
  5
FBB
102
{ACAD_REACTORS
330
FAB
102
}
330
FAB
100
AcDbScale
 70
     0
300
10:1
140
10.0
141
1.0
290
     0
  0
SCALE
  5
FBC
102
{ACAD_REACTORS
330
FAB
102
}
330
FAB
100
AcDbScale
 70
     0
300
100:1
140
100.0
141
1.0
290
     0
  0
SCALE
  5
FBD
102
{ACAD_REACTORS
330
FAB
102
}
330
FAB
100
AcDbScale
 70
     0
300
1/128" = 1'-0"
140
0.0078125
141
12.0
290
     0
  0
SCALE
  5
FBE
102
{ACAD_REACTORS
330
FAB
102
}
330
FAB
100
AcDbScale
 70
     0
300
1/64" = 1'-0"
140
0.015625
141
12.0
290
     0
  0
SCALE
  5
FBF
102
{ACAD_REACTORS
330
FAB
102
}
330
FAB
100
AcDbScale
 70
     0
300
1/32" = 1'-0"
140
0.03125
141
12.0
290
     0
  0
SCALE
  5
FC0
102
{ACAD_REACTORS
330
FAB
102
}
330
FAB
100
AcDbScale
 70
     0
300
1/16" = 1'-0"
140
0.0625
141
12.0
290
     0
  0
SCALE
  5
FC1
102
{ACAD_REACTORS
330
FAB
102
}
330
FAB
100
AcDbScale
 70
     0
300
3/32" = 1'-0"
140
0.09375
141
12.0
290
     0
  0
SCALE
  5
FC2
102
{ACAD_REACTORS
330
FAB
102
}
330
FAB
100
AcDbScale
 70
     0
300
1/8" = 1'-0"
140
0.125
141
12.0
290
     0
  0
SCALE
  5
FC3
102
{ACAD_REACTORS
330
FAB
102
}
330
FAB
100
AcDbScale
 70
     0
300
3/16" = 1'-0"
140
0.1875
141
12.0
290
     0
  0
SCALE
  5
FC4
102
{ACAD_REACTORS
330
FAB
102
}
330
FAB
100
AcDbScale
 70
     0
300
1/4" = 1'-0"
140
0.25
141
12.0
290
     0
  0
SCALE
  5
FC5
102
{ACAD_REACTORS
330
FAB
102
}
330
FAB
100
AcDbScale
 70
     0
300
3/8" = 1'-0"
140
0.375
141
12.0
290
     0
  0
SCALE
  5
FC6
102
{ACAD_REACTORS
330
FAB
102
}
330
FAB
100
AcDbScale
 70
     0
300
1/2" = 1'-0"
140
0.5
141
12.0
290
     0
  0
SCALE
  5
FC7
102
{ACAD_REACTORS
330
FAB
102
}
330
FAB
100
AcDbScale
 70
     0
300
3/4" = 1'-0"
140
0.75
141
12.0
290
     0
  0
SCALE
  5
FC8
102
{ACAD_REACTORS
330
FAB
102
}
330
FAB
100
AcDbScale
 70
     0
300
1" = 1'-0"
140
1.0
141
12.0
290
     0
  0
SCALE
  5
FC9
102
{ACAD_REACTORS
330
FAB
102
}
330
FAB
100
AcDbScale
 70
     0
300
1-1/2" = 1'-0"
140
1.5
141
12.0
290
     0
  0
SCALE
  5
FCA
102
{ACAD_REACTORS
330
FAB
102
}
330
FAB
100
AcDbScale
 70
     0
300
3" = 1'-0"
140
3.0
141
12.0
290
     0
  0
SCALE
  5
FCB
102
{ACAD_REACTORS
330
FAB
102
}
330
FAB
100
AcDbScale
 70
     0
300
6" = 1'-0"
140
6.0
141
12.0
290
     0
  0
SCALE
  5
FCC
102
{ACAD_REACTORS
330
FAB
102
}
330
FAB
100
AcDbScale
 70
     0
300
1'-0" = 1'-0"
140
12.0
141
12.0
290
     0
  0
TABLESTYLE
  5
FA9
102
{ACAD_XDICTIONARY
360
FF8
102
}
102
{ACAD_REACTORS
330
FA8
102
}
330
FA8
100
AcDbTableStyle
  3
Standard
 70
     0
 71
     0
 40
0.06
 41
0.06
280
     0
281
     0
  7
Standard
140
0.18
170
     2
 62
     0
 63
     7
283
     0
274
    -2
284
     1
 64
     0
275
    -2
285
     1
 65
     0
276
    -2
286
     1
 66
     0
277
    -2
287
     1
 67
     0
278
    -2
288
     1
 68
     0
279
    -2
289
     1
 69
     0
  7
Standard
140
0.25
170
     5
 62
     0
 63
     7
283
     0
274
    -2
284
     1
 64
     0
275
    -2
285
     1
 65
     0
276
    -2
286
     1
 66
     0
277
    -2
287
     1
 67
     0
278
    -2
288
     1
 68
     0
279
    -2
289
     1
 69
     0
  7
Standard
140
0.18
170
     5
 62
     0
 63
     7
283
     0
274
    -2
284
     1
 64
     0
275
    -2
285
     1
 65
     0
276
    -2
286
     1
 66
     0
277
    -2
287
     1
 67
     0
278
    -2
288
     1
 68
     0
279
    -2
289
     1
 69
     0
  0
VISUALSTYLE
  5
F99
102
{ACAD_XDICTIONARY
360
F1081E
102
}
102
{ACAD_REACTORS
330
F93
102
}
330
F93
100
AcDbVisualStyle
  2

 70
     4
 71
     0
 72
     2
 73
     0
 90
        0
 40
-0.6
 41
-30.0
 62
     5
 63
     7
 74
     1
 91
        4
 64
     7
 65
   257
 75
     1
175
     1
 42
1.0
 92
        0
 66
   257
 43
1.0
 76
     1
 77
     6
 78
     2
 67
     7
 79
     5
170
     0
171
     0
290
     0
174
     0
 93
        1
 44
0.0
173
     0
291
     0
 45
0.0
1001
ACAD
1000
AcDbSavedByObjectVersion
1070
     0
  0
VISUALSTYLE
  5
F9B
102
{ACAD_XDICTIONARY
360
F10822
102
}
102
{ACAD_REACTORS
330
F93
102
}
330
F93
100
AcDbVisualStyle
  2

 70
     6
 71
     1
 72
     2
 73
     2
 90
        0
 40
-0.6
 41
-30.0
 62
     5
 63
     7
 74
     2
 91
        2
 64
     7
 65
   257
 75
     2
175
     1
 42
179.0
 92
        0
 66
   257
 43
1.0
 76
     1
 77
     6
 78
     2
 67
     7
 79
     3
170
     0
171
     0
290
     0
174
     0
 93
        1
 44
0.0
173
     0
291
     0
 45
0.0
1001
ACAD
1000
AcDbSavedByObjectVersion
1070
     0
  0
VISUALSTYLE
  5
F9A
102
{ACAD_XDICTIONARY
360
F10820
102
}
102
{ACAD_REACTORS
330
F93
102
}
330
F93
100
AcDbVisualStyle
  2

 70
     5
 71
     0
 72
     2
 73
     0
 90
        0
 40
-0.6
 41
-30.0
 62
     5
 63
     7
 74
     1
 91
        4
 64
     7
 65
   257
 75
     1
175
     1
 42
1.0
 92
        0
 66
   257
 43
1.0
 76
     1
 77
     6
 78
     2
 67
     7
 79
     5
170
     0
171
     0
290
     0
174
     0
 93
        1
 44
0.0
173
     0
291
     0
 45
0.0
1001
ACAD
1000
AcDbSavedByObjectVersion
1070
     0
  0
VISUALSTYLE
  5
F98
102
{ACAD_XDICTIONARY
360
F1081C
102
}
102
{ACAD_REACTORS
330
F93
102
}
330
F93
100
AcDbVisualStyle
  2

 70
     7
 71
     1
 72
     0
 73
     1
 90
        0
 40
-0.6
 41
-30.0
 62
     5
 63
     7
 74
     0
 91
        4
 64
     7
 65
   257
 75
     1
175
     1
 42
1.0
 92
        8
 66
     7
 43
1.0
 76
     1
 77
     6
 78
     2
 67
     7
 79
     5
170
     0
171
     0
290
     0
174
     0
 93
        1
 44
0.0
173
     0
291
     1
 45
0.0
1001
ACAD
1000
AcDbSavedByObjectVersion
1070
     0
  0
VISUALSTYLE
  5
F9F
102
{ACAD_XDICTIONARY
360
F1082A
102
}
102
{ACAD_REACTORS
330
F93
102
}
330
F93
100
AcDbVisualStyle
  2

 70
    12
 71
     2
 72
     2
 73
     0
 90
        0
 40
-0.6
 41
-30.0
 62
     5
 63
     7
 74
     1
 91
        4
 64
     7
 65
   257
 75
     1
175
     1
 42
1.0
 92
        8
 66
     7
 43
1.0
 76
     1
 77
     6
 78
     2
 67
     7
 79
     5
170
     0
171
     0
290
     0
174
     0
 93
        1
 44
50.0
173
     0
291
     1
 45
0.0
1001
ACAD
1000
AcDbSavedByObjectVersion
1070
     0
  0
VISUALSTYLE
  5
FA3
102
{ACAD_XDICTIONARY
360
F10832
102
}
102
{ACAD_REACTORS
330
F93
102
}
330
F93
100
AcDbVisualStyle
  2

 70
    16
 71
     2
 72
     2
 73
     3
 90
        0
 40
-0.6
 41
-30.0
 62
     5
 63
     8
 74
     1
 91
        4
 64
     7
 65
   257
 75
     1
175
     1
 42
1.0
 92
        8
 66
     8
 43
1.0
 76
     1
 77
     6
 78
     2
 67
     7
 79
     5
170
     0
171
     0
290
     0
174
     0
 93
        1
 44
0.0
173
     0
291
     1
 45
0.0
1001
ACAD
1000
AcDbSavedByObjectVersion
1070
     0
  0
VISUALSTYLE
  5
F9C
102
{ACAD_XDICTIONARY
360
F10824
102
}
102
{ACAD_REACTORS
330
F93
102
}
330
F93
100
AcDbVisualStyle
  2

 70
     9
 71
     3
 72
     2
 73
     0
 90
        0
 40
-0.6
 41
-30.0
 62
     5
 63
     7
 74
     2
 91
        2
 64
     7
 65
   257
 75
     1
175
     1
 42
179.0
 92
        8
 66
     7
 43
1.0
 76
     1
 77
     6
 78
     2
 67
     7
 79
     3
170
     0
171
     0
290
     0
174
     0
 93
        1
 44
0.0
173
     0
291
     0
 45
0.0
1001
ACAD
1000
AcDbSavedByObjectVersion
1070
     0
  0
VISUALSTYLE
  5
F9E
102
{ACAD_XDICTIONARY
360
F10828
102
}
102
{ACAD_REACTORS
330
F93
102
}
330
F93
100
AcDbVisualStyle
  2

 70
    11
 71
     2
 72
     2
 73
     0
 90
        0
 40
-0.6
 41
-30.0
 62
     5
 63
     7
 74
     1
 91
        4
 64
     7
 65
   257
 75
     1
175
     1
 42
1.0
 92
        8
 66
     7
 43
1.0
 76
     1
 77
     6
 78
     2
 67
     7
 79
     5
170
     0
171
     0
290
     0
174
     0
 93
        1
 44
-50.0
173
     0
291
     1
 45
0.0
1001
ACAD
1000
AcDbSavedByObjectVersion
1070
     0
  0
VISUALSTYLE
  5
FA6
102
{ACAD_XDICTIONARY
360
F10838
102
}
102
{ACAD_REACTORS
330
F93
102
}
330
F93
100
AcDbVisualStyle
  2

 70
    22
 71
     2
 72
     2
 73
     0
 90
        0
 40
-0.6
 41
-30.0
 62
     5
 63
     7
 74
     1
 91
        4
 64
     7
 65
   257
 75
     1
175
     1
 42
1.0
 92
        8
 66
     7
 43
1.0
 76
     1
 77
     6
 78
     2
 67
     7
 79
     5
170
     0
171
     0
290
     0
174
     0
 93
        1
 44
0.0
173
     0
291
     1
 45
0.0
1001
ACAD
1000
AcDbSavedByObjectVersion
1070
     0
  0
VISUALSTYLE
  5
FA2
102
{ACAD_XDICTIONARY
360
F10830
102
}
102
{ACAD_REACTORS
330
F93
102
}
330
F93
100
AcDbVisualStyle
  2

 70
    15
 71
     2
 72
     2
 73
     0
 90
        0
 40
-0.6
 41
-30.0
 62
     5
 63
     7
 74
     1
 91
        4
 64
     7
 65
   257
 75
     1
175
     1
 42
1.0
 92
        8
 66
     7
 43
1.0
 76
     1
 77
     6
 78
     2
 67
     7
 79
     5
170
     0
171
     0
290
     0
174
     0
 93
        1
 44
0.0
173
     0
291
     1
 45
0.0
1001
ACAD
1000
AcDbSavedByObjectVersion
1070
     0
  0
VISUALSTYLE
  5
F94
102
{ACAD_XDICTIONARY
360
F10814
102
}
102
{ACAD_REACTORS
330
F93
102
}
330
F93
100
AcDbVisualStyle
  2

 70
     0
 71
     2
 72
     1
 73
     1
 90
        2
 40
-0.6
 41
30.0
 62
     5
 63
     7
 74
     0
 91
        4
 64
     7
 65
   257
 75
     1
175
     1
 42
1.0
 92
        8
 66
     7
 43
1.0
 76
     1
 77
     6
 78
     2
 67
     7
 79
     5
170
     0
171
     0
290
     0
174
     0
 93
       13
 44
0.0
173
     0
291
     1
 45
0.0
1001
ACAD
1000
AcDbSavedByObjectVersion
1070
     0
  0
VISUALSTYLE
  5
F95
102
{ACAD_XDICTIONARY
360
F10816
102
}
102
{ACAD_REACTORS
330
F93
102
}
330
F93
100
AcDbVisualStyle
  2

 70
     1
 71
     2
 72
     1
 73
     1
 90
        2
 40
-0.6
 41
30.0
 62
     5
 63
     7
 74
     1
 91
        4
 64
     7
 65
   257
 75
     1
175
     1
 42
1.0
 92
        0
 66
   257
 43
1.0
 76
     1
 77
     6
 78
     2
 67
     7
 79
     5
170
     0
171
     0
290
     0
174
     0
 93
       13
 44
0.0
173
     0
291
     1
 45
0.0
1001
ACAD
1000
AcDbSavedByObjectVersion
1070
     0
  0
VISUALSTYLE
  5
F96
102
{ACAD_XDICTIONARY
360
F10818
102
}
102
{ACAD_REACTORS
330
F93
102
}
330
F93
100
AcDbVisualStyle
  2

 70
     2
 71
     2
 72
     2
 73
     1
 90
        2
 40
-0.6
 41
30.0
 62
     5
 63
     7
 74
     0
 91
        4
 64
     7
 65
   257
 75
     1
175
     1
 42
1.0
 92
        0
 66
     7
 43
1.0
 76
     1
 77
     6
 78
     2
 67
     7
 79
     5
170
     0
171
     0
290
     0
174
     0
 93
       13
 44
0.0
173
     0
291
     1
 45
0.0
1001
ACAD
1000
AcDbSavedByObjectVersion
1070
     0
  0
VISUALSTYLE
  5
F97
102
{ACAD_XDICTIONARY
360
F1081A
102
}
102
{ACAD_REACTORS
330
F93
102
}
330
F93
100
AcDbVisualStyle
  2

 70
     3
 71
     2
 72
     2
 73
     1
 90
        2
 40
-0.6
 41
30.0
 62
     5
 63
     7
 74
     1
 91
        4
 64
     7
 65
   257
 75
     1
175
     1
 42
1.0
 92
        0
 66
   257
 43
1.0
 76
     1
 77
     6
 78
     2
 67
     7
 79
     5
170
     0
171
     0
290
     0
174
     0
 93
       13
 44
0.0
173
     0
291
     1
 45
0.0
1001
ACAD
1000
AcDbSavedByObjectVersion
1070
     0
  0
VISUALSTYLE
  5
F1064B
102
{ACAD_XDICTIONARY
360
F10841
102
}
102
{ACAD_REACTORS
330
F93
102
}
330
F93
100
AcDbVisualStyle
  2
Hidden
 70
     6
 71
     1
 72
     2
 73
     2
 90
        0
 40
-0.6
 41
-30.0
 62
     5
 63
     7
 74
     2
 91
        2
 64
     7
 65
   257
 75
     2
175
     1
 42
40.0
 92
        0
 66
   257
 43
1.0
 76
     1
 77
     6
 78
     2
 67
     7
 79
     3
170
     0
171
     0
290
     0
174
     0
 93
        1
 44
0.0
173
     0
291
     0
 45
0.0
1001
ACAD
1000
AcDbSavedByObjectVersion
1070
     0
  0
VISUALSTYLE
  5
FA4
102
{ACAD_XDICTIONARY
360
F10834
102
}
102
{ACAD_REACTORS
330
F93
102
}
330
F93
100
AcDbVisualStyle
  2

 70
    20
 71
     2
 72
     2
 73
     0
 90
        0
 40
-0.6
 41
-30.0
 62
     5
 63
     7
 74
     1
 91
        4
 64
     7
 65
   257
 75
     1
175
     1
 42
1.0
 92
       10
 66
     7
 43
1.0
 76
     1
 77
     6
 78
     2
 67
     7
 79
     5
170
     0
171
     0
290
     0
174
     0
 93
        1
 44
0.0
173
     0
291
     1
 45
0.0
1001
ACAD
1000
AcDbSavedByObjectVersion
1070
     0
  0
VISUALSTYLE
  5
FA1
102
{ACAD_XDICTIONARY
360
F1082E
102
}
102
{ACAD_REACTORS
330
F93
102
}
330
F93
100
AcDbVisualStyle
  2

 70
    14
 71
     2
 72
     2
 73
     0
 90
        0
 40
-0.6
 41
-30.0
 62
     5
 63
     7
 74
     1
 91
        4
 64
     7
 65
   257
 75
     7
175
     7
 42
1.0
 92
        8
 66
     7
 43
1.0
 76
     1
 77
     6
 78
     2
 67
     7
 79
     5
170
     0
171
     0
290
     0
174
     0
 93
        1
 44
0.0
173
     0
291
     1
 45
0.0
1001
ACAD
1000
AcDbSavedByObjectVersion
1070
     0
  0
VISUALSTYLE
  5
FA5
102
{ACAD_XDICTIONARY
360
F10836
102
}
102
{ACAD_REACTORS
330
F93
102
}
330
F93
100
AcDbVisualStyle
  2

 70
    21
 71
     2
 72
     2
 73
     0
 90
        0
 40
-0.6
 41
-30.0
 62
     5
 63
     7
 74
     1
 91
        4
 64
     7
 65
   257
 75
     1
175
     1
 42
1.0
 92
        9
 66
     7
 43
1.0
 76
     1
 77
     6
 78
     2
 67
     7
 79
     5
170
     0
171
     0
290
     0
174
     0
 93
        1
 44
0.0
173
     0
291
     1
 45
0.0
1001
ACAD
1000
AcDbSavedByObjectVersion
1070
     0
  0
VISUALSTYLE
  5
F9D
102
{ACAD_XDICTIONARY
360
F10826
102
}
102
{ACAD_REACTORS
330
F93
102
}
330
F93
100
AcDbVisualStyle
  2

 70
     8
 71
     2
 72
     2
 73
     0
 90
        0
 40
-0.6
 41
-30.0
 62
     5
 63
     7
 74
     1
 91
        0
 64
     7
 65
   257
 75
     1
175
     1
 42
1.0
 92
        8
 66
     8
 43
1.0
 76
     1
 77
     6
 78
     2
 67
     7
 79
     5
170
     0
171
     0
290
     0
174
     0
 93
       13
 44
0.0
173
     0
291
     0
 45
0.0
1001
ACAD
1000
AcDbSavedByObjectVersion
1070
     0
  0
VISUALSTYLE
  5
F10650
102
{ACAD_XDICTIONARY
360
F1084B
102
}
102
{ACAD_REACTORS
330
F93
102
}
330
F93
100
AcDbVisualStyle
  2
Shaded
 70
    27
 71
     2
 72
     2
 73
     1
 90
        2
 40
-0.6
 41
30.0
 62
     5
 63
     7
 74
     0
 91
        4
 64
     7
 65
   257
 75
     1
175
     1
 42
1.0
 92
        8
 66
   257
 43
1.0
 76
     1
 77
     6
 78
     2
 67
     8
 79
     3
170
     0
171
     0
290
     0
174
     0
 93
        5
 44
0.0
173
     0
291
     0
 45
0.0
1001
ACAD
1000
AcDbSavedByObjectVersion
1070
     0
  0
VISUALSTYLE
  5
F1064F
102
{ACAD_XDICTIONARY
360
F10849
102
}
102
{ACAD_REACTORS
330
F93
102
}
330
F93
100
AcDbVisualStyle
  2
Shaded with edges
 70
    26
 71
     2
 72
     2
 73
     1
 90
        2
 40
-0.6
 41
30.0
 62
     5
 63
     7
 74
     1
 91
       10
 64
     7
 65
   257
 75
     2
175
     1
 42
1.0
 92
        8
 66
   257
 43
1.0
 76
     1
 77
     6
 78
     2
 67
     7
 79
     3
170
     0
171
     0
290
     0
174
     0
 93
        5
 44
0.0
173
     0
291
     0
 45
0.0
1001
ACAD
1000
AcDbSavedByObjectVersion
1070
     0
  0
VISUALSTYLE
  5
F1064C
102
{ACAD_XDICTIONARY
360
F10843
102
}
102
{ACAD_REACTORS
330
F93
102
}
330
F93
100
AcDbVisualStyle
  2
Shades of Gray
 70
    23
 71
     2
 72
     2
 73
     3
 90
        0
 40
-0.6
 41
-30.0
 62
     5
 63
     7
 74
     2
 91
        2
 64
     7
 65
     7
 75
     1
175
     1
 42
40.0
 92
        8
 66
     7
 43
1.0
 76
     1
 77
     6
 78
     2
 67
     7
 79
     3
170
     0
171
     0
290
     0
174
     0
 93
        1
 44
0.0
173
     0
291
     0
 45
0.0
1001
ACAD
1000
AcDbSavedByObjectVersion
1070
     0
  0
VISUALSTYLE
  5
F1064D
102
{ACAD_XDICTIONARY
360
F10845
102
}
102
{ACAD_REACTORS
330
F93
102
}
330
F93
100
AcDbVisualStyle
  2
Sketchy
 70
    24
 71
     1
 72
     2
 73
     2
 90
        0
 40
-0.6
 41
-30.0
 62
     5
 63
     7
 74
     2
 91
        2
 64
     7
 65
     7
 75
     1
175
     1
 42
40.0
 92
       11
 66
     7
 43
1.0
 76
     1
 77
     6
 78
     2
 67
     7
 79
     6
170
     0
171
     0
290
     0
174
     0
 93
        1
 44
0.0
173
     0
291
     0
 45
0.0
1001
ACAD
1000
AcDbSavedByObjectVersion
1070
     0
  0
VISUALSTYLE
  5
FA0
102
{ACAD_XDICTIONARY
360
F1082C
102
}
102
{ACAD_REACTORS
330
F93
102
}
330
F93
100
AcDbVisualStyle
  2

 70
    13
 71
     2
 72
     2
 73
     0
 90
        0
 40
-0.6
 41
-30.0
 62
     5
 63
     7
 74
     1
 91
        4
 64
     7
 65
   257
 75
     1
175
     1
 42
1.0
 92
       12
 66
     7
 43
1.0
 76
     1
 77
     6
 78
     2
 67
     7
 79
     5
170
     0
171
     0
290
     0
174
     0
 93
        1
 44
0.0
173
     0
291
     1
 45
0.0
1001
ACAD
1000
AcDbSavedByObjectVersion
1070
     0
  0
VISUALSTYLE
  5
F1064A
102
{ACAD_XDICTIONARY
360
F1083F
102
}
102
{ACAD_REACTORS
330
F93
102
}
330
F93
100
AcDbVisualStyle
  2
Wireframe
 70
     5
 71
     0
 72
     2
 73
     0
 90
        0
 40
-0.6
 41
-30.0
 62
     5
 63
     7
 74
     1
 91
        4
 64
     7
 65
   257
 75
     1
175
     1
 42
1.0
 92
        0
 66
   257
 43
1.0
 76
     1
 77
     6
 78
     2
 67
     7
 79
     3
170
     0
171
     0
290
     0
174
     0
 93
        1
 44
0.0
173
     0
291
     0
 45
0.0
1001
ACAD
1000
AcDbSavedByObjectVersion
1070
     0
  0
VISUALSTYLE
  5
F1064E
102
{ACAD_XDICTIONARY
360
F10847
102
}
102
{ACAD_REACTORS
330
F93
102
}
330
F93
100
AcDbVisualStyle
  2
X-Ray
 70
    25
 71
     2
 72
     2
 73
     1
 90
        1
 40
0.5
 41
-30.0
 62
     5
 63
     7
 74
     1
 91
        0
 64
     7
 65
   257
 75
     1
175
     1
 42
1.0
 92
        8
 66
     7
 43
1.0
 76
     1
 77
     6
 78
     2
 67
     7
 79
     3
170
     0
171
     0
290
     0
174
     0
 93
       13
 44
0.0
173
     0
291
     0
 45
0.0
1001
ACAD
1000
AcDbSavedByObjectVersion
1070
     0
  0
DICTIONARYVAR
  5
F10804
102
{ACAD_REACTORS
330
F10801
102
}
330
F10801
100
DictionaryVariables
280
     0
  1
1:1
  0
DICTIONARYVAR
  5
F10803
102
{ACAD_REACTORS
330
F10801
102
}
330
F10801
100
DictionaryVariables
280
     0
  1
STANDARD
  0
DICTIONARYVAR
  5
F10802
102
{ACAD_REACTORS
330
F10801
102
}
330
F10801
100
DictionaryVariables
280
     0
  1
STANDARD
  0
DICTIONARYVAR
  5
F10807
102
{ACAD_REACTORS
330
F10801
102
}
330
F10801
100
DictionaryVariables
280
     0
  1
1
  0
DICTIONARYVAR
  5
F10806
102
{ACAD_REACTORS
330
F10801
102
}
330
F10801
100
DictionaryVariables
280
     0
  1
0
  0
DICTIONARYVAR
  5
F10805
102
{ACAD_REACTORS
330
F10801
102
}
330
F10801
100
DictionaryVariables
280
     0
  1
127
  0
DICTIONARYVAR
  5
F10808
102
{ACAD_REACTORS
330
F10801
102
}
330
F10801
100
DictionaryVariables
280
     0
  1
2
  0
DICTIONARY
  5
F106AA
102
{ACAD_REACTORS
330
F1069F
102
}
330
F1069F
100
AcDbDictionary
281
     1
  0
DICTIONARY
  5
F1083D
330
FD1
100
AcDbDictionary
280
     1
281
     1
  3
ACAD_XREC_ROUNDTRIP
360
F1083E
  0
DICTIONARY
  5
F1083B
330
FD0
100
AcDbDictionary
280
     1
281
     1
  3
ACAD_XREC_ROUNDTRIP
360
F1083C
  0
DICTIONARY
  5
F84
330
F83
100
AcDbDictionary
280
     1
281
     1
  3
ACAD_XREC_ROUNDTRIP
360
FFF
  3
BUMPTILE
360
F86
  3
DIFFUSETILE
360
F85
  3
OPACITYTILE
360
F89
  3
REFLECTIONTILE
360
F88
  3
REFRACTIONTILE
360
F8A
  3
SPECULARTILE
360
F87
  0
DICTIONARY
  5
F7C
330
F7B
100
AcDbDictionary
280
     1
281
     1
  3
ACAD_XREC_ROUNDTRIP
360
FFE
  3
BUMPTILE
360
F7E
  3
DIFFUSETILE
360
F7D
  3
OPACITYTILE
360
F81
  3
REFLECTIONTILE
360
F80
  3
REFRACTIONTILE
360
F82
  3
SPECULARTILE
360
F7F
  0
DICTIONARY
  5
F8C
330
F8B
100
AcDbDictionary
280
     1
281
     1
  3
ACAD_XREC_ROUNDTRIP
360
1000
  3
BUMPTILE
360
F8E
  3
DIFFUSETILE
360
F8D
  3
OPACITYTILE
360
F91
  3
REFLECTIONTILE
360
F90
  3
REFRACTIONTILE
360
F92
  3
SPECULARTILE
360
F8F
  0
DICTIONARY
  5
FF8
330
FA9
100
AcDbDictionary
280
     1
281
     1
  3
ACAD_ROUNDTRIP_2008_TABLESTYLE_CELLSTYLEMAP
360
F10809
  3
ACAD_XREC_ROUNDTRIP
360
F1083A
  0
DICTIONARY
  5
F1081E
330
F99
100
AcDbDictionary
280
     1
281
     1
  3
ACAD_XREC_ROUNDTRIP
360
F1081F
  0
DICTIONARY
  5
F10822
330
F9B
100
AcDbDictionary
280
     1
281
     1
  3
ACAD_XREC_ROUNDTRIP
360
F10823
  0
DICTIONARY
  5
F10820
330
F9A
100
AcDbDictionary
280
     1
281
     1
  3
ACAD_XREC_ROUNDTRIP
360
F10821
  0
DICTIONARY
  5
F1081C
330
F98
100
AcDbDictionary
280
     1
281
     1
  3
ACAD_XREC_ROUNDTRIP
360
F1081D
  0
DICTIONARY
  5
F1082A
330
F9F
100
AcDbDictionary
280
     1
281
     1
  3
ACAD_XREC_ROUNDTRIP
360
F1082B
  0
DICTIONARY
  5
F10832
330
FA3
100
AcDbDictionary
280
     1
281
     1
  3
ACAD_XREC_ROUNDTRIP
360
F10833
  0
DICTIONARY
  5
F10824
330
F9C
100
AcDbDictionary
280
     1
281
     1
  3
ACAD_XREC_ROUNDTRIP
360
F10825
  0
DICTIONARY
  5
F10828
330
F9E
100
AcDbDictionary
280
     1
281
     1
  3
ACAD_XREC_ROUNDTRIP
360
F10829
  0
DICTIONARY
  5
F10838
330
FA6
100
AcDbDictionary
280
     1
281
     1
  3
ACAD_XREC_ROUNDTRIP
360
F10839
  0
DICTIONARY
  5
F10830
330
FA2
100
AcDbDictionary
280
     1
281
     1
  3
ACAD_XREC_ROUNDTRIP
360
F10831
  0
DICTIONARY
  5
F10814
330
F94
100
AcDbDictionary
280
     1
281
     1
  3
ACAD_XREC_ROUNDTRIP
360
F10815
  0
DICTIONARY
  5
F10816
330
F95
100
AcDbDictionary
280
     1
281
     1
  3
ACAD_XREC_ROUNDTRIP
360
F10817
  0
DICTIONARY
  5
F10818
330
F96
100
AcDbDictionary
280
     1
281
     1
  3
ACAD_XREC_ROUNDTRIP
360
F10819
  0
DICTIONARY
  5
F1081A
330
F97
100
AcDbDictionary
280
     1
281
     1
  3
ACAD_XREC_ROUNDTRIP
360
F1081B
  0
DICTIONARY
  5
F10841
330
F1064B
100
AcDbDictionary
280
     1
281
     1
  3
ACAD_XREC_ROUNDTRIP
360
F10842
  0
DICTIONARY
  5
F10834
330
FA4
100
AcDbDictionary
280
     1
281
     1
  3
ACAD_XREC_ROUNDTRIP
360
F10835
  0
DICTIONARY
  5
F1082E
330
FA1
100
AcDbDictionary
280
     1
281
     1
  3
ACAD_XREC_ROUNDTRIP
360
F1082F
  0
DICTIONARY
  5
F10836
330
FA5
100
AcDbDictionary
280
     1
281
     1
  3
ACAD_XREC_ROUNDTRIP
360
F10837
  0
DICTIONARY
  5
F10826
330
F9D
100
AcDbDictionary
280
     1
281
     1
  3
ACAD_XREC_ROUNDTRIP
360
F10827
  0
DICTIONARY
  5
F1084B
330
F10650
100
AcDbDictionary
280
     1
281
     1
  3
ACAD_XREC_ROUNDTRIP
360
F1084C
  0
DICTIONARY
  5
F10849
330
F1064F
100
AcDbDictionary
280
     1
281
     1
  3
ACAD_XREC_ROUNDTRIP
360
F1084A
  0
DICTIONARY
  5
F10843
330
F1064C
100
AcDbDictionary
280
     1
281
     1
  3
ACAD_XREC_ROUNDTRIP
360
F10844
  0
DICTIONARY
  5
F10845
330
F1064D
100
AcDbDictionary
280
     1
281
     1
  3
ACAD_XREC_ROUNDTRIP
360
F10846
  0
DICTIONARY
  5
F1082C
330
FA0
100
AcDbDictionary
280
     1
281
     1
  3
ACAD_XREC_ROUNDTRIP
360
F1082D
  0
DICTIONARY
  5
F1083F
330
F1064A
100
AcDbDictionary
280
     1
281
     1
  3
ACAD_XREC_ROUNDTRIP
360
F10840
  0
DICTIONARY
  5
F10847
330
F1064E
100
AcDbDictionary
280
     1
281
     1
  3
ACAD_XREC_ROUNDTRIP
360
F10848
  0
XRECORD
  5
F1083E
102
{ACAD_REACTORS
330
F1083D
102
}
330
F1083D
100
AcDbXrecord
280
     1
102
SHADEPLOT
 70
     0
102
SHADEPLOTRESLEVEL
 70
     2
102
SHADEPLOTCUSTOMDPI
 70
   300
  0
XRECORD
  5
F1083C
102
{ACAD_REACTORS
330
F1083B
102
}
330
F1083B
100
AcDbXrecord
280
     1
102
SHADEPLOT
 70
     0
102
SHADEPLOTRESLEVEL
 70
     2
102
SHADEPLOTCUSTOMDPI
 70
   300
  0
XRECORD
  5
FFF
102
{ACAD_REACTORS
330
F84
102
}
330
F84
100
AcDbXrecord
280
     1
102
MATERIAL
148
0.0
149
0.0
149
0.0
 93
        0
 94
      127
282
     0
 72
     0
 77
     0
171
     0
175
     0
179
     0
273
     0
  0
XRECORD
  5
F86
102
{ACAD_REACTORS
330
F84
102
}
330
F84
100
AcDbXrecord
280
     1
270
     1
271
     1
  0
XRECORD
  5
F85
102
{ACAD_REACTORS
330
F84
102
}
330
F84
100
AcDbXrecord
280
     1
270
     1
271
     1
  0
XRECORD
  5
F89
102
{ACAD_REACTORS
330
F84
102
}
330
F84
100
AcDbXrecord
280
     1
270
     1
271
     1
  0
XRECORD
  5
F88
102
{ACAD_REACTORS
330
F84
102
}
330
F84
100
AcDbXrecord
280
     1
270
     1
271
     1
  0
XRECORD
  5
F8A
102
{ACAD_REACTORS
330
F84
102
}
330
F84
100
AcDbXrecord
280
     1
270
     1
271
     1
  0
XRECORD
  5
F87
102
{ACAD_REACTORS
330
F84
102
}
330
F84
100
AcDbXrecord
280
     1
270
     1
271
     1
  0
XRECORD
  5
FFE
102
{ACAD_REACTORS
330
F7C
102
}
330
F7C
100
AcDbXrecord
280
     1
102
MATERIAL
148
0.0
149
0.0
149
0.0
 93
        0
 94
      127
282
     0
 72
     0
 77
     0
171
     0
175
     0
179
     0
273
     0
  0
XRECORD
  5
F7E
102
{ACAD_REACTORS
330
F7C
102
}
330
F7C
100
AcDbXrecord
280
     1
270
     1
271
     1
  0
XRECORD
  5
F7D
102
{ACAD_REACTORS
330
F7C
102
}
330
F7C
100
AcDbXrecord
280
     1
270
     1
271
     1
  0
XRECORD
  5
F81
102
{ACAD_REACTORS
330
F7C
102
}
330
F7C
100
AcDbXrecord
280
     1
270
     1
271
     1
  0
XRECORD
  5
F80
102
{ACAD_REACTORS
330
F7C
102
}
330
F7C
100
AcDbXrecord
280
     1
270
     1
271
     1
  0
XRECORD
  5
F82
102
{ACAD_REACTORS
330
F7C
102
}
330
F7C
100
AcDbXrecord
280
     1
270
     1
271
     1
  0
XRECORD
  5
F7F
102
{ACAD_REACTORS
330
F7C
102
}
330
F7C
100
AcDbXrecord
280
     1
270
     1
271
     1
  0
XRECORD
  5
1000
102
{ACAD_REACTORS
330
F8C
102
}
330
F8C
100
AcDbXrecord
280
     1
102
MATERIAL
148
0.0
149
0.0
149
0.0
 93
        0
 94
      127
282
     0
 72
     0
 77
     0
171
     0
175
     0
179
     0
273
     0
  0
XRECORD
  5
F8E
102
{ACAD_REACTORS
330
F8C
102
}
330
F8C
100
AcDbXrecord
280
     1
270
     1
271
     1
  0
XRECORD
  5
F8D
102
{ACAD_REACTORS
330
F8C
102
}
330
F8C
100
AcDbXrecord
280
     1
270
     1
271
     1
  0
XRECORD
  5
F91
102
{ACAD_REACTORS
330
F8C
102
}
330
F8C
100
AcDbXrecord
280
     1
270
     1
271
     1
  0
XRECORD
  5
F90
102
{ACAD_REACTORS
330
F8C
102
}
330
F8C
100
AcDbXrecord
280
     1
270
     1
271
     1
  0
XRECORD
  5
F92
102
{ACAD_REACTORS
330
F8C
102
}
330
F8C
100
AcDbXrecord
280
     1
270
     1
271
     1
  0
XRECORD
  5
F8F
102
{ACAD_REACTORS
330
F8C
102
}
330
F8C
100
AcDbXrecord
280
     1
270
     1
271
     1
  0
CELLSTYLEMAP
  5
F10809
102
{ACAD_REACTORS
330
FF8
102
}
330
FF8
100
AcDbCellStyleMap
 90
        3
300
CELLSTYLE
  1
TABLEFORMAT_BEGIN
 90
        5
170
     1
 91
        0
 92
    32768
 62
   257
 93
        1
300
CONTENTFORMAT
  1
CONTENTFORMAT_BEGIN
 90
        0
 91
        0
 92
      512
 93
        0
300

 40
0.0
140
1.0
 94
        5
 62
     0
340
253
144
0.25
309
CONTENTFORMAT_END
171
     1
301
MARGIN
  1
CELLMARGIN_BEGIN
 40
0.06
 40
0.06
 40
0.06
 40
0.06
 40
0.18
 40
0.18
309
CELLMARGIN_END
 94
        6
 95
        1
302
GRIDFORMAT
  1
GRIDFORMAT_BEGIN
 90
        0
 91
        1
 62
     0
 92
       -2
340
0
 93
        0
 40
0.045
309
GRIDFORMAT_END
 95
        2
302
GRIDFORMAT
  1
GRIDFORMAT_BEGIN
 90
        0
 91
        1
 62
     0
 92
       -2
340
0
 93
        0
 40
0.045
309
GRIDFORMAT_END
 95
        4
302
GRIDFORMAT
  1
GRIDFORMAT_BEGIN
 90
        0
 91
        1
 62
     0
 92
       -2
340
0
 93
        0
 40
0.045
309
GRIDFORMAT_END
 95
        8
302
GRIDFORMAT
  1
GRIDFORMAT_BEGIN
 90
        0
 91
        1
 62
     0
 92
       -2
340
0
 93
        0
 40
0.045
309
GRIDFORMAT_END
 95
       16
302
GRIDFORMAT
  1
GRIDFORMAT_BEGIN
 90
        0
 91
        1
 62
     0
 92
       -2
340
0
 93
        0
 40
0.045
309
GRIDFORMAT_END
 95
       32
302
GRIDFORMAT
  1
GRIDFORMAT_BEGIN
 90
        0
 91
        1
 62
     0
 92
       -2
340
0
 93
        0
 40
0.045
309
GRIDFORMAT_END
309
TABLEFORMAT_END
  1
CELLSTYLE_BEGIN
 90
        1
 91
        1
300
_TITLE
309
CELLSTYLE_END
300
CELLSTYLE
  1
TABLEFORMAT_BEGIN
 90
        5
170
     1
 91
        0
 92
        0
 62
   257
 93
        1
300
CONTENTFORMAT
  1
CONTENTFORMAT_BEGIN
 90
        0
 91
        0
 92
      512
 93
        0
300

 40
0.0
140
1.0
 94
        5
 62
     0
340
253
144
0.18
309
CONTENTFORMAT_END
171
     1
301
MARGIN
  1
CELLMARGIN_BEGIN
 40
0.06
 40
0.06
 40
0.06
 40
0.06
 40
0.18
 40
0.18
309
CELLMARGIN_END
 94
        6
 95
        1
302
GRIDFORMAT
  1
GRIDFORMAT_BEGIN
 90
        0
 91
        1
 62
     0
 92
       -2
340
0
 93
        0
 40
0.045
309
GRIDFORMAT_END
 95
        2
302
GRIDFORMAT
  1
GRIDFORMAT_BEGIN
 90
        0
 91
        1
 62
     0
 92
       -2
340
0
 93
        0
 40
0.045
309
GRIDFORMAT_END
 95
        4
302
GRIDFORMAT
  1
GRIDFORMAT_BEGIN
 90
        0
 91
        1
 62
     0
 92
       -2
340
0
 93
        0
 40
0.045
309
GRIDFORMAT_END
 95
        8
302
GRIDFORMAT
  1
GRIDFORMAT_BEGIN
 90
        0
 91
        1
 62
     0
 92
       -2
340
0
 93
        0
 40
0.045
309
GRIDFORMAT_END
 95
       16
302
GRIDFORMAT
  1
GRIDFORMAT_BEGIN
 90
        0
 91
        1
 62
     0
 92
       -2
340
0
 93
        0
 40
0.045
309
GRIDFORMAT_END
 95
       32
302
GRIDFORMAT
  1
GRIDFORMAT_BEGIN
 90
        0
 91
        1
 62
     0
 92
       -2
340
0
 93
        0
 40
0.045
309
GRIDFORMAT_END
309
TABLEFORMAT_END
  1
CELLSTYLE_BEGIN
 90
        2
 91
        1
300
_HEADER
309
CELLSTYLE_END
300
CELLSTYLE
  1
TABLEFORMAT_BEGIN
 90
        5
170
     1
 91
        0
 92
        0
 62
   257
 93
        1
300
CONTENTFORMAT
  1
CONTENTFORMAT_BEGIN
 90
        0
 91
        0
 92
      512
 93
        0
300

 40
0.0
140
1.0
 94
        2
 62
     0
340
253
144
0.18
309
CONTENTFORMAT_END
171
     1
301
MARGIN
  1
CELLMARGIN_BEGIN
 40
0.06
 40
0.06
 40
0.06
 40
0.06
 40
0.18
 40
0.18
309
CELLMARGIN_END
 94
        6
 95
        1
302
GRIDFORMAT
  1
GRIDFORMAT_BEGIN
 90
        0
 91
        1
 62
     0
 92
       -2
340
0
 93
        0
 40
0.045
309
GRIDFORMAT_END
 95
        2
302
GRIDFORMAT
  1
GRIDFORMAT_BEGIN
 90
        0
 91
        1
 62
     0
 92
       -2
340
0
 93
        0
 40
0.045
309
GRIDFORMAT_END
 95
        4
302
GRIDFORMAT
  1
GRIDFORMAT_BEGIN
 90
        0
 91
        1
 62
     0
 92
       -2
340
0
 93
        0
 40
0.045
309
GRIDFORMAT_END
 95
        8
302
GRIDFORMAT
  1
GRIDFORMAT_BEGIN
 90
        0
 91
        1
 62
     0
 92
       -2
340
0
 93
        0
 40
0.045
309
GRIDFORMAT_END
 95
       16
302
GRIDFORMAT
  1
GRIDFORMAT_BEGIN
 90
        0
 91
        1
 62
     0
 92
       -2
340
0
 93
        0
 40
0.045
309
GRIDFORMAT_END
 95
       32
302
GRIDFORMAT
  1
GRIDFORMAT_BEGIN
 90
        0
 91
        1
 62
     0
 92
       -2
340
0
 93
        0
 40
0.045
309
GRIDFORMAT_END
309
TABLEFORMAT_END
  1
CELLSTYLE_BEGIN
 90
        3
 91
        2
300
_DATA
309
CELLSTYLE_END
  0
XRECORD
  5
F1083A
102
{ACAD_REACTORS
330
FF8
102
}
330
FF8
100
AcDbXrecord
280
     1
102
ACAD_ROUNDTRIP_PRE2007_TABLESTYLE
 90
      512
 91
        0
  1

 92
      512
 93
        0
  2

 94
      512
 95
        0
  3

  0
XRECORD
  5
F1081F
102
{ACAD_REACTORS
330
F1081E
102
}
330
F1081E
100
AcDbXrecord
280
     1
102
RTVSPropertyOp0
 70
     1
102
RTVSPropertyOp1
 70
     1
102
RTVSPropertyOp2
 70
     1
102
RTVSPropertyOp3
 70
     1
102
RTVSPropertyOp4
 70
     1
102
RTVSPropertyOp5
 70
     1
102
RTVSPropertyOp6
 70
     1
102
RTVSPropertyOp7
 70
     1
102
RTVSPropertyOp8
 70
     1
102
RTVSPropertyOp9
 70
     1
102
RTVSPropertyOp10
 70
     1
102
RTVSPropertyOp11
 70
     1
102
RTVSPropertyOp12
 70
     1
102
RTVSPropertyOp13
 70
     1
102
RTVSPropertyOp14
 70
     1
102
RTVSPropertyOp15
 70
     1
102
RTVSPropertyOp16
 70
     1
102
RTVSPropertyOp17
 70
     1
102
RTVSPropertyOp18
 70
     1
102
RTVSPropertyOp19
 70
     1
102
RTVSPropertyOp20
 70
     1
102
RTVSPropertyOp21
 70
     1
102
RTVSPropertyOp22
 70
     1
102
RTVSPropertyOp23
 70
     1
102
RTVSPropertyOp24
 70
     1
102
RTVSPropertyOp25
 70
     1
102
RTVSPropertyOp26
 70
     1
102
RTVSPropertyOp27
 70
     1
102
RTVSPropertyOp28
 70
     1
102
RTVSPropertyOp29
 70
     1
102
RTVSPropertyOp30
 70
     1
102
RTVSPropertyOp31
 70
     1
102
RTVSPropertyOp32
 70
     1
  0
XRECORD
  5
F10823
102
{ACAD_REACTORS
330
F10822
102
}
330
F10822
100
AcDbXrecord
280
     1
102
RTVSPropertyOp0
 70
     1
102
RTVSPropertyOp1
 70
     1
102
RTVSPropertyOp2
 70
     1
102
RTVSPropertyOp3
 70
     1
102
RTVSPropertyOp4
 70
     1
102
RTVSPropertyOp5
 70
     1
102
RTVSPropertyOp6
 70
     1
102
RTVSPropertyOp7
 70
     1
102
RTVSPropertyOp8
 70
     1
102
RTVSPropertyOp9
 70
     1
102
RTVSPropertyOp10
 70
     1
102
RTVSPropertyOp11
 70
     1
102
RTVSPropertyOp12
 70
     1
102
RTVSPropertyOp13
 70
     1
102
RTVSPropertyOp14
 70
     1
102
RTVSPropertyOp15
 70
     1
102
RTVSPropertyOp16
 70
     1
102
RTVSPropertyOp17
 70
     1
102
RTVSPropertyOp18
 70
     1
102
RTVSPropertyOp19
 70
     1
102
RTVSPropertyOp20
 70
     1
102
RTVSPropertyOp21
 70
     1
102
RTVSPropertyOp22
 70
     1
102
RTVSPropertyOp23
 70
     1
102
RTVSPropertyOp24
 70
     1
102
RTVSPropertyOp25
 70
     1
102
RTVSPropertyOp26
 70
     1
102
RTVSPropertyOp27
 70
     1
102
RTVSPropertyOp28
 70
     1
102
RTVSPropertyOp29
 70
     1
102
RTVSPropertyOp30
 70
     1
102
RTVSPropertyOp31
 70
     1
102
RTVSPropertyOp32
 70
     1
  0
XRECORD
  5
F10821
102
{ACAD_REACTORS
330
F10820
102
}
330
F10820
100
AcDbXrecord
280
     1
102
RTVSPropertyOp0
 70
     1
102
RTVSPropertyOp1
 70
     1
102
RTVSPropertyOp2
 70
     1
102
RTVSPropertyOp3
 70
     1
102
RTVSPropertyOp4
 70
     1
102
RTVSPropertyOp5
 70
     1
102
RTVSPropertyOp6
 70
     1
102
RTVSPropertyOp7
 70
     1
102
RTVSPropertyOp8
 70
     1
102
RTVSPropertyOp9
 70
     1
102
RTVSPropertyOp10
 70
     1
102
RTVSPropertyOp11
 70
     1
102
RTVSPropertyOp12
 70
     1
102
RTVSPropertyOp13
 70
     1
102
RTVSPropertyOp14
 70
     1
102
RTVSPropertyOp15
 70
     1
102
RTVSPropertyOp16
 70
     1
102
RTVSPropertyOp17
 70
     1
102
RTVSPropertyOp18
 70
     1
102
RTVSPropertyOp19
 70
     1
102
RTVSPropertyOp20
 70
     1
102
RTVSPropertyOp21
 70
     1
102
RTVSPropertyOp22
 70
     1
102
RTVSPropertyOp23
 70
     1
102
RTVSPropertyOp24
 70
     1
102
RTVSPropertyOp25
 70
     1
102
RTVSPropertyOp26
 70
     1
102
RTVSPropertyOp27
 70
     1
102
RTVSPropertyOp28
 70
     1
102
RTVSPropertyOp29
 70
     1
102
RTVSPropertyOp30
 70
     1
102
RTVSPropertyOp31
 70
     1
102
RTVSPropertyOp32
 70
     1
  0
XRECORD
  5
F1081D
102
{ACAD_REACTORS
330
F1081C
102
}
330
F1081C
100
AcDbXrecord
280
     1
102
RTVSPropertyOp0
 70
     1
102
RTVSPropertyOp1
 70
     1
102
RTVSPropertyOp2
 70
     1
102
RTVSPropertyOp3
 70
     1
102
RTVSPropertyOp4
 70
     1
102
RTVSPropertyOp5
 70
     1
102
RTVSPropertyOp6
 70
     1
102
RTVSPropertyOp7
 70
     1
102
RTVSPropertyOp8
 70
     1
102
RTVSPropertyOp9
 70
     1
102
RTVSPropertyOp10
 70
     1
102
RTVSPropertyOp11
 70
     1
102
RTVSPropertyOp12
 70
     1
102
RTVSPropertyOp13
 70
     1
102
RTVSPropertyOp14
 70
     1
102
RTVSPropertyOp15
 70
     1
102
RTVSPropertyOp16
 70
     1
102
RTVSPropertyOp17
 70
     1
102
RTVSPropertyOp18
 70
     1
102
RTVSPropertyOp19
 70
     1
102
RTVSPropertyOp20
 70
     1
102
RTVSPropertyOp21
 70
     1
102
RTVSPropertyOp22
 70
     1
102
RTVSPropertyOp23
 70
     1
102
RTVSPropertyOp24
 70
     1
102
RTVSPropertyOp25
 70
     1
102
RTVSPropertyOp26
 70
     1
102
RTVSPropertyOp27
 70
     1
102
RTVSPropertyOp28
 70
     1
102
RTVSPropertyOp29
 70
     1
102
RTVSPropertyOp30
 70
     1
102
RTVSPropertyOp31
 70
     1
102
RTVSPropertyOp32
 70
     1
  0
XRECORD
  5
F1082B
102
{ACAD_REACTORS
330
F1082A
102
}
330
F1082A
100
AcDbXrecord
280
     1
102
RTVSPropertyOp0
 70
     1
102
RTVSPropertyOp1
 70
     1
102
RTVSPropertyOp2
 70
     1
102
RTVSPropertyOp3
 70
     1
102
RTVSPropertyOp4
 70
     1
102
RTVSPropertyOp5
 70
     1
102
RTVSPropertyOp6
 70
     1
102
RTVSPropertyOp7
 70
     1
102
RTVSPropertyOp8
 70
     1
102
RTVSPropertyOp9
 70
     1
102
RTVSPropertyOp10
 70
     1
102
RTVSPropertyOp11
 70
     1
102
RTVSPropertyOp12
 70
     1
102
RTVSPropertyOp13
 70
     1
102
RTVSPropertyOp14
 70
     1
102
RTVSPropertyOp15
 70
     1
102
RTVSPropertyOp16
 70
     1
102
RTVSPropertyOp17
 70
     1
102
RTVSPropertyOp18
 70
     1
102
RTVSPropertyOp19
 70
     1
102
RTVSPropertyOp20
 70
     1
102
RTVSPropertyOp21
 70
     1
102
RTVSPropertyOp22
 70
     1
102
RTVSPropertyOp23
 70
     1
102
RTVSPropertyOp24
 70
     1
102
RTVSPropertyOp25
 70
     1
102
RTVSPropertyOp26
 70
     1
102
RTVSPropertyOp27
 70
     1
102
RTVSPropertyOp28
 70
     1
102
RTVSPropertyOp29
 70
     1
102
RTVSPropertyOp30
 70
     1
102
RTVSPropertyOp31
 70
     1
102
RTVSPropertyOp32
 70
     1
  0
XRECORD
  5
F10833
102
{ACAD_REACTORS
330
F10832
102
}
330
F10832
100
AcDbXrecord
280
     1
102
RTVSPropertyOp0
 70
     1
102
RTVSPropertyOp1
 70
     1
102
RTVSPropertyOp2
 70
     1
102
RTVSPropertyOp3
 70
     1
102
RTVSPropertyOp4
 70
     1
102
RTVSPropertyOp5
 70
     1
102
RTVSPropertyOp6
 70
     1
102
RTVSPropertyOp7
 70
     1
102
RTVSPropertyOp8
 70
     1
102
RTVSPropertyOp9
 70
     1
102
RTVSPropertyOp10
 70
     1
102
RTVSPropertyOp11
 70
     1
102
RTVSPropertyOp12
 70
     1
102
RTVSPropertyOp13
 70
     1
102
RTVSPropertyOp14
 70
     1
102
RTVSPropertyOp15
 70
     1
102
RTVSPropertyOp16
 70
     1
102
RTVSPropertyOp17
 70
     1
102
RTVSPropertyOp18
 70
     1
102
RTVSPropertyOp19
 70
     1
102
RTVSPropertyOp20
 70
     1
102
RTVSPropertyOp21
 70
     1
102
RTVSPropertyOp22
 70
     1
102
RTVSPropertyOp23
 70
     1
102
RTVSPropertyOp24
 70
     1
102
RTVSPropertyOp25
 70
     1
102
RTVSPropertyOp26
 70
     1
102
RTVSPropertyOp27
 70
     1
102
RTVSPropertyOp28
 70
     1
102
RTVSPropertyOp29
 70
     1
102
RTVSPropertyOp30
 70
     1
102
RTVSPropertyOp31
 70
     1
102
RTVSPropertyOp32
 70
     1
  0
XRECORD
  5
F10825
102
{ACAD_REACTORS
330
F10824
102
}
330
F10824
100
AcDbXrecord
280
     1
102
RTVSPropertyOp0
 70
     1
102
RTVSPropertyOp1
 70
     1
102
RTVSPropertyOp2
 70
     1
102
RTVSPropertyOp3
 70
     1
102
RTVSPropertyOp4
 70
     1
102
RTVSPropertyOp5
 70
     1
102
RTVSPropertyOp6
 70
     1
102
RTVSPropertyOp7
 70
     1
102
RTVSPropertyOp8
 70
     1
102
RTVSPropertyOp9
 70
     1
102
RTVSPropertyOp10
 70
     1
102
RTVSPropertyOp11
 70
     1
102
RTVSPropertyOp12
 70
     1
102
RTVSPropertyOp13
 70
     1
102
RTVSPropertyOp14
 70
     1
102
RTVSPropertyOp15
 70
     1
102
RTVSPropertyOp16
 70
     1
102
RTVSPropertyOp17
 70
     1
102
RTVSPropertyOp18
 70
     1
102
RTVSPropertyOp19
 70
     1
102
RTVSPropertyOp20
 70
     1
102
RTVSPropertyOp21
 70
     1
102
RTVSPropertyOp22
 70
     1
102
RTVSPropertyOp23
 70
     1
102
RTVSPropertyOp24
 70
     1
102
RTVSPropertyOp25
 70
     1
102
RTVSPropertyOp26
 70
     1
102
RTVSPropertyOp27
 70
     1
102
RTVSPropertyOp28
 70
     1
102
RTVSPropertyOp29
 70
     1
102
RTVSPropertyOp30
 70
     1
102
RTVSPropertyOp31
 70
     1
102
RTVSPropertyOp32
 70
     1
  0
XRECORD
  5
F10829
102
{ACAD_REACTORS
330
F10828
102
}
330
F10828
100
AcDbXrecord
280
     1
102
RTVSPropertyOp0
 70
     1
102
RTVSPropertyOp1
 70
     1
102
RTVSPropertyOp2
 70
     1
102
RTVSPropertyOp3
 70
     1
102
RTVSPropertyOp4
 70
     1
102
RTVSPropertyOp5
 70
     1
102
RTVSPropertyOp6
 70
     1
102
RTVSPropertyOp7
 70
     1
102
RTVSPropertyOp8
 70
     1
102
RTVSPropertyOp9
 70
     1
102
RTVSPropertyOp10
 70
     1
102
RTVSPropertyOp11
 70
     1
102
RTVSPropertyOp12
 70
     1
102
RTVSPropertyOp13
 70
     1
102
RTVSPropertyOp14
 70
     1
102
RTVSPropertyOp15
 70
     1
102
RTVSPropertyOp16
 70
     1
102
RTVSPropertyOp17
 70
     1
102
RTVSPropertyOp18
 70
     1
102
RTVSPropertyOp19
 70
     1
102
RTVSPropertyOp20
 70
     1
102
RTVSPropertyOp21
 70
     1
102
RTVSPropertyOp22
 70
     1
102
RTVSPropertyOp23
 70
     1
102
RTVSPropertyOp24
 70
     1
102
RTVSPropertyOp25
 70
     1
102
RTVSPropertyOp26
 70
     1
102
RTVSPropertyOp27
 70
     1
102
RTVSPropertyOp28
 70
     1
102
RTVSPropertyOp29
 70
     1
102
RTVSPropertyOp30
 70
     1
102
RTVSPropertyOp31
 70
     1
102
RTVSPropertyOp32
 70
     1
  0
XRECORD
  5
F10839
102
{ACAD_REACTORS
330
F10838
102
}
330
F10838
100
AcDbXrecord
280
     1
102
RTVSPropertyOp0
 70
     0
102
RTVSPropertyOp1
 70
     0
102
RTVSPropertyOp2
 70
     0
102
RTVSPropertyOp3
 70
     0
102
RTVSPropertyOp4
 70
     0
102
RTVSPropertyOp5
 70
     0
102
RTVSPropertyOp6
 70
     0
102
RTVSPropertyOp7
 70
     0
102
RTVSPropertyOp8
 70
     0
102
RTVSPropertyOp9
 70
     0
102
RTVSPropertyOp10
 70
     0
102
RTVSPropertyOp11
 70
     0
102
RTVSPropertyOp12
 70
     0
102
RTVSPropertyOp13
 70
     0
102
RTVSPropertyOp14
 70
     2
102
RTVSPropertyOp15
 70
     0
102
RTVSPropertyOp16
 70
     0
102
RTVSPropertyOp17
 70
     0
102
RTVSPropertyOp18
 70
     0
102
RTVSPropertyOp19
 70
     0
102
RTVSPropertyOp20
 70
     0
102
RTVSPropertyOp21
 70
     0
102
RTVSPropertyOp22
 70
     0
102
RTVSPropertyOp23
 70
     0
102
RTVSPropertyOp24
 70
     0
102
RTVSPropertyOp25
 70
     0
102
RTVSPropertyOp26
 70
     0
102
RTVSPropertyOp27
 70
     0
102
RTVSPropertyOp28
 70
     1
102
RTVSPropertyOp29
 70
     1
102
RTVSPropertyOp30
 70
     1
102
RTVSPropertyOp31
 70
     1
102
RTVSPropertyOp32
 70
     1
  0
XRECORD
  5
F10831
102
{ACAD_REACTORS
330
F10830
102
}
330
F10830
100
AcDbXrecord
280
     1
102
RTVSPropertyOp0
 70
     1
102
RTVSPropertyOp1
 70
     1
102
RTVSPropertyOp2
 70
     1
102
RTVSPropertyOp3
 70
     1
102
RTVSPropertyOp4
 70
     1
102
RTVSPropertyOp5
 70
     1
102
RTVSPropertyOp6
 70
     1
102
RTVSPropertyOp7
 70
     1
102
RTVSPropertyOp8
 70
     1
102
RTVSPropertyOp9
 70
     1
102
RTVSPropertyOp10
 70
     1
102
RTVSPropertyOp11
 70
     1
102
RTVSPropertyOp12
 70
     1
102
RTVSPropertyOp13
 70
     1
102
RTVSPropertyOp14
 70
     1
102
RTVSPropertyOp15
 70
     1
102
RTVSPropertyOp16
 70
     1
102
RTVSPropertyOp17
 70
     1
102
RTVSPropertyOp18
 70
     1
102
RTVSPropertyOp19
 70
     1
102
RTVSPropertyOp20
 70
     1
102
RTVSPropertyOp21
 70
     1
102
RTVSPropertyOp22
 70
     1
102
RTVSPropertyOp23
 70
     1
102
RTVSPropertyOp24
 70
     1
102
RTVSPropertyOp25
 70
     1
102
RTVSPropertyOp26
 70
     1
102
RTVSPropertyOp27
 70
     1
102
RTVSPropertyOp28
 70
     1
102
RTVSPropertyOp29
 70
     1
102
RTVSPropertyOp30
 70
     1
102
RTVSPropertyOp31
 70
     1
102
RTVSPropertyOp32
 70
     1
  0
XRECORD
  5
F10815
102
{ACAD_REACTORS
330
F10814
102
}
330
F10814
100
AcDbXrecord
280
     1
102
RTVSPropertyOp0
 70
     1
102
RTVSPropertyOp1
 70
     1
102
RTVSPropertyOp2
 70
     1
102
RTVSPropertyOp3
 70
     1
102
RTVSPropertyOp4
 70
     1
102
RTVSPropertyOp5
 70
     1
102
RTVSPropertyOp6
 70
     1
102
RTVSPropertyOp7
 70
     1
102
RTVSPropertyOp8
 70
     1
102
RTVSPropertyOp9
 70
     1
102
RTVSPropertyOp10
 70
     1
102
RTVSPropertyOp11
 70
     1
102
RTVSPropertyOp12
 70
     1
102
RTVSPropertyOp13
 70
     1
102
RTVSPropertyOp14
 70
     1
102
RTVSPropertyOp15
 70
     1
102
RTVSPropertyOp16
 70
     1
102
RTVSPropertyOp17
 70
     1
102
RTVSPropertyOp18
 70
     1
102
RTVSPropertyOp19
 70
     1
102
RTVSPropertyOp20
 70
     1
102
RTVSPropertyOp21
 70
     1
102
RTVSPropertyOp22
 70
     1
102
RTVSPropertyOp23
 70
     1
102
RTVSPropertyOp24
 70
     1
102
RTVSPropertyOp25
 70
     1
102
RTVSPropertyOp26
 70
     1
102
RTVSPropertyOp27
 70
     1
102
RTVSPropertyOp28
 70
     1
102
RTVSPropertyOp29
 70
     1
102
RTVSPropertyOp30
 70
     1
102
RTVSPropertyOp31
 70
     1
102
RTVSPropertyOp32
 70
     1
  0
XRECORD
  5
F10817
102
{ACAD_REACTORS
330
F10816
102
}
330
F10816
100
AcDbXrecord
280
     1
102
RTVSPropertyOp0
 70
     1
102
RTVSPropertyOp1
 70
     1
102
RTVSPropertyOp2
 70
     1
102
RTVSPropertyOp3
 70
     1
102
RTVSPropertyOp4
 70
     1
102
RTVSPropertyOp5
 70
     1
102
RTVSPropertyOp6
 70
     1
102
RTVSPropertyOp7
 70
     1
102
RTVSPropertyOp8
 70
     1
102
RTVSPropertyOp9
 70
     1
102
RTVSPropertyOp10
 70
     1
102
RTVSPropertyOp11
 70
     1
102
RTVSPropertyOp12
 70
     1
102
RTVSPropertyOp13
 70
     1
102
RTVSPropertyOp14
 70
     1
102
RTVSPropertyOp15
 70
     1
102
RTVSPropertyOp16
 70
     1
102
RTVSPropertyOp17
 70
     1
102
RTVSPropertyOp18
 70
     1
102
RTVSPropertyOp19
 70
     1
102
RTVSPropertyOp20
 70
     1
102
RTVSPropertyOp21
 70
     1
102
RTVSPropertyOp22
 70
     1
102
RTVSPropertyOp23
 70
     1
102
RTVSPropertyOp24
 70
     1
102
RTVSPropertyOp25
 70
     1
102
RTVSPropertyOp26
 70
     1
102
RTVSPropertyOp27
 70
     1
102
RTVSPropertyOp28
 70
     1
102
RTVSPropertyOp29
 70
     1
102
RTVSPropertyOp30
 70
     1
102
RTVSPropertyOp31
 70
     1
102
RTVSPropertyOp32
 70
     1
  0
XRECORD
  5
F10819
102
{ACAD_REACTORS
330
F10818
102
}
330
F10818
100
AcDbXrecord
280
     1
102
RTVSPropertyOp0
 70
     1
102
RTVSPropertyOp1
 70
     1
102
RTVSPropertyOp2
 70
     1
102
RTVSPropertyOp3
 70
     1
102
RTVSPropertyOp4
 70
     1
102
RTVSPropertyOp5
 70
     1
102
RTVSPropertyOp6
 70
     1
102
RTVSPropertyOp7
 70
     1
102
RTVSPropertyOp8
 70
     1
102
RTVSPropertyOp9
 70
     1
102
RTVSPropertyOp10
 70
     1
102
RTVSPropertyOp11
 70
     1
102
RTVSPropertyOp12
 70
     1
102
RTVSPropertyOp13
 70
     1
102
RTVSPropertyOp14
 70
     1
102
RTVSPropertyOp15
 70
     1
102
RTVSPropertyOp16
 70
     1
102
RTVSPropertyOp17
 70
     1
102
RTVSPropertyOp18
 70
     1
102
RTVSPropertyOp19
 70
     1
102
RTVSPropertyOp20
 70
     1
102
RTVSPropertyOp21
 70
     1
102
RTVSPropertyOp22
 70
     1
102
RTVSPropertyOp23
 70
     1
102
RTVSPropertyOp24
 70
     1
102
RTVSPropertyOp25
 70
     1
102
RTVSPropertyOp26
 70
     1
102
RTVSPropertyOp27
 70
     1
102
RTVSPropertyOp28
 70
     1
102
RTVSPropertyOp29
 70
     1
102
RTVSPropertyOp30
 70
     1
102
RTVSPropertyOp31
 70
     1
102
RTVSPropertyOp32
 70
     1
  0
XRECORD
  5
F1081B
102
{ACAD_REACTORS
330
F1081A
102
}
330
F1081A
100
AcDbXrecord
280
     1
102
RTVSPropertyOp0
 70
     1
102
RTVSPropertyOp1
 70
     1
102
RTVSPropertyOp2
 70
     1
102
RTVSPropertyOp3
 70
     1
102
RTVSPropertyOp4
 70
     1
102
RTVSPropertyOp5
 70
     1
102
RTVSPropertyOp6
 70
     1
102
RTVSPropertyOp7
 70
     1
102
RTVSPropertyOp8
 70
     1
102
RTVSPropertyOp9
 70
     1
102
RTVSPropertyOp10
 70
     1
102
RTVSPropertyOp11
 70
     1
102
RTVSPropertyOp12
 70
     1
102
RTVSPropertyOp13
 70
     1
102
RTVSPropertyOp14
 70
     1
102
RTVSPropertyOp15
 70
     1
102
RTVSPropertyOp16
 70
     1
102
RTVSPropertyOp17
 70
     1
102
RTVSPropertyOp18
 70
     1
102
RTVSPropertyOp19
 70
     1
102
RTVSPropertyOp20
 70
     1
102
RTVSPropertyOp21
 70
     1
102
RTVSPropertyOp22
 70
     1
102
RTVSPropertyOp23
 70
     1
102
RTVSPropertyOp24
 70
     1
102
RTVSPropertyOp25
 70
     1
102
RTVSPropertyOp26
 70
     1
102
RTVSPropertyOp27
 70
     1
102
RTVSPropertyOp28
 70
     1
102
RTVSPropertyOp29
 70
     1
102
RTVSPropertyOp30
 70
     1
102
RTVSPropertyOp31
 70
     1
102
RTVSPropertyOp32
 70
     1
  0
XRECORD
  5
F10842
102
{ACAD_REACTORS
330
F10841
102
}
330
F10841
100
AcDbXrecord
280
     1
102
RTVSPropertyOp0
 70
     1
102
RTVSPropertyOp1
 70
     1
102
RTVSPropertyOp2
 70
     1
102
RTVSPropertyOp3
 70
     1
102
RTVSPropertyOp4
 70
     1
102
RTVSPropertyOp5
 70
     1
102
RTVSPropertyOp6
 70
     1
102
RTVSPropertyOp7
 70
     1
102
RTVSPropertyOp8
 70
     1
102
RTVSPropertyOp9
 70
     1
102
RTVSPropertyOp10
 70
     1
102
RTVSPropertyOp11
 70
     1
102
RTVSPropertyOp12
 70
     1
102
RTVSPropertyOp13
 70
     1
102
RTVSPropertyOp14
 70
     1
102
RTVSPropertyOp15
 70
     1
102
RTVSPropertyOp16
 70
     1
102
RTVSPropertyOp17
 70
     1
102
RTVSPropertyOp18
 70
     1
102
RTVSPropertyOp19
 70
     1
102
RTVSPropertyOp20
 70
     1
102
RTVSPropertyOp21
 70
     1
102
RTVSPropertyOp22
 70
     1
102
RTVSPropertyOp23
 70
     1
102
RTVSPropertyOp24
 70
     1
102
RTVSPropertyOp25
 70
     1
102
RTVSPropertyOp26
 70
     1
102
RTVSPropertyOp27
 70
     1
102
RTVSPropertyOp28
 70
     1
102
RTVSPropertyOp29
 70
     1
102
RTVSPropertyOp30
 70
     1
102
RTVSPropertyOp31
 70
     1
102
RTVSPropertyOp32
 70
     1
  0
XRECORD
  5
F10835
102
{ACAD_REACTORS
330
F10834
102
}
330
F10834
100
AcDbXrecord
280
     1
102
RTVSPropertyOp0
 70
     0
102
RTVSPropertyOp1
 70
     0
102
RTVSPropertyOp2
 70
     0
102
RTVSPropertyOp3
 70
     0
102
RTVSPropertyOp4
 70
     0
102
RTVSPropertyOp5
 70
     0
102
RTVSPropertyOp6
 70
     0
102
RTVSPropertyOp7
 70
     0
102
RTVSPropertyOp8
 70
     0
102
RTVSPropertyOp9
 70
     0
102
RTVSPropertyOp10
 70
     0
102
RTVSPropertyOp11
 70
     0
102
RTVSPropertyOp12
 70
     0
102
RTVSPropertyOp13
 70
     0
102
RTVSPropertyOp14
 70
     2
102
RTVSPropertyOp15
 70
     0
102
RTVSPropertyOp16
 70
     0
102
RTVSPropertyOp17
 70
     0
102
RTVSPropertyOp18
 70
     0
102
RTVSPropertyOp19
 70
     0
102
RTVSPropertyOp20
 70
     0
102
RTVSPropertyOp21
 70
     0
102
RTVSPropertyOp22
 70
     0
102
RTVSPropertyOp23
 70
     0
102
RTVSPropertyOp24
 70
     0
102
RTVSPropertyOp25
 70
     0
102
RTVSPropertyOp26
 70
     0
102
RTVSPropertyOp27
 70
     0
102
RTVSPropertyOp28
 70
     1
102
RTVSPropertyOp29
 70
     1
102
RTVSPropertyOp30
 70
     1
102
RTVSPropertyOp31
 70
     1
102
RTVSPropertyOp32
 70
     1
  0
XRECORD
  5
F1082F
102
{ACAD_REACTORS
330
F1082E
102
}
330
F1082E
100
AcDbXrecord
280
     1
102
RTVSPropertyOp0
 70
     1
102
RTVSPropertyOp1
 70
     1
102
RTVSPropertyOp2
 70
     1
102
RTVSPropertyOp3
 70
     1
102
RTVSPropertyOp4
 70
     1
102
RTVSPropertyOp5
 70
     1
102
RTVSPropertyOp6
 70
     1
102
RTVSPropertyOp7
 70
     1
102
RTVSPropertyOp8
 70
     1
102
RTVSPropertyOp9
 70
     1
102
RTVSPropertyOp10
 70
     1
102
RTVSPropertyOp11
 70
     1
102
RTVSPropertyOp12
 70
     1
102
RTVSPropertyOp13
 70
     1
102
RTVSPropertyOp14
 70
     1
102
RTVSPropertyOp15
 70
     1
102
RTVSPropertyOp16
 70
     1
102
RTVSPropertyOp17
 70
     1
102
RTVSPropertyOp18
 70
     1
102
RTVSPropertyOp19
 70
     1
102
RTVSPropertyOp20
 70
     1
102
RTVSPropertyOp21
 70
     1
102
RTVSPropertyOp22
 70
     1
102
RTVSPropertyOp23
 70
     1
102
RTVSPropertyOp24
 70
     1
102
RTVSPropertyOp25
 70
     1
102
RTVSPropertyOp26
 70
     1
102
RTVSPropertyOp27
 70
     1
102
RTVSPropertyOp28
 70
     1
102
RTVSPropertyOp29
 70
     1
102
RTVSPropertyOp30
 70
     1
102
RTVSPropertyOp31
 70
     1
102
RTVSPropertyOp32
 70
     1
  0
XRECORD
  5
F10837
102
{ACAD_REACTORS
330
F10836
102
}
330
F10836
100
AcDbXrecord
280
     1
102
RTVSPropertyOp0
 70
     0
102
RTVSPropertyOp1
 70
     0
102
RTVSPropertyOp2
 70
     0
102
RTVSPropertyOp3
 70
     0
102
RTVSPropertyOp4
 70
     0
102
RTVSPropertyOp5
 70
     0
102
RTVSPropertyOp6
 70
     0
102
RTVSPropertyOp7
 70
     0
102
RTVSPropertyOp8
 70
     0
102
RTVSPropertyOp9
 70
     0
102
RTVSPropertyOp10
 70
     0
102
RTVSPropertyOp11
 70
     0
102
RTVSPropertyOp12
 70
     0
102
RTVSPropertyOp13
 70
     0
102
RTVSPropertyOp14
 70
     2
102
RTVSPropertyOp15
 70
     0
102
RTVSPropertyOp16
 70
     0
102
RTVSPropertyOp17
 70
     0
102
RTVSPropertyOp18
 70
     0
102
RTVSPropertyOp19
 70
     0
102
RTVSPropertyOp20
 70
     0
102
RTVSPropertyOp21
 70
     0
102
RTVSPropertyOp22
 70
     0
102
RTVSPropertyOp23
 70
     0
102
RTVSPropertyOp24
 70
     0
102
RTVSPropertyOp25
 70
     0
102
RTVSPropertyOp26
 70
     0
102
RTVSPropertyOp27
 70
     0
102
RTVSPropertyOp28
 70
     1
102
RTVSPropertyOp29
 70
     1
102
RTVSPropertyOp30
 70
     1
102
RTVSPropertyOp31
 70
     1
102
RTVSPropertyOp32
 70
     1
  0
XRECORD
  5
F10827
102
{ACAD_REACTORS
330
F10826
102
}
330
F10826
100
AcDbXrecord
280
     1
102
RTVSPropertyOp0
 70
     1
102
RTVSPropertyOp1
 70
     1
102
RTVSPropertyOp2
 70
     1
102
RTVSPropertyOp3
 70
     1
102
RTVSPropertyOp4
 70
     1
102
RTVSPropertyOp5
 70
     1
102
RTVSPropertyOp6
 70
     1
102
RTVSPropertyOp7
 70
     1
102
RTVSPropertyOp8
 70
     1
102
RTVSPropertyOp9
 70
     1
102
RTVSPropertyOp10
 70
     1
102
RTVSPropertyOp11
 70
     1
102
RTVSPropertyOp12
 70
     1
102
RTVSPropertyOp13
 70
     1
102
RTVSPropertyOp14
 70
     1
102
RTVSPropertyOp15
 70
     1
102
RTVSPropertyOp16
 70
     1
102
RTVSPropertyOp17
 70
     1
102
RTVSPropertyOp18
 70
     1
102
RTVSPropertyOp19
 70
     1
102
RTVSPropertyOp20
 70
     1
102
RTVSPropertyOp21
 70
     1
102
RTVSPropertyOp22
 70
     1
102
RTVSPropertyOp23
 70
     1
102
RTVSPropertyOp24
 70
     1
102
RTVSPropertyOp25
 70
     1
102
RTVSPropertyOp26
 70
     1
102
RTVSPropertyOp27
 70
     1
102
RTVSPropertyOp28
 70
     1
102
RTVSPropertyOp29
 70
     1
102
RTVSPropertyOp30
 70
     1
102
RTVSPropertyOp31
 70
     1
102
RTVSPropertyOp32
 70
     1
  0
XRECORD
  5
F1084C
102
{ACAD_REACTORS
330
F1084B
102
}
330
F1084B
100
AcDbXrecord
280
     1
102
RTVSPropertyOp0
 70
     1
102
RTVSPropertyOp1
 70
     1
102
RTVSPropertyOp2
 70
     1
102
RTVSPropertyOp3
 70
     1
102
RTVSPropertyOp4
 70
     1
102
RTVSPropertyOp5
 70
     1
102
RTVSPropertyOp6
 70
     1
102
RTVSPropertyOp7
 70
     1
102
RTVSPropertyOp8
 70
     1
102
RTVSPropertyOp9
 70
     1
102
RTVSPropertyOp10
 70
     1
102
RTVSPropertyOp11
 70
     1
102
RTVSPropertyOp12
 70
     1
102
RTVSPropertyOp13
 70
     1
102
RTVSPropertyOp14
 70
     1
102
RTVSPropertyOp15
 70
     1
102
RTVSPropertyOp16
 70
     1
102
RTVSPropertyOp17
 70
     1
102
RTVSPropertyOp18
 70
     1
102
RTVSPropertyOp19
 70
     1
102
RTVSPropertyOp20
 70
     1
102
RTVSPropertyOp21
 70
     1
102
RTVSPropertyOp22
 70
     1
102
RTVSPropertyOp23
 70
     1
102
RTVSPropertyOp24
 70
     1
102
RTVSPropertyOp25
 70
     1
102
RTVSPropertyOp26
 70
     1
102
RTVSPropertyOp27
 70
     1
102
RTVSPropertyOp28
 70
     1
102
RTVSPropertyOp29
 70
     1
102
RTVSPropertyOp30
 70
     1
102
RTVSPropertyOp31
 70
     1
102
RTVSPropertyOp32
 70
     1
  0
XRECORD
  5
F1084A
102
{ACAD_REACTORS
330
F10849
102
}
330
F10849
100
AcDbXrecord
280
     1
102
RTVSPropertyOp0
 70
     1
102
RTVSPropertyOp1
 70
     1
102
RTVSPropertyOp2
 70
     1
102
RTVSPropertyOp3
 70
     1
102
RTVSPropertyOp4
 70
     1
102
RTVSPropertyOp5
 70
     1
102
RTVSPropertyOp6
 70
     1
102
RTVSPropertyOp7
 70
     1
102
RTVSPropertyOp8
 70
     1
102
RTVSPropertyOp9
 70
     1
102
RTVSPropertyOp10
 70
     1
102
RTVSPropertyOp11
 70
     1
102
RTVSPropertyOp12
 70
     1
102
RTVSPropertyOp13
 70
     1
102
RTVSPropertyOp14
 70
     1
102
RTVSPropertyOp15
 70
     1
102
RTVSPropertyOp16
 70
     1
102
RTVSPropertyOp17
 70
     1
102
RTVSPropertyOp18
 70
     1
102
RTVSPropertyOp19
 70
     1
102
RTVSPropertyOp20
 70
     1
102
RTVSPropertyOp21
 70
     1
102
RTVSPropertyOp22
 70
     1
102
RTVSPropertyOp23
 70
     1
102
RTVSPropertyOp24
 70
     1
102
RTVSPropertyOp25
 70
     1
102
RTVSPropertyOp26
 70
     1
102
RTVSPropertyOp27
 70
     1
102
RTVSPropertyOp28
 70
     1
102
RTVSPropertyOp29
 70
     1
102
RTVSPropertyOp30
 70
     1
102
RTVSPropertyOp31
 70
     1
102
RTVSPropertyOp32
 70
     1
  0
XRECORD
  5
F10844
102
{ACAD_REACTORS
330
F10843
102
}
330
F10843
100
AcDbXrecord
280
     1
102
RTVSPropertyOp0
 70
     1
102
RTVSPropertyOp1
 70
     1
102
RTVSPropertyOp2
 70
     1
102
RTVSPropertyOp3
 70
     1
102
RTVSPropertyOp4
 70
     1
102
RTVSPropertyOp5
 70
     1
102
RTVSPropertyOp6
 70
     1
102
RTVSPropertyOp7
 70
     1
102
RTVSPropertyOp8
 70
     1
102
RTVSPropertyOp9
 70
     1
102
RTVSPropertyOp10
 70
     1
102
RTVSPropertyOp11
 70
     1
102
RTVSPropertyOp12
 70
     1
102
RTVSPropertyOp13
 70
     1
102
RTVSPropertyOp14
 70
     1
102
RTVSPropertyOp15
 70
     1
102
RTVSPropertyOp16
 70
     1
102
RTVSPropertyOp17
 70
     1
102
RTVSPropertyOp18
 70
     1
102
RTVSPropertyOp19
 70
     1
102
RTVSPropertyOp20
 70
     1
102
RTVSPropertyOp21
 70
     1
102
RTVSPropertyOp22
 70
     1
102
RTVSPropertyOp23
 70
     1
102
RTVSPropertyOp24
 70
     1
102
RTVSPropertyOp25
 70
     1
102
RTVSPropertyOp26
 70
     1
102
RTVSPropertyOp27
 70
     1
102
RTVSPropertyOp28
 70
     1
102
RTVSPropertyOp29
 70
     1
102
RTVSPropertyOp30
 70
     1
102
RTVSPropertyOp31
 70
     1
102
RTVSPropertyOp32
 70
     1
  0
XRECORD
  5
F10846
102
{ACAD_REACTORS
330
F10845
102
}
330
F10845
100
AcDbXrecord
280
     1
102
RTVSPropertyOp0
 70
     1
102
RTVSPropertyOp1
 70
     1
102
RTVSPropertyOp2
 70
     1
102
RTVSPropertyOp3
 70
     1
102
RTVSPropertyOp4
 70
     1
102
RTVSPropertyOp5
 70
     1
102
RTVSPropertyOp6
 70
     1
102
RTVSPropertyOp7
 70
     1
102
RTVSPropertyOp8
 70
     1
102
RTVSPropertyOp9
 70
     1
102
RTVSPropertyOp10
 70
     1
102
RTVSPropertyOp11
 70
     1
102
RTVSPropertyOp12
 70
     1
102
RTVSPropertyOp13
 70
     1
102
RTVSPropertyOp14
 70
     1
102
RTVSPropertyOp15
 70
     1
102
RTVSPropertyOp16
 70
     1
102
RTVSPropertyOp17
 70
     1
102
RTVSPropertyOp18
 70
     1
102
RTVSPropertyOp19
 70
     1
102
RTVSPropertyOp20
 70
     1
102
RTVSPropertyOp21
 70
     1
102
RTVSPropertyOp22
 70
     1
102
RTVSPropertyOp23
 70
     1
102
RTVSPropertyOp24
 70
     1
102
RTVSPropertyOp25
 70
     1
102
RTVSPropertyOp26
 70
     1
102
RTVSPropertyOp27
 70
     1
102
RTVSPropertyOp28
 70
     1
102
RTVSPropertyOp29
 70
     1
102
RTVSPropertyOp30
 70
     1
102
RTVSPropertyOp31
 70
     1
102
RTVSPropertyOp32
 70
     1
  0
XRECORD
  5
F1082D
102
{ACAD_REACTORS
330
F1082C
102
}
330
F1082C
100
AcDbXrecord
280
     1
102
RTVSPropertyOp0
 70
     1
102
RTVSPropertyOp1
 70
     1
102
RTVSPropertyOp2
 70
     1
102
RTVSPropertyOp3
 70
     1
102
RTVSPropertyOp4
 70
     1
102
RTVSPropertyOp5
 70
     1
102
RTVSPropertyOp6
 70
     1
102
RTVSPropertyOp7
 70
     1
102
RTVSPropertyOp8
 70
     1
102
RTVSPropertyOp9
 70
     1
102
RTVSPropertyOp10
 70
     1
102
RTVSPropertyOp11
 70
     1
102
RTVSPropertyOp12
 70
     1
102
RTVSPropertyOp13
 70
     1
102
RTVSPropertyOp14
 70
     1
102
RTVSPropertyOp15
 70
     1
102
RTVSPropertyOp16
 70
     1
102
RTVSPropertyOp17
 70
     1
102
RTVSPropertyOp18
 70
     1
102
RTVSPropertyOp19
 70
     1
102
RTVSPropertyOp20
 70
     1
102
RTVSPropertyOp21
 70
     1
102
RTVSPropertyOp22
 70
     1
102
RTVSPropertyOp23
 70
     1
102
RTVSPropertyOp24
 70
     1
102
RTVSPropertyOp25
 70
     1
102
RTVSPropertyOp26
 70
     1
102
RTVSPropertyOp27
 70
     1
102
RTVSPropertyOp28
 70
     1
102
RTVSPropertyOp29
 70
     1
102
RTVSPropertyOp30
 70
     1
102
RTVSPropertyOp31
 70
     1
102
RTVSPropertyOp32
 70
     1
  0
XRECORD
  5
F10840
102
{ACAD_REACTORS
330
F1083F
102
}
330
F1083F
100
AcDbXrecord
280
     1
102
RTVSPropertyOp0
 70
     1
102
RTVSPropertyOp1
 70
     1
102
RTVSPropertyOp2
 70
     1
102
RTVSPropertyOp3
 70
     1
102
RTVSPropertyOp4
 70
     1
102
RTVSPropertyOp5
 70
     1
102
RTVSPropertyOp6
 70
     1
102
RTVSPropertyOp7
 70
     1
102
RTVSPropertyOp8
 70
     1
102
RTVSPropertyOp9
 70
     1
102
RTVSPropertyOp10
 70
     1
102
RTVSPropertyOp11
 70
     1
102
RTVSPropertyOp12
 70
     1
102
RTVSPropertyOp13
 70
     1
102
RTVSPropertyOp14
 70
     1
102
RTVSPropertyOp15
 70
     1
102
RTVSPropertyOp16
 70
     1
102
RTVSPropertyOp17
 70
     1
102
RTVSPropertyOp18
 70
     1
102
RTVSPropertyOp19
 70
     1
102
RTVSPropertyOp20
 70
     1
102
RTVSPropertyOp21
 70
     1
102
RTVSPropertyOp22
 70
     1
102
RTVSPropertyOp23
 70
     1
102
RTVSPropertyOp24
 70
     1
102
RTVSPropertyOp25
 70
     1
102
RTVSPropertyOp26
 70
     1
102
RTVSPropertyOp27
 70
     1
102
RTVSPropertyOp28
 70
     1
102
RTVSPropertyOp29
 70
     1
102
RTVSPropertyOp30
 70
     1
102
RTVSPropertyOp31
 70
     1
102
RTVSPropertyOp32
 70
     1
  0
XRECORD
  5
F10848
102
{ACAD_REACTORS
330
F10847
102
}
330
F10847
100
AcDbXrecord
280
     1
102
RTVSPropertyOp0
 70
     1
102
RTVSPropertyOp1
 70
     1
102
RTVSPropertyOp2
 70
     1
102
RTVSPropertyOp3
 70
     1
102
RTVSPropertyOp4
 70
     1
102
RTVSPropertyOp5
 70
     1
102
RTVSPropertyOp6
 70
     1
102
RTVSPropertyOp7
 70
     1
102
RTVSPropertyOp8
 70
     1
102
RTVSPropertyOp9
 70
     1
102
RTVSPropertyOp10
 70
     1
102
RTVSPropertyOp11
 70
     1
102
RTVSPropertyOp12
 70
     1
102
RTVSPropertyOp13
 70
     1
102
RTVSPropertyOp14
 70
     1
102
RTVSPropertyOp15
 70
     1
102
RTVSPropertyOp16
 70
     1
102
RTVSPropertyOp17
 70
     1
102
RTVSPropertyOp18
 70
     1
102
RTVSPropertyOp19
 70
     1
102
RTVSPropertyOp20
 70
     1
102
RTVSPropertyOp21
 70
     1
102
RTVSPropertyOp22
 70
     1
102
RTVSPropertyOp23
 70
     1
102
RTVSPropertyOp24
 70
     1
102
RTVSPropertyOp25
 70
     1
102
RTVSPropertyOp26
 70
     1
102
RTVSPropertyOp27
 70
     1
102
RTVSPropertyOp28
 70
     1
102
RTVSPropertyOp29
 70
     1
102
RTVSPropertyOp30
 70
     1
102
RTVSPropertyOp31
 70
     1
102
RTVSPropertyOp32
 70
     1
  0
ENDSEC
  0
EOF
