  0
SECTION
  2
HEADER
  9
$ACADVER
  1
AC1015
  9
$ACADMAINTVER
 70
    20
  9
$DWGCODEPAGE
  3
ANSI_1252
  9
$INSBASE
 10
0.0
 20
0.0
 30
0.0
  9
$EXTMIN
 10
-134.650259067358
 20
-100.103626943005
 30
0.0
  9
$EXTMAX
 10
143.354922279793
 20
99.8316062176166
 30
0.0
  9
$LIMMIN
 10
0.0
 20
0.0
  9
$LIMMAX
 10
12.0
 20
9.0
  9
$ORTHOMODE
 70
     0
  9
$REGENMODE
 70
     1
  9
$FILLMODE
 70
     1
  9
$QTEXTMODE
 70
     0
  9
$MIRRTEXT
 70
     1
  9
$LTSCALE
 40
1.0
  9
$ATTMODE
 70
     1
  9
$TEXTSIZE
 40
0.2
  9
$TRACEWID
 40
0.05
  9
$TEXTSTYLE
  7
Standard
  9
$CLAYER
  8
0
  9
$CELTYPE
  6
ByLayer
  9
$CECOLOR
 62
   256
  9
$CELTSCALE
 40
1.0
  9
$DISPSILH
 70
     0
  9
$DIMSCALE
 40
1.0
  9
$DIMASZ
 40
2.5
  9
$DIMEXO
 40
0.625
  9
$DIMDLI
 40
0.38
  9
$DIMRND
 40
0.0
  9
$DIMDLE
 40
0.0
  9
$DIMEXE
 40
1.25
  9
$DIMTP
 40
0.0
  9
$DIMTM
 40
0.000000001
  9
$DIMTXT
 40
2.5
  9
$DIMCEN
 40
0.09
  9
$DIMTSZ
 40
0.0
  9
$DIMTOL
 70
     1
  9
$DIMLIM
 70
     0
  9
$DIMTIH
 70
     0
  9
$DIMTOH
 70
     0
  9
$DIMSE1
 70
     0
  9
$DIMSE2
 70
     0
  9
$DIMTAD
 70
     1
  9
$DIMZIN
 70
     0
  9
$DIMBLK
  1
VDDIM_DEFAULT
  9
$DIMASO
 70
     1
  9
$DIMSHO
 70
     1
  9
$DIMPOST
  1

  9
$DIMAPOST
  1

  9
$DIMALT
 70
     0
  9
$DIMALTD
 70
     2
  9
$DIMALTF
 40
25.4
  9
$DIMLFAC
 40
1.0
  9
$DIMTOFL
 70
     0
  9
$DIMTVP
 40
0.0
  9
$DIMTIX
 70
     0
  9
$DIMSOXD
 70
     0
  9
$DIMSAH
 70
     0
  9
$DIMBLK1
  1

  9
$DIMBLK2
  1

  9
$DIMSTYLE
  2
BEM-ISBE
  9
$DIMCLRD
 70
     0
  9
$DIMCLRE
 70
     0
  9
$DIMCLRT
 70
     0
  9
$DIMTFAC
 40
0.5
  9
$DIMGAP
 40
0.625
  9
$DIMJUST
 70
     0
  9
$DIMSD1
 70
     0
  9
$DIMSD2
 70
     0
  9
$DIMTOLJ
 70
     1
  9
$DIMTZIN
 70
     0
  9
$DIMALTZ
 70
     0
  9
$DIMALTTZ
 70
     0
  9
$DIMUPT
 70
     0
  9
$DIMDEC
 70
     3
  9
$DIMTDEC
 70
     3
  9
$DIMALTU
 70
     2
  9
$DIMALTTD
 70
     2
  9
$DIMTXSTY
  7
Standard
  9
$DIMAUNIT
 70
     0
  9
$DIMADEC
 70
     3
  9
$DIMALTRND
 40
0.0
  9
$DIMAZIN
 70
     0
  9
$DIMDSEP
 70
    46
  9
$DIMATFIT
 70
     3
  9
$DIMFRAC
 70
     0
  9
$DIMLDRBLK
  1

  9
$DIMLUNIT
 70
     2
  9
$DIMLWD
 70
    -2
  9
$DIMLWE
 70
    -2
  9
$DIMTMOVE
 70
     0
  9
$LUNITS
 70
     2
  9
$LUPREC
 70
     4
  9
$SKETCHINC
 40
0.1
  9
$FILLETRAD
 40
0.0
  9
$AUNITS
 70
     0
  9
$AUPREC
 70
     0
  9
$MENU
  1
.
  9
$ELEVATION
 40
0.0
  9
$PELEVATION
 40
0.0
  9
$THICKNESS
 40
0.0
  9
$LIMCHECK
 70
     0
  9
$CHAMFERA
 40
0.5
  9
$CHAMFERB
 40
0.5
  9
$CHAMFERC
 40
1.0
  9
$CHAMFERD
 40
0.0
  9
$SKPOLY
 70
     0
  9
$TDCREATE
 40
2457002.670719584
  9
$TDUCREATE
 40
2457002.629052916
  9
$TDUPDATE
 40
2457002.677329491
  9
$TDUUPDATE
 40
2457002.635662824
  9
$TDINDWG
 40
0.0013245370
  9
$TDUSRTIMER
 40
0.0013244329
  9
$USRTIMER
 70
     1
  9
$ANGBASE
 50
0.0
  9
$ANGDIR
 70
     0
  9
$PDMODE
 70
     0
  9
$PDSIZE
 40
0.0
  9
$PLINEWID
 40
0.0
  9
$SPLFRAME
 70
     0
  9
$SPLINETYPE
 70
     6
  9
$SPLINESEGS
 70
     8
  9
$HANDSEED
  5
F10B17
  9
$SURFTAB1
 70
     6
  9
$SURFTAB2
 70
     6
  9
$SURFTYPE
 70
     6
  9
$SURFU
 70
     6
  9
$SURFV
 70
     6
  9
$UCSBASE
  2

  9
$UCSNAME
  2

  9
$UCSORG
 10
-5.530303030303
 20
12.409090909091
 30
0.0
  9
$UCSXDIR
 10
1.0
 20
0.0
 30
0.0
  9
$UCSYDIR
 10
0.0
 20
1.0
 30
0.0
  9
$UCSORTHOREF
  2

  9
$UCSORTHOVIEW
 70
     0
  9
$UCSORGTOP
 10
0.0
 20
0.0
 30
0.0
  9
$UCSORGBOTTOM
 10
0.0
 20
0.0
 30
0.0
  9
$UCSORGLEFT
 10
0.0
 20
0.0
 30
0.0
  9
$UCSORGRIGHT
 10
0.0
 20
0.0
 30
0.0
  9
$UCSORGFRONT
 10
0.0
 20
0.0
 30
0.0
  9
$UCSORGBACK
 10
0.0
 20
0.0
 30
0.0
  9
$PUCSBASE
  2

  9
$PUCSNAME
  2

  9
$PUCSORG
 10
0.0
 20
0.0
 30
0.0
  9
$PUCSXDIR
 10
1.0
 20
0.0
 30
0.0
  9
$PUCSYDIR
 10
0.0
 20
1.0
 30
0.0
  9
$PUCSORTHOREF
  2

  9
$PUCSORTHOVIEW
 70
     0
  9
$PUCSORGTOP
 10
0.0
 20
0.0
 30
0.0
  9
$PUCSORGBOTTOM
 10
0.0
 20
0.0
 30
0.0
  9
$PUCSORGLEFT
 10
0.0
 20
0.0
 30
0.0
  9
$PUCSORGRIGHT
 10
0.0
 20
0.0
 30
0.0
  9
$PUCSORGFRONT
 10
0.0
 20
0.0
 30
0.0
  9
$PUCSORGBACK
 10
0.0
 20
0.0
 30
0.0
  9
$USERI1
 70
     0
  9
$USERI2
 70
     0
  9
$USERI3
 70
     0
  9
$USERI4
 70
     0
  9
$USERI5
 70
     0
  9
$USERR1
 40
0.0
  9
$USERR2
 40
0.0
  9
$USERR3
 40
0.0
  9
$USERR4
 40
0.0
  9
$USERR5
 40
0.0
  9
$WORLDVIEW
 70
     1
  9
$SHADEDGE
 70
     3
  9
$SHADEDIF
 70
    70
  9
$TILEMODE
 70
     1
  9
$MAXACTVP
 70
    64
  9
$PINSBASE
 10
0.0
 20
0.0
 30
0.0
  9
$PLIMCHECK
 70
     0
  9
$PEXTMIN
 10
1.000000000000000E+20
 20
1.000000000000000E+20
 30
1.000000000000000E+20
  9
$PEXTMAX
 10
-1.000000000000000E+20
 20
-1.000000000000000E+20
 30
-1.000000000000000E+20
  9
$PLIMMIN
 10
0.0
 20
0.0
  9
$PLIMMAX
 10
12.0
 20
9.0
  9
$UNITMODE
 70
     0
  9
$VISRETAIN
 70
     1
  9
$PLINEGEN
 70
     0
  9
$PSLTSCALE
 70
     1
  9
$TREEDEPTH
 70
  3020
  9
$CMLSTYLE
  2
Standard
  9
$CMLJUST
 70
     0
  9
$CMLSCALE
 40
1.0
  9
$PROXYGRAPHICS
 70
     1
  9
$MEASUREMENT
 70
     0
  9
$CELWEIGHT
370
    -1
  9
$ENDCAPS
280
     0
  9
$JOINSTYLE
280
     0
  9
$LWDISPLAY
290
     0
  9
$INSUNITS
 70
     4
  9
$HYPERLINKBASE
  1

  9
$STYLESHEET
  1

  9
$XEDIT
290
     1
  9
$CEPSNTYPE
380
     0
  9
$PSTYLEMODE
290
     0
  9
$FINGERPRINTGUID
  2
{FAEB1C30-E019-11D5-929B-00C0DF256EC4}
  9
$VERSIONGUID
  2
{6AFC240A-796C-4F0D-9793-2E199E9C3544}
  9
$EXTNAMES
290
     1
  9
$PSVPSCALE
 40
0.0
  9
$OLESTARTUP
290
     0
  0
ENDSEC
  0
SECTION
  2
CLASSES
  0
CLASS
  1
ACDBDICTIONARYWDFLT
  2
AcDbDictionaryWithDefault
  3
ObjectDBX Classes
 90
        0
280
     0
281
     0
  0
CLASS
  1
MATERIAL
  2
AcDbMaterial
  3
ObjectDBX Classes
 90
     1153
280
     0
281
     0
  0
CLASS
  1
MLEADERSTYLE
  2
AcDbMLeaderStyle
  3
ACDB_MLEADERSTYLE_CLASS
 90
     4095
280
     0
281
     0
  0
CLASS
  1
SCALE
  2
AcDbScale
  3
ObjectDBX Classes
 90
     1153
280
     0
281
     0
  0
CLASS
  1
TABLESTYLE
  2
AcDbTableStyle
  3
ObjectDBX Classes
 90
     4095
280
     0
281
     0
  0
CLASS
  1
VISUALSTYLE
  2
AcDbVisualStyle
  3
ObjectDBX Classes
 90
     4095
280
     0
281
     0
  0
CLASS
  1
DICTIONARYVAR
  2
AcDbDictionaryVar
  3
ObjectDBX Classes
 90
        0
280
     0
281
     0
  0
CLASS
  1
CELLSTYLEMAP
  2
AcDbCellStyleMap
  3
ObjectDBX Classes
 90
     1152
280
     0
281
     0
  0
CLASS
  1
AMGSETTINGSOBJ
  2
AmgSettingsObj
  3
"AcadM|Product Description: AutoCAD Mechanical|Company: Autodesk, Inc."
 90
     1024
280
     0
281
     0
  0
CLASS
  1
ACME_DOCUMENT
  2
AcMeDbDoc
  3
AcMeServices
 90
     1024
280
     0
281
     0
  0
CLASS
  1
ACMESCOPE
  2
AcMeScope
  3
AcMeServices
 90
     1024
280
     0
281
     0
  0
CLASS
  1
ACMECOMMANDHISTORY
  2
AcMeCommandHistory
  3
AcMeServices
 90
     1024
280
     0
281
     0
  0
CLASS
  1
ACIMSYSVARMAN
  2
AcImSysVarManager
  3
AcMeServices
 90
     1024
280
     0
281
     0
  0
CLASS
  1
ACIMINTSYSVAR
  2
AcImIntSysVar
  3
AcMeServices
 90
     1024
280
     0
281
     0
  0
CLASS
  1
ACMESTATEMGR
  2
AcMeStateMgr
  3
AcMeServices
 90
     1024
280
     0
281
     0
  0
CLASS
  1
ACDBENTITYCACHE
  2
AcMeEntityCache
  3
AcMeServices
 90
     1024
280
     0
281
     0
  0
CLASS
  1
ACGREFMASTER
  2
AcGrefMaster
  3
AcAttribServices
 90
     1024
280
     0
281
     0
  0
CLASS
  1
AM_DRAWING_MGR
  2
AcDmDwgMgr
  3
AcMechDwgViewMgmt
 90
     1024
280
     0
281
     0
  0
CLASS
  1
AM_DWG_DOCUMENT
  2
AcDmDwgDocument
  3
AcMechDwgViewMgmt
 90
     1024
280
     0
281
     0
  0
CLASS
  1
AM_DWG_SHEET
  2
AcDmSheet
  3
AcMechDwgViewMgmt
 90
     1024
280
     0
281
     0
  0
CLASS
  1
AM_VIEWDIMPARMAP
  2
AcDmViewDimParMap
  3
AcMechDwgViewMgmt
 90
     1024
280
     0
281
     0
  0
CLASS
  1
AMDTINTERNALREACTOR
  2
AmdtInternalReactor
  3
AcMeServices
 90
     1024
280
     0
281
     0
  0
CLASS
  1
ACIMREALSYSVAR
  2
AcImRealSysVar
  3
AcMeServices
 90
     1024
280
     0
281
     0
  0
CLASS
  1
AM_DWGMGR_NAME
  2
AcDmDwgMgrName
  3
AcMechDwgViewMgmt
 90
     1024
280
     0
281
     0
  0
CLASS
  1
ACME_DATABASE
  2
AcMeDbDatabase
  3
AcMeServices
 90
     1024
280
     0
281
     0
  0
CLASS
  1
ACRFINSADJUSTERMGR
  2
AcRfInsAdjusterMgr
  3
AcMeServices
 90
     1024
280
     0
281
     0
  0
CLASS
  1
ACGREFACADMASTER
  2
AcGrefacadMaster
  3
AcGrefServices
 90
     1024
280
     0
281
     0
  0
CLASS
  1
AMDTMENUSTATEMGR
  2
AmdtMenuStateMgr
  3
McadcomServices
 90
     1024
280
     0
281
     0
  0
CLASS
  1
AMDTMCOMMENUSTATE
  2
AmdtMcomMenuState
  3
McadcomServices
 90
     1024
280
     0
281
     0
  0
CLASS
  1
AMIMASTER
  2
AmiMaster
  3
AmiServices
 90
     1024
280
     0
281
     0
  0
CLASS
  1
MAPIAMMOUDLE
  2
MApiAmModule
  3
MApiAmServices
 90
     1024
280
     0
281
     0
  0
CLASS
  1
ACIMSTRSYSVAR
  2
AcImStrSysVar
  3
AcMeServices
 90
     1024
280
     0
281
     0
  0
CLASS
  1
AMDTDMMENUSTATE
  2
AmdtDmMenuState
  3
AcMechDwgViewMgmt
 90
     1024
280
     0
281
     0
  0
CLASS
  1
AMDTAMMENUSTATE
  2
AmdtAmMenuState
  3
DesignerAssemblies
 90
     1024
280
     0
281
     0
  0
CLASS
  1
ACAMPROJECT
  2
AcAmProject
  3
DesignerAssemblies
 90
     1024
280
     0
281
     0
  0
CLASS
  1
ACAMGRCOMPDEF
  2
AcAmGrCompDef
  3
DesignerAssemblies
 90
     1024
280
     0
281
     0
  0
CLASS
  1
ACAMCOMPDEF
  2
AcAmCompDef
  3
DesignerAssemblies
 90
     1024
280
     0
281
     0
  0
CLASS
  1
ACAMCOMPDEFMGR
  2
AcAmCompDefMgr
  3
DesignerAssemblies
 90
     1024
280
     0
281
     0
  0
CLASS
  1
AMCONTEXTMGR
  2
AcAmContextMgr
  3
DesignerAssemblies
 90
     1024
280
     0
281
     0
  0
CLASS
  1
ACAMCONTEXTMODELER
  2
AcAmContextModeler
  3
DesignerAssemblies
 90
     1024
280
     0
281
     0
  0
CLASS
  1
ACMDATADICTIONARY
  2
AcmDataDictionary
  3
"AcmSymBB|Product Description: AutoCAD Mechanical|Company: Autodesk, Inc."
 90
     1024
280
     0
281
     0
  0
CLASS
  1
ACAMGRCOMPDEFSET
  2
AcAmGrCompDefSet
  3
DesignerAssemblies
 90
     1024
280
     0
281
     0
  0
CLASS
  1
AMDTBROWSERDBTAB
  2
AmdtBrowserDbTab
  3
McadcomServices
 90
     1024
280
     0
281
     0
  0
CLASS
  1
CBROWSERAPPOBJECT
  2
CBrowserAppObject
  3
McadcomServices
 90
     1024
280
     0
281
     0
  0
CLASS
  1
DM_PLACEHOLDER
  2
AcDmSelsetPlaceholder
  3
AcMechDwgViewMgmt
 90
     1024
280
     0
281
     0
  0
CLASS
  1
EXACXREFPANELOBJECT
  2
ExAcXREFPanelObject
  3
EXAC_ESW
 90
     1025
280
     0
281
     0
  0
CLASS
  1
NPOCOLLECTION
  2
AcDbImpNonPersistentObjectsCollection
  3
ObjectDBX Classes
 90
     1153
280
     0
281
     0
  0
CLASS
  1
ACMSTANDARDANSI
  2
AcmStandardANSI
  3
"Amdt_StdImp|Product Description: AutoCAD Mechanical|Company: Autodesk, Inc."
 90
     1024
280
     0
281
     0
  0
CLASS
  1
ACMSURFSTANDARDANSI
  2
AcmSurfTextStdANSI
  3
"Amdt_StdImp|Product Description: AutoCAD Mechanical|Company: Autodesk, Inc."
 90
     1024
280
     0
281
     0
  0
CLASS
  1
ACMFCFSTANDARDANSI
  2
AcmFCFStdANSI
  3
"Amdt_StdImp|Product Description: AutoCAD Mechanical|Company: Autodesk, Inc."
 90
     1024
280
     0
281
     0
  0
CLASS
  1
ACMWELDSTANDARDANSI
  2
AcmWeldingStdANSI
  3
"Amdt_StdImp|Product Description: AutoCAD Mechanical|Company: Autodesk, Inc."
 90
     1024
280
     0
281
     0
  0
CLASS
  1
ACMIDSTANDARDANSI
  2
AcmIdStdANSI
  3
"Amdt_StdImp|Product Description: AutoCAD Mechanical|Company: Autodesk, Inc."
 90
     1024
280
     0
281
     0
  0
CLASS
  1
ACMDATUMSTANDARDANSI
  2
AcmDatumStdANSI
  3
"Amdt_StdImp|Product Description: AutoCAD Mechanical|Company: Autodesk, Inc."
 90
     1024
280
     0
281
     0
  0
CLASS
  1
ACMBOMSTANDARDANSI
  2
AcmBOMStdANSI
  3
"Amdt_StdImp|Product Description: AutoCAD Mechanical|Company: Autodesk, Inc."
 90
     1024
280
     0
281
     0
  0
CLASS
  1
ACMDETAILSTANDARDANSI
  2
AmdtDetailSymStdANSI
  3
"Amdt_StdImp|Product Description: AutoCAD Mechanical|Company: Autodesk, Inc."
 90
     1024
280
     0
281
     0
  0
CLASS
  1
ACMSECTIONSTANDARDANSI
  2
AmdtSectionSymStdANSI
  3
"Amdt_StdImp|Product Description: AutoCAD Mechanical|Company: Autodesk, Inc."
 90
     1024
280
     0
281
     0
  0
CLASS
  1
ACMCENTERLINESTANDARDANSI
  2
AmdtCenterLineStdANSI
  3
"Amdt_StdImp|Product Description: AutoCAD Mechanical|Company: Autodesk, Inc."
 90
     1024
280
     0
281
     0
  0
CLASS
  1
ACMTHREADLINESTANDARDANSI
  2
AmdtThreadLineStdANSI
  3
"Amdt_StdImp|Product Description: AutoCAD Mechanical|Company: Autodesk, Inc."
 90
     1024
280
     0
281
     0
  0
CLASS
  1
ACMNOTESTANDARDANSI
  2
AmdtNoteStdANSI
  3
"Amdt_StdImp|Product Description: AutoCAD Mechanical|Company: Autodesk, Inc."
 90
     1024
280
     0
281
     0
  0
CLASS
  1
ACMTAPERSTANDARDANSI
  2
AcmTaperStdANSI
  3
"Amdt_StdImp|Product Description: AutoCAD Mechanical|Company: Autodesk, Inc."
 90
     1024
280
     0
281
     0
  0
CLASS
  1
ACMANOOTATIONVIEWSTANDARDANSI
  2
AmdtAnViewStdANSI
  3
"Amdt_StdImp|Product Description: AutoCAD Mechanical|Company: Autodesk, Inc."
 90
     1024
280
     0
281
     0
  0
CLASS
  1
ACAMGLAYSTD
  2
AcAmgLayStd
  3
"AmgLay|Product Description: AutoCAD Mechanical|Company: Autodesk, Inc."
 90
     1024
280
     0
281
     0
  0
CLASS
  1
ACAMGDIMSTD
  2
AcAmgDimStd
  3
"AmgDim|Product Description: AutoCAD Mechanical|Company: Autodesk, Inc."
 90
     1024
280
     0
281
     0
  0
CLASS
  1
AMGOBJPROPCFG
  2
AmgObjPropCfg
  3
"AmgLay|Product Description: AutoCAD Mechanical|Company: Autodesk, Inc."
 90
     1025
280
     0
281
     0
  0
CLASS
  1
ACAMGHOLECHARTSTDANSI
  2
AcAmgHoleChartStdANSI
  3
AmgDim|Product Description: AutoCAD Mechanical|Company: Autodesk, Inc.
 90
     1024
280
     0
281
     0
  0
CLASS
  1
ACAMGTITLESTD
  2
AcAmgTitleStd
  3
"AmgTitle|Product Description: AutoCAD Mechanical|Company: Autodesk, Inc."
 90
     4095
280
     0
281
     0
  0
CLASS
  1
AMDTNOTETEMPLATEDB
  2
AmdtNoteTemplateDB
  3
AcmSymBB|Product Description: AutoCAD Mechanical|Company: Autodesk, Inc.
 90
     1024
280
     0
281
     0
  0
CLASS
  1
ACAMGFILTERDAT
  2
AcAmgFilterDat
  3
"AcadM|Product Description: AutoCAD Mechanical|Company: Autodesk, Inc."
 90
    33792
280
     0
281
     0
  0
CLASS
  1
ACDBPLACEHOLDER
  2
AcDbPlaceHolder
  3
ObjectDBX Classes
 90
        0
280
     0
281
     0
  0
CLASS
  1
LAYOUT
  2
AcDbLayout
  3
ObjectDBX Classes
 90
        0
280
     0
281
     0
  0
ENDSEC
  0
SECTION
  2
TABLES
  0
TABLE
  2
VPORT
  5
24A
330
0
100
AcDbSymbolTable
 70
     1
  0
VPORT
  5
26B
330
24A
100
AcDbSymbolTableRecord
100
AcDbViewportTableRecord
  2
*Active
 70
     0
 10
0.0
 20
0.0
 11
1.0
 21
1.0
 12
21.73052810131989
 22
-10.45597253642629
 13
0.0
 23
0.0
 14
10.0
 24
10.0
 15
10.0
 25
10.0
 16
0.0
 26
0.0
 36
1.0
 17
0.0
 27
0.0
 37
0.0
 40
225.0712181675032
 41
1.492489270386266
 42
1.0
 43
0.0
 44
0.0
 50
0.0
 51
0.0000000000007958
 71
     0
 72
   100
 73
     1
 74
     3
 75
     0
 76
     0
 77
     0
 78
     1
281
     0
 65
     0
110
0.0
120
0.0
130
0.0
111
1.0
121
0.0
131
0.0
112
0.0
122
1.0
132
0.0
 79
     0
146
0.0
  0
ENDTAB
  0
TABLE
  2
LTYPE
  5
247
330
0
100
AcDbSymbolTable
 70
    35
  0
LTYPE
  5
256
330
247
100
AcDbSymbolTableRecord
100
AcDbLinetypeTableRecord
  2
ByBlock
 70
     0
  3

 72
    65
 73
     0
 40
0.0
  0
LTYPE
  5
257
330
247
100
AcDbSymbolTableRecord
100
AcDbLinetypeTableRecord
  2
ByLayer
 70
     0
  3

 72
    65
 73
     0
 40
0.0
  0
LTYPE
  5
258
330
247
100
AcDbSymbolTableRecord
100
AcDbLinetypeTableRecord
  2
Continuous
 70
     0
  3
Solid line
 72
    65
 73
     0
 40
0.0
  0
LTYPE
  5
273
330
247
100
AcDbSymbolTableRecord
100
AcDbLinetypeTableRecord
  2
CENTER
 70
     0
  3
Center ____ _ ____ _ ____ _ ____ _ ____ _ ____
 72
    65
 73
     4
 40
2.0
 49
1.25
 74
     0
 49
-0.25
 74
     0
 49
0.25
 74
     0
 49
-0.25
 74
     0
  0
LTYPE
  5
274
330
247
100
AcDbSymbolTableRecord
100
AcDbLinetypeTableRecord
  2
DASHDOT
 70
     0
  3
Dashdot __ . __ . __ . __ . __ . __ . __ . __
 72
    65
 73
     4
 40
1.0
 49
0.5
 74
     0
 49
-0.25
 74
     0
 49
0.0
 74
     0
 49
-0.25
 74
     0
  0
LTYPE
  5
275
330
247
100
AcDbSymbolTableRecord
100
AcDbLinetypeTableRecord
  2
DASHED
 70
     0
  3
Dashed __ __ __ __ __ __ __ __ __ __ __ __ __ _
 72
    65
 73
     2
 40
0.75
 49
0.5
 74
     0
 49
-0.25
 74
     0
  0
LTYPE
  5
276
330
247
100
AcDbSymbolTableRecord
100
AcDbLinetypeTableRecord
  2
HIDDEN
 70
     0
  3
Hidden __ __ __ __ __ __ __ __ __ __ __ __ __ __
 72
    65
 73
     2
 40
0.375
 49
0.25
 74
     0
 49
-0.125
 74
     0
  0
LTYPE
  5
277
330
247
100
AcDbSymbolTableRecord
100
AcDbLinetypeTableRecord
  2
HIDDEN2
 70
     0
  3
Hidden2 _ _ _ _ _ _ _ _ _ _ _ _ _ _ _ _ _
 72
    65
 73
     2
 40
0.1875
 49
0.125
 74
     0
 49
-0.0625
 74
     0
  0
LTYPE
  5
278
330
247
100
AcDbSymbolTableRecord
100
AcDbLinetypeTableRecord
  2
BORDER
 70
     0
  3
Border __ __ . __ __ . __ __ . __ __ . __ __ .
 72
    65
 73
     6
 40
1.75
 49
0.5
 74
     0
 49
-0.25
 74
     0
 49
0.5
 74
     0
 49
-0.25
 74
     0
 49
0.0
 74
     0
 49
-0.25
 74
     0
  0
LTYPE
  5
279
330
247
100
AcDbSymbolTableRecord
100
AcDbLinetypeTableRecord
  2
BORDER2
 70
     0
  3
Border2 __.__.__.__.__.__.__.__.__.__.__.
 72
    65
 73
     6
 40
0.875
 49
0.25
 74
     0
 49
-0.125
 74
     0
 49
0.25
 74
     0
 49
-0.125
 74
     0
 49
0.0
 74
     0
 49
-0.125
 74
     0
  0
LTYPE
  5
27A
330
247
100
AcDbSymbolTableRecord
100
AcDbLinetypeTableRecord
  2
BORDERX2
 70
     0
  3
Borderx2  ____  ____  .  ____  ____  .  ___
 72
    65
 73
     6
 40
3.5
 49
1.0
 74
     0
 49
-0.5
 74
     0
 49
1.0
 74
     0
 49
-0.5
 74
     0
 49
0.0
 74
     0
 49
-0.5
 74
     0
  0
LTYPE
  5
27B
330
247
100
AcDbSymbolTableRecord
100
AcDbLinetypeTableRecord
  2
CENTER2
 70
     0
  3
Center2  ___ _ ___ _ ___ _ ___ _ ___ _ ___
 72
    65
 73
     4
 40
1.125
 49
0.75
 74
     0
 49
-0.125
 74
     0
 49
0.125
 74
     0
 49
-0.125
 74
     0
  0
LTYPE
  5
27C
330
247
100
AcDbSymbolTableRecord
100
AcDbLinetypeTableRecord
  2
CENTERX2
 70
     0
  3
Centerx2  ________  __  ________  __  _____
 72
    65
 73
     4
 40
4.0
 49
2.5
 74
     0
 49
-0.5
 74
     0
 49
0.5
 74
     0
 49
-0.5
 74
     0
  0
LTYPE
  5
27D
330
247
100
AcDbSymbolTableRecord
100
AcDbLinetypeTableRecord
  2
DASHDOT2
 70
     0
  3
Dashdot2  _._._._._._._._._._._._._._._.
 72
    65
 73
     4
 40
0.5
 49
0.25
 74
     0
 49
-0.125
 74
     0
 49
0.0
 74
     0
 49
-0.125
 74
     0
  0
LTYPE
  5
27E
330
247
100
AcDbSymbolTableRecord
100
AcDbLinetypeTableRecord
  2
DASHDOTX2
 70
     0
  3
Dashdotx2 ____  .  ____  .  ____  .  ___
 72
    65
 73
     4
 40
2.0
 49
1.0
 74
     0
 49
-0.5
 74
     0
 49
0.0
 74
     0
 49
-0.5
 74
     0
  0
LTYPE
  5
27F
330
247
100
AcDbSymbolTableRecord
100
AcDbLinetypeTableRecord
  2
DASHED2
 70
     0
  3
Dashed2 _ _ _ _ _ _ _ _ _ _ _ _ _ _ _ _ _
 72
    65
 73
     2
 40
0.375
 49
0.25
 74
     0
 49
-0.125
 74
     0
  0
LTYPE
  5
280
330
247
100
AcDbSymbolTableRecord
100
AcDbLinetypeTableRecord
  2
DASHEDX2
 70
     0
  3
Dashedx2 ____  ____  ____  ____  ____  ___
 72
    65
 73
     2
 40
1.5
 49
1.0
 74
     0
 49
-0.5
 74
     0
  0
LTYPE
  5
281
330
247
100
AcDbSymbolTableRecord
100
AcDbLinetypeTableRecord
  2
DIVIDE
 70
     0
  3
Divide ____ . . ____ . . ____ . . ____ . . ____
 72
    65
 73
     6
 40
1.25
 49
0.5
 74
     0
 49
-0.25
 74
     0
 49
0.0
 74
     0
 49
-0.25
 74
     0
 49
0.0
 74
     0
 49
-0.25
 74
     0
  0
LTYPE
  5
282
330
247
100
AcDbSymbolTableRecord
100
AcDbLinetypeTableRecord
  2
DIVIDE2
 70
     0
  3
Divide2 __..__..__..__..__..__..__..__.._
 72
    65
 73
     6
 40
0.625
 49
0.25
 74
     0
 49
-0.125
 74
     0
 49
0.0
 74
     0
 49
-0.125
 74
     0
 49
0.0
 74
     0
 49
-0.125
 74
     0
  0
LTYPE
  5
283
330
247
100
AcDbSymbolTableRecord
100
AcDbLinetypeTableRecord
  2
DIVIDEX2
 70
     0
  3
Dividex2 ________  .  .  ________  .  .  _
 72
    65
 73
     6
 40
2.5
 49
1.0
 74
     0
 49
-0.5
 74
     0
 49
0.0
 74
     0
 49
-0.5
 74
     0
 49
0.0
 74
     0
 49
-0.5
 74
     0
  0
LTYPE
  5
284
330
247
100
AcDbSymbolTableRecord
100
AcDbLinetypeTableRecord
  2
DOT
 70
     0
  3
Dot . . . . . . . . . . . . . . . . . . . . . . . .
 72
    65
 73
     2
 40
0.25
 49
0.0
 74
     0
 49
-0.25
 74
     0
  0
LTYPE
  5
285
330
247
100
AcDbSymbolTableRecord
100
AcDbLinetypeTableRecord
  2
DOT2
 70
     0
  3
Dot2 ........................................
 72
    65
 73
     2
 40
0.125
 49
0.0
 74
     0
 49
-0.125
 74
     0
  0
LTYPE
  5
286
330
247
100
AcDbSymbolTableRecord
100
AcDbLinetypeTableRecord
  2
DOTX2
 70
     0
  3
Dotx2 .  .  .  .  .  .  .  .  .  .  .  .  .  .
 72
    65
 73
     2
 40
0.5
 49
0.0
 74
     0
 49
-0.5
 74
     0
  0
LTYPE
  5
287
330
247
100
AcDbSymbolTableRecord
100
AcDbLinetypeTableRecord
  2
HIDDENX2
 70
     0
  3
Hiddenx2 ____ ____ ____ ____ ____ ____ ____
 72
    65
 73
     2
 40
0.75
 49
0.5
 74
     0
 49
-0.25
 74
     0
  0
LTYPE
  5
288
330
247
100
AcDbSymbolTableRecord
100
AcDbLinetypeTableRecord
  2
PHANTOM
 70
     0
  3
Phantom ______  __  __  ______  __  __  ______
 72
    65
 73
     6
 40
2.5
 49
1.25
 74
     0
 49
-0.25
 74
     0
 49
0.25
 74
     0
 49
-0.25
 74
     0
 49
0.25
 74
     0
 49
-0.25
 74
     0
  0
LTYPE
  5
289
330
247
100
AcDbSymbolTableRecord
100
AcDbLinetypeTableRecord
  2
PHANTOM2
 70
     0
  3
Phantom2 ___ _ _ ___ _ _ ___ _ _ ___ _ _
 72
    65
 73
     6
 40
1.25
 49
0.625
 74
     0
 49
-0.125
 74
     0
 49
0.125
 74
     0
 49
-0.125
 74
     0
 49
0.125
 74
     0
 49
-0.125
 74
     0
  0
LTYPE
  5
28A
330
247
100
AcDbSymbolTableRecord
100
AcDbLinetypeTableRecord
  2
PHANTOMX2
 70
     0
  3
Phantomx2 ____________    ____    ____   _
 72
    65
 73
     6
 40
5.0
 49
2.5
 74
     0
 49
-0.5
 74
     0
 49
0.5
 74
     0
 49
-0.5
 74
     0
 49
0.5
 74
     0
 49
-0.5
 74
     0
  0
LTYPE
  5
F10929
330
247
100
AcDbSymbolTableRecord
100
AcDbLinetypeTableRecord
  2
AM_ISO02W050
 70
     0
  3
__ __ __ __ __ __ __ __ __ __ __ __ __ __ __
 72
    65
 73
     2
 40
7.5
 49
6.0
 74
     0
 49
-1.5
 74
     0
  0
LTYPE
  5
F1092A
330
247
100
AcDbSymbolTableRecord
100
AcDbLinetypeTableRecord
  2
AM_ISO08W050
 70
     0
  3
____ . ____ . ____ . ____ . ____ . ____ . ____
 72
    65
 73
     4
 40
18.0
 49
12.0
 74
     0
 49
-1.5
 74
     0
 49
3.0
 74
     0
 49
-1.5
 74
     0
  0
LTYPE
  5
F1092B
330
247
100
AcDbSymbolTableRecord
100
AcDbLinetypeTableRecord
  2
AM_ISO09W050
 70
     0
  3
_____ . . _____ . . _____ . . ____ .. ____
 72
    65
 73
     6
 40
22.5
 49
12.0
 74
     0
 49
-1.5
 74
     0
 49
3.0
 74
     0
 49
-1.5
 74
     0
 49
3.0
 74
     0
 49
-1.5
 74
     0
  0
LTYPE
  5
F1092C
330
247
100
AcDbSymbolTableRecord
100
AcDbLinetypeTableRecord
  2
Amconstr
 70
     0
  3
_______________________
 72
    65
 73
     2
 40
9999.0
 49
9999.0
 74
     0
 49
0.0
 74
     0
  0
LTYPE
  5
F1092D
330
247
100
AcDbSymbolTableRecord
100
AcDbLinetypeTableRecord
  2
AM_ISO08W050x2
 70
     0
  3
__ . __ . __ . __ . __ . __
 72
    65
 73
     4
 40
9.0
 49
6.0
 74
     0
 49
-0.75
 74
     0
 49
1.5
 74
     0
 49
-0.75
 74
     0
  0
LTYPE
  5
F1092E
330
247
100
AcDbSymbolTableRecord
100
AcDbLinetypeTableRecord
  2
AM_ISO02W050x2
 70
     0
  3
 _ _ _ _ _ _ _ _ _ _ _ _
 72
    65
 73
     2
 40
3.75
 49
3.0
 74
     0
 49
-0.75
 74
     0
  0
LTYPE
  5
F10931
330
247
100
AcDbSymbolTableRecord
100
AcDbLinetypeTableRecord
  2
Amzigzag
 70
     0
  3
/\/-/\/-/\/-/\/-/\/-/\/
 72
    65
 73
     2
 40
11.0001
 49
0.0001
 74
     4
 75
   136
340
F10930
 46
0.04
 50
0.0
 44
0.0
 45
0.0
 49
-11.0
 74
     0
  0
LTYPE
  5
F10932
330
247
100
AcDbSymbolTableRecord
100
AcDbLinetypeTableRecord
  2
Amzigzag2
 70
     0
  3
/\/-/\/-/\/-/\/-/\/-/\/
 72
    65
 73
     2
 40
0.4401
 49
0.0001
 74
     4
 75
   136
340
F10930
 46
0.0016
 50
0.0
 44
0.0
 45
0.0
 49
-0.4400000000000002
 74
     0
  0
LTYPE
  5
F10940
330
247
100
AcDbSymbolTableRecord
100
AcDbLinetypeTableRecord
  2
ACANSTGB
 70
     0
  3
__ . . __ . .
 72
    65
 73
     6
 40
0.35433070866
 49
0.15748031496
 74
     0
 49
-0.03937007874
 74
     0
 49
0.03937007874
 74
     0
 49
-0.03937007874
 74
     0
 49
0.03937007874
 74
     0
 49
-0.03937007874
 74
     0
  0
LTYPE
  5
F10941
330
247
100
AcDbSymbolTableRecord
100
AcDbLinetypeTableRecord
  2
ACANSTGL
 70
     0
  3
_ _ _ _ _
 72
    65
 73
     2
 40
0.11811023622
 49
0.07874015748
 74
     0
 49
-0.03937007874
 74
     0
  0
ENDTAB
  0
TABLE
  2
LAYER
  5
244
330
0
100
AcDbSymbolTable
 70
     6
  0
LAYER
  5
252
102
{ACAD_XDICTIONARY
360
F10A01
102
}
330
244
100
AcDbSymbolTableRecord
100
AcDbLayerTableRecord
  2
0
 70
     0
 62
     7
  6
Continuous
370
     0
390
19
  0
LAYER
  5
23F
102
{ACAD_XDICTIONARY
360
F10A03
102
}
330
244
100
AcDbSymbolTableRecord
100
AcDbLayerTableRecord
  2
Bemassung
 70
     0
 62
     7
  6
Continuous
370
     0
390
19
  0
LAYER
  5
240
102
{ACAD_XDICTIONARY
360
F10A05
102
}
330
244
100
AcDbSymbolTableRecord
100
AcDbLayerTableRecord
  2
Rahmen
 70
     0
 62
     7
  6
Continuous
370
     0
390
19
  0
LAYER
  5
241
102
{ACAD_XDICTIONARY
360
F10A07
102
}
330
244
100
AcDbSymbolTableRecord
100
AcDbLayerTableRecord
  2
Geo
 70
     0
 62
     7
  6
Continuous
370
     0
390
19
  0
LAYER
  5
33A
330
244
100
AcDbSymbolTableRecord
100
AcDbLayerTableRecord
  2
Defpoints
 70
     0
 62
     7
  6
Continuous
290
     0
370
    -3
390
19
  0
LAYER
  5
57E
102
{ACAD_XDICTIONARY
360
F10A09
102
}
330
244
100
AcDbSymbolTableRecord
100
AcDbLayerTableRecord
  2
Text
 70
     0
 62
     7
  6
Continuous
370
     0
390
19
1001
AcAecLayerStandard
1000

1000

  0
ENDTAB
  0
TABLE
  2
STYLE
  5
245
330
0
100
AcDbSymbolTable
 70
     5
  0
STYLE
  5
253
330
245
100
AcDbSymbolTableRecord
100
AcDbTextStyleTableRecord
  2
Standard
 70
     0
 40
0.0
 41
1.0
 50
0.0
 71
     0
 42
0.2
  3
Arial
  4

1001
ACAD
1000
Arial
1071
        0
  0
STYLE
  5
132
330
245
100
AcDbSymbolTableRecord
100
AcDbTextStyleTableRecord
  2
Beschriftung
 70
     0
 40
0.0
 41
1.0
 50
0.0
 71
     0
 42
0.2
  3
Arial
  4

1001
ACAD
1000
Arial
1071
        0
1001
AcadAnnotative
1000
AnnotativeData
1070
     1
1070
     1
  0
STYLE
  5
F10930
330
245
100
AcDbSymbolTableRecord
100
AcDbTextStyleTableRecord
  2

 70
     1
 40
0.0
 41
1.0
 50
0.0
 71
     0
 42
0.2
  3
genltshp.shx
  4

  0
STYLE
  5
F1093E
330
245
100
AcDbSymbolTableRecord
100
AcDbTextStyleTableRecord
  2
ACANSTS
 70
     0
 40
1.0
 41
1.0
 50
0.0
 71
     0
 42
0.2
  3
romans.shx
  4

  0
STYLE
  5
F1093F
330
245
100
AcDbSymbolTableRecord
100
AcDbTextStyleTableRecord
  2
ACANSGDT
 70
     0
 40
0.0
 41
1.0
 50
0.0
 71
     0
 42
0.2
  3
amgdt.shx
  4

  0
ENDTAB
  0
TABLE
  2
VIEW
  5
248
330
0
100
AcDbSymbolTable
 70
     0
  0
ENDTAB
  0
TABLE
  2
UCS
  5
249
330
0
100
AcDbSymbolTable
 70
     0
  0
ENDTAB
  0
TABLE
  2
APPID
  5
24B
330
0
100
AcDbSymbolTable
 70
    28
  0
APPID
  5
254
330
24B
100
AcDbSymbolTableRecord
100
AcDbRegAppTableRecord
  2
ACAD
 70
     0
  0
APPID
  5
26C
330
24B
100
AcDbSymbolTableRecord
100
AcDbRegAppTableRecord
  2
VD_INVISIBLE_NOT_FOR_READ
 70
     0
  0
APPID
  5
26D
330
24B
100
AcDbSymbolTableRecord
100
AcDbRegAppTableRecord
  2
VD_TEMPHATCH
 70
     0
  0
APPID
  5
26E
330
24B
100
AcDbSymbolTableRecord
100
AcDbRegAppTableRecord
  2
VDEXTRAPARAM
 70
     0
  0
APPID
  5
26F
330
24B
100
AcDbSymbolTableRecord
100
AcDbRegAppTableRecord
  2
PE_URL
 70
     0
  0
APPID
  5
270
330
24B
100
AcDbSymbolTableRecord
100
AcDbRegAppTableRecord
  2
VD_UNKNOWN
 70
     0
  0
APPID
  5
28F
330
24B
100
AcDbSymbolTableRecord
100
AcDbRegAppTableRecord
  2
AcadAnnotative
 70
     0
  0
APPID
  5
290
330
24B
100
AcDbSymbolTableRecord
100
AcDbRegAppTableRecord
  2
ACAD_DSTYLE_DIMJAG
 70
     0
  0
APPID
  5
291
330
24B
100
AcDbSymbolTableRecord
100
AcDbRegAppTableRecord
  2
ACAD_DSTYLE_DIMTALN
 70
     0
  0
APPID
  5
293
330
24B
100
AcDbSymbolTableRecord
100
AcDbRegAppTableRecord
  2
ACAD_PSEXT
 70
     0
  0
APPID
  5
42A
330
24B
100
AcDbSymbolTableRecord
100
AcDbRegAppTableRecord
  2
ACAD_MLEADERVER
 70
     0
  0
APPID
  5
532
330
24B
100
AcDbSymbolTableRecord
100
AcDbRegAppTableRecord
  2
ACAD_EXEMPT_FROM_CAD_STANDARDS
 70
     0
  0
APPID
  5
57F
330
24B
100
AcDbSymbolTableRecord
100
AcDbRegAppTableRecord
  2
AcAecLayerStandard
 70
     0
  0
APPID
  5
F108C3
330
24B
100
AcDbSymbolTableRecord
100
AcDbRegAppTableRecord
  2
MCAD_NO_VIS
 70
     0
  0
APPID
  5
F108C4
330
24B
100
AcDbSymbolTableRecord
100
AcDbRegAppTableRecord
  2
ACAD_TEMP_GRAPHIC
 70
     0
  0
APPID
  5
F108ED
330
24B
100
AcDbSymbolTableRecord
100
AcDbRegAppTableRecord
  2
AD_DRAW
 70
     0
  0
APPID
  5
F108F0
330
24B
100
AcDbSymbolTableRecord
100
AcDbRegAppTableRecord
  2
ACATTRIBSERVICES
 70
     0
  0
APPID
  5
F10909
330
24B
100
AcDbSymbolTableRecord
100
AcDbRegAppTableRecord
  2
DESIGNERASSEMBLIES
 70
     0
  0
APPID
  5
F1090E
330
24B
100
AcDbSymbolTableRecord
100
AcDbRegAppTableRecord
  2
ACADM_DIM_EDIT
 70
     0
  0
APPID
  5
F1090F
330
24B
100
AcDbSymbolTableRecord
100
AcDbRegAppTableRecord
  2
AMDT_DM_ADJ
 70
     0
  0
APPID
  5
F10927
330
24B
100
AcDbSymbolTableRecord
100
AcDbRegAppTableRecord
  2
ACAD_DSTYLE_DIMBREAK
 70
     0
  0
APPID
  5
F10948
330
24B
100
AcDbSymbolTableRecord
100
AcDbRegAppTableRecord
  2
GENIUS_GENSCREG_15
 70
     0
  0
APPID
  5
F10949
330
24B
100
AcDbSymbolTableRecord
100
AcDbRegAppTableRecord
  2
GENIUS_GENODEF_13
 70
     0
  0
APPID
  5
F1094A
330
24B
100
AcDbSymbolTableRecord
100
AcDbRegAppTableRecord
  2
GENIUS_GENOBJ-N-SDF_13
 70
     0
  0
APPID
  5
F10A57
330
24B
100
AcDbSymbolTableRecord
100
AcDbRegAppTableRecord
  2
ACAD_DSTYLE_DIMARC_LENGTH_SYMBOL
 70
     0
  0
APPID
  5
F10A58
330
24B
100
AcDbSymbolTableRecord
100
AcDbRegAppTableRecord
  2
ACAD_DSTYLE_DIM_LINETYPE
 70
     0
  0
APPID
  5
F10A59
330
24B
100
AcDbSymbolTableRecord
100
AcDbRegAppTableRecord
  2
ACAD_DSTYLE_DIM_EXT1_LINETYPE
 70
     0
  0
APPID
  5
F10A5A
330
24B
100
AcDbSymbolTableRecord
100
AcDbRegAppTableRecord
  2
ACAD_DSTYLE_DIM_EXT2_LINETYPE
 70
     0
  0
ENDTAB
  0
TABLE
  2
DIMSTYLE
  5
24C
330
0
100
AcDbSymbolTable
 70
     9
100
AcDbDimStyleTable
 71
     2
340
27
340
269
  0
DIMSTYLE
105
269
330
24C
100
AcDbSymbolTableRecord
100
AcDbDimStyleTableRecord
  2
Standard
 70
     0
172
     1
174
     1
288
     1
340
253
342
23C
  0
DIMSTYLE
105
137
330
24C
100
AcDbSymbolTableRecord
100
AcDbDimStyleTableRecord
  2
Beschriftung
 70
     0
 41
2.5
 42
0.625
 44
1.25
 73
     0
 74
     0
 77
     1
140
2.5
147
0.625
172
     1
174
     1
271
     2
288
     1
340
253
342
23C
1001
AcadAnnotative
1000
AnnotativeData
1070
     1
1070
     1
1001
ACAD_DSTYLE_DIMJAG
1070
   388
1040
1.5
1001
ACAD_DSTYLE_DIMTALN
1070
   392
1070
     0
  0
DIMSTYLE
105
27
102
{ACAD_REACTORS
330
F1000D
330
F10017
330
F10026
330
F1002B
330
F10008
330
F10012
330
F1001C
102
}
330
24C
100
AcDbSymbolTableRecord
100
AcDbDimStyleTableRecord
  2
BEM-ISBE
 70
     0
 41
2.5
 42
0.625
 44
1.25
 48
0.000000001
 71
     1
 73
     0
 74
     0
 77
     1
140
2.5
146
0.5
147
0.625
171
     3
172
     1
179
     3
271
     3
272
     3
274
     3
340
253
342
23C
1001
ACAD_DSTYLE_DIMJAG
1070
   388
1040
1.5
1001
ACAD_DSTYLE_DIMTALN
1070
   392
1070
     1
  0
DIMSTYLE
105
F10926
102
{ACAD_REACTORS
330
F10AB4
102
}
330
24C
100
AcDbSymbolTableRecord
100
AcDbDimStyleTableRecord
  2
AM_ANSI
 70
     0
  4
mm
 41
0.12
 42
0.05
 43
0.5
 44
0.1
 47
0.1
 48
0.1
 78
     7
 79
     2
140
0.12
141
0.0
146
0.71
147
0.06
176
   256
177
   256
178
     2
274
     4
284
     7
340
253
371
    -1
372
    -1
1001
ACAD_DSTYLE_DIMJAG
1070
   388
1040
1.5
1001
ACAD_DSTYLE_DIMBREAK
1070
   391
1040
0.125
1001
ACAD_DSTYLE_DIMARC_LENGTH_SYMBOL
1070
   379
1070
     1
1001
ACAD_DSTYLE_DIM_LINETYPE
1070
   380
1005
256
1001
ACAD_DSTYLE_DIM_EXT1_LINETYPE
1070
   381
1005
256
1001
ACAD_DSTYLE_DIM_EXT2_LINETYPE
1070
   382
1005
256
  0
DIMSTYLE
105
F10933
330
24C
100
AcDbSymbolTableRecord
100
AcDbDimStyleTableRecord
  2
AM_ANSI$3
 70
     0
  4
mm
 41
0.12
 42
0.05
 43
0.5
 44
0.1
 47
0.1
 48
0.1
 78
     7
 79
     2
140
0.12
141
0.0
146
0.71
147
0.06
176
   256
177
   256
178
     2
274
     4
284
     7
288
     1
289
     0
340
253
371
    -1
372
    -1
1001
ACAD_DSTYLE_DIMBREAK
1070
   391
1040
0.125
1001
ACAD_DSTYLE_DIMJAG
1070
   388
1040
1.5
1001
ACAD_DSTYLE_DIMARC_LENGTH_SYMBOL
1070
   379
1070
     1
1001
ACAD_DSTYLE_DIM_LINETYPE
1070
   380
1005
256
1001
ACAD_DSTYLE_DIM_EXT1_LINETYPE
1070
   381
1005
256
1001
ACAD_DSTYLE_DIM_EXT2_LINETYPE
1070
   382
1005
256
  0
DIMSTYLE
105
F10934
330
24C
100
AcDbSymbolTableRecord
100
AcDbDimStyleTableRecord
  2
AM_ANSI$4
 70
     0
  4
mm
 41
0.12
 42
0.05
 43
0.5
 44
0.1
 47
0.1
 48
0.1
 78
     7
 79
     2
140
0.12
141
0.0
146
0.71
147
0.06
176
   256
177
   256
178
     2
274
     4
284
     7
288
     1
289
     0
340
253
371
    -1
372
    -1
1001
ACAD_DSTYLE_DIMBREAK
1070
   391
1040
0.125
1001
ACAD_DSTYLE_DIMJAG
1070
   388
1040
1.5
1001
ACAD_DSTYLE_DIMARC_LENGTH_SYMBOL
1070
   379
1070
     1
1001
ACAD_DSTYLE_DIM_LINETYPE
1070
   380
1005
256
1001
ACAD_DSTYLE_DIM_EXT1_LINETYPE
1070
   381
1005
256
1001
ACAD_DSTYLE_DIM_EXT2_LINETYPE
1070
   382
1005
256
  0
DIMSTYLE
105
F10935
330
24C
100
AcDbSymbolTableRecord
100
AcDbDimStyleTableRecord
  2
AM_ANSI$7
 70
     0
  4
mm
 41
0.12
 42
0.05
 43
0.5
 44
0.1
 47
0.1
 48
0.1
 78
     7
 79
     2
140
0.12
141
0.0
146
0.71
147
0.06
176
   256
177
   256
178
     2
274
     4
284
     7
340
253
371
    -1
372
    -1
1001
ACAD_DSTYLE_DIMBREAK
1070
   391
1040
0.125
1001
ACAD_DSTYLE_DIMJAG
1070
   388
1040
1.5
1001
ACAD_DSTYLE_DIMARC_LENGTH_SYMBOL
1070
   379
1070
     1
1001
ACAD_DSTYLE_DIM_LINETYPE
1070
   380
1005
256
1001
ACAD_DSTYLE_DIM_EXT1_LINETYPE
1070
   381
1005
256
1001
ACAD_DSTYLE_DIM_EXT2_LINETYPE
1070
   382
1005
256
  0
DIMSTYLE
105
F10936
330
24C
100
AcDbSymbolTableRecord
100
AcDbDimStyleTableRecord
  2
AM_ANSI$SF
 70
     0
  4
mm
 41
0.12
 42
0.05
 43
0.5
 44
0.1
 47
0.1
 48
0.1
 75
     1
 76
     1
 78
     7
 79
     2
140
0.12
141
0.0
146
0.71
147
0.06
176
   256
177
   256
178
     2
274
     4
284
     7
340
253
371
    -1
372
    -1
1001
ACAD_DSTYLE_DIMBREAK
1070
   391
1040
0.125
1001
ACAD_DSTYLE_DIMJAG
1070
   388
1040
1.5
1001
ACAD_DSTYLE_DIMARC_LENGTH_SYMBOL
1070
   379
1070
     1
1001
ACAD_DSTYLE_DIM_LINETYPE
1070
   380
1005
256
1001
ACAD_DSTYLE_DIM_EXT1_LINETYPE
1070
   381
1005
256
1001
ACAD_DSTYLE_DIM_EXT2_LINETYPE
1070
   382
1005
256
  0
DIMSTYLE
105
F1093B
330
24C
100
AcDbSymbolTableRecord
100
AcDbDimStyleTableRecord
  2
AM_ANSI$SH
 70
     0
  4
mm
 41
0.12
 42
0.05
 43
0.5
 44
0.1
 47
0.1
 48
0.1
 75
     1
 76
     1
 78
     7
 79
     2
140
0.12
141
0.0
146
0.71
147
0.06
173
     1
176
   256
177
   256
178
     2
274
     4
284
     7
340
253
343
F10937
371
    -1
372
    -1
1001
ACAD_DSTYLE_DIMBREAK
1070
   391
1040
0.125
1001
ACAD_DSTYLE_DIMJAG
1070
   388
1040
1.5
1001
ACAD_DSTYLE_DIMARC_LENGTH_SYMBOL
1070
   379
1070
     1
1001
ACAD_DSTYLE_DIM_LINETYPE
1070
   380
1005
256
1001
ACAD_DSTYLE_DIM_EXT1_LINETYPE
1070
   381
1005
256
1001
ACAD_DSTYLE_DIM_EXT2_LINETYPE
1070
   382
1005
256
  0
ENDTAB
  0
TABLE
  2
BLOCK_RECORD
  5
243
330
0
100
AcDbSymbolTable
 70
    14
  0
BLOCK_RECORD
  5
261
330
243
100
AcDbSymbolTableRecord
100
AcDbBlockTableRecord
  2
*Model_Space
340
FD0
  0
BLOCK_RECORD
  5
25D
330
243
100
AcDbSymbolTableRecord
100
AcDbBlockTableRecord
  2
*Paper_Space
340
FD1
  0
BLOCK_RECORD
  5
265
330
243
100
AcDbSymbolTableRecord
100
AcDbBlockTableRecord
  2
*Paper_Space0
340
0
  0
BLOCK_RECORD
  5
23C
330
243
100
AcDbSymbolTableRecord
100
AcDbBlockTableRecord
  2
VDDIM_DEFAULT
340
0
102
{BLKREFS
331
F10950
331
F10951
331
F10983
331
F10984
331
F1098C
331
F1098D
331
F109AF
331
F109B0
331
F109C1
331
F109C2
331
F109CC
331
F109CD
331
F109E0
331
F109E1
331
F109E9
331
F109EA
331
F109FB
331
F109FC
102
}
  0
BLOCK_RECORD
  5
23E
330
243
100
AcDbSymbolTableRecord
100
AcDbBlockTableRecord
  2
VDDIM_NONE
340
0
  0
BLOCK_RECORD
  5
F10002
330
243
100
AcDbSymbolTableRecord
100
AcDbBlockTableRecord
  2
*D3
340
0
  0
BLOCK_RECORD
  5
F1000C
330
243
100
AcDbSymbolTableRecord
100
AcDbBlockTableRecord
  2
*D4
340
0
  0
BLOCK_RECORD
  5
F10016
330
243
100
AcDbSymbolTableRecord
100
AcDbBlockTableRecord
  2
*D5
340
0
  0
BLOCK_RECORD
  5
F10020
330
243
100
AcDbSymbolTableRecord
100
AcDbBlockTableRecord
  2
*D6
340
0
  0
BLOCK_RECORD
  5
F10025
330
243
100
AcDbSymbolTableRecord
100
AcDbBlockTableRecord
  2
*D7
340
0
  0
BLOCK_RECORD
  5
F1002A
330
243
100
AcDbSymbolTableRecord
100
AcDbBlockTableRecord
  2
*D8
340
0
  0
BLOCK_RECORD
  5
F10007
330
243
100
AcDbSymbolTableRecord
100
AcDbBlockTableRecord
  2
*D9
340
0
  0
BLOCK_RECORD
  5
F10011
330
243
100
AcDbSymbolTableRecord
100
AcDbBlockTableRecord
  2
*D10
340
0
  0
BLOCK_RECORD
  5
F1001B
330
243
100
AcDbSymbolTableRecord
100
AcDbBlockTableRecord
  2
*D11
340
0
  0
BLOCK_RECORD
  5
F10937
330
243
100
AcDbSymbolTableRecord
100
AcDbBlockTableRecord
  2
GENAXEH
340
0
  0
ENDTAB
  0
ENDSEC
  0
SECTION
  2
BLOCKS
  0
BLOCK
  5
262
330
261
100
AcDbEntity
  8
0
100
AcDbBlockBegin
  2
*Model_Space
 70
     0
 10
0.0
 20
0.0
 30
0.0
  3
*Model_Space
  1

  0
ENDBLK
  5
263
330
261
100
AcDbEntity
  8
0
100
AcDbBlockEnd
  0
BLOCK
  5
25E
330
25D
100
AcDbEntity
 67
     1
  8
0
100
AcDbBlockBegin
  2
*Paper_Space
 70
     0
 10
0.0
 20
0.0
 30
0.0
  3
*Paper_Space
  1

  0
ENDBLK
  5
25F
330
25D
100
AcDbEntity
 67
     1
  8
0
100
AcDbBlockEnd
  0
BLOCK
  5
266
330
265
100
AcDbEntity
  8
0
100
AcDbBlockBegin
  2
*Paper_Space0
 70
     0
 10
0.0
 20
0.0
 30
0.0
  3
*Paper_Space0
  1

  0
VIEWPORT
  5
296
102
{ACAD_XDICTIONARY
360
F10ADA
102
}
330
265
100
AcDbEntity
  8
0
 60
     1
100
AcDbViewport
 10
0.0
 20
0.0
 30
0.0
 40
10.0
 41
10.0
 69
     0
 12
0.0
 22
0.0
 13
0.0
 23
0.0
 14
1.0
 24
1.0
 15
0.0
 25
0.0
 16
0.0
 26
0.0
 36
1.0
 17
0.0
 27
0.0
 37
0.0
 42
0.0
 43
0.0
 44
0.0
 45
10.0
 50
0.0
 51
0.0000000000007958
 72
   100
 90
   163872
  1

281
     0
 71
     0
 74
     0
110
0.0
120
0.0
130
0.0
111
1.0
121
0.0
131
0.0
112
0.0
122
1.0
132
0.0
 79
     0
146
0.0
1001
VD_INVISIBLE_NOT_FOR_READ
1000
VD_INVISIBLE_NOT_FOR_READ
  0
VIEWPORT
  5
297
102
{ACAD_XDICTIONARY
360
F10ADC
102
}
330
265
100
AcDbEntity
  8
0
 60
     1
100
AcDbViewport
 10
0.0
 20
0.0
 30
0.0
 40
10.0
 41
10.0
 69
     0
 12
0.0
 22
0.0
 13
0.0
 23
0.0
 14
1.0
 24
1.0
 15
0.0
 25
0.0
 16
0.0
 26
0.0
 36
1.0
 17
0.0
 27
0.0
 37
0.0
 42
0.0
 43
0.0
 44
0.0
 45
10.0
 50
0.0
 51
0.0000000000007958
 72
   100
 90
   163872
  1

281
     0
 71
     0
 74
     0
110
0.0
120
0.0
130
0.0
111
1.0
121
0.0
131
0.0
112
0.0
122
1.0
132
0.0
 79
     0
146
0.0
1001
VD_INVISIBLE_NOT_FOR_READ
1000
VD_INVISIBLE_NOT_FOR_READ
  0
ENDBLK
  5
267
330
265
100
AcDbEntity
  8
0
100
AcDbBlockEnd
  0
BLOCK
  5
28B
330
23C
100
AcDbEntity
  8
0
100
AcDbBlockBegin
  2
VDDIM_DEFAULT
 70
     0
 10
0.0
 20
0.0
 30
0.0
  3
VDDIM_DEFAULT
  1

  0
LWPOLYLINE
  5
23D
330
23C
100
AcDbEntity
  8
0
  6
Continuous
 62
     0
100
AcDbPolyline
 90
        4
 70
     0
 43
0.0
 10
0.0
 20
0.0
 10
-1.0
 20
-0.1665
 10
-1.0
 20
0.1665
 10
0.0
 20
0.0
1001
VDEXTRAPARAM
1071
        1
1071
        0
1071
        0
1040
1.0
1000

1000

1040
0.0
1040
0.0
  0
HATCH
  5
292
330
23C
100
AcDbEntity
  8
0
  6
Continuous
 62
     0
100
AcDbHatch
 10
0.0
 20
0.0
 30
0.0
210
0.0
220
0.0
230
1.0
  2
SOLID
 70
     1
 71
     0
 91
        1
 92
        2
 72
     0
 73
     1
 93
        3
 10
0.0
 20
0.0
 10
-1.0
 20
-0.1665
 10
-1.0
 20
0.1665
 97
        0
 75
     0
 76
     1
 98
        1
 10
0.0
 20
0.0
1001
VDEXTRAPARAM
1071
        1
1071
        0
1071
        0
1040
1.0
1000

1000

1040
0.0
1040
0.0
1001
VD_TEMPHATCH
1000
VD_TEMPHATCH
  0
ENDBLK
  5
28C
330
23C
100
AcDbEntity
  8
0
100
AcDbBlockEnd
  0
BLOCK
  5
28D
330
23E
100
AcDbEntity
  8
0
100
AcDbBlockBegin
  2
VDDIM_NONE
 70
     0
 10
0.0
 20
0.0
 30
0.0
  3
VDDIM_NONE
  1

  0
ENDBLK
  5
28E
330
23E
100
AcDbEntity
  8
0
100
AcDbBlockEnd
  0
BLOCK
  5
F1002F
330
F10002
100
AcDbEntity
  8
0
100
AcDbBlockBegin
  2
*D3
 70
     1
 10
0.0
 20
0.0
 30
0.0
  3
*D3
  1

  0
LINE
  5
F1094B
330
F10002
100
AcDbEntity
  8
Bemassung
 62
     0
370
    -2
100
AcDbLine
 10
-49.530303030303
 20
-1.965909090908989
 30
0.0
 11
-49.530303030303
 21
26.5357428914698
 31
0.0
  0
LINE
  5
F1094C
330
F10002
100
AcDbEntity
  8
Bemassung
 62
     0
370
    -2
100
AcDbLine
 10
-49.41030303030299
 20
16.034090909091
 30
0.0
 11
-49.41030303030299
 21
26.5357428914698
 31
0.0
  0
LINE
  5
F1094D
330
F10002
100
AcDbEntity
  8
Bemassung
 62
     0
370
    -2
100
AcDbLine
 10
-52.030303030303
 20
25.2857428914698
 30
0.0
 11
-54.530303030303
 21
25.2857428914698
 31
0.0
  0
LINE
  5
F1094E
330
F10002
100
AcDbEntity
  8
Bemassung
 62
     0
370
    -2
100
AcDbLine
 10
-46.91030303030299
 20
25.2857428914698
 30
0.0
 11
-36.69202199346808
 21
25.2857428914698
 31
0.0
  0
LINE
  5
F1094F
330
F10002
100
AcDbEntity
  8
Bemassung
 62
     0
370
    -2
100
AcDbLine
 10
-49.530303030303
 20
25.2857428914698
 30
0.0
 11
-49.41030303030299
 21
25.2857428914698
 31
0.0
  0
INSERT
  5
F10950
330
F10002
100
AcDbEntity
  8
Bemassung
 62
     0
370
    -2
100
AcDbBlockReference
  2
VDDIM_DEFAULT
 10
-49.530303030303
 20
25.2857428914698
 30
0.0
 41
2.5
 42
2.5
 43
2.5
  0
INSERT
  5
F10951
330
F10002
100
AcDbEntity
  8
Bemassung
 62
     0
370
    -2
100
AcDbBlockReference
  2
VDDIM_DEFAULT
 10
-49.41030303030299
 20
25.2857428914698
 30
0.0
 41
2.5
 42
2.5
 43
2.5
 50
180.0
  0
MTEXT
  5
F10952
330
F10002
100
AcDbEntity
  8
Bemassung
 62
     0
100
AcDbMText
 10
-40.55116251188553
 20
25.9107428914698
 30
0.0
 40
2.5
 41
0.0
 71
     8
 72
     1
  1
\A1;0.12
 73
     1
 44
1.0
1001
ACAD
1000
MTEXTBEGIN
1070
    73
1070
     1
1070
    44
1040
1.0
1070
    74
1070
     0
1000
MTEXTEND
  0
POINT
  5
F10953
330
F10002
100
AcDbEntity
  8
Defpoints
 62
     0
100
AcDbPoint
 10
-49.530303030303
 20
-2.59090909090899
 30
0.0
  0
POINT
  5
F10954
330
F10002
100
AcDbEntity
  8
Defpoints
 62
     0
100
AcDbPoint
 10
-49.41030303030299
 20
15.409090909091
 30
0.0
  0
POINT
  5
F10955
330
F10002
100
AcDbEntity
  8
Defpoints
 62
     0
100
AcDbPoint
 10
-49.41030303030299
 20
25.2857428914698
 30
0.0
  0
ENDBLK
  5
F10038
330
F10002
100
AcDbEntity
  8
0
100
AcDbBlockEnd
  0
BLOCK
  5
F10039
330
F1000C
100
AcDbEntity
  8
0
100
AcDbBlockBegin
  2
*D4
 70
     1
 10
0.0
 20
0.0
 30
0.0
  3
*D4
  1

  0
LINE
  5
F109E6
330
F1000C
100
AcDbEntity
  8
Bemassung
 62
     0
370
    -2
100
AcDbLine
 10
-49.530303030303
 20
13.034090909091
 30
0.0
 11
-49.530303030303
 21
26.659090909091
 31
0.0
  0
LINE
  5
F109E7
330
F1000C
100
AcDbEntity
  8
Bemassung
 62
     0
370
    -2
100
AcDbLine
 10
-33.530303030303
 20
16.034090909091
 30
0.0
 11
-33.530303030303
 21
26.659090909091
 31
0.0
  0
LINE
  5
F109E8
330
F1000C
100
AcDbEntity
  8
Bemassung
 62
     0
370
    -2
100
AcDbLine
 10
-47.030303030303
 20
25.409090909091
 30
0.0
 11
-36.030303030303
 21
25.409090909091
 31
0.0
  0
INSERT
  5
F109E9
330
F1000C
100
AcDbEntity
  8
Bemassung
 62
     0
370
    -2
100
AcDbBlockReference
  2
VDDIM_DEFAULT
 10
-49.530303030303
 20
25.409090909091
 30
0.0
 41
2.5
 42
2.5
 43
2.5
 50
180.0
  0
INSERT
  5
F109EA
330
F1000C
100
AcDbEntity
  8
Bemassung
 62
     0
370
    -2
100
AcDbBlockReference
  2
VDDIM_DEFAULT
 10
-33.530303030303
 20
25.409090909091
 30
0.0
 41
2.5
 42
2.5
 43
2.5
  0
MTEXT
  5
F109EB
330
F1000C
100
AcDbEntity
  8
Bemassung
 62
     0
100
AcDbMText
 10
-41.530303030303
 20
26.034090909091
 30
0.0
 40
2.5
 41
0.0
 71
     8
 72
     1
  1
\A1;16
 73
     1
 44
1.0
1001
ACAD
1000
MTEXTBEGIN
1070
    73
1070
     1
1070
    44
1040
1.0
1070
    74
1070
     0
1000
MTEXTEND
  0
POINT
  5
F109EC
330
F1000C
100
AcDbEntity
  8
Defpoints
 62
     0
100
AcDbPoint
 10
-49.530303030303
 20
12.409090909091
 30
0.0
  0
POINT
  5
F109ED
330
F1000C
100
AcDbEntity
  8
Defpoints
 62
     0
100
AcDbPoint
 10
-33.530303030303
 20
15.409090909091
 30
0.0
  0
POINT
  5
F109EE
330
F1000C
100
AcDbEntity
  8
Defpoints
 62
     0
100
AcDbPoint
 10
-33.530303030303
 20
25.409090909091
 30
0.0
  0
ENDBLK
  5
F10042
330
F1000C
100
AcDbEntity
  8
0
100
AcDbBlockEnd
  0
BLOCK
  5
F10043
330
F10016
100
AcDbEntity
  8
0
100
AcDbBlockBegin
  2
*D5
 70
     1
 10
0.0
 20
0.0
 30
0.0
  3
*D5
  1

  0
LINE
  5
F109BE
330
F10016
100
AcDbEntity
  8
Bemassung
 62
     0
370
    -2
100
AcDbLine
 10
-5.530303030303
 20
15.884090909091
 30
0.0
 11
-5.530303030302999
 21
36.659090909091
 31
0.0
  0
LINE
  5
F109BF
330
F10016
100
AcDbEntity
  8
Bemassung
 62
     0
370
    -2
100
AcDbLine
 10
30.469696969697
 20
15.534090909091
 30
0.0
 11
30.469696969697
 21
36.659090909091
 31
0.0
  0
LINE
  5
F109C0
330
F10016
100
AcDbEntity
  8
Bemassung
 62
     0
370
    -2
100
AcDbLine
 10
-3.030303030302998
 20
35.409090909091
 30
0.0
 11
27.969696969697
 21
35.409090909091
 31
0.0
  0
INSERT
  5
F109C1
330
F10016
100
AcDbEntity
  8
Bemassung
 62
     0
370
    -2
100
AcDbBlockReference
  2
VDDIM_DEFAULT
 10
-5.530303030302999
 20
35.409090909091
 30
0.0
 41
2.5
 42
2.5
 43
2.5
 50
180.0
  0
INSERT
  5
F109C2
330
F10016
100
AcDbEntity
  8
Bemassung
 62
     0
370
    -2
100
AcDbBlockReference
  2
VDDIM_DEFAULT
 10
30.469696969697
 20
35.409090909091
 30
0.0
 41
2.5
 42
2.5
 43
2.5
  0
MTEXT
  5
F109C3
330
F10016
100
AcDbEntity
  8
Bemassung
 62
     0
100
AcDbMText
 10
12.469696969697
 20
36.034090909091
 30
0.0
 40
2.5
 41
0.0
 71
     8
 72
     1
  1
\A1;36
 73
     1
 44
1.0
1001
ACAD
1000
MTEXTBEGIN
1070
    73
1070
     1
1070
    44
1040
1.0
1070
    74
1070
     0
1000
MTEXTEND
  0
POINT
  5
F109C4
330
F10016
100
AcDbEntity
  8
Defpoints
 62
     0
100
AcDbPoint
 10
-5.530303030303
 20
15.259090909091
 30
0.0
  0
POINT
  5
F109C5
330
F10016
100
AcDbEntity
  8
Defpoints
 62
     0
100
AcDbPoint
 10
30.469696969697
 20
14.909090909091
 30
0.0
  0
POINT
  5
F109C6
330
F10016
100
AcDbEntity
  8
Defpoints
 62
     0
100
AcDbPoint
 10
30.469696969697
 20
35.409090909091
 30
0.0
  0
ENDBLK
  5
F1004C
330
F10016
100
AcDbEntity
  8
0
100
AcDbBlockEnd
  0
BLOCK
  5
F1004D
330
F10020
100
AcDbEntity
  8
0
100
AcDbBlockBegin
  2
*D6
 70
     1
 10
0.0
 20
0.0
 30
0.0
  3
*D6
  1

  0
LINE
  5
F10989
330
F10020
100
AcDbEntity
  8
Bemassung
 62
     0
370
    -2
100
AcDbLine
 10
-43.23030303030299
 20
8.784090909091009
 30
0.0
 11
-43.23030303030299
 21
-1.840909090908994
 31
0.0
  0
LINE
  5
F1098A
330
F10020
100
AcDbEntity
  8
Bemassung
 62
     0
370
    -2
100
AcDbLine
 10
-49.530303030303
 20
-1.965909090908989
 30
0.0
 11
-49.530303030303
 21
0.659090909091006
 31
0.0
  0
LINE
  5
F1098B
330
F10020
100
AcDbEntity
  8
Bemassung
 62
     0
370
    -2
100
AcDbLine
 10
-45.73030303030299
 20
-0.5909090909089941
 30
0.0
 11
-47.030303030303
 21
-0.5909090909089941
 31
0.0
  0
INSERT
  5
F1098C
330
F10020
100
AcDbEntity
  8
Bemassung
 62
     0
370
    -2
100
AcDbBlockReference
  2
VDDIM_DEFAULT
 10
-43.23030303030299
 20
-0.5909090909089941
 30
0.0
 41
2.5
 42
2.5
 43
2.5
  0
INSERT
  5
F1098D
330
F10020
100
AcDbEntity
  8
Bemassung
 62
     0
370
    -2
100
AcDbBlockReference
  2
VDDIM_DEFAULT
 10
-49.530303030303
 20
-0.5909090909089941
 30
0.0
 41
2.5
 42
2.5
 43
2.5
 50
180.0
  0
MTEXT
  5
F1098E
330
F10020
100
AcDbEntity
  8
Bemassung
 62
     0
100
AcDbMText
 10
-46.380303030303
 20
0.034090909091006
 30
0.0
 40
2.5
 41
0.0
 71
     8
 72
     1
  1
\A1;6.3
 73
     1
 44
1.0
1001
ACAD
1000
MTEXTBEGIN
1070
    73
1070
     1
1070
    44
1040
1.0
1070
    74
1070
     0
1000
MTEXTEND
  0
POINT
  5
F1098F
330
F10020
100
AcDbEntity
  8
Defpoints
 62
     0
100
AcDbPoint
 10
-43.23030303030299
 20
9.409090909091007
 30
0.0
  0
POINT
  5
F10990
330
F10020
100
AcDbEntity
  8
Defpoints
 62
     0
100
AcDbPoint
 10
-49.530303030303
 20
-2.59090909090899
 30
0.0
  0
POINT
  5
F10991
330
F10020
100
AcDbEntity
  8
Defpoints
 62
     0
100
AcDbPoint
 10
-49.530303030303
 20
-0.5909090909089941
 30
0.0
  0
ENDBLK
  5
F10056
330
F10020
100
AcDbEntity
  8
0
100
AcDbBlockEnd
  0
BLOCK
  5
F10057
330
F10025
100
AcDbEntity
  8
0
100
AcDbBlockBegin
  2
*D7
 70
     1
 10
0.0
 20
0.0
 30
0.0
  3
*D7
  1

  0
LINE
  5
F109F8
330
F10025
100
AcDbEntity
  8
Bemassung
 62
     0
370
    -2
100
AcDbLine
 10
30.469696969697
 20
15.534090909091
 30
0.0
 11
30.469696969697
 21
48.5944295440295
 31
0.0
  0
LINE
  5
F109F9
330
F10025
100
AcDbEntity
  8
Bemassung
 62
     0
370
    -2
100
AcDbLine
 10
-49.530303030303
 20
13.034090909091
 30
0.0
 11
-49.530303030303
 21
48.5944295440295
 31
0.0
  0
LINE
  5
F109FA
330
F10025
100
AcDbEntity
  8
Bemassung
 62
     0
370
    -2
100
AcDbLine
 10
27.969696969697
 20
47.3444295440295
 30
0.0
 11
-47.030303030303
 21
47.3444295440295
 31
0.0
  0
INSERT
  5
F109FB
330
F10025
100
AcDbEntity
  8
Bemassung
 62
     0
370
    -2
100
AcDbBlockReference
  2
VDDIM_DEFAULT
 10
30.469696969697
 20
47.3444295440295
 30
0.0
 41
2.5
 42
2.5
 43
2.5
  0
INSERT
  5
F109FC
330
F10025
100
AcDbEntity
  8
Bemassung
 62
     0
370
    -2
100
AcDbBlockReference
  2
VDDIM_DEFAULT
 10
-49.530303030303
 20
47.3444295440295
 30
0.0
 41
2.5
 42
2.5
 43
2.5
 50
180.0
  0
MTEXT
  5
F109FD
330
F10025
100
AcDbEntity
  8
Bemassung
 62
     0
100
AcDbMText
 10
-9.473822062513956
 20
47.9694295440295
 30
0.0
 40
2.5
 41
0.0
 71
     8
 72
     1
  1
\A1;80
 73
     1
 44
1.0
1001
ACAD
1000
MTEXTBEGIN
1070
    73
1070
     1
1070
    44
1040
1.0
1070
    74
1070
     0
1000
MTEXTEND
  0
POINT
  5
F109FE
330
F10025
100
AcDbEntity
  8
Defpoints
 62
     0
100
AcDbPoint
 10
30.469696969697
 20
14.909090909091
 30
0.0
  0
POINT
  5
F109FF
330
F10025
100
AcDbEntity
  8
Defpoints
 62
     0
100
AcDbPoint
 10
-49.530303030303
 20
12.409090909091
 30
0.0
  0
POINT
  5
F10A00
330
F10025
100
AcDbEntity
  8
Defpoints
 62
     0
100
AcDbPoint
 10
-49.530303030303
 20
47.3444295440295
 30
0.0
  0
ENDBLK
  5
F10060
330
F10025
100
AcDbEntity
  8
0
100
AcDbBlockEnd
  0
BLOCK
  5
F10061
330
F1002A
100
AcDbEntity
  8
0
100
AcDbBlockBegin
  2
*D8
 70
     1
 10
0.0
 20
0.0
 30
0.0
  3
*D8
  1

  0
LINE
  5
F109AC
330
F1002A
100
AcDbEntity
  8
Bemassung
 62
     0
370
    -2
100
AcDbLine
 10
-49.530303030303
 20
13.034090909091
 30
0.0
 11
-49.530303030303
 21
36.8881657989588
 31
0.0
  0
LINE
  5
F109AD
330
F1002A
100
AcDbEntity
  8
Bemassung
 62
     0
370
    -2
100
AcDbLine
 10
-5.530303030303
 20
15.884090909091
 30
0.0
 11
-5.530303030302999
 21
36.8881657989588
 31
0.0
  0
LINE
  5
F109AE
330
F1002A
100
AcDbEntity
  8
Bemassung
 62
     0
370
    -2
100
AcDbLine
 10
-47.030303030303
 20
35.6381657989588
 30
0.0
 11
-8.030303030302999
 21
35.6381657989588
 31
0.0
  0
INSERT
  5
F109AF
330
F1002A
100
AcDbEntity
  8
Bemassung
 62
     0
370
    -2
100
AcDbBlockReference
  2
VDDIM_DEFAULT
 10
-49.530303030303
 20
35.6381657989588
 30
0.0
 41
2.5
 42
2.5
 43
2.5
 50
180.0
  0
INSERT
  5
F109B0
330
F1002A
100
AcDbEntity
  8
Bemassung
 62
     0
370
    -2
100
AcDbBlockReference
  2
VDDIM_DEFAULT
 10
-5.530303030302999
 20
35.6381657989588
 30
0.0
 41
2.5
 42
2.5
 43
2.5
  0
MTEXT
  5
F109B1
330
F1002A
100
AcDbEntity
  8
Bemassung
 62
     0
100
AcDbMText
 10
-27.530303030303
 20
36.2631657989588
 30
0.0
 40
2.5
 41
0.0
 71
     8
 72
     1
  1
\A1;44
 73
     1
 44
1.0
1001
ACAD
1000
MTEXTBEGIN
1070
    73
1070
     1
1070
    44
1040
1.0
1070
    74
1070
     0
1000
MTEXTEND
  0
POINT
  5
F109B2
330
F1002A
100
AcDbEntity
  8
Defpoints
 62
     0
100
AcDbPoint
 10
-49.530303030303
 20
12.409090909091
 30
0.0
  0
POINT
  5
F109B3
330
F1002A
100
AcDbEntity
  8
Defpoints
 62
     0
100
AcDbPoint
 10
-5.530303030303
 20
15.259090909091
 30
0.0
  0
POINT
  5
F109B4
330
F1002A
100
AcDbEntity
  8
Defpoints
 62
     0
100
AcDbPoint
 10
-5.530303030302999
 20
35.6381657989588
 30
0.0
  0
ENDBLK
  5
F1006A
330
F1002A
100
AcDbEntity
  8
0
100
AcDbBlockEnd
  0
BLOCK
  5
F1006B
330
F10007
100
AcDbEntity
  8
0
100
AcDbBlockBegin
  2
*D9
 70
     1
 10
0.0
 20
0.0
 30
0.0
  3
*D9
  1

  0
LINE
  5
F109DB
330
F10007
100
AcDbEntity
  8
Bemassung
 62
     0
370
    -2
100
AcDbLine
 10
-50.03530303030299
 20
9.409090909091007
 30
0.0
 11
-67.08536910959812
 21
9.409090909091013
 31
0.0
  0
LINE
  5
F109DC
330
F10007
100
AcDbEntity
  8
Bemassung
 62
     0
370
    -2
100
AcDbLine
 10
-50.03530303030299
 20
15.409090909091
 30
0.0
 11
-67.08536910959812
 21
15.409090909091
 31
0.0
  0
LINE
  5
F109DD
330
F10007
100
AcDbEntity
  8
Bemassung
 62
     0
370
    -2
100
AcDbLine
 10
-65.83536910959812
 20
6.909090909091013
 30
0.0
 11
-65.83536910959812
 21
4.409090909091013
 31
0.0
  0
LINE
  5
F109DE
330
F10007
100
AcDbEntity
  8
Bemassung
 62
     0
370
    -2
100
AcDbLine
 10
-65.83536910959812
 20
17.909090909091
 30
0.0
 11
-65.83536910959812
 21
20.40909090909101
 31
0.0
  0
LINE
  5
F109DF
330
F10007
100
AcDbEntity
  8
Bemassung
 62
     0
370
    -2
100
AcDbLine
 10
-65.83536910959812
 20
9.409090909091013
 30
0.0
 11
-65.83536910959812
 21
15.409090909091
 31
0.0
  0
INSERT
  5
F109E0
330
F10007
100
AcDbEntity
  8
Bemassung
 62
     0
370
    -2
100
AcDbBlockReference
  2
VDDIM_DEFAULT
 10
-65.83536910959812
 20
9.409090909091013
 30
0.0
 41
2.5
 42
2.5
 43
2.5
 50
90.0
  0
INSERT
  5
F109E1
330
F10007
100
AcDbEntity
  8
Bemassung
 62
     0
370
    -2
100
AcDbBlockReference
  2
VDDIM_DEFAULT
 10
-65.83536910959812
 20
15.409090909091
 30
0.0
 41
2.5
 42
2.5
 43
2.5
 50
270.0
  0
MTEXT
  5
F109E2
330
F10007
100
AcDbEntity
  8
Bemassung
 62
     0
100
AcDbMText
 10
-66.46036910959812
 20
12.409090909091
 30
0.0
 40
2.5
 41
0.0
 71
     8
 72
     1
  1
\A1;%%c6
 11
0.0000000000000001
 21
1.0
 31
0.0
 73
     1
 44
1.0
1001
ACAD
1000
MTEXTBEGIN
1070
    73
1070
     1
1070
    44
1040
1.0
1070
    74
1070
     0
1000
MTEXTEND
  0
POINT
  5
F109E3
330
F10007
100
AcDbEntity
  8
Defpoints
 62
     0
100
AcDbPoint
 10
-49.41030303030299
 20
9.409090909091007
 30
0.0
  0
POINT
  5
F109E4
330
F10007
100
AcDbEntity
  8
Defpoints
 62
     0
100
AcDbPoint
 10
-49.41030303030299
 20
15.409090909091
 30
0.0
  0
POINT
  5
F109E5
330
F10007
100
AcDbEntity
  8
Defpoints
 62
     0
100
AcDbPoint
 10
-65.83536910959812
 20
15.409090909091
 30
0.0
  0
ENDBLK
  5
F10074
330
F10007
100
AcDbEntity
  8
0
100
AcDbBlockEnd
  0
BLOCK
  5
F10075
330
F10011
100
AcDbEntity
  8
0
100
AcDbBlockBegin
  2
*D10
 70
     1
 10
0.0
 20
0.0
 30
0.0
  3
*D10
  1

  0
LINE
  5
F109C7
330
F10011
100
AcDbEntity
  8
Bemassung
 62
     0
370
    -2
100
AcDbLine
 10
-22.2423074355893
 20
9.559090909091008
 30
0.0
 11
-19.6173074355893
 21
9.559090909091008
 31
0.0
  0
LINE
  5
F109C8
330
F10011
100
AcDbEntity
  8
Bemassung
 62
     0
370
    -2
100
AcDbLine
 10
-22.2423074355893
 20
15.259090909091
 30
0.0
 11
-19.6173074355893
 21
15.259090909091
 31
0.0
  0
LINE
  5
F109C9
330
F10011
100
AcDbEntity
  8
Bemassung
 62
     0
370
    -2
100
AcDbLine
 10
-20.86730743558931
 20
7.059090909091009
 30
0.0
 11
-20.86730743558931
 21
4.559090909091009
 31
0.0
  0
LINE
  5
F109CA
330
F10011
100
AcDbEntity
  8
Bemassung
 62
     0
370
    -2
100
AcDbLine
 10
-20.8673074355893
 20
17.759090909091
 30
0.0
 11
-20.8673074355893
 21
28.78057794865445
 31
0.0
  0
LINE
  5
F109CB
330
F10011
100
AcDbEntity
  8
Bemassung
 62
     0
370
    -2
100
AcDbLine
 10
-20.8673074355893
 20
9.559090909091008
 30
0.0
 11
-20.8673074355893
 21
15.259090909091
 31
0.0
  0
INSERT
  5
F109CC
330
F10011
100
AcDbEntity
  8
Bemassung
 62
     0
370
    -2
100
AcDbBlockReference
  2
VDDIM_DEFAULT
 10
-20.8673074355893
 20
9.559090909091008
 30
0.0
 41
2.5
 42
2.5
 43
2.5
 50
90.0
  0
INSERT
  5
F109CD
330
F10011
100
AcDbEntity
  8
Bemassung
 62
     0
370
    -2
100
AcDbBlockReference
  2
VDDIM_DEFAULT
 10
-20.8673074355893
 20
15.259090909091
 30
0.0
 41
2.5
 42
2.5
 43
2.5
 50
270.0
  0
MTEXT
  5
F109CE
330
F10011
100
AcDbEntity
  8
Bemassung
 62
     0
100
AcDbMText
 10
-21.49230743558931
 20
24.51983442887271
 30
0.0
 40
2.5
 41
0.0
 71
     8
 72
     1
  1
\A1;%%c5.7
 11
0.0000000000000001
 21
1.0
 31
0.0
 73
     1
 44
1.0
1001
ACAD
1000
MTEXTBEGIN
1070
    73
1070
     1
1070
    44
1040
1.0
1070
    74
1070
     0
1000
MTEXTEND
  0
POINT
  5
F109CF
330
F10011
100
AcDbEntity
  8
Defpoints
 62
     0
100
AcDbPoint
 10
-22.8673074355893
 20
9.559090909091008
 30
0.0
  0
POINT
  5
F109D0
330
F10011
100
AcDbEntity
  8
Defpoints
 62
     0
100
AcDbPoint
 10
-22.8673074355893
 20
15.259090909091
 30
0.0
  0
POINT
  5
F109D1
330
F10011
100
AcDbEntity
  8
Defpoints
 62
     0
100
AcDbPoint
 10
-20.8673074355893
 20
15.259090909091
 30
0.0
  0
ENDBLK
  5
F1007E
330
F10011
100
AcDbEntity
  8
0
100
AcDbBlockEnd
  0
BLOCK
  5
F1007F
330
F1001B
100
AcDbEntity
  8
0
100
AcDbBlockBegin
  2
*D11
 70
     1
 10
0.0
 20
0.0
 30
0.0
  3
*D11
  1

  0
LINE
  5
F1097E
330
F1001B
100
AcDbEntity
  8
Bemassung
 62
     0
370
    -2
100
AcDbLine
 10
30.594696969697
 20
9.409090909091007
 30
0.0
 11
41.71969696969699
 21
9.409090909091007
 31
0.0
  0
LINE
  5
F1097F
330
F1001B
100
AcDbEntity
  8
Bemassung
 62
     0
370
    -2
100
AcDbLine
 10
30.594696969697
 20
15.409090909091
 30
0.0
 11
41.71969696969699
 21
15.409090909091
 31
0.0
  0
LINE
  5
F10980
330
F1001B
100
AcDbEntity
  8
Bemassung
 62
     0
370
    -2
100
AcDbLine
 10
40.46969696969699
 20
6.909090909091007
 30
0.0
 11
40.46969696969699
 21
4.409090909091006
 31
0.0
  0
LINE
  5
F10981
330
F1001B
100
AcDbEntity
  8
Bemassung
 62
     0
370
    -2
100
AcDbLine
 10
40.46969696969699
 20
17.90909090909099
 30
0.0
 11
40.46969696969699
 21
30.87123279176494
 31
0.0
  0
LINE
  5
F10982
330
F1001B
100
AcDbEntity
  8
Bemassung
 62
     0
370
    -2
100
AcDbLine
 10
40.46969696969699
 20
9.409090909091007
 30
0.0
 11
40.46969696969699
 21
15.409090909091
 31
0.0
  0
INSERT
  5
F10983
330
F1001B
100
AcDbEntity
  8
Bemassung
 62
     0
370
    -2
100
AcDbBlockReference
  2
VDDIM_DEFAULT
 10
40.46969696969699
 20
9.409090909091007
 30
0.0
 41
2.5
 42
2.5
 43
2.5
 50
90.0
  0
INSERT
  5
F10984
330
F1001B
100
AcDbEntity
  8
Bemassung
 62
     0
370
    -2
100
AcDbBlockReference
  2
VDDIM_DEFAULT
 10
40.46969696969699
 20
15.409090909091
 30
0.0
 41
2.5
 42
2.5
 43
2.5
 50
270.0
  0
MTEXT
  5
F10985
330
F1001B
100
AcDbEntity
  8
Bemassung
 62
     0
100
AcDbMText
 10
39.844696969697
 20
25.64016185042798
 30
0.0
 40
2.5
 41
0.0
 71
     8
 72
     1
  1
\A1;%%c6 h6
 11
0.0000000000000001
 21
1.0
 31
0.0
 73
     1
 44
1.0
1001
ACAD
1000
MTEXTBEGIN
1070
    73
1070
     1
1070
    44
1040
1.0
1070
    74
1070
     0
1000
MTEXTEND
  0
POINT
  5
F10986
330
F1001B
100
AcDbEntity
  8
Defpoints
 62
     0
100
AcDbPoint
 10
29.969696969697
 20
9.409090909091007
 30
0.0
  0
POINT
  5
F10987
330
F1001B
100
AcDbEntity
  8
Defpoints
 62
     0
100
AcDbPoint
 10
29.969696969697
 20
15.409090909091
 30
0.0
  0
POINT
  5
F10988
330
F1001B
100
AcDbEntity
  8
Defpoints
 62
     0
100
AcDbPoint
 10
40.46969696969699
 20
15.409090909091
 30
0.0
  0
ENDBLK
  5
F10088
330
F1001B
100
AcDbEntity
  8
0
100
AcDbBlockEnd
  0
BLOCK
  5
F10939
330
F10937
100
AcDbEntity
  8
0
100
AcDbBlockBegin
  2
GENAXEH
 70
     0
 10
0.0
 20
0.0
 30
0.0
  3
GENAXEH
  1

  0
LINE
  5
F10938
330
F10937
100
AcDbEntity
  8
0
100
AcDbLine
 10
-1.0
 20
0.0
 30
0.0
 11
1.0
 21
0.0
 31
0.0
  0
ENDBLK
  5
F1093A
330
F10937
100
AcDbEntity
  8
0
100
AcDbBlockEnd
  0
ENDSEC
  0
SECTION
  2
ENTITIES
  0
DIMENSION
  5
F1000D
330
261
100
AcDbEntity
  8
Bemassung
100
AcDbDimension
  2
*D4
 10
-33.530303030303
 20
25.409090909091
 30
0.0
 11
-41.530303030303
 21
27.31052337839523
 31
0.0
 70
    32
  1
<>
 71
     8
 42
16.0
  3
BEM-ISBE
100
AcDbAlignedDimension
 13
-49.530303030303
 23
12.409090909091
 33
0.0
 14
-33.530303030303
 24
15.409090909091
 34
0.0
100
AcDbRotatedDimension
1001
ACAD
1000
DSTYLE
1002
{
1070
   147
1040
0.625
1070
    72
1070
     0
1070
    71
1070
     0
1070
   284
1070
     8
1070
    78
1070
     8
1070
   144
1040
1.0
1070
    47
1040
1.5
1070
    48
1040
0.0
1002
}
  0
DIMENSION
  5
F10017
330
261
100
AcDbEntity
  8
Bemassung
100
AcDbDimension
  2
*D5
 10
30.469696969697
 20
35.409090909091
 30
0.0
 11
12.469696969697
 21
37.31137603869536
 31
0.0
 70
    32
  1
<>
 71
     8
 42
36.0
  3
BEM-ISBE
100
AcDbAlignedDimension
 13
-5.530303030303
 23
15.259090909091
 33
0.0
 14
30.469696969697
 24
14.909090909091
 34
0.0
100
AcDbRotatedDimension
1001
ACAD
1000
DSTYLE
1002
{
1070
   147
1040
0.625
1070
    72
1070
     0
1070
    71
1070
     0
1070
   284
1070
     8
1070
    78
1070
     8
1070
   144
1040
1.0
1070
    47
1040
2.0
1070
    48
1040
0.0
1002
}
  0
DIMENSION
  5
F10026
330
261
100
AcDbEntity
  8
Bemassung
100
AcDbDimension
  2
*D7
 10
-49.530303030303
 20
47.3444295440295
 30
0.0
 11
-9.473822062513956
 21
47.3444295440295
 31
0.0
 70
   160
  1
<>
 71
     8
 42
80.0
  3
BEM-ISBE
100
AcDbAlignedDimension
 13
30.469696969697
 23
14.909090909091
 33
0.0
 14
-49.530303030303
 24
12.409090909091
 34
0.0
100
AcDbRotatedDimension
1001
ACAD
1000
DSTYLE
1002
{
1070
   147
1040
0.625
1070
    72
1070
     0
1070
    71
1070
     0
1070
   284
1070
     8
1070
    78
1070
     8
1070
   144
1040
1.0
1070
    47
1040
2.0
1070
    48
1040
0.0
1002
}
  0
DIMENSION
  5
F1002B
330
261
100
AcDbEntity
  8
Bemassung
100
AcDbDimension
  2
*D8
 10
-5.530303030302999
 20
35.6381657989588
 30
0.0
 11
-27.530303030303
 21
37.5131657989588
 31
0.0
 70
    32
  1
<>
 71
     8
 42
44.0
  3
BEM-ISBE
100
AcDbAlignedDimension
 13
-49.530303030303
 23
12.409090909091
 33
0.0
 14
-5.530303030303
 24
15.259090909091
 34
0.0
100
AcDbRotatedDimension
1001
ACAD
1000
DSTYLE
1002
{
1070
   284
1070
     8
1070
    78
1070
     8
1070
   144
1040
1.0
1070
   147
1040
0.625
1070
    72
1070
     0
1070
    71
1070
     0
1002
}
  0
DIMENSION
  5
F10008
330
261
100
AcDbEntity
  8
Bemassung
100
AcDbDimension
  2
*D9
 10
-65.83536910959812
 20
15.409090909091
 30
0.0
 11
-67.80671972351353
 21
12.409090909091
 31
0.0
 70
    32
  1
%%c<>
 71
     8
 42
5.999999999999992
  3
BEM-ISBE
100
AcDbAlignedDimension
 13
-49.41030303030299
 23
9.409090909091007
 33
0.0
 14
-49.41030303030299
 24
15.409090909091
 34
0.0
 50
90.0
100
AcDbRotatedDimension
1001
ACAD
1000
DSTYLE
1002
{
1070
   147
1040
0.625
1070
    72
1070
     0
1070
    71
1070
     0
1070
   284
1070
     8
1070
    78
1070
     8
1070
   144
1040
1.0
1070
    47
1040
0.0
1070
    48
1040
-0.048
1002
}
  0
DIMENSION
  5
F10012
330
261
100
AcDbEntity
  8
Bemassung
100
AcDbDimension
  2
*D10
 10
-20.8673074355893
 20
15.259090909091
 30
0.0
 11
-22.83865804950472
 21
24.51983442887271
 31
0.0
 70
    32
  1
%%c<>
 71
     8
 42
5.69999999999999
  3
BEM-ISBE
100
AcDbAlignedDimension
 13
-22.8673074355893
 23
9.559090909091008
 33
0.0
 14
-22.8673074355893
 24
15.259090909091
 34
0.0
 50
90.0
100
AcDbRotatedDimension
1001
ACAD
1000
DSTYLE
1002
{
1070
   147
1040
0.625
1070
    72
1070
     0
1070
    71
1070
     0
1070
   284
1070
     8
1070
    78
1070
     8
1070
   144
1040
1.0
1070
    47
1040
0.0
1070
    48
1040
-0.1
1002
}
  0
DIMENSION
  5
F1001C
330
261
100
AcDbEntity
  8
Bemassung
100
AcDbDimension
  2
*D11
 10
40.46969696969699
 20
15.409090909091
 30
0.0
 11
38.49834635578158
 21
25.64016185042798
 31
0.0
 70
    32
  1
%%c<> h6
 71
     8
 42
5.999999999999992
  3
BEM-ISBE
100
AcDbAlignedDimension
 13
29.969696969697
 23
9.409090909091007
 33
0.0
 14
29.969696969697
 24
15.409090909091
 34
0.0
 50
90.0
100
AcDbRotatedDimension
1001
ACAD
1000
DSTYLE
1002
{
1070
   284
1070
     8
1070
    78
1070
     8
1070
   144
1040
1.0
1070
   147
1040
0.625
1070
    72
1070
     0
1070
    71
1070
     0
1002
}
  0
LINE
  5
F10089
330
261
100
AcDbEntity
  8
Geo
100
AcDbLine
 10
-49.530303030303
 20
12.409090909091
 30
0.0
 11
-49.530303030303
 21
15.289090909091
 31
0.0
  0
LINE
  5
F1008B
330
261
100
AcDbEntity
  8
Geo
100
AcDbLine
 10
-49.530303030303
 20
15.289090909091
 30
0.0
 11
-49.41030303030299
 21
15.409090909091
 31
0.0
  0
LINE
  5
F1008D
330
261
100
AcDbEntity
  8
Geo
100
AcDbLine
 10
-49.41030303030299
 20
15.409090909091
 30
0.0
 11
-33.530303030303
 21
15.409090909091
 31
0.0
  0
LINE
  5
F1008F
330
261
100
AcDbEntity
  8
Geo
100
AcDbLine
 10
-33.530303030303
 20
15.409090909091
 30
0.0
 11
-33.530303030303
 21
15.259090909091
 31
0.0
  0
LINE
  5
F10091
330
261
100
AcDbEntity
  8
Geo
100
AcDbLine
 10
-33.530303030303
 20
15.259090909091
 30
0.0
 11
-5.530303030303
 21
15.259090909091
 31
0.0
  0
LINE
  5
F10093
330
261
100
AcDbEntity
  8
Geo
100
AcDbLine
 10
-5.530303030303
 20
15.259090909091
 30
0.0
 11
-5.530303030303
 21
15.409090909091
 31
0.0
  0
LINE
  5
F10095
330
261
100
AcDbEntity
  8
Geo
100
AcDbLine
 10
-5.530303030303
 20
15.409090909091
 30
0.0
 11
29.969696969697
 21
15.409090909091
 31
0.0
  0
LINE
  5
F10097
330
261
100
AcDbEntity
  8
Geo
100
AcDbLine
 10
29.969696969697
 20
15.409090909091
 30
0.0
 11
30.469696969697
 21
14.909090909091
 31
0.0
  0
LINE
  5
F10099
330
261
100
AcDbEntity
  8
Geo
100
AcDbLine
 10
-47.530303030303
 20
15.4082888315813
 30
0.0
 11
-47.430303030303
 21
15.4088274715135
 31
0.0
  0
LINE
  5
F1009B
330
261
100
AcDbEntity
  8
Geo
100
AcDbLine
 10
-47.430303030303
 20
15.4088274715135
 30
0.0
 11
-47.33030303030299
 21
15.4053970502777
 31
0.0
  0
LINE
  5
F1009D
330
261
100
AcDbEntity
  8
Geo
100
AcDbLine
 10
-47.33030303030299
 20
15.4053970502777
 30
0.0
 11
-47.230303030303
 21
15.3980021067897
 31
0.0
  0
LINE
  5
F1009F
330
261
100
AcDbEntity
  8
Geo
100
AcDbLine
 10
-47.230303030303
 20
15.3980021067897
 30
0.0
 11
-47.130303030303
 21
15.3866524255698
 31
0.0
  0
LINE
  5
F100A1
330
261
100
AcDbEntity
  8
Geo
100
AcDbLine
 10
-47.130303030303
 20
15.3866524255698
 30
0.0
 11
-47.030303030303
 21
15.3713630237963
 31
0.0
  0
LINE
  5
F100A3
330
261
100
AcDbEntity
  8
Geo
100
AcDbLine
 10
-47.030303030303
 20
15.3713630237963
 30
0.0
 11
-46.930303030303
 21
15.352154131436
 31
0.0
  0
LINE
  5
F100A5
330
261
100
AcDbEntity
  8
Geo
100
AcDbLine
 10
-46.930303030303
 20
15.352154131436
 30
0.0
 11
-46.83030303030299
 21
15.3290511644769
 31
0.0
  0
LINE
  5
F100A7
330
261
100
AcDbEntity
  8
Geo
100
AcDbLine
 10
-46.83030303030299
 20
15.3290511644769
 30
0.0
 11
-46.730303030303
 21
15.3020846912997
 31
0.0
  0
LINE
  5
F100A9
330
261
100
AcDbEntity
  8
Geo
100
AcDbLine
 10
-46.730303030303
 20
15.3020846912997
 30
0.0
 11
-46.630303030303
 21
15.2712903922315
 31
0.0
  0
LINE
  5
F100AB
330
261
100
AcDbEntity
  8
Geo
100
AcDbLine
 10
-46.630303030303
 20
15.2712903922315
 30
0.0
 11
-46.530303030303
 21
15.2367090123355
 31
0.0
  0
LINE
  5
F100AD
330
261
100
AcDbEntity
  8
Geo
100
AcDbLine
 10
-46.530303030303
 20
15.2367090123355
 30
0.0
 11
-46.43030303030299
 21
15.1983863075006
 31
0.0
  0
LINE
  5
F100AF
330
261
100
AcDbEntity
  8
Geo
100
AcDbLine
 10
-46.43030303030299
 20
15.1983863075006
 30
0.0
 11
-46.330303030303
 21
15.1563729838992
 31
0.0
  0
LINE
  5
F100B1
330
261
100
AcDbEntity
  8
Geo
100
AcDbLine
 10
-46.330303030303
 20
15.1563729838992
 30
0.0
 11
-46.230303030303
 21
15.1107246308965
 31
0.0
  0
LINE
  5
F100B3
330
261
100
AcDbEntity
  8
Geo
100
AcDbLine
 10
-46.230303030303
 20
15.1107246308965
 30
0.0
 11
-46.130303030303
 21
15.0615016474981
 31
0.0
  0
LINE
  5
F100B5
330
261
100
AcDbEntity
  8
Geo
100
AcDbLine
 10
-46.130303030303
 20
15.0615016474981
 30
0.0
 11
-46.030303030303
 21
15.0087691624337
 31
0.0
  0
LINE
  5
F100B7
330
261
100
AcDbEntity
  8
Geo
100
AcDbLine
 10
-46.030303030303
 20
15.0087691624337
 30
0.0
 11
-45.930303030303
 21
14.9525969479831
 31
0.0
  0
LINE
  5
F100B9
330
261
100
AcDbEntity
  8
Geo
100
AcDbLine
 10
-45.930303030303
 20
14.9525969479831
 30
0.0
 11
-45.830303030303
 21
14.8930593276579
 31
0.0
  0
LINE
  5
F100BB
330
261
100
AcDbEntity
  8
Geo
100
AcDbLine
 10
-45.830303030303
 20
14.8930593276579
 30
0.0
 11
-45.73030303030299
 21
14.8302350778612
 31
0.0
  0
LINE
  5
F100BD
330
261
100
AcDbEntity
  8
Geo
100
AcDbLine
 10
-45.73030303030299
 20
14.8302350778612
 30
0.0
 11
-45.630303030303
 21
14.764207323656
 31
0.0
  0
LINE
  5
F100BF
330
261
100
AcDbEntity
  8
Geo
100
AcDbLine
 10
-45.630303030303
 20
14.764207323656
 30
0.0
 11
-45.530303030303
 21
14.695063428779
 31
0.0
  0
LINE
  5
F100C1
330
261
100
AcDbEntity
  8
Geo
100
AcDbLine
 10
-45.530303030303
 20
14.695063428779
 30
0.0
 11
-45.430303030303
 21
14.6228948800464
 31
0.0
  0
LINE
  5
F100C3
330
261
100
AcDbEntity
  8
Geo
100
AcDbLine
 10
-45.430303030303
 20
14.6228948800464
 30
0.0
 11
-45.330303030303
 21
14.5477971663049
 31
0.0
  0
LINE
  5
F100C5
330
261
100
AcDbEntity
  8
Geo
100
AcDbLine
 10
-45.330303030303
 20
14.5477971663049
 30
0.0
 11
-45.23030303030298
 21
14.4698696520865
 31
0.0
  0
LINE
  5
F100C7
330
261
100
AcDbEntity
  8
Geo
100
AcDbLine
 10
-45.23030303030298
 20
14.4698696520865
 30
0.0
 11
-45.130303030303
 21
14.3892154461355
 31
0.0
  0
LINE
  5
F100C9
330
261
100
AcDbEntity
  8
Geo
100
AcDbLine
 10
-45.130303030303
 20
14.3892154461355
 30
0.0
 11
-45.030303030303
 21
14.305941264982
 31
0.0
  0
LINE
  5
F100CB
330
261
100
AcDbEntity
  8
Geo
100
AcDbLine
 10
-45.030303030303
 20
14.305941264982
 30
0.0
 11
-44.930303030303
 21
14.2201572917409
 31
0.0
  0
LINE
  5
F100CD
330
261
100
AcDbEntity
  8
Geo
100
AcDbLine
 10
-44.930303030303
 20
14.2201572917409
 30
0.0
 11
-44.83030303030299
 21
14.1319770303251
 31
0.0
  0
LINE
  5
F100CF
330
261
100
AcDbEntity
  8
Geo
100
AcDbLine
 10
-44.83030303030299
 20
14.1319770303251
 30
0.0
 11
-44.730303030303
 21
14.0415171552637
 31
0.0
  0
LINE
  5
F100D1
330
261
100
AcDbEntity
  8
Geo
100
AcDbLine
 10
-44.730303030303
 20
14.0415171552637
 30
0.0
 11
-44.630303030303
 21
13.9488973573263
 31
0.0
  0
LINE
  5
F100D3
330
261
100
AcDbEntity
  8
Geo
100
AcDbLine
 10
-44.630303030303
 20
13.9488973573263
 30
0.0
 11
-44.530303030303
 21
13.8542401851554
 31
0.0
  0
LINE
  5
F100D5
330
261
100
AcDbEntity
  8
Geo
100
AcDbLine
 10
-44.530303030303
 20
13.8542401851554
 30
0.0
 11
-44.430303030303
 21
13.7576708831176
 31
0.0
  0
LINE
  5
F100D7
330
261
100
AcDbEntity
  8
Geo
100
AcDbLine
 10
-44.430303030303
 20
13.7576708831176
 30
0.0
 11
-44.33030303030299
 21
13.6593172255888
 31
0.0
  0
LINE
  5
F100D9
330
261
100
AcDbEntity
  8
Geo
100
AcDbLine
 10
-44.33030303030299
 20
13.6593172255888
 30
0.0
 11
-44.230303030303
 21
13.5593093478908
 31
0.0
  0
LINE
  5
F100DB
330
261
100
AcDbEntity
  8
Geo
100
AcDbLine
 10
-44.230303030303
 20
13.5593093478908
 30
0.0
 11
-44.130303030303
 21
13.4577795741045
 31
0.0
  0
LINE
  5
F100DD
330
261
100
AcDbEntity
  8
Geo
100
AcDbLine
 10
-44.130303030303
 20
13.4577795741045
 30
0.0
 11
-44.030303030303
 21
13.3548622419873
 31
0.0
  0
LINE
  5
F100DF
330
261
100
AcDbEntity
  8
Geo
100
AcDbLine
 10
-44.030303030303
 20
13.3548622419873
 30
0.0
 11
-43.93030303030299
 21
13.2506935252259
 31
0.0
  0
LINE
  5
F100E1
330
261
100
AcDbEntity
  8
Geo
100
AcDbLine
 10
-43.93030303030299
 20
13.2506935252259
 30
0.0
 11
-43.830303030303
 21
13.1454112532595
 31
0.0
  0
LINE
  5
F100E3
330
261
100
AcDbEntity
  8
Geo
100
AcDbLine
 10
-43.830303030303
 20
13.1454112532595
 30
0.0
 11
-43.730303030303
 21
13.0391547289131
 31
0.0
  0
LINE
  5
F100E5
330
261
100
AcDbEntity
  8
Geo
100
AcDbLine
 10
-43.730303030303
 20
13.0391547289131
 30
0.0
 11
-43.630303030303
 21
12.9320645440807
 31
0.0
  0
LINE
  5
F100E7
330
261
100
AcDbEntity
  8
Geo
100
AcDbLine
 10
-43.630303030303
 20
12.9320645440807
 30
0.0
 11
-43.530303030303
 21
12.8242823937029
 31
0.0
  0
LINE
  5
F100E9
330
261
100
AcDbEntity
  8
Geo
100
AcDbLine
 10
-43.530303030303
 20
12.8242823937029
 30
0.0
 11
-43.430303030303
 21
12.7159508882852
 31
0.0
  0
LINE
  5
F100EB
330
261
100
AcDbEntity
  8
Geo
100
AcDbLine
 10
-43.430303030303
 20
12.7159508882852
 30
0.0
 11
-43.330303030303
 21
12.607213365205
 31
0.0
  0
LINE
  5
F100ED
330
261
100
AcDbEntity
  8
Geo
100
AcDbLine
 10
-43.330303030303
 20
12.607213365205
 30
0.0
 11
-43.23030303030299
 21
12.4982136990562
 31
0.0
  0
LINE
  5
F100EF
330
261
100
AcDbEntity
  8
Geo
100
AcDbLine
 10
-43.23030303030299
 20
12.4982136990562
 30
0.0
 11
-43.130303030303
 21
12.3890961112842
 31
0.0
  0
LINE
  5
F100F1
330
261
100
AcDbEntity
  8
Geo
100
AcDbLine
 10
-43.130303030303
 20
12.3890961112842
 30
0.0
 11
-43.030303030303
 21
12.2800049793606
 31
0.0
  0
LINE
  5
F100F3
330
261
100
AcDbEntity
  8
Geo
100
AcDbLine
 10
-43.030303030303
 20
12.2800049793606
 30
0.0
 11
-42.930303030303
 21
12.1710846457522
 31
0.0
  0
LINE
  5
F100F5
330
261
100
AcDbEntity
  8
Geo
100
AcDbLine
 10
-42.930303030303
 20
12.1710846457522
 30
0.0
 11
-42.830303030303
 21
12.0624792269364
 31
0.0
  0
LINE
  5
F100F7
330
261
100
AcDbEntity
  8
Geo
100
AcDbLine
 10
-42.830303030303
 20
12.0624792269364
 30
0.0
 11
-42.73030303030298
 21
11.9543324227154
 31
0.0
  0
LINE
  5
F100F9
330
261
100
AcDbEntity
  8
Geo
100
AcDbLine
 10
-42.73030303030298
 20
11.9543324227154
 30
0.0
 11
-42.630303030303
 21
11.8467873260815
 31
0.0
  0
LINE
  5
F100FB
330
261
100
AcDbEntity
  8
Geo
100
AcDbLine
 10
-42.630303030303
 20
11.8467873260815
 30
0.0
 11
-42.530303030303
 21
11.7399862338859
 31
0.0
  0
LINE
  5
F100FD
330
261
100
AcDbEntity
  8
Geo
100
AcDbLine
 10
-42.530303030303
 20
11.7399862338859
 30
0.0
 11
-42.430303030303
 21
11.6340704585601
 31
0.0
  0
LINE
  5
F100FF
330
261
100
AcDbEntity
  8
Geo
100
AcDbLine
 10
-42.430303030303
 20
11.6340704585601
 30
0.0
 11
-42.33030303030299
 21
11.5291801411405
 31
0.0
  0
LINE
  5
F10101
330
261
100
AcDbEntity
  8
Geo
100
AcDbLine
 10
-42.33030303030299
 20
11.5291801411405
 30
0.0
 11
-42.230303030303
 21
11.4254540658427
 31
0.0
  0
LINE
  5
F10103
330
261
100
AcDbEntity
  8
Geo
100
AcDbLine
 10
-42.230303030303
 20
11.4254540658427
 30
0.0
 11
-42.130303030303
 21
11.323029476431
 31
0.0
  0
LINE
  5
F10105
330
261
100
AcDbEntity
  8
Geo
100
AcDbLine
 10
-42.130303030303
 20
11.323029476431
 30
0.0
 11
-42.030303030303
 21
11.222041894626
 31
0.0
  0
LINE
  5
F10107
330
261
100
AcDbEntity
  8
Geo
100
AcDbLine
 10
-42.030303030303
 20
11.222041894626
 30
0.0
 11
-41.930303030303
 21
11.1226249407911
 31
0.0
  0
LINE
  5
F10109
330
261
100
AcDbEntity
  8
Geo
100
AcDbLine
 10
-41.930303030303
 20
11.1226249407911
 30
0.0
 11
-41.83030303030299
 21
11.0249101571343
 31
0.0
  0
LINE
  5
F1010B
330
261
100
AcDbEntity
  8
Geo
100
AcDbLine
 10
-41.83030303030299
 20
11.0249101571343
 30
0.0
 11
-41.730303030303
 21
10.92902683366
 31
0.0
  0
LINE
  5
F1010D
330
261
100
AcDbEntity
  8
Geo
100
AcDbLine
 10
-41.730303030303
 20
10.92902683366
 30
0.0
 11
-41.630303030303
 21
10.8351018371006
 31
0.0
  0
LINE
  5
F1010F
330
261
100
AcDbEntity
  8
Geo
100
AcDbLine
 10
-41.630303030303
 20
10.8351018371006
 30
0.0
 11
-41.530303030303
 21
10.7432594430546
 31
0.0
  0
LINE
  5
F10111
330
261
100
AcDbEntity
  8
Geo
100
AcDbLine
 10
-41.530303030303
 20
10.7432594430546
 30
0.0
 11
-41.43030303030299
 21
10.6536211715529
 31
0.0
  0
LINE
  5
F10113
330
261
100
AcDbEntity
  8
Geo
100
AcDbLine
 10
-41.43030303030299
 20
10.6536211715529
 30
0.0
 11
-41.330303030303
 21
10.5663056262713
 31
0.0
  0
LINE
  5
F10115
330
261
100
AcDbEntity
  8
Geo
100
AcDbLine
 10
-41.330303030303
 20
10.5663056262713
 30
0.0
 11
-41.230303030303
 21
10.4814283376015
 31
0.0
  0
LINE
  5
F10117
330
261
100
AcDbEntity
  8
Geo
100
AcDbLine
 10
-41.230303030303
 20
10.4814283376015
 30
0.0
 11
-41.130303030303
 21
10.3991016097886
 31
0.0
  0
LINE
  5
F10119
330
261
100
AcDbEntity
  8
Geo
100
AcDbLine
 10
-41.130303030303
 20
10.3991016097886
 30
0.0
 11
-41.030303030303
 21
10.3194343723376
 31
0.0
  0
LINE
  5
F1011B
330
261
100
AcDbEntity
  8
Geo
100
AcDbLine
 10
-41.030303030303
 20
10.3194343723376
 30
0.0
 11
-40.930303030303
 21
10.2425320358844
 31
0.0
  0
LINE
  5
F1011D
330
261
100
AcDbEntity
  8
Geo
100
AcDbLine
 10
-40.930303030303
 20
10.2425320358844
 30
0.0
 11
-40.830303030303
 21
10.1684963527231
 31
0.0
  0
LINE
  5
F1011F
330
261
100
AcDbEntity
  8
Geo
100
AcDbLine
 10
-40.830303030303
 20
10.1684963527231
 30
0.0
 11
-40.73030303030299
 21
10.0974252821742
 31
0.0
  0
LINE
  5
F10121
330
261
100
AcDbEntity
  8
Geo
100
AcDbLine
 10
-40.73030303030299
 20
10.0974252821742
 30
0.0
 11
-40.630303030303
 21
10.0294128609708
 31
0.0
  0
LINE
  5
F10123
330
261
100
AcDbEntity
  8
Geo
100
AcDbLine
 10
-40.630303030303
 20
10.0294128609708
 30
0.0
 11
-40.530303030303
 21
9.964549078834988
 31
0.0
  0
LINE
  5
F10125
330
261
100
AcDbEntity
  8
Geo
100
AcDbLine
 10
-40.530303030303
 20
9.964549078834988
 30
0.0
 11
-40.430303030303
 21
9.902919759409499
 31
0.0
  0
LINE
  5
F10127
330
261
100
AcDbEntity
  8
Geo
100
AcDbLine
 10
-40.430303030303
 20
9.902919759409499
 30
0.0
 11
-40.330303030303
 21
9.84460644670109
 31
0.0
  0
LINE
  5
F10129
330
261
100
AcDbEntity
  8
Geo
100
AcDbLine
 10
-40.330303030303
 20
9.84460644670109
 30
0.0
 11
-40.23030303030298
 21
9.78968629718674
 31
0.0
  0
LINE
  5
F1012B
330
261
100
AcDbEntity
  8
Geo
100
AcDbLine
 10
-40.23030303030298
 20
9.78968629718674
 30
0.0
 11
-40.130303030303
 21
9.738231977725119
 31
0.0
  0
LINE
  5
F1012D
330
261
100
AcDbEntity
  8
Geo
100
AcDbLine
 10
-40.130303030303
 20
9.738231977725119
 30
0.0
 11
-40.030303030303
 21
9.690311569408359
 31
0.0
  0
LINE
  5
F1012F
330
261
100
AcDbEntity
  8
Geo
100
AcDbLine
 10
-40.030303030303
 20
9.690311569408359
 30
0.0
 11
-39.930303030303
 21
9.645988477481488
 31
0.0
  0
LINE
  5
F10131
330
261
100
AcDbEntity
  8
Geo
100
AcDbLine
 10
-39.930303030303
 20
9.645988477481488
 30
0.0
 11
-39.830303030303
 21
9.605321347448679
 31
0.0
  0
LINE
  5
F10133
330
261
100
AcDbEntity
  8
Geo
100
AcDbLine
 10
-39.830303030303
 20
9.605321347448679
 30
0.0
 11
-39.730303030303
 21
9.568363987477161
 31
0.0
  0
LINE
  5
F10135
330
261
100
AcDbEntity
  8
Geo
100
AcDbLine
 10
-39.730303030303
 20
9.568363987477161
 30
0.0
 11
-39.63030303030301
 21
9.535165297201697
 31
0.0
  0
LINE
  5
F10137
330
261
100
AcDbEntity
  8
Geo
100
AcDbLine
 10
-39.63030303030301
 20
9.535165297201697
 30
0.0
 11
-39.530303030303
 21
9.50576920302373
 31
0.0
  0
LINE
  5
F10139
330
261
100
AcDbEntity
  8
Geo
100
AcDbLine
 10
-39.530303030303
 20
9.50576920302373
 30
0.0
 11
-39.430303030303
 21
9.48021459999069
 31
0.0
  0
LINE
  5
F1013B
330
261
100
AcDbEntity
  8
Geo
100
AcDbLine
 10
-39.430303030303
 20
9.48021459999069
 30
0.0
 11
-39.330303030303
 21
9.45853530033256
 31
0.0
  0
LINE
  5
F1013D
330
261
100
AcDbEntity
  8
Geo
100
AcDbLine
 10
-39.330303030303
 20
9.45853530033256
 30
0.0
 11
-39.230303030303
 21
9.440759988723698
 31
0.0
  0
LINE
  5
F1013F
330
261
100
AcDbEntity
  8
Geo
100
AcDbLine
 10
-39.230303030303
 20
9.440759988723698
 30
0.0
 11
-39.130303030303
 21
9.42691218432906
 31
0.0
  0
LINE
  5
F10141
330
261
100
AcDbEntity
  8
Geo
100
AcDbLine
 10
-39.130303030303
 20
9.42691218432906
 30
0.0
 11
-39.030303030303
 21
9.41701020968515
 31
0.0
  0
LINE
  5
F10143
330
261
100
AcDbEntity
  8
Geo
100
AcDbLine
 10
-39.030303030303
 20
9.41701020968515
 30
0.0
 11
-38.930303030303
 21
9.411067166456819
 31
0.0
  0
LINE
  5
F10145
330
261
100
AcDbEntity
  8
Geo
100
AcDbLine
 10
-49.530303030303
 20
14.4459085084972
 30
0.0
 11
-49.430303030303
 21
14.4386144239127
 31
0.0
  0
LINE
  5
F10147
330
261
100
AcDbEntity
  8
Geo
100
AcDbLine
 10
-49.430303030303
 20
14.4386144239127
 30
0.0
 11
-49.33030303030299
 21
14.3709915065349
 31
0.0
  0
LINE
  5
F10149
330
261
100
AcDbEntity
  8
Geo
100
AcDbLine
 10
-49.33030303030299
 20
14.3709915065349
 30
0.0
 11
-49.230303030303
 21
14.2871517635288
 31
0.0
  0
LINE
  5
F1014B
330
261
100
AcDbEntity
  8
Geo
100
AcDbLine
 10
-49.230303030303
 20
14.2871517635288
 30
0.0
 11
-49.130303030303
 21
14.2008270895119
 31
0.0
  0
LINE
  5
F1014D
330
261
100
AcDbEntity
  8
Geo
100
AcDbLine
 10
-49.130303030303
 20
14.2008270895119
 30
0.0
 11
-49.030303030303
 21
14.1121317038178
 31
0.0
  0
LINE
  5
F1014F
330
261
100
AcDbEntity
  8
Geo
100
AcDbLine
 10
-49.030303030303
 20
14.1121317038178
 30
0.0
 11
-48.930303030303
 21
14.0211829625555
 31
0.0
  0
LINE
  5
F10151
330
261
100
AcDbEntity
  8
Geo
100
AcDbLine
 10
-48.930303030303
 20
14.0211829625555
 30
0.0
 11
-48.830303030303
 21
13.9281012033314
 31
0.0
  0
LINE
  5
F10153
330
261
100
AcDbEntity
  8
Geo
100
AcDbLine
 10
-48.830303030303
 20
13.9281012033314
 30
0.0
 11
-48.730303030303
 21
13.8330095860258
 31
0.0
  0
LINE
  5
F10155
330
261
100
AcDbEntity
  8
Geo
100
AcDbLine
 10
-48.730303030303
 20
13.8330095860258
 30
0.0
 11
-48.630303030303
 21
13.7360339298355
 31
0.0
  0
LINE
  5
F10157
330
261
100
AcDbEntity
  8
Geo
100
AcDbLine
 10
-48.630303030303
 20
13.7360339298355
 30
0.0
 11
-48.530303030303
 21
13.6373025467986
 31
0.0
  0
LINE
  5
F10159
330
261
100
AcDbEntity
  8
Geo
100
AcDbLine
 10
-48.530303030303
 20
13.6373025467986
 30
0.0
 11
-48.430303030303
 21
13.5369460720192
 31
0.0
  0
LINE
  5
F1015B
330
261
100
AcDbEntity
  8
Geo
100
AcDbLine
 10
-48.430303030303
 20
13.5369460720192
 30
0.0
 11
-48.330303030303
 21
13.4350972908198
 31
0.0
  0
LINE
  5
F1015D
330
261
100
AcDbEntity
  8
Geo
100
AcDbLine
 10
-48.330303030303
 20
13.4350972908198
 30
0.0
 11
-48.230303030303
 21
13.3318909630482
 31
0.0
  0
LINE
  5
F1015F
330
261
100
AcDbEntity
  8
Geo
100
AcDbLine
 10
-48.230303030303
 20
13.3318909630482
 30
0.0
 11
-48.130303030303
 21
13.2274636447717
 31
0.0
  0
LINE
  5
F10161
330
261
100
AcDbEntity
  8
Geo
100
AcDbLine
 10
-48.130303030303
 20
13.2274636447717
 30
0.0
 11
-48.030303030303
 21
13.1219535075948
 31
0.0
  0
LINE
  5
F10163
330
261
100
AcDbEntity
  8
Geo
100
AcDbLine
 10
-48.030303030303
 20
13.1219535075948
 30
0.0
 11
-47.930303030303
 21
13.0155001558392
 31
0.0
  0
LINE
  5
F10165
330
261
100
AcDbEntity
  8
Geo
100
AcDbLine
 10
-47.930303030303
 20
13.0155001558392
 30
0.0
 11
-47.830303030303
 21
12.9082444418284
 31
0.0
  0
LINE
  5
F10167
330
261
100
AcDbEntity
  8
Geo
100
AcDbLine
 10
-47.830303030303
 20
12.9082444418284
 30
0.0
 11
-47.73030303030298
 21
12.8003282795208
 31
0.0
  0
LINE
  5
F10169
330
261
100
AcDbEntity
  8
Geo
100
AcDbLine
 10
-47.73030303030298
 20
12.8003282795208
 30
0.0
 11
-47.630303030303
 21
12.691894456738
 31
0.0
  0
LINE
  5
F1016B
330
261
100
AcDbEntity
  8
Geo
100
AcDbLine
 10
-47.630303030303
 20
12.691894456738
 30
0.0
 11
-47.530303030303
 21
12.5830864462371
 31
0.0
  0
LINE
  5
F1016D
330
261
100
AcDbEntity
  8
Geo
100
AcDbLine
 10
-47.530303030303
 20
12.5830864462371
 30
0.0
 11
-47.430303030303
 21
12.4740482158767
 31
0.0
  0
LINE
  5
F1016F
330
261
100
AcDbEntity
  8
Geo
100
AcDbLine
 10
-47.430303030303
 20
12.4740482158767
 30
0.0
 11
-47.33030303030299
 21
12.3649240381278
 31
0.0
  0
LINE
  5
F10171
330
261
100
AcDbEntity
  8
Geo
100
AcDbLine
 10
-47.33030303030299
 20
12.3649240381278
 30
0.0
 11
-47.230303030303
 21
12.2558582991813
 31
0.0
  0
LINE
  5
F10173
330
261
100
AcDbEntity
  8
Geo
100
AcDbLine
 10
-47.230303030303
 20
12.2558582991813
 30
0.0
 11
-47.130303030303
 21
12.1469953079058
 31
0.0
  0
LINE
  5
F10175
330
261
100
AcDbEntity
  8
Geo
100
AcDbLine
 10
-47.130303030303
 20
12.1469953079058
 30
0.0
 11
-47.030303030303
 21
12.038479104907
 31
0.0
  0
LINE
  5
F10177
330
261
100
AcDbEntity
  8
Geo
100
AcDbLine
 10
-47.030303030303
 20
12.038479104907
 30
0.0
 11
-46.930303030303
 21
11.9304532719423
 31
0.0
  0
LINE
  5
F10179
330
261
100
AcDbEntity
  8
Geo
100
AcDbLine
 10
-46.930303030303
 20
11.9304532719423
 30
0.0
 11
-46.83030303030299
 21
11.8230607419426
 31
0.0
  0
LINE
  5
F1017B
330
261
100
AcDbEntity
  8
Geo
100
AcDbLine
 10
-46.83030303030299
 20
11.8230607419426
 30
0.0
 11
-46.730303030303
 21
11.7164436098924
 31
0.0
  0
LINE
  5
F1017D
330
261
100
AcDbEntity
  8
Geo
100
AcDbLine
 10
-46.730303030303
 20
11.7164436098924
 30
0.0
 11
-46.630303030303
 21
11.6107429448189
 31
0.0
  0
LINE
  5
F1017F
330
261
100
AcDbEntity
  8
Geo
100
AcDbLine
 10
-46.630303030303
 20
11.6107429448189
 30
0.0
 11
-46.530303030303
 21
11.5060986031384
 31
0.0
  0
LINE
  5
F10181
330
261
100
AcDbEntity
  8
Geo
100
AcDbLine
 10
-46.530303030303
 20
11.5060986031384
 30
0.0
 11
-46.43030303030299
 21
11.4026490436069
 31
0.0
  0
LINE
  5
F10183
330
261
100
AcDbEntity
  8
Geo
100
AcDbLine
 10
-46.43030303030299
 20
11.4026490436069
 30
0.0
 11
-46.330303030303
 21
11.3005311441205
 31
0.0
  0
LINE
  5
F10185
330
261
100
AcDbEntity
  8
Geo
100
AcDbLine
 10
-46.330303030303
 20
11.3005311441205
 30
0.0
 11
-46.230303030303
 21
11.1998800206073
 31
0.0
  0
LINE
  5
F10187
330
261
100
AcDbEntity
  8
Geo
100
AcDbLine
 10
-46.230303030303
 20
11.1998800206073
 30
0.0
 11
-46.130303030303
 21
11.1008288482502
 31
0.0
  0
LINE
  5
F10189
330
261
100
AcDbEntity
  8
Geo
100
AcDbLine
 10
-46.130303030303
 20
11.1008288482502
 30
0.0
 11
-46.030303030303
 21
11.0035086852786
 31
0.0
  0
LINE
  5
F1018B
330
261
100
AcDbEntity
  8
Geo
100
AcDbLine
 10
-46.030303030303
 20
11.0035086852786
 30
0.0
 11
-45.930303030303
 21
10.9080482995596
 31
0.0
  0
LINE
  5
F1018D
330
261
100
AcDbEntity
  8
Geo
100
AcDbLine
 10
-45.930303030303
 20
10.9080482995596
 30
0.0
 11
-45.830303030303
 21
10.8145739982214
 31
0.0
  0
LINE
  5
F1018F
330
261
100
AcDbEntity
  8
Geo
100
AcDbLine
 10
-45.830303030303
 20
10.8145739982214
 30
0.0
 11
-45.73030303030299
 21
10.723209460531
 31
0.0
  0
LINE
  5
F10191
330
261
100
AcDbEntity
  8
Geo
100
AcDbLine
 10
-45.73030303030299
 20
10.723209460531
 30
0.0
 11
-45.630303030303
 21
10.6340755742502
 31
0.0
  0
LINE
  5
F10193
330
261
100
AcDbEntity
  8
Geo
100
AcDbLine
 10
-45.630303030303
 20
10.6340755742502
 30
0.0
 11
-45.530303030303
 21
10.5472902756842
 31
0.0
  0
LINE
  5
F10195
330
261
100
AcDbEntity
  8
Geo
100
AcDbLine
 10
-45.530303030303
 20
10.5472902756842
 30
0.0
 11
-45.430303030303
 21
10.4629683936359
 31
0.0
  0
LINE
  5
F10197
330
261
100
AcDbEntity
  8
Geo
100
AcDbLine
 10
-45.430303030303
 20
10.4629683936359
 30
0.0
 11
-45.330303030303
 21
10.3812214974716
 31
0.0
  0
LINE
  5
F10199
330
261
100
AcDbEntity
  8
Geo
100
AcDbLine
 10
-45.330303030303
 20
10.3812214974716
 30
0.0
 11
-45.23030303030298
 21
10.3021577494998
 31
0.0
  0
LINE
  5
F1019B
330
261
100
AcDbEntity
  8
Geo
100
AcDbLine
 10
-45.23030303030298
 20
10.3021577494998
 30
0.0
 11
-45.130303030303
 21
10.2258817618574
 31
0.0
  0
LINE
  5
F1019D
330
261
100
AcDbEntity
  8
Geo
100
AcDbLine
 10
-45.130303030303
 20
10.2258817618574
 30
0.0
 11
-45.030303030303
 21
10.1524944580935
 31
0.0
  0
LINE
  5
F1019F
330
261
100
AcDbEntity
  8
Geo
100
AcDbLine
 10
-45.030303030303
 20
10.1524944580935
 30
0.0
 11
-44.930303030303
 21
10.0820929396341
 31
0.0
  0
LINE
  5
F101A1
330
261
100
AcDbEntity
  8
Geo
100
AcDbLine
 10
-44.930303030303
 20
10.0820929396341
 30
0.0
 11
-44.83030303030299
 21
10.0147703573034
 31
0.0
  0
LINE
  5
F101A3
330
261
100
AcDbEntity
  8
Geo
100
AcDbLine
 10
-44.83030303030299
 20
10.0147703573034
 30
0.0
 11
-44.730303030303
 21
9.95061578807244
 31
0.0
  0
LINE
  5
F101A5
330
261
100
AcDbEntity
  8
Geo
100
AcDbLine
 10
-44.730303030303
 20
9.95061578807244
 30
0.0
 11
-44.630303030303
 21
9.88971411719849
 31
0.0
  0
LINE
  5
F101A7
330
261
100
AcDbEntity
  8
Geo
100
AcDbLine
 10
-44.630303030303
 20
9.88971411719849
 30
0.0
 11
-44.530303030303
 21
9.832145925909859
 31
0.0
  0
LINE
  5
F101A9
330
261
100
AcDbEntity
  8
Geo
100
AcDbLine
 10
-44.530303030303
 20
9.832145925909859
 30
0.0
 11
-44.430303030303
 21
9.777987384786117
 31
0.0
  0
LINE
  5
F101AB
330
261
100
AcDbEntity
  8
Geo
100
AcDbLine
 10
-44.430303030303
 20
9.777987384786117
 30
0.0
 11
-44.33030303030299
 21
9.727310152974018
 31
0.0
  0
LINE
  5
F101AD
330
261
100
AcDbEntity
  8
Geo
100
AcDbLine
 10
-44.33030303030299
 20
9.727310152974018
 30
0.0
 11
-44.230303030303
 21
9.680181283372599
 31
0.0
  0
LINE
  5
F101AF
330
261
100
AcDbEntity
  8
Geo
100
AcDbLine
 10
-44.230303030303
 20
9.680181283372599
 30
0.0
 11
-44.130303030303
 21
9.636663133913069
 31
0.0
  0
LINE
  5
F101B1
330
261
100
AcDbEntity
  8
Geo
100
AcDbLine
 10
-44.130303030303
 20
9.636663133913069
 30
0.0
 11
-44.030303030303
 21
9.596813285050759
 31
0.0
  0
LINE
  5
F101B3
330
261
100
AcDbEntity
  8
Geo
100
AcDbLine
 10
-44.030303030303
 20
9.596813285050759
 30
0.0
 11
-43.93030303030299
 21
9.560684463578301
 31
0.0
  0
LINE
  5
F101B5
330
261
100
AcDbEntity
  8
Geo
100
AcDbLine
 10
-43.93030303030299
 20
9.560684463578301
 30
0.0
 11
-43.830303030303
 21
9.52832447286088
 31
0.0
  0
LINE
  5
F101B7
330
261
100
AcDbEntity
  8
Geo
100
AcDbLine
 10
-43.830303030303
 20
9.52832447286088
 30
0.0
 11
-43.730303030303
 21
9.499776129585839
 31
0.0
  0
LINE
  5
F101B9
330
261
100
AcDbEntity
  8
Geo
100
AcDbLine
 10
-43.730303030303
 20
9.499776129585839
 30
0.0
 11
-43.630303030303
 21
9.475077207110407
 31
0.0
  0
LINE
  5
F101BB
330
261
100
AcDbEntity
  8
Geo
100
AcDbLine
 10
-43.630303030303
 20
9.475077207110407
 30
0.0
 11
-43.530303030303
 21
9.45426038548233
 31
0.0
  0
LINE
  5
F101BD
330
261
100
AcDbEntity
  8
Geo
100
AcDbLine
 10
-43.530303030303
 20
9.45426038548233
 30
0.0
 11
-43.430303030303
 21
9.437353208199713
 31
0.0
  0
LINE
  5
F101BF
330
261
100
AcDbEntity
  8
Geo
100
AcDbLine
 10
-43.430303030303
 20
9.437353208199713
 30
0.0
 11
-43.330303030303
 21
9.424378045767239
 31
0.0
  0
LINE
  5
F101C1
330
261
100
AcDbEntity
  8
Geo
100
AcDbLine
 10
-43.330303030303
 20
9.424378045767239
 30
0.0
 11
-43.23030303030299
 21
9.41535206609692
 31
0.0
  0
LINE
  5
F101C3
330
261
100
AcDbEntity
  8
Geo
100
AcDbLine
 10
-43.23030303030299
 20
9.41535206609692
 30
0.0
 11
-43.130303030303
 21
9.410287211792619
 31
0.0
  0
LINE
  5
F101C5
330
261
100
AcDbEntity
  8
Geo
100
AcDbLine
 10
-49.530303030303
 20
13.0571057899908
 30
0.0
 11
-49.430303030303
 21
12.9824655696786
 31
0.0
  0
LINE
  5
F101C7
330
261
100
AcDbEntity
  8
Geo
100
AcDbLine
 10
-49.430303030303
 20
12.9824655696786
 30
0.0
 11
-49.33030303030299
 21
12.8878797342
 31
0.0
  0
LINE
  5
F101C9
330
261
100
AcDbEntity
  8
Geo
100
AcDbLine
 10
-49.33030303030299
 20
12.8878797342
 30
0.0
 11
-49.230303030303
 21
12.7889138083097
 31
0.0
  0
LINE
  5
F101CB
330
261
100
AcDbEntity
  8
Geo
100
AcDbLine
 10
-49.230303030303
 20
12.7889138083097
 30
0.0
 11
-49.130303030303
 21
12.6895258960508
 31
0.0
  0
LINE
  5
F101CD
330
261
100
AcDbEntity
  8
Geo
100
AcDbLine
 10
-49.130303030303
 20
12.6895258960508
 30
0.0
 11
-49.030303030303
 21
12.5898264182123
 31
0.0
  0
LINE
  5
F101CF
330
261
100
AcDbEntity
  8
Geo
100
AcDbLine
 10
-49.030303030303
 20
12.5898264182123
 30
0.0
 11
-48.930303030303
 21
12.4899261417349
 31
0.0
  0
LINE
  5
F101D1
330
261
100
AcDbEntity
  8
Geo
100
AcDbLine
 10
-48.930303030303
 20
12.4899261417349
 30
0.0
 11
-48.830303030303
 21
12.3899360566484
 31
0.0
  0
LINE
  5
F101D3
330
261
100
AcDbEntity
  8
Geo
100
AcDbLine
 10
-48.830303030303
 20
12.3899360566484
 30
0.0
 11
-48.730303030303
 21
12.2899672527607
 31
0.0
  0
LINE
  5
F101D5
330
261
100
AcDbEntity
  8
Geo
100
AcDbLine
 10
-48.730303030303
 20
12.2899672527607
 30
0.0
 11
-48.630303030303
 21
12.190130796236
 31
0.0
  0
LINE
  5
F101D7
330
261
100
AcDbEntity
  8
Geo
100
AcDbLine
 10
-48.630303030303
 20
12.190130796236
 30
0.0
 11
-48.530303030303
 21
12.0905376061998
 31
0.0
  0
LINE
  5
F101D9
330
261
100
AcDbEntity
  8
Geo
100
AcDbLine
 10
-48.530303030303
 20
12.0905376061998
 30
0.0
 11
-48.430303030303
 21
11.9912983315061
 31
0.0
  0
LINE
  5
F101DB
330
261
100
AcDbEntity
  8
Geo
100
AcDbLine
 10
-48.430303030303
 20
11.9912983315061
 30
0.0
 11
-48.330303030303
 21
11.8925232278063
 31
0.0
  0
LINE
  5
F101DD
330
261
100
AcDbEntity
  8
Geo
100
AcDbLine
 10
-48.330303030303
 20
11.8925232278063
 30
0.0
 11
-48.230303030303
 21
11.7943220350539
 31
0.0
  0
LINE
  5
F101DF
330
261
100
AcDbEntity
  8
Geo
100
AcDbLine
 10
-48.230303030303
 20
11.7943220350539
 30
0.0
 11
-48.130303030303
 21
11.6968038555828
 31
0.0
  0
LINE
  5
F101E1
330
261
100
AcDbEntity
  8
Geo
100
AcDbLine
 10
-48.130303030303
 20
11.6968038555828
 30
0.0
 11
-48.030303030303
 21
11.6000770328933
 31
0.0
  0
LINE
  5
F101E3
330
261
100
AcDbEntity
  8
Geo
100
AcDbLine
 10
-48.030303030303
 20
11.6000770328933
 30
0.0
 11
-47.930303030303
 21
11.5042490312819
 31
0.0
  0
LINE
  5
F101E5
330
261
100
AcDbEntity
  8
Geo
100
AcDbLine
 10
-47.930303030303
 20
11.5042490312819
 30
0.0
 11
-47.830303030303
 21
11.4094263164474
 31
0.0
  0
LINE
  5
F101E7
330
261
100
AcDbEntity
  8
Geo
100
AcDbLine
 10
-47.830303030303
 20
11.4094263164474
 30
0.0
 11
-47.73030303030298
 21
11.3157142372069
 31
0.0
  0
LINE
  5
F101E9
330
261
100
AcDbEntity
  8
Geo
100
AcDbLine
 10
-47.73030303030298
 20
11.3157142372069
 30
0.0
 11
-47.630303030303
 21
11.223216908452
 31
0.0
  0
LINE
  5
F101EB
330
261
100
AcDbEntity
  8
Geo
100
AcDbLine
 10
-47.630303030303
 20
11.223216908452
 30
0.0
 11
-47.530303030303
 21
11.1320370954766
 31
0.0
  0
LINE
  5
F101ED
330
261
100
AcDbEntity
  8
Geo
100
AcDbLine
 10
-47.530303030303
 20
11.1320370954766
 30
0.0
 11
-47.430303030303
 21
11.0422760998037
 31
0.0
  0
LINE
  5
F101EF
330
261
100
AcDbEntity
  8
Geo
100
AcDbLine
 10
-47.430303030303
 20
11.0422760998037
 30
0.0
 11
-47.33030303030299
 21
10.9540336466386
 31
0.0
  0
LINE
  5
F101F1
330
261
100
AcDbEntity
  8
Geo
100
AcDbLine
 10
-47.33030303030299
 20
10.9540336466386
 30
0.0
 11
-47.230303030303
 21
10.8674077740735
 31
0.0
  0
LINE
  5
F101F3
330
261
100
AcDbEntity
  8
Geo
100
AcDbLine
 10
-47.230303030303
 20
10.8674077740735
 30
0.0
 11
-47.130303030303
 21
10.7824947241659
 31
0.0
  0
LINE
  5
F101F5
330
261
100
AcDbEntity
  8
Geo
100
AcDbLine
 10
-47.130303030303
 20
10.7824947241659
 30
0.0
 11
-47.030303030303
 21
10.6993888360137
 31
0.0
  0
LINE
  5
F101F7
330
261
100
AcDbEntity
  8
Geo
100
AcDbLine
 10
-47.030303030303
 20
10.6993888360137
 30
0.0
 11
-46.930303030303
 21
10.6181824409428
 31
0.0
  0
LINE
  5
F101F9
330
261
100
AcDbEntity
  8
Geo
100
AcDbLine
 10
-46.930303030303
 20
10.6181824409428
 30
0.0
 11
-46.83030303030299
 21
10.5389657599268
 31
0.0
  0
LINE
  5
F101FB
330
261
100
AcDbEntity
  8
Geo
100
AcDbLine
 10
-46.83030303030299
 20
10.5389657599268
 30
0.0
 11
-46.730303030303
 21
10.4618268033506
 31
0.0
  0
LINE
  5
F101FD
330
261
100
AcDbEntity
  8
Geo
100
AcDbLine
 10
-46.730303030303
 20
10.4618268033506
 30
0.0
 11
-46.630303030303
 21
10.3868512732302
 31
0.0
  0
LINE
  5
F101FF
330
261
100
AcDbEntity
  8
Geo
100
AcDbLine
 10
-46.630303030303
 20
10.3868512732302
 30
0.0
 11
-46.530303030303
 21
10.3141224679969
 31
0.0
  0
LINE
  5
F10201
330
261
100
AcDbEntity
  8
Geo
100
AcDbLine
 10
-46.530303030303
 20
10.3141224679969
 30
0.0
 11
-46.43030303030299
 21
10.2437211899521
 31
0.0
  0
LINE
  5
F10203
330
261
100
AcDbEntity
  8
Geo
100
AcDbLine
 10
-46.43030303030299
 20
10.2437211899521
 30
0.0
 11
-46.330303030303
 21
10.1757256554956
 31
0.0
  0
LINE
  5
F10205
330
261
100
AcDbEntity
  8
Geo
100
AcDbLine
 10
-46.330303030303
 20
10.1757256554956
 30
0.0
 11
-46.230303030303
 21
10.1102114082259
 31
0.0
  0
LINE
  5
F10207
330
261
100
AcDbEntity
  8
Geo
100
AcDbLine
 10
-46.230303030303
 20
10.1102114082259
 30
0.0
 11
-46.130303030303
 21
10.0472512350112
 31
0.0
  0
LINE
  5
F10209
330
261
100
AcDbEntity
  8
Geo
100
AcDbLine
 10
-46.130303030303
 20
10.0472512350112
 30
0.0
 11
-46.030303030303
 21
9.986915085122481
 31
0.0
  0
LINE
  5
F1020B
330
261
100
AcDbEntity
  8
Geo
100
AcDbLine
 10
-46.030303030303
 20
9.986915085122481
 30
0.0
 11
-45.930303030303
 21
9.929269992518999
 31
0.0
  0
LINE
  5
F1020D
330
261
100
AcDbEntity
  8
Geo
100
AcDbLine
 10
-45.930303030303
 20
9.929269992518999
 30
0.0
 11
-45.830303030303
 21
9.874380001373321
 31
0.0
  0
LINE
  5
F1020F
330
261
100
AcDbEntity
  8
Geo
100
AcDbLine
 10
-45.830303030303
 20
9.874380001373321
 30
0.0
 11
-45.73030303030299
 21
9.822306094917607
 31
0.0
  0
LINE
  5
F10211
330
261
100
AcDbEntity
  8
Geo
100
AcDbLine
 10
-45.73030303030299
 20
9.822306094917607
 30
0.0
 11
-45.630303030303
 21
9.773106127690699
 31
0.0
  0
LINE
  5
F10213
330
261
100
AcDbEntity
  8
Geo
100
AcDbLine
 10
-45.630303030303
 20
9.773106127690699
 30
0.0
 11
-45.530303030303
 21
9.72683476126132
 31
0.0
  0
LINE
  5
F10215
330
261
100
AcDbEntity
  8
Geo
100
AcDbLine
 10
-45.530303030303
 20
9.72683476126132
 30
0.0
 11
-45.430303030303
 21
9.68354340349858
 31
0.0
  0
LINE
  5
F10217
330
261
100
AcDbEntity
  8
Geo
100
AcDbLine
 10
-45.430303030303
 20
9.68354340349858
 30
0.0
 11
-45.330303030303
 21
9.64328015145743
 31
0.0
  0
LINE
  5
F10219
330
261
100
AcDbEntity
  8
Geo
100
AcDbLine
 10
-45.330303030303
 20
9.64328015145743
 30
0.0
 11
-45.23030303030298
 21
9.60608973794242
 31
0.0
  0
LINE
  5
F1021B
330
261
100
AcDbEntity
  8
Geo
100
AcDbLine
 10
-45.23030303030298
 20
9.60608973794242
 30
0.0
 11
-45.130303030303
 21
9.572013481809213
 31
0.0
  0
LINE
  5
F1021D
330
261
100
AcDbEntity
  8
Geo
100
AcDbLine
 10
-45.130303030303
 20
9.572013481809213
 30
0.0
 11
-45.030303030303
 21
9.54108924205895
 31
0.0
  0
LINE
  5
F1021F
330
261
100
AcDbEntity
  8
Geo
100
AcDbLine
 10
-45.030303030303
 20
9.54108924205895
 30
0.0
 11
-44.930303030303
 21
9.51335137577664
 31
0.0
  0
LINE
  5
F10221
330
261
100
AcDbEntity
  8
Geo
100
AcDbLine
 10
-44.930303030303
 20
9.51335137577664
 30
0.0
 11
-44.83030303030299
 21
9.48883069996012
 31
0.0
  0
LINE
  5
F10223
330
261
100
AcDbEntity
  8
Geo
100
AcDbLine
 10
-44.83030303030299
 20
9.48883069996012
 30
0.0
 11
-44.730303030303
 21
9.46755445728214
 31
0.0
  0
LINE
  5
F10225
330
261
100
AcDbEntity
  8
Geo
100
AcDbLine
 10
-44.730303030303
 20
9.46755445728214
 30
0.0
 11
-44.630303030303
 21
9.44954628582351
 31
0.0
  0
LINE
  5
F10227
330
261
100
AcDbEntity
  8
Geo
100
AcDbLine
 10
-44.630303030303
 20
9.44954628582351
 30
0.0
 11
-44.530303030303
 21
9.434826192810991
 31
0.0
  0
LINE
  5
F10229
330
261
100
AcDbEntity
  8
Geo
100
AcDbLine
 10
-44.530303030303
 20
9.434826192810991
 30
0.0
 11
-44.430303030303
 21
9.423410532389139
 31
0.0
  0
LINE
  5
F1022B
330
261
100
AcDbEntity
  8
Geo
100
AcDbLine
 10
-44.430303030303
 20
9.423410532389139
 30
0.0
 11
-44.33030303030299
 21
9.41531198745068
 31
0.0
  0
LINE
  5
F1022D
330
261
100
AcDbEntity
  8
Geo
100
AcDbLine
 10
-44.33030303030299
 20
9.41531198745068
 30
0.0
 11
-44.230303030303
 21
9.41053955554573
 31
0.0
  0
LINE
  5
F1022F
330
261
100
AcDbEntity
  8
Geo
100
AcDbLine
 10
-35.030303030303
 20
15.409090909091
 30
0.0
 11
-34.930303030303
 21
15.4090693686439
 31
0.0
  0
LINE
  5
F10231
330
261
100
AcDbEntity
  8
Geo
100
AcDbLine
 10
-34.930303030303
 20
15.4090693686439
 30
0.0
 11
-34.830303030303
 21
15.4053617261537
 31
0.0
  0
LINE
  5
F10233
330
261
100
AcDbEntity
  8
Geo
100
AcDbLine
 10
-34.830303030303
 20
15.4053617261537
 30
0.0
 11
-34.730303030303
 21
15.3952939416089
 31
0.0
  0
LINE
  5
F10235
330
261
100
AcDbEntity
  8
Geo
100
AcDbLine
 10
-34.730303030303
 20
15.3952939416089
 30
0.0
 11
-34.63030303030301
 21
15.3788873857545
 31
0.0
  0
LINE
  5
F10237
330
261
100
AcDbEntity
  8
Geo
100
AcDbLine
 10
-34.63030303030301
 20
15.3788873857545
 30
0.0
 11
-34.530303030303
 21
15.3561768845567
 31
0.0
  0
LINE
  5
F10239
330
261
100
AcDbEntity
  8
Geo
100
AcDbLine
 10
-34.530303030303
 20
15.3561768845567
 30
0.0
 11
-34.430303030303
 21
15.327210645278
 31
0.0
  0
LINE
  5
F1023B
330
261
100
AcDbEntity
  8
Geo
100
AcDbLine
 10
-34.430303030303
 20
15.327210645278
 30
0.0
 11
-34.330303030303
 21
15.2920501541483
 31
0.0
  0
LINE
  5
F1023D
330
261
100
AcDbEntity
  8
Geo
100
AcDbLine
 10
-34.330303030303
 20
15.2920501541483
 30
0.0
 11
-34.230303030303
 21
15.2507700458491
 31
0.0
  0
LINE
  5
F1023F
330
261
100
AcDbEntity
  8
Geo
100
AcDbLine
 10
-34.230303030303
 20
15.2507700458491
 30
0.0
 11
-34.130303030303
 21
15.2034579450877
 31
0.0
  0
LINE
  5
F10241
330
261
100
AcDbEntity
  8
Geo
100
AcDbLine
 10
-34.130303030303
 20
15.2034579450877
 30
0.0
 11
-34.03030303030301
 21
15.150214280597
 31
0.0
  0
LINE
  5
F10243
330
261
100
AcDbEntity
  8
Geo
100
AcDbLine
 10
-34.03030303030301
 20
15.150214280597
 30
0.0
 11
-33.930303030303
 21
15.091152071957
 31
0.0
  0
LINE
  5
F10245
330
261
100
AcDbEntity
  8
Geo
100
AcDbLine
 10
-33.930303030303
 20
15.091152071957
 30
0.0
 11
-33.830303030303
 21
15.0263966896901
 31
0.0
  0
LINE
  5
F10247
330
261
100
AcDbEntity
  8
Geo
100
AcDbLine
 10
-33.830303030303
 20
15.0263966896901
 30
0.0
 11
-33.730303030303
 21
14.9560855891382
 31
0.0
  0
LINE
  5
F10249
330
261
100
AcDbEntity
  8
Geo
100
AcDbLine
 10
-33.730303030303
 20
14.9560855891382
 30
0.0
 11
-33.63030303030301
 21
14.8803680186887
 31
0.0
  0
LINE
  5
F1024B
330
261
100
AcDbEntity
  8
Geo
100
AcDbLine
 10
-33.63030303030301
 20
14.8803680186887
 30
0.0
 11
-33.530303030303
 21
14.7994047029668
 31
0.0
  0
LINE
  5
F1024D
330
261
100
AcDbEntity
  8
Geo
100
AcDbLine
 10
-33.530303030303
 20
14.7994047029668
 30
0.0
 11
-33.430303030303
 21
14.5981536720388
 31
0.0
  0
LINE
  5
F1024F
330
261
100
AcDbEntity
  8
Geo
100
AcDbLine
 10
-33.430303030303
 20
14.5981536720388
 30
0.0
 11
-33.330303030303
 21
14.5117716379691
 31
0.0
  0
LINE
  5
F10251
330
261
100
AcDbEntity
  8
Geo
100
AcDbLine
 10
-33.330303030303
 20
14.5117716379691
 30
0.0
 11
-33.230303030303
 21
14.4209262729965
 31
0.0
  0
LINE
  5
F10253
330
261
100
AcDbEntity
  8
Geo
100
AcDbLine
 10
-33.230303030303
 20
14.4209262729965
 30
0.0
 11
-33.13030303030301
 21
14.3258104133036
 31
0.0
  0
LINE
  5
F10255
330
261
100
AcDbEntity
  8
Geo
100
AcDbLine
 10
-33.13030303030301
 20
14.3258104133036
 30
0.0
 11
-33.030303030303
 21
14.2266259599922
 31
0.0
  0
LINE
  5
F10257
330
261
100
AcDbEntity
  8
Geo
100
AcDbLine
 10
-33.030303030303
 20
14.2266259599922
 30
0.0
 11
-32.930303030303
 21
14.1235834505107
 31
0.0
  0
LINE
  5
F10259
330
261
100
AcDbEntity
  8
Geo
100
AcDbLine
 10
-32.930303030303
 20
14.1235834505107
 30
0.0
 11
-32.830303030303
 21
14.0169016117493
 31
0.0
  0
LINE
  5
F1025B
330
261
100
AcDbEntity
  8
Geo
100
AcDbLine
 10
-32.830303030303
 20
14.0169016117493
 30
0.0
 11
-32.730303030303
 21
13.9068068957514
 31
0.0
  0
LINE
  5
F1025D
330
261
100
AcDbEntity
  8
Geo
100
AcDbLine
 10
-32.730303030303
 20
13.9068068957514
 30
0.0
 11
-32.630303030303
 21
13.7935329990271
 31
0.0
  0
LINE
  5
F1025F
330
261
100
AcDbEntity
  8
Geo
100
AcDbLine
 10
-32.630303030303
 20
13.7935329990271
 30
0.0
 11
-32.530303030303
 21
13.6773203664888
 31
0.0
  0
LINE
  5
F10261
330
261
100
AcDbEntity
  8
Geo
100
AcDbLine
 10
-49.530303030303
 20
9.62726593041922
 30
0.0
 11
-49.430303030303
 21
9.50656383196873
 31
0.0
  0
LINE
  5
F10263
330
261
100
AcDbEntity
  8
Geo
100
AcDbLine
 10
-49.430303030303
 20
9.50656383196873
 30
0.0
 11
-49.33030303030299
 21
9.46605738661066
 31
0.0
  0
LINE
  5
F10265
330
261
100
AcDbEntity
  8
Geo
100
AcDbLine
 10
-49.33030303030299
 20
9.46605738661066
 30
0.0
 11
-49.230303030303
 21
9.448300723227239
 31
0.0
  0
LINE
  5
F10267
330
261
100
AcDbEntity
  8
Geo
100
AcDbLine
 10
-49.230303030303
 20
9.448300723227239
 30
0.0
 11
-49.130303030303
 21
9.43383352212025
 31
0.0
  0
LINE
  5
F10269
330
261
100
AcDbEntity
  8
Geo
100
AcDbLine
 10
-49.130303030303
 20
9.43383352212025
 30
0.0
 11
-49.030303030303
 21
9.42267185646923
 31
0.0
  0
LINE
  5
F1026B
330
261
100
AcDbEntity
  8
Geo
100
AcDbLine
 10
-49.030303030303
 20
9.42267185646923
 30
0.0
 11
-48.930303030303
 21
9.41482812697664
 31
0.0
  0
LINE
  5
F1026D
330
261
100
AcDbEntity
  8
Geo
100
AcDbLine
 10
-48.930303030303
 20
9.41482812697664
 30
0.0
 11
-48.830303030303
 21
9.41031104809052
 31
0.0
  0
LINE
  5
F1026F
330
261
100
AcDbEntity
  8
Geo
100
AcDbLine
 10
-39.330303030303
 20
15.40907308042
 30
0.0
 11
-39.230303030303
 21
15.4077512712257
 31
0.0
  0
LINE
  5
F10271
330
261
100
AcDbEntity
  8
Geo
100
AcDbLine
 10
-39.230303030303
 20
15.4077512712257
 30
0.0
 11
-39.130303030303
 21
15.4030979256773
 31
0.0
  0
LINE
  5
F10273
330
261
100
AcDbEntity
  8
Geo
100
AcDbLine
 10
-39.130303030303
 20
15.4030979256773
 30
0.0
 11
-39.030303030303
 21
15.39511821368
 31
0.0
  0
LINE
  5
F10275
330
261
100
AcDbEntity
  8
Geo
100
AcDbLine
 10
-39.030303030303
 20
15.39511821368
 30
0.0
 11
-38.930303030303
 21
15.3838210007596
 31
0.0
  0
LINE
  5
F10277
330
261
100
AcDbEntity
  8
Geo
100
AcDbLine
 10
-38.930303030303
 20
15.3838210007596
 30
0.0
 11
-38.830303030303
 21
15.3692188382126
 31
0.0
  0
LINE
  5
F10279
330
261
100
AcDbEntity
  8
Geo
100
AcDbLine
 10
-38.830303030303
 20
15.3692188382126
 30
0.0
 11
-38.730303030303
 21
15.3513279491619
 31
0.0
  0
LINE
  5
F1027B
330
261
100
AcDbEntity
  8
Geo
100
AcDbLine
 10
-38.730303030303
 20
15.3513279491619
 30
0.0
 11
-38.63030303030301
 21
15.3301682105325
 31
0.0
  0
LINE
  5
F1027D
330
261
100
AcDbEntity
  8
Geo
100
AcDbLine
 10
-38.63030303030301
 20
15.3301682105325
 30
0.0
 11
-38.530303030303
 21
15.3057631309684
 31
0.0
  0
LINE
  5
F1027F
330
261
100
AcDbEntity
  8
Geo
100
AcDbLine
 10
-38.530303030303
 20
15.3057631309684
 30
0.0
 11
-38.430303030303
 21
15.2781398247137
 31
0.0
  0
LINE
  5
F10281
330
261
100
AcDbEntity
  8
Geo
100
AcDbLine
 10
-38.430303030303
 20
15.2781398247137
 30
0.0
 11
-38.330303030303
 21
15.2473289814893
 31
0.0
  0
LINE
  5
F10283
330
261
100
AcDbEntity
  8
Geo
100
AcDbLine
 10
-38.330303030303
 20
15.2473289814893
 30
0.0
 11
-38.230303030303
 21
15.2133648323956
 31
0.0
  0
LINE
  5
F10285
330
261
100
AcDbEntity
  8
Geo
100
AcDbLine
 10
-38.230303030303
 20
15.2133648323956
 30
0.0
 11
-38.13030303030301
 21
15.1762851118821
 31
0.0
  0
LINE
  5
F10287
330
261
100
AcDbEntity
  8
Geo
100
AcDbLine
 10
-38.13030303030301
 20
15.1762851118821
 30
0.0
 11
-38.030303030303
 21
15.1361310158234
 31
0.0
  0
LINE
  5
F10289
330
261
100
AcDbEntity
  8
Geo
100
AcDbLine
 10
-38.030303030303
 20
15.1361310158234
 30
0.0
 11
-37.930303030303
 21
15.092947155751
 31
0.0
  0
LINE
  5
F1028B
330
261
100
AcDbEntity
  8
Geo
100
AcDbLine
 10
-37.930303030303
 20
15.092947155751
 30
0.0
 11
-37.830303030303
 21
15.046781509289
 31
0.0
  0
LINE
  5
F1028D
330
261
100
AcDbEntity
  8
Geo
100
AcDbLine
 10
-37.830303030303
 20
15.046781509289
 30
0.0
 11
-37.730303030303
 21
14.9976853668507
 31
0.0
  0
LINE
  5
F1028F
330
261
100
AcDbEntity
  8
Geo
100
AcDbLine
 10
-37.730303030303
 20
14.9976853668507
 30
0.0
 11
-37.630303030303
 21
14.9457132746546
 31
0.0
  0
LINE
  5
F10291
330
261
100
AcDbEntity
  8
Geo
100
AcDbLine
 10
-37.630303030303
 20
14.9457132746546
 30
0.0
 11
-37.530303030303
 21
14.8909229741232
 31
0.0
  0
LINE
  5
F10293
330
261
100
AcDbEntity
  8
Geo
100
AcDbLine
 10
-37.530303030303
 20
14.8909229741232
 30
0.0
 11
-37.430303030303
 21
14.8333753377315
 31
0.0
  0
LINE
  5
F10295
330
261
100
AcDbEntity
  8
Geo
100
AcDbLine
 10
-37.430303030303
 20
14.8333753377315
 30
0.0
 11
-37.330303030303
 21
14.7731343013774
 31
0.0
  0
LINE
  5
F10297
330
261
100
AcDbEntity
  8
Geo
100
AcDbLine
 10
-37.330303030303
 20
14.7731343013774
 30
0.0
 11
-37.230303030303
 21
14.7102667933483
 31
0.0
  0
LINE
  5
F10299
330
261
100
AcDbEntity
  8
Geo
100
AcDbLine
 10
-37.230303030303
 20
14.7102667933483
 30
0.0
 11
-37.13030303030301
 21
14.6448426599633
 31
0.0
  0
LINE
  5
F1029B
330
261
100
AcDbEntity
  8
Geo
100
AcDbLine
 10
-37.13030303030301
 20
14.6448426599633
 30
0.0
 11
-37.030303030303
 21
14.5769345879734
 31
0.0
  0
LINE
  5
F1029D
330
261
100
AcDbEntity
  8
Geo
100
AcDbLine
 10
-37.030303030303
 20
14.5769345879734
 30
0.0
 11
-36.930303030303
 21
14.5066180238055
 31
0.0
  0
LINE
  5
F1029F
330
261
100
AcDbEntity
  8
Geo
100
AcDbLine
 10
-36.930303030303
 20
14.5066180238055
 30
0.0
 11
-36.830303030303
 21
14.4339710897417
 31
0.0
  0
LINE
  5
F102A1
330
261
100
AcDbEntity
  8
Geo
100
AcDbLine
 10
-36.830303030303
 20
14.4339710897417
 30
0.0
 11
-36.730303030303
 21
14.3590744971237
 31
0.0
  0
LINE
  5
F102A3
330
261
100
AcDbEntity
  8
Geo
100
AcDbLine
 10
-36.730303030303
 20
14.3590744971237
 30
0.0
 11
-36.630303030303
 21
14.2820114566828
 31
0.0
  0
LINE
  5
F102A5
330
261
100
AcDbEntity
  8
Geo
100
AcDbLine
 10
-36.630303030303
 20
14.2820114566828
 30
0.0
 11
-36.53030303030301
 21
14.2028675860914
 31
0.0
  0
LINE
  5
F102A7
330
261
100
AcDbEntity
  8
Geo
100
AcDbLine
 10
-36.53030303030301
 20
14.2028675860914
 30
0.0
 11
-36.430303030303
 21
14.1217308148414
 31
0.0
  0
LINE
  5
F102A9
330
261
100
AcDbEntity
  8
Geo
100
AcDbLine
 10
-36.430303030303
 20
14.1217308148414
 30
0.0
 11
-36.330303030303
 21
14.0386912865538
 31
0.0
  0
LINE
  5
F102AB
330
261
100
AcDbEntity
  8
Geo
100
AcDbLine
 10
-36.330303030303
 20
14.0386912865538
 30
0.0
 11
-36.230303030303
 21
13.9538412588282
 31
0.0
  0
LINE
  5
F102AD
330
261
100
AcDbEntity
  8
Geo
100
AcDbLine
 10
-36.230303030303
 20
13.9538412588282
 30
0.0
 11
-36.13030303030301
 21
13.8672750007442
 31
0.0
  0
LINE
  5
F102AF
330
261
100
AcDbEntity
  8
Geo
100
AcDbLine
 10
-36.13030303030301
 20
13.8672750007442
 30
0.0
 11
-36.030303030303
 21
13.7790886881274
 31
0.0
  0
LINE
  5
F102B1
330
261
100
AcDbEntity
  8
Geo
100
AcDbLine
 10
-36.030303030303
 20
13.7790886881274
 30
0.0
 11
-35.930303030303
 21
13.6893802966971
 31
0.0
  0
LINE
  5
F102B3
330
261
100
AcDbEntity
  8
Geo
100
AcDbLine
 10
-35.930303030303
 20
13.6893802966971
 30
0.0
 11
-35.830303030303
 21
13.5982494932149
 31
0.0
  0
LINE
  5
F102B5
330
261
100
AcDbEntity
  8
Geo
100
AcDbLine
 10
-35.830303030303
 20
13.5982494932149
 30
0.0
 11
-35.730303030303
 21
13.5057975247539
 31
0.0
  0
LINE
  5
F102B7
330
261
100
AcDbEntity
  8
Geo
100
AcDbLine
 10
-35.730303030303
 20
13.5057975247539
 30
0.0
 11
-35.63030303030301
 21
13.4121271062123
 31
0.0
  0
LINE
  5
F102B9
330
261
100
AcDbEntity
  8
Geo
100
AcDbLine
 10
-35.63030303030301
 20
13.4121271062123
 30
0.0
 11
-35.530303030303
 21
13.3173423061965
 31
0.0
  0
LINE
  5
F102BB
330
261
100
AcDbEntity
  8
Geo
100
AcDbLine
 10
-35.530303030303
 20
13.3173423061965
 30
0.0
 11
-35.430303030303
 21
13.3319684415444
 31
0.0
  0
LINE
  5
F102BD
330
261
100
AcDbEntity
  8
Geo
100
AcDbLine
 10
-35.430303030303
 20
13.3319684415444
 30
0.0
 11
-35.330303030303
 21
13.3465703877375
 31
0.0
  0
LINE
  5
F102BF
330
261
100
AcDbEntity
  8
Geo
100
AcDbLine
 10
-35.330303030303
 20
13.3465703877375
 30
0.0
 11
-35.230303030303
 21
13.3611477620502
 31
0.0
  0
LINE
  5
F102C1
330
261
100
AcDbEntity
  8
Geo
100
AcDbLine
 10
-35.230303030303
 20
13.3611477620502
 30
0.0
 11
-35.130303030303
 21
13.3757001824012
 31
0.0
  0
LINE
  5
F102C3
330
261
100
AcDbEntity
  8
Geo
100
AcDbLine
 10
-35.130303030303
 20
13.3757001824012
 30
0.0
 11
-35.030303030303
 21
13.3902272673631
 31
0.0
  0
LINE
  5
F102C5
330
261
100
AcDbEntity
  8
Geo
100
AcDbLine
 10
-35.030303030303
 20
13.3902272673631
 30
0.0
 11
-34.930303030303
 21
13.4047286361726
 31
0.0
  0
LINE
  5
F102C7
330
261
100
AcDbEntity
  8
Geo
100
AcDbLine
 10
-34.930303030303
 20
13.4047286361726
 30
0.0
 11
-34.830303030303
 21
13.4192039087404
 31
0.0
  0
LINE
  5
F102C9
330
261
100
AcDbEntity
  8
Geo
100
AcDbLine
 10
-34.830303030303
 20
13.4192039087404
 30
0.0
 11
-34.730303030303
 21
13.4336527056611
 31
0.0
  0
LINE
  5
F102CB
330
261
100
AcDbEntity
  8
Geo
100
AcDbLine
 10
-34.730303030303
 20
13.4336527056611
 30
0.0
 11
-34.63030303030301
 21
13.4480746482236
 31
0.0
  0
LINE
  5
F102CD
330
261
100
AcDbEntity
  8
Geo
100
AcDbLine
 10
-34.63030303030301
 20
13.4480746482236
 30
0.0
 11
-34.530303030303
 21
13.4624693584203
 31
0.0
  0
LINE
  5
F102CF
330
261
100
AcDbEntity
  8
Geo
100
AcDbLine
 10
-34.530303030303
 20
13.4624693584203
 30
0.0
 11
-34.430303030303
 21
13.4768364589574
 31
0.0
  0
LINE
  5
F102D1
330
261
100
AcDbEntity
  8
Geo
100
AcDbLine
 10
-34.430303030303
 20
13.4768364589574
 30
0.0
 11
-34.330303030303
 21
13.4911755732651
 31
0.0
  0
LINE
  5
F102D3
330
261
100
AcDbEntity
  8
Geo
100
AcDbLine
 10
-34.330303030303
 20
13.4911755732651
 30
0.0
 11
-34.230303030303
 21
13.5054863255068
 31
0.0
  0
LINE
  5
F102D5
330
261
100
AcDbEntity
  8
Geo
100
AcDbLine
 10
-34.230303030303
 20
13.5054863255068
 30
0.0
 11
-34.130303030303
 21
13.5197683405893
 31
0.0
  0
LINE
  5
F102D7
330
261
100
AcDbEntity
  8
Geo
100
AcDbLine
 10
-34.130303030303
 20
13.5197683405893
 30
0.0
 11
-34.03030303030301
 21
13.5340212441728
 31
0.0
  0
LINE
  5
F102D9
330
261
100
AcDbEntity
  8
Geo
100
AcDbLine
 10
-34.03030303030301
 20
13.5340212441728
 30
0.0
 11
-33.930303030303
 21
13.5482446626805
 31
0.0
  0
LINE
  5
F102DB
330
261
100
AcDbEntity
  8
Geo
100
AcDbLine
 10
-33.930303030303
 20
13.5482446626805
 30
0.0
 11
-33.830303030303
 21
13.5624382233082
 31
0.0
  0
LINE
  5
F102DD
330
261
100
AcDbEntity
  8
Geo
100
AcDbLine
 10
-33.830303030303
 20
13.5624382233082
 30
0.0
 11
-33.730303030303
 21
13.5766015540346
 31
0.0
  0
LINE
  5
F102DF
330
261
100
AcDbEntity
  8
Geo
100
AcDbLine
 10
-33.730303030303
 20
13.5766015540346
 30
0.0
 11
-33.63030303030301
 21
13.5907342836305
 31
0.0
  0
LINE
  5
F102E1
330
261
100
AcDbEntity
  8
Geo
100
AcDbLine
 10
-33.63030303030301
 20
13.5907342836305
 30
0.0
 11
-33.530303030303
 21
13.6048360416689
 31
0.0
  0
LINE
  5
F102E3
330
261
100
AcDbEntity
  8
Geo
100
AcDbLine
 10
-33.530303030303
 20
13.6048360416689
 30
0.0
 11
-33.430303030303
 21
13.5584156810624
 31
0.0
  0
LINE
  5
F102E5
330
261
100
AcDbEntity
  8
Geo
100
AcDbLine
 10
-33.430303030303
 20
13.5584156810624
 30
0.0
 11
-33.330303030303
 21
13.5717524526166
 31
0.0
  0
LINE
  5
F102E7
330
261
100
AcDbEntity
  8
Geo
100
AcDbLine
 10
-33.330303030303
 20
13.5717524526166
 30
0.0
 11
-33.230303030303
 21
13.5850587501381
 31
0.0
  0
LINE
  5
F102E9
330
261
100
AcDbEntity
  8
Geo
100
AcDbLine
 10
-33.230303030303
 20
13.5850587501381
 30
0.0
 11
-33.13030303030301
 21
13.5983342248611
 31
0.0
  0
LINE
  5
F102EB
330
261
100
AcDbEntity
  8
Geo
100
AcDbLine
 10
-33.13030303030301
 20
13.5983342248611
 30
0.0
 11
-33.030303030303
 21
13.6115785288277
 31
0.0
  0
LINE
  5
F102ED
330
261
100
AcDbEntity
  8
Geo
100
AcDbLine
 10
-33.030303030303
 20
13.6115785288277
 30
0.0
 11
-32.930303030303
 21
13.6247913148971
 31
0.0
  0
LINE
  5
F102EF
330
261
100
AcDbEntity
  8
Geo
100
AcDbLine
 10
-32.930303030303
 20
13.6247913148971
 30
0.0
 11
-32.830303030303
 21
13.6379722367545
 31
0.0
  0
LINE
  5
F102F1
330
261
100
AcDbEntity
  8
Geo
100
AcDbLine
 10
-32.830303030303
 20
13.6379722367545
 30
0.0
 11
-32.730303030303
 21
13.6511209489203
 31
0.0
  0
LINE
  5
F102F3
330
261
100
AcDbEntity
  8
Geo
100
AcDbLine
 10
-32.730303030303
 20
13.6511209489203
 30
0.0
 11
-32.630303030303
 21
13.6642371067591
 31
0.0
  0
LINE
  5
F102F5
330
261
100
AcDbEntity
  8
Geo
100
AcDbLine
 10
-32.630303030303
 20
13.6642371067591
 30
0.0
 11
-32.530303030303
 21
13.6773203664888
 31
0.0
  0
LINE
  5
F102F7
330
261
100
AcDbEntity
  8
Geo
100
AcDbLine
 10
-40.23030303030298
 20
15.4090574707085
 30
0.0
 11
-40.130303030303
 21
15.4080907313765
 31
0.0
  0
LINE
  5
F102F9
330
261
100
AcDbEntity
  8
Geo
100
AcDbLine
 10
-40.130303030303
 20
15.4080907313765
 30
0.0
 11
-40.030303030303
 21
15.4043262666243
 31
0.0
  0
LINE
  5
F102FB
330
261
100
AcDbEntity
  8
Geo
100
AcDbLine
 10
-40.030303030303
 20
15.4043262666243
 30
0.0
 11
-39.930303030303
 21
15.397767588269
 31
0.0
  0
LINE
  5
F102FD
330
261
100
AcDbEntity
  8
Geo
100
AcDbLine
 10
-39.930303030303
 20
15.397767588269
 30
0.0
 11
-39.830303030303
 21
15.388420814811
 31
0.0
  0
LINE
  5
F102FF
330
261
100
AcDbEntity
  8
Geo
100
AcDbLine
 10
-39.830303030303
 20
15.388420814811
 30
0.0
 11
-39.730303030303
 21
15.3762946657258
 31
0.0
  0
LINE
  5
F10301
330
261
100
AcDbEntity
  8
Geo
100
AcDbLine
 10
-39.730303030303
 20
15.3762946657258
 30
0.0
 11
-39.63030303030301
 21
15.3614004533299
 31
0.0
  0
LINE
  5
F10303
330
261
100
AcDbEntity
  8
Geo
100
AcDbLine
 10
-39.63030303030301
 20
15.3614004533299
 30
0.0
 11
-39.530303030303
 21
15.3437520722281
 31
0.0
  0
LINE
  5
F10305
330
261
100
AcDbEntity
  8
Geo
100
AcDbLine
 10
-39.530303030303
 20
15.3437520722281
 30
0.0
 11
-39.430303030303
 21
15.3233659863506
 31
0.0
  0
LINE
  5
F10307
330
261
100
AcDbEntity
  8
Geo
100
AcDbLine
 10
-39.430303030303
 20
15.3233659863506
 30
0.0
 11
-39.330303030303
 21
15.3002612135949
 31
0.0
  0
LINE
  5
F10309
330
261
100
AcDbEntity
  8
Geo
100
AcDbLine
 10
-39.330303030303
 20
15.3002612135949
 30
0.0
 11
-39.230303030303
 21
15.2744593080836
 31
0.0
  0
LINE
  5
F1030B
330
261
100
AcDbEntity
  8
Geo
100
AcDbLine
 10
-39.230303030303
 20
15.2744593080836
 30
0.0
 11
-39.130303030303
 21
15.2459843400571
 31
0.0
  0
LINE
  5
F1030D
330
261
100
AcDbEntity
  8
Geo
100
AcDbLine
 10
-39.130303030303
 20
15.2459843400571
 30
0.0
 11
-39.030303030303
 21
15.214862873419
 31
0.0
  0
LINE
  5
F1030F
330
261
100
AcDbEntity
  8
Geo
100
AcDbLine
 10
-39.030303030303
 20
15.214862873419
 30
0.0
 11
-38.930303030303
 21
15.1811239409548
 31
0.0
  0
LINE
  5
F10311
330
261
100
AcDbEntity
  8
Geo
100
AcDbLine
 10
-38.930303030303
 20
15.1811239409548
 30
0.0
 11
-38.830303030303
 21
15.1447990172473
 31
0.0
  0
LINE
  5
F10313
330
261
100
AcDbEntity
  8
Geo
100
AcDbLine
 10
-38.830303030303
 20
15.1447990172473
 30
0.0
 11
-38.730303030303
 21
15.1059219893153
 31
0.0
  0
LINE
  5
F10315
330
261
100
AcDbEntity
  8
Geo
100
AcDbLine
 10
-38.730303030303
 20
15.1059219893153
 30
0.0
 11
-38.63030303030301
 21
15.0645291249998
 31
0.0
  0
LINE
  5
F10317
330
261
100
AcDbEntity
  8
Geo
100
AcDbLine
 10
-38.63030303030301
 20
15.0645291249998
 30
0.0
 11
-38.530303030303
 21
15.020659039131
 31
0.0
  0
LINE
  5
F10319
330
261
100
AcDbEntity
  8
Geo
100
AcDbLine
 10
-38.530303030303
 20
15.020659039131
 30
0.0
 11
-38.430303030303
 21
14.9743526575047
 31
0.0
  0
LINE
  5
F1031B
330
261
100
AcDbEntity
  8
Geo
100
AcDbLine
 10
-38.430303030303
 20
14.9743526575047
 30
0.0
 11
-38.330303030303
 21
14.9256531787034
 31
0.0
  0
LINE
  5
F1031D
330
261
100
AcDbEntity
  8
Geo
100
AcDbLine
 10
-38.330303030303
 20
14.9256531787034
 30
0.0
 11
-38.230303030303
 21
14.8746060337966
 31
0.0
  0
LINE
  5
F1031F
330
261
100
AcDbEntity
  8
Geo
100
AcDbLine
 10
-38.230303030303
 20
14.8746060337966
 30
0.0
 11
-38.13030303030301
 21
14.8212588439592
 31
0.0
  0
LINE
  5
F10321
330
261
100
AcDbEntity
  8
Geo
100
AcDbLine
 10
-38.13030303030301
 20
14.8212588439592
 30
0.0
 11
-38.030303030303
 21
14.7656613760463
 31
0.0
  0
LINE
  5
F10323
330
261
100
AcDbEntity
  8
Geo
100
AcDbLine
 10
-38.030303030303
 20
14.7656613760463
 30
0.0
 11
-37.930303030303
 21
14.7078654961658
 31
0.0
  0
LINE
  5
F10325
330
261
100
AcDbEntity
  8
Geo
100
AcDbLine
 10
-37.930303030303
 20
14.7078654961658
 30
0.0
 11
-37.830303030303
 21
14.6479251212943
 31
0.0
  0
LINE
  5
F10327
330
261
100
AcDbEntity
  8
Geo
100
AcDbLine
 10
-37.830303030303
 20
14.6479251212943
 30
0.0
 11
-37.730303030303
 21
14.5858961689776
 31
0.0
  0
LINE
  5
F10329
330
261
100
AcDbEntity
  8
Geo
100
AcDbLine
 10
-37.730303030303
 20
14.5858961689776
 30
0.0
 11
-37.630303030303
 21
14.5218365051667
 31
0.0
  0
LINE
  5
F1032B
330
261
100
AcDbEntity
  8
Geo
100
AcDbLine
 10
-37.630303030303
 20
14.5218365051667
 30
0.0
 11
-37.530303030303
 21
14.4558058902352
 31
0.0
  0
LINE
  5
F1032D
330
261
100
AcDbEntity
  8
Geo
100
AcDbLine
 10
-37.530303030303
 20
14.4558058902352
 30
0.0
 11
-37.430303030303
 21
14.3878659232297
 31
0.0
  0
LINE
  5
F1032F
330
261
100
AcDbEntity
  8
Geo
100
AcDbLine
 10
-37.430303030303
 20
14.3878659232297
 30
0.0
 11
-37.330303030303
 21
14.3180799844051
 31
0.0
  0
LINE
  5
F10331
330
261
100
AcDbEntity
  8
Geo
100
AcDbLine
 10
-37.330303030303
 20
14.3180799844051
 30
0.0
 11
-37.230303030303
 21
14.2465131760976
 31
0.0
  0
LINE
  5
F10333
330
261
100
AcDbEntity
  8
Geo
100
AcDbLine
 10
-37.230303030303
 20
14.2465131760976
 30
0.0
 11
-37.13030303030301
 21
14.173232261992
 31
0.0
  0
LINE
  5
F10335
330
261
100
AcDbEntity
  8
Geo
100
AcDbLine
 10
-37.13030303030301
 20
14.173232261992
 30
0.0
 11
-37.030303030303
 21
14.0983056048387
 31
0.0
  0
LINE
  5
F10337
330
261
100
AcDbEntity
  8
Geo
100
AcDbLine
 10
-37.030303030303
 20
14.0983056048387
 30
0.0
 11
-36.930303030303
 21
14.0218031026789
 31
0.0
  0
LINE
  5
F10339
330
261
100
AcDbEntity
  8
Geo
100
AcDbLine
 10
-36.930303030303
 20
14.0218031026789
 30
0.0
 11
-36.830303030303
 21
13.9437961236379
 31
0.0
  0
LINE
  5
F1033B
330
261
100
AcDbEntity
  8
Geo
100
AcDbLine
 10
-36.830303030303
 20
13.9437961236379
 30
0.0
 11
-36.730303030303
 21
13.8643574393467
 31
0.0
  0
LINE
  5
F1033D
330
261
100
AcDbEntity
  8
Geo
100
AcDbLine
 10
-36.730303030303
 20
13.8643574393467
 30
0.0
 11
-36.630303030303
 21
13.7835611570541
 31
0.0
  0
LINE
  5
F1033F
330
261
100
AcDbEntity
  8
Geo
100
AcDbLine
 10
-36.630303030303
 20
13.7835611570541
 30
0.0
 11
-36.53030303030301
 21
13.7014826504936
 31
0.0
  0
LINE
  5
F10341
330
261
100
AcDbEntity
  8
Geo
100
AcDbLine
 10
-36.53030303030301
 20
13.7014826504936
 30
0.0
 11
-36.430303030303
 21
13.6181984895676
 31
0.0
  0
LINE
  5
F10343
330
261
100
AcDbEntity
  8
Geo
100
AcDbLine
 10
-36.430303030303
 20
13.6181984895676
 30
0.0
 11
-36.330303030303
 21
13.533786368917
 31
0.0
  0
LINE
  5
F10345
330
261
100
AcDbEntity
  8
Geo
100
AcDbLine
 10
-36.330303030303
 20
13.533786368917
 30
0.0
 11
-36.230303030303
 21
13.4483250354408
 31
0.0
  0
LINE
  5
F10347
330
261
100
AcDbEntity
  8
Geo
100
AcDbLine
 10
-36.230303030303
 20
13.4483250354408
 30
0.0
 11
-36.13030303030301
 21
13.3618942148338
 31
0.0
  0
LINE
  5
F10349
330
261
100
AcDbEntity
  8
Geo
100
AcDbLine
 10
-36.13030303030301
 20
13.3618942148338
 30
0.0
 11
-36.030303030303
 21
13.2745745372122
 31
0.0
  0
LINE
  5
F1034B
330
261
100
AcDbEntity
  8
Geo
100
AcDbLine
 10
-36.030303030303
 20
13.2745745372122
 30
0.0
 11
-35.930303030303
 21
13.1864474618946
 31
0.0
  0
LINE
  5
F1034D
330
261
100
AcDbEntity
  8
Geo
100
AcDbLine
 10
-35.930303030303
 20
13.1864474618946
 30
0.0
 11
-35.830303030303
 21
13.0975952014095
 31
0.0
  0
LINE
  5
F1034F
330
261
100
AcDbEntity
  8
Geo
100
AcDbLine
 10
-35.830303030303
 20
13.0975952014095
 30
0.0
 11
-35.730303030303
 21
13.0081006448008
 31
0.0
  0
LINE
  5
F10351
330
261
100
AcDbEntity
  8
Geo
100
AcDbLine
 10
-35.730303030303
 20
13.0081006448008
 30
0.0
 11
-35.63030303030301
 21
12.9180472803016
 31
0.0
  0
LINE
  5
F10353
330
261
100
AcDbEntity
  8
Geo
100
AcDbLine
 10
-35.63030303030301
 20
12.9180472803016
 30
0.0
 11
-35.530303030303
 21
12.8275191174489
 31
0.0
  0
LINE
  5
F10355
330
261
100
AcDbEntity
  8
Geo
100
AcDbLine
 10
-35.530303030303
 20
12.8275191174489
 30
0.0
 11
-35.430303030303
 21
12.701373357592
 31
0.0
  0
LINE
  5
F10357
330
261
100
AcDbEntity
  8
Geo
100
AcDbLine
 10
-35.430303030303
 20
12.701373357592
 30
0.0
 11
-35.330303030303
 21
12.5739335942996
 31
0.0
  0
LINE
  5
F10359
330
261
100
AcDbEntity
  8
Geo
100
AcDbLine
 10
-35.330303030303
 20
12.5739335942996
 30
0.0
 11
-35.230303030303
 21
12.4454236488598
 31
0.0
  0
LINE
  5
F1035B
330
261
100
AcDbEntity
  8
Geo
100
AcDbLine
 10
-35.230303030303
 20
12.4454236488598
 30
0.0
 11
-35.130303030303
 21
12.3160762896316
 31
0.0
  0
LINE
  5
F1035D
330
261
100
AcDbEntity
  8
Geo
100
AcDbLine
 10
-35.130303030303
 20
12.3160762896316
 30
0.0
 11
-35.030303030303
 21
12.1861329457279
 31
0.0
  0
LINE
  5
F1035F
330
261
100
AcDbEntity
  8
Geo
100
AcDbLine
 10
-35.030303030303
 20
12.1861329457279
 30
0.0
 11
-34.930303030303
 21
12.0558433819467
 31
0.0
  0
LINE
  5
F10361
330
261
100
AcDbEntity
  8
Geo
100
AcDbLine
 10
-34.930303030303
 20
12.0558433819467
 30
0.0
 11
-34.830303030303
 21
11.92546533413669
 31
0.0
  0
LINE
  5
F10363
330
261
100
AcDbEntity
  8
Geo
100
AcDbLine
 10
-34.830303030303
 20
11.92546533413669
 30
0.0
 11
-34.730303030303
 21
11.7952641042884
 31
0.0
  0
LINE
  5
F10365
330
261
100
AcDbEntity
  8
Geo
100
AcDbLine
 10
-34.730303030303
 20
11.7952641042884
 30
0.0
 11
-34.63030303030301
 21
11.6655121147563
 31
0.0
  0
LINE
  5
F10367
330
261
100
AcDbEntity
  8
Geo
100
AcDbLine
 10
-34.63030303030301
 20
11.6655121147563
 30
0.0
 11
-34.530303030303
 21
11.5364884211395
 31
0.0
  0
LINE
  5
F10369
330
261
100
AcDbEntity
  8
Geo
100
AcDbLine
 10
-34.530303030303
 20
11.5364884211395
 30
0.0
 11
-34.430303030303
 21
11.4084781834803
 31
0.0
  0
LINE
  5
F1036B
330
261
100
AcDbEntity
  8
Geo
100
AcDbLine
 10
-34.430303030303
 20
11.4084781834803
 30
0.0
 11
-34.330303030303
 21
11.2817720955848
 31
0.0
  0
LINE
  5
F1036D
330
261
100
AcDbEntity
  8
Geo
100
AcDbLine
 10
-34.330303030303
 20
11.2817720955848
 30
0.0
 11
-34.230303030303
 21
11.1566657724152
 31
0.0
  0
LINE
  5
F1036F
330
261
100
AcDbEntity
  8
Geo
100
AcDbLine
 10
-34.230303030303
 20
11.1566657724152
 30
0.0
 11
-34.130303030303
 21
11.0334590956682
 31
0.0
  0
LINE
  5
F10371
330
261
100
AcDbEntity
  8
Geo
100
AcDbLine
 10
-34.130303030303
 20
11.0334590956682
 30
0.0
 11
-34.03030303030301
 21
10.9124555178205
 31
0.0
  0
LINE
  5
F10373
330
261
100
AcDbEntity
  8
Geo
100
AcDbLine
 10
-34.03030303030301
 20
10.9124555178205
 30
0.0
 11
-33.930303030303
 21
10.79396132509869
 31
0.0
  0
LINE
  5
F10375
330
261
100
AcDbEntity
  8
Geo
100
AcDbLine
 10
-33.930303030303
 20
10.79396132509869
 30
0.0
 11
-33.830303030303
 21
10.6782848600212
 31
0.0
  0
LINE
  5
F10377
330
261
100
AcDbEntity
  8
Geo
100
AcDbLine
 10
-33.830303030303
 20
10.6782848600212
 30
0.0
 11
-33.730303030303
 21
10.5657357043488
 31
0.0
  0
LINE
  5
F10379
330
261
100
AcDbEntity
  8
Geo
100
AcDbLine
 10
-33.730303030303
 20
10.5657357043488
 30
0.0
 11
-33.63030303030301
 21
10.4566238234864
 31
0.0
  0
LINE
  5
F1037B
330
261
100
AcDbEntity
  8
Geo
100
AcDbLine
 10
-33.63030303030301
 20
10.4566238234864
 30
0.0
 11
-33.530303030303
 21
10.3512586735868
 31
0.0
  0
LINE
  5
F1037D
330
261
100
AcDbEntity
  8
Geo
100
AcDbLine
 10
-33.530303030303
 20
10.3512586735868
 30
0.0
 11
-33.430303030303
 21
10.3579054046351
 31
0.0
  0
LINE
  5
F1037F
330
261
100
AcDbEntity
  8
Geo
100
AcDbLine
 10
-33.430303030303
 20
10.3579054046351
 30
0.0
 11
-33.330303030303
 21
10.26580287204
 31
0.0
  0
LINE
  5
F10381
330
261
100
AcDbEntity
  8
Geo
100
AcDbLine
 10
-33.330303030303
 20
10.26580287204
 30
0.0
 11
-33.230303030303
 21
10.1781297978791
 31
0.0
  0
LINE
  5
F10383
330
261
100
AcDbEntity
  8
Geo
100
AcDbLine
 10
-33.230303030303
 20
10.1781297978791
 30
0.0
 11
-33.13030303030301
 21
10.0951690923889
 31
0.0
  0
LINE
  5
F10385
330
261
100
AcDbEntity
  8
Geo
100
AcDbLine
 10
-33.13030303030301
 20
10.0951690923889
 30
0.0
 11
-33.030303030303
 21
10.0171984655205
 31
0.0
  0
LINE
  5
F10387
330
261
100
AcDbEntity
  8
Geo
100
AcDbLine
 10
-33.030303030303
 20
10.0171984655205
 30
0.0
 11
-32.930303030303
 21
9.944489402909587
 31
0.0
  0
LINE
  5
F10389
330
261
100
AcDbEntity
  8
Geo
100
AcDbLine
 10
-32.930303030303
 20
9.944489402909587
 30
0.0
 11
-32.830303030303
 21
9.877306120760867
 31
0.0
  0
LINE
  5
F1038B
330
261
100
AcDbEntity
  8
Geo
100
AcDbLine
 10
-32.830303030303
 20
9.877306120760867
 30
0.0
 11
-32.730303030303
 21
9.81590450260278
 31
0.0
  0
LINE
  5
F1038D
330
261
100
AcDbEntity
  8
Geo
100
AcDbLine
 10
-32.730303030303
 20
9.81590450260278
 30
0.0
 11
-32.630303030303
 21
9.760531021099239
 31
0.0
  0
LINE
  5
F1038F
330
261
100
AcDbEntity
  8
Geo
100
AcDbLine
 10
-32.630303030303
 20
9.760531021099239
 30
0.0
 11
-32.530303030303
 21
9.711421648334779
 31
0.0
  0
LINE
  5
F10391
330
261
100
AcDbEntity
  8
Geo
100
AcDbLine
 10
-45.330303030303
 20
15.4080300524499
 30
0.0
 11
-45.23030303030298
 21
15.4090675095597
 31
0.0
  0
LINE
  5
F10393
330
261
100
AcDbEntity
  8
Geo
100
AcDbLine
 10
-45.23030303030298
 20
15.4090675095597
 30
0.0
 11
-45.130303030303
 21
15.4073063300264
 31
0.0
  0
LINE
  5
F10395
330
261
100
AcDbEntity
  8
Geo
100
AcDbLine
 10
-45.130303030303
 20
15.4073063300264
 30
0.0
 11
-45.030303030303
 21
15.4027481568303
 31
0.0
  0
LINE
  5
F10397
330
261
100
AcDbEntity
  8
Geo
100
AcDbLine
 10
-45.030303030303
 20
15.4027481568303
 30
0.0
 11
-44.930303030303
 21
15.3953972422279
 31
0.0
  0
LINE
  5
F10399
330
261
100
AcDbEntity
  8
Geo
100
AcDbLine
 10
-44.930303030303
 20
15.3953972422279
 30
0.0
 11
-44.83030303030299
 21
15.3852604437857
 31
0.0
  0
LINE
  5
F1039B
330
261
100
AcDbEntity
  8
Geo
100
AcDbLine
 10
-44.83030303030299
 20
15.3852604437857
 30
0.0
 11
-44.730303030303
 21
15.3723472179826
 31
0.0
  0
LINE
  5
F1039D
330
261
100
AcDbEntity
  8
Geo
100
AcDbLine
 10
-44.730303030303
 20
15.3723472179826
 30
0.0
 11
-44.630303030303
 21
15.3566696113884
 31
0.0
  0
LINE
  5
F1039F
330
261
100
AcDbEntity
  8
Geo
100
AcDbLine
 10
-44.630303030303
 20
15.3566696113884
 30
0.0
 11
-44.530303030303
 21
15.338242249425
 31
0.0
  0
LINE
  5
F103A1
330
261
100
AcDbEntity
  8
Geo
100
AcDbLine
 10
-44.530303030303
 20
15.338242249425
 30
0.0
 11
-44.430303030303
 21
15.3170823227235
 31
0.0
  0
LINE
  5
F103A3
330
261
100
AcDbEntity
  8
Geo
100
AcDbLine
 10
-44.430303030303
 20
15.3170823227235
 30
0.0
 11
-44.33030303030299
 21
15.2932095710865
 31
0.0
  0
LINE
  5
F103A5
330
261
100
AcDbEntity
  8
Geo
100
AcDbLine
 10
-44.33030303030299
 20
15.2932095710865
 30
0.0
 11
-44.230303030303
 21
15.2666462650737
 31
0.0
  0
LINE
  5
F103A7
330
261
100
AcDbEntity
  8
Geo
100
AcDbLine
 10
-44.230303030303
 20
15.2666462650737
 30
0.0
 11
-44.130303030303
 21
15.2374171852253
 31
0.0
  0
LINE
  5
F103A9
330
261
100
AcDbEntity
  8
Geo
100
AcDbLine
 10
-44.130303030303
 20
15.2374171852253
 30
0.0
 11
-44.030303030303
 21
15.2055495989455
 31
0.0
  0
LINE
  5
F103AB
330
261
100
AcDbEntity
  8
Geo
100
AcDbLine
 10
-44.030303030303
 20
15.2055495989455
 30
0.0
 11
-43.93030303030299
 21
15.1710732350643
 31
0.0
  0
LINE
  5
F103AD
330
261
100
AcDbEntity
  8
Geo
100
AcDbLine
 10
-43.93030303030299
 20
15.1710732350643
 30
0.0
 11
-43.830303030303
 21
15.1340202561044
 31
0.0
  0
LINE
  5
F103AF
330
261
100
AcDbEntity
  8
Geo
100
AcDbLine
 10
-43.830303030303
 20
15.1340202561044
 30
0.0
 11
-43.730303030303
 21
15.0944252282769
 31
0.0
  0
LINE
  5
F103B1
330
261
100
AcDbEntity
  8
Geo
100
AcDbLine
 10
-43.730303030303
 20
15.0944252282769
 30
0.0
 11
-43.630303030303
 21
15.0523250892352
 31
0.0
  0
LINE
  5
F103B3
330
261
100
AcDbEntity
  8
Geo
100
AcDbLine
 10
-43.630303030303
 20
15.0523250892352
 30
0.0
 11
-43.530303030303
 21
15.0077591136163
 31
0.0
  0
LINE
  5
F103B5
330
261
100
AcDbEntity
  8
Geo
100
AcDbLine
 10
-43.530303030303
 20
15.0077591136163
 30
0.0
 11
-43.430303030303
 21
14.96076887640169
 31
0.0
  0
LINE
  5
F103B7
330
261
100
AcDbEntity
  8
Geo
100
AcDbLine
 10
-43.430303030303
 20
14.96076887640169
 30
0.0
 11
-43.330303030303
 21
14.9113982141335
 31
0.0
  0
LINE
  5
F103B9
330
261
100
AcDbEntity
  8
Geo
100
AcDbLine
 10
-43.330303030303
 20
14.9113982141335
 30
0.0
 11
-43.23030303030299
 21
14.8596931840189
 31
0.0
  0
LINE
  5
F103BB
330
261
100
AcDbEntity
  8
Geo
100
AcDbLine
 10
-43.23030303030299
 20
14.8596931840189
 30
0.0
 11
-43.130303030303
 21
14.805702020965
 31
0.0
  0
LINE
  5
F103BD
330
261
100
AcDbEntity
  8
Geo
100
AcDbLine
 10
-43.130303030303
 20
14.805702020965
 30
0.0
 11
-43.030303030303
 21
14.7494750925802
 31
0.0
  0
LINE
  5
F103BF
330
261
100
AcDbEntity
  8
Geo
100
AcDbLine
 10
-43.030303030303
 20
14.7494750925802
 30
0.0
 11
-42.930303030303
 21
14.6910648521877
 31
0.0
  0
LINE
  5
F103C1
330
261
100
AcDbEntity
  8
Geo
100
AcDbLine
 10
-42.930303030303
 20
14.6910648521877
 30
0.0
 11
-42.830303030303
 21
14.6305257898923
 31
0.0
  0
LINE
  5
F103C3
330
261
100
AcDbEntity
  8
Geo
100
AcDbLine
 10
-42.830303030303
 20
14.6305257898923
 30
0.0
 11
-42.73030303030298
 21
14.5679143817472
 31
0.0
  0
LINE
  5
F103C5
330
261
100
AcDbEntity
  8
Geo
100
AcDbLine
 10
-42.73030303030298
 20
14.5679143817472
 30
0.0
 11
-42.630303030303
 21
14.5032890370682
 31
0.0
  0
LINE
  5
F103C7
330
261
100
AcDbEntity
  8
Geo
100
AcDbLine
 10
-42.630303030303
 20
14.5032890370682
 30
0.0
 11
-42.530303030303
 21
14.436710043945
 31
0.0
  0
LINE
  5
F103C9
330
261
100
AcDbEntity
  8
Geo
100
AcDbLine
 10
-42.530303030303
 20
14.436710043945
 30
0.0
 11
-42.430303030303
 21
14.3682395129984
 31
0.0
  0
LINE
  5
F103CB
330
261
100
AcDbEntity
  8
Geo
100
AcDbLine
 10
-42.430303030303
 20
14.3682395129984
 30
0.0
 11
-42.33030303030299
 21
14.2979413194391
 31
0.0
  0
LINE
  5
F103CD
330
261
100
AcDbEntity
  8
Geo
100
AcDbLine
 10
-42.33030303030299
 20
14.2979413194391
 30
0.0
 11
-42.230303030303
 21
14.2258810434787
 31
0.0
  0
LINE
  5
F103CF
330
261
100
AcDbEntity
  8
Geo
100
AcDbLine
 10
-42.230303030303
 20
14.2258810434787
 30
0.0
 11
-42.130303030303
 21
14.1521259091511
 31
0.0
  0
LINE
  5
F103D1
330
261
100
AcDbEntity
  8
Geo
100
AcDbLine
 10
-42.130303030303
 20
14.1521259091511
 30
0.0
 11
-42.030303030303
 21
14.0767447216001
 31
0.0
  0
LINE
  5
F103D3
330
261
100
AcDbEntity
  8
Geo
100
AcDbLine
 10
-42.030303030303
 20
14.0767447216001
 30
0.0
 11
-41.930303030303
 21
13.9998078028923
 31
0.0
  0
LINE
  5
F103D5
330
261
100
AcDbEntity
  8
Geo
100
AcDbLine
 10
-41.930303030303
 20
13.9998078028923
 30
0.0
 11
-41.83030303030299
 21
13.9213869264139
 31
0.0
  0
LINE
  5
F103D7
330
261
100
AcDbEntity
  8
Geo
100
AcDbLine
 10
-41.83030303030299
 20
13.9213869264139
 30
0.0
 11
-41.730303030303
 21
13.8415552499152
 31
0.0
  0
LINE
  5
F103D9
330
261
100
AcDbEntity
  8
Geo
100
AcDbLine
 10
-41.730303030303
 20
13.8415552499152
 30
0.0
 11
-41.630303030303
 21
13.760387247262
 31
0.0
  0
LINE
  5
F103DB
330
261
100
AcDbEntity
  8
Geo
100
AcDbLine
 10
-41.630303030303
 20
13.760387247262
 30
0.0
 11
-41.530303030303
 21
13.6779586389605
 31
0.0
  0
LINE
  5
F103DD
330
261
100
AcDbEntity
  8
Geo
100
AcDbLine
 10
-41.530303030303
 20
13.6779586389605
 30
0.0
 11
-41.43030303030299
 21
13.5943463215182
 31
0.0
  0
LINE
  5
F103DF
330
261
100
AcDbEntity
  8
Geo
100
AcDbLine
 10
-41.43030303030299
 20
13.5943463215182
 30
0.0
 11
-41.330303030303
 21
13.5096282957088
 31
0.0
  0
LINE
  5
F103E1
330
261
100
AcDbEntity
  8
Geo
100
AcDbLine
 10
-41.330303030303
 20
13.5096282957088
 30
0.0
 11
-41.230303030303
 21
13.4238835938058
 31
0.0
  0
LINE
  5
F103E3
330
261
100
AcDbEntity
  8
Geo
100
AcDbLine
 10
-41.230303030303
 20
13.4238835938058
 30
0.0
 11
-41.130303030303
 21
13.3371922058546
 31
0.0
  0
LINE
  5
F103E5
330
261
100
AcDbEntity
  8
Geo
100
AcDbLine
 10
-41.130303030303
 20
13.3371922058546
 30
0.0
 11
-41.030303030303
 21
13.2496350050511
 31
0.0
  0
LINE
  5
F103E7
330
261
100
AcDbEntity
  8
Geo
100
AcDbLine
 10
-41.030303030303
 20
13.2496350050511
 30
0.0
 11
-40.930303030303
 21
13.1612936722958
 31
0.0
  0
LINE
  5
F103E9
330
261
100
AcDbEntity
  8
Geo
100
AcDbLine
 10
-40.930303030303
 20
13.1612936722958
 30
0.0
 11
-40.830303030303
 21
13.0722506199952
 31
0.0
  0
LINE
  5
F103EB
330
261
100
AcDbEntity
  8
Geo
100
AcDbLine
 10
-40.830303030303
 20
13.0722506199952
 30
0.0
 11
-40.73030303030299
 21
12.9825889151802
 31
0.0
  0
LINE
  5
F103ED
330
261
100
AcDbEntity
  8
Geo
100
AcDbLine
 10
-40.73030303030299
 20
12.9825889151802
 30
0.0
 11
-40.630303030303
 21
12.892392202014
 31
0.0
  0
LINE
  5
F103EF
330
261
100
AcDbEntity
  8
Geo
100
AcDbLine
 10
-40.630303030303
 20
12.892392202014
 30
0.0
 11
-40.530303030303
 21
12.8017446237618
 31
0.0
  0
LINE
  5
F103F1
330
261
100
AcDbEntity
  8
Geo
100
AcDbLine
 10
-40.530303030303
 20
12.8017446237618
 30
0.0
 11
-40.430303030303
 21
12.7107307442946
 31
0.0
  0
LINE
  5
F103F3
330
261
100
AcDbEntity
  8
Geo
100
AcDbLine
 10
-40.430303030303
 20
12.7107307442946
 30
0.0
 11
-40.330303030303
 21
12.6194354692006
 31
0.0
  0
LINE
  5
F103F5
330
261
100
AcDbEntity
  8
Geo
100
AcDbLine
 10
-40.330303030303
 20
12.6194354692006
 30
0.0
 11
-40.23030303030298
 21
12.5279439665782
 31
0.0
  0
LINE
  5
F103F7
330
261
100
AcDbEntity
  8
Geo
100
AcDbLine
 10
-40.23030303030298
 20
12.5279439665782
 30
0.0
 11
-40.130303030303
 21
12.4363415875838
 31
0.0
  0
LINE
  5
F103F9
330
261
100
AcDbEntity
  8
Geo
100
AcDbLine
 10
-40.130303030303
 20
12.4363415875838
 30
0.0
 11
-40.030303030303
 21
12.3447137868086
 31
0.0
  0
LINE
  5
F103FB
330
261
100
AcDbEntity
  8
Geo
100
AcDbLine
 10
-40.030303030303
 20
12.3447137868086
 30
0.0
 11
-39.930303030303
 21
12.2531460425596
 31
0.0
  0
LINE
  5
F103FD
330
261
100
AcDbEntity
  8
Geo
100
AcDbLine
 10
-39.930303030303
 20
12.2531460425596
 30
0.0
 11
-39.830303030303
 21
12.1617237771179
 31
0.0
  0
LINE
  5
F103FF
330
261
100
AcDbEntity
  8
Geo
100
AcDbLine
 10
-39.830303030303
 20
12.1617237771179
 30
0.0
 11
-39.730303030303
 21
12.0705322770494
 31
0.0
  0
LINE
  5
F10401
330
261
100
AcDbEntity
  8
Geo
100
AcDbLine
 10
-39.730303030303
 20
12.0705322770494
 30
0.0
 11
-39.63030303030301
 21
11.9796566136422
 31
0.0
  0
LINE
  5
F10403
330
261
100
AcDbEntity
  8
Geo
100
AcDbLine
 10
-39.63030303030301
 20
11.9796566136422
 30
0.0
 11
-39.530303030303
 21
11.8891815635447
 31
0.0
  0
LINE
  5
F10405
330
261
100
AcDbEntity
  8
Geo
100
AcDbLine
 10
-39.530303030303
 20
11.8891815635447
 30
0.0
 11
-39.430303030303
 21
11.7991915296787
 31
0.0
  0
LINE
  5
F10407
330
261
100
AcDbEntity
  8
Geo
100
AcDbLine
 10
-39.430303030303
 20
11.7991915296787
 30
0.0
 11
-39.330303030303
 21
11.7097704625012
 31
0.0
  0
LINE
  5
F10409
330
261
100
AcDbEntity
  8
Geo
100
AcDbLine
 10
-39.330303030303
 20
11.7097704625012
 30
0.0
 11
-39.230303030303
 21
11.6210017816878
 31
0.0
  0
LINE
  5
F1040B
330
261
100
AcDbEntity
  8
Geo
100
AcDbLine
 10
-39.230303030303
 20
11.6210017816878
 30
0.0
 11
-39.130303030303
 21
11.5329682983122
 31
0.0
  0
LINE
  5
F1040D
330
261
100
AcDbEntity
  8
Geo
100
AcDbLine
 10
-39.130303030303
 20
11.5329682983122
 30
0.0
 11
-39.030303030303
 21
11.4457521375923
 31
0.0
  0
LINE
  5
F1040F
330
261
100
AcDbEntity
  8
Geo
100
AcDbLine
 10
-39.030303030303
 20
11.4457521375923
 30
0.0
 11
-38.930303030303
 21
11.3594346622771
 31
0.0
  0
LINE
  5
F10411
330
261
100
AcDbEntity
  8
Geo
100
AcDbLine
 10
-38.930303030303
 20
11.3594346622771
 30
0.0
 11
-38.830303030303
 21
11.2740963967446
 31
0.0
  0
LINE
  5
F10413
330
261
100
AcDbEntity
  8
Geo
100
AcDbLine
 10
-38.830303030303
 20
11.2740963967446
 30
0.0
 11
-38.730303030303
 21
11.1898169518813
 31
0.0
  0
LINE
  5
F10415
330
261
100
AcDbEntity
  8
Geo
100
AcDbLine
 10
-38.730303030303
 20
11.1898169518813
 30
0.0
 11
-38.63030303030301
 21
11.1066749508147
 31
0.0
  0
LINE
  5
F10417
330
261
100
AcDbEntity
  8
Geo
100
AcDbLine
 10
-38.63030303030301
 20
11.1066749508147
 30
0.0
 11
-38.530303030303
 21
11.0247479555667
 31
0.0
  0
LINE
  5
F10419
330
261
100
AcDbEntity
  8
Geo
100
AcDbLine
 10
-38.530303030303
 20
11.0247479555667
 30
0.0
 11
-38.430303030303
 21
10.9441123946971
 31
0.0
  0
LINE
  5
F1041B
330
261
100
AcDbEntity
  8
Geo
100
AcDbLine
 10
-38.430303030303
 20
10.9441123946971
 30
0.0
 11
-38.330303030303
 21
10.8648434920043
 31
0.0
  0
LINE
  5
F1041D
330
261
100
AcDbEntity
  8
Geo
100
AcDbLine
 10
-38.330303030303
 20
10.8648434920043
 30
0.0
 11
-38.230303030303
 21
10.7870151963505
 31
0.0
  0
LINE
  5
F1041F
330
261
100
AcDbEntity
  8
Geo
100
AcDbLine
 10
-38.230303030303
 20
10.7870151963505
 30
0.0
 11
-38.13030303030301
 21
10.7107001126753
 31
0.0
  0
LINE
  5
F10421
330
261
100
AcDbEntity
  8
Geo
100
AcDbLine
 10
-38.13030303030301
 20
10.7107001126753
 30
0.0
 11
-38.030303030303
 21
10.6359694342638
 31
0.0
  0
LINE
  5
F10423
330
261
100
AcDbEntity
  8
Geo
100
AcDbLine
 10
-38.030303030303
 20
10.6359694342638
 30
0.0
 11
-37.930303030303
 21
10.5628928763314
 31
0.0
  0
LINE
  5
F10425
330
261
100
AcDbEntity
  8
Geo
100
AcDbLine
 10
-37.930303030303
 20
10.5628928763314
 30
0.0
 11
-37.830303030303
 21
10.4915386109876
 31
0.0
  0
LINE
  5
F10427
330
261
100
AcDbEntity
  8
Geo
100
AcDbLine
 10
-37.830303030303
 20
10.4915386109876
 30
0.0
 11
-37.730303030303
 21
10.4219732036386
 31
0.0
  0
LINE
  5
F10429
330
261
100
AcDbEntity
  8
Geo
100
AcDbLine
 10
-37.730303030303
 20
10.4219732036386
 30
0.0
 11
-37.630303030303
 21
10.35426155089
 31
0.0
  0
LINE
  5
F1042B
330
261
100
AcDbEntity
  8
Geo
100
AcDbLine
 10
-37.630303030303
 20
10.35426155089
 30
0.0
 11
-37.530303030303
 21
10.2884668200055
 31
0.0
  0
LINE
  5
F1042D
330
261
100
AcDbEntity
  8
Geo
100
AcDbLine
 10
-37.530303030303
 20
10.2884668200055
 30
0.0
 11
-37.430303030303
 21
10.2246503899786
 31
0.0
  0
LINE
  5
F1042F
330
261
100
AcDbEntity
  8
Geo
100
AcDbLine
 10
-37.430303030303
 20
10.2246503899786
 30
0.0
 11
-37.330303030303
 21
10.1628717942735
 31
0.0
  0
LINE
  5
F10431
330
261
100
AcDbEntity
  8
Geo
100
AcDbLine
 10
-37.330303030303
 20
10.1628717942735
 30
0.0
 11
-37.230303030303
 21
10.103188665287
 31
0.0
  0
LINE
  5
F10433
330
261
100
AcDbEntity
  8
Geo
100
AcDbLine
 10
-37.230303030303
 20
10.103188665287
 30
0.0
 11
-37.13030303030301
 21
10.0456566805839
 31
0.0
  0
LINE
  5
F10435
330
261
100
AcDbEntity
  8
Geo
100
AcDbLine
 10
-37.13030303030301
 20
10.0456566805839
 30
0.0
 11
-37.030303030303
 21
9.990329510956447
 31
0.0
  0
LINE
  5
F10437
330
261
100
AcDbEntity
  8
Geo
100
AcDbLine
 10
-37.030303030303
 20
9.990329510956447
 30
0.0
 11
-36.930303030303
 21
9.937258770355199
 31
0.0
  0
LINE
  5
F10439
330
261
100
AcDbEntity
  8
Geo
100
AcDbLine
 10
-36.930303030303
 20
9.937258770355199
 30
0.0
 11
-36.830303030303
 21
9.886493967739481
 31
0.0
  0
LINE
  5
F1043B
330
261
100
AcDbEntity
  8
Geo
100
AcDbLine
 10
-36.830303030303
 20
9.886493967739481
 30
0.0
 11
-36.730303030303
 21
9.8380824608909
 31
0.0
  0
LINE
  5
F1043D
330
261
100
AcDbEntity
  8
Geo
100
AcDbLine
 10
-36.730303030303
 20
9.8380824608909
 30
0.0
 11
-36.630303030303
 21
9.79206941223407
 31
0.0
  0
LINE
  5
F1043F
330
261
100
AcDbEntity
  8
Geo
100
AcDbLine
 10
-36.630303030303
 20
9.79206941223407
 30
0.0
 11
-36.53030303030301
 21
9.74849774670514
 31
0.0
  0
LINE
  5
F10441
330
261
100
AcDbEntity
  8
Geo
100
AcDbLine
 10
-36.53030303030301
 20
9.74849774670514
 30
0.0
 11
-36.430303030303
 21
9.707408111707739
 31
0.0
  0
LINE
  5
F10443
330
261
100
AcDbEntity
  8
Geo
100
AcDbLine
 10
-36.430303030303
 20
9.707408111707739
 30
0.0
 11
-36.330303030303
 21
9.668838839193552
 31
0.0
  0
LINE
  5
F10445
330
261
100
AcDbEntity
  8
Geo
100
AcDbLine
 10
-36.330303030303
 20
9.668838839193552
 30
0.0
 11
-36.230303030303
 21
9.632825909903019
 31
0.0
  0
LINE
  5
F10447
330
261
100
AcDbEntity
  8
Geo
100
AcDbLine
 10
-36.230303030303
 20
9.632825909903019
 30
0.0
 11
-36.13030303030301
 21
9.599402919799358
 31
0.0
  0
LINE
  5
F10449
330
261
100
AcDbEntity
  8
Geo
100
AcDbLine
 10
-36.13030303030301
 20
9.599402919799358
 30
0.0
 11
-36.030303030303
 21
9.568601048727366
 31
0.0
  0
LINE
  5
F1044B
330
261
100
AcDbEntity
  8
Geo
100
AcDbLine
 10
-36.030303030303
 20
9.568601048727366
 30
0.0
 11
-35.930303030303
 21
9.540449031326188
 31
0.0
  0
LINE
  5
F1044D
330
261
100
AcDbEntity
  8
Geo
100
AcDbLine
 10
-35.930303030303
 20
9.540449031326188
 30
0.0
 11
-35.830303030303
 21
9.514973130223179
 31
0.0
  0
LINE
  5
F1044F
330
261
100
AcDbEntity
  8
Geo
100
AcDbLine
 10
-35.830303030303
 20
9.514973130223179
 30
0.0
 11
-35.730303030303
 21
9.492197111533799
 31
0.0
  0
LINE
  5
F10451
330
261
100
AcDbEntity
  8
Geo
100
AcDbLine
 10
-35.730303030303
 20
9.492197111533799
 30
0.0
 11
-35.63030303030301
 21
9.472142222690607
 31
0.0
  0
LINE
  5
F10453
330
261
100
AcDbEntity
  8
Geo
100
AcDbLine
 10
-35.63030303030301
 20
9.472142222690607
 30
0.0
 11
-35.530303030303
 21
9.454827172621801
 31
0.0
  0
LINE
  5
F10455
330
261
100
AcDbEntity
  8
Geo
100
AcDbLine
 10
-35.530303030303
 20
9.454827172621801
 30
0.0
 11
-35.430303030303
 21
9.457315458196186
 31
0.0
  0
LINE
  5
F10457
330
261
100
AcDbEntity
  8
Geo
100
AcDbLine
 10
-35.430303030303
 20
9.457315458196186
 30
0.0
 11
-35.330303030303
 21
9.459884799531399
 31
0.0
  0
LINE
  5
F10459
330
261
100
AcDbEntity
  8
Geo
100
AcDbLine
 10
-35.330303030303
 20
9.459884799531399
 30
0.0
 11
-35.230303030303
 21
9.462536335679381
 31
0.0
  0
LINE
  5
F1045B
330
261
100
AcDbEntity
  8
Geo
100
AcDbLine
 10
-35.230303030303
 20
9.462536335679381
 30
0.0
 11
-35.130303030303
 21
9.46527120928382
 31
0.0
  0
LINE
  5
F1045D
330
261
100
AcDbEntity
  8
Geo
100
AcDbLine
 10
-35.130303030303
 20
9.46527120928382
 30
0.0
 11
-35.030303030303
 21
9.468090566458226
 31
0.0
  0
LINE
  5
F1045F
330
261
100
AcDbEntity
  8
Geo
100
AcDbLine
 10
-35.030303030303
 20
9.468090566458226
 30
0.0
 11
-34.930303030303
 21
9.470995556661339
 31
0.0
  0
LINE
  5
F10461
330
261
100
AcDbEntity
  8
Geo
100
AcDbLine
 10
-34.930303030303
 20
9.470995556661339
 30
0.0
 11
-34.830303030303
 21
9.4739873325701
 31
0.0
  0
LINE
  5
F10463
330
261
100
AcDbEntity
  8
Geo
100
AcDbLine
 10
-34.830303030303
 20
9.4739873325701
 30
0.0
 11
-34.730303030303
 21
9.477067049950052
 31
0.0
  0
LINE
  5
F10465
330
261
100
AcDbEntity
  8
Geo
100
AcDbLine
 10
-34.730303030303
 20
9.477067049950052
 30
0.0
 11
-34.63030303030301
 21
9.48023586752315
 31
0.0
  0
LINE
  5
F10467
330
261
100
AcDbEntity
  8
Geo
100
AcDbLine
 10
-34.63030303030301
 20
9.48023586752315
 30
0.0
 11
-34.530303030303
 21
9.48349494683299
 31
0.0
  0
LINE
  5
F10469
330
261
100
AcDbEntity
  8
Geo
100
AcDbLine
 10
-34.530303030303
 20
9.48349494683299
 30
0.0
 11
-34.430303030303
 21
9.486845452107367
 31
0.0
  0
LINE
  5
F1046B
330
261
100
AcDbEntity
  8
Geo
100
AcDbLine
 10
-34.430303030303
 20
9.486845452107367
 30
0.0
 11
-34.330303030303
 21
9.4902885501183
 31
0.0
  0
LINE
  5
F1046D
330
261
100
AcDbEntity
  8
Geo
100
AcDbLine
 10
-34.330303030303
 20
9.4902885501183
 30
0.0
 11
-34.230303030303
 21
9.493825410039187
 31
0.0
  0
LINE
  5
F1046F
330
261
100
AcDbEntity
  8
Geo
100
AcDbLine
 10
-34.230303030303
 20
9.493825410039187
 30
0.0
 11
-34.130303030303
 21
9.4974572032995
 31
0.0
  0
LINE
  5
F10471
330
261
100
AcDbEntity
  8
Geo
100
AcDbLine
 10
-34.130303030303
 20
9.4974572032995
 30
0.0
 11
-34.03030303030301
 21
9.501185103436526
 31
0.0
  0
LINE
  5
F10473
330
261
100
AcDbEntity
  8
Geo
100
AcDbLine
 10
-34.03030303030301
 20
9.501185103436526
 30
0.0
 11
-33.930303030303
 21
9.505010285944619
 31
0.0
  0
LINE
  5
F10475
330
261
100
AcDbEntity
  8
Geo
100
AcDbLine
 10
-33.930303030303
 20
9.505010285944619
 30
0.0
 11
-33.830303030303
 21
9.508933928121427
 31
0.0
  0
LINE
  5
F10477
330
261
100
AcDbEntity
  8
Geo
100
AcDbLine
 10
-33.830303030303
 20
9.508933928121427
 30
0.0
 11
-33.730303030303
 21
9.512957208911528
 31
0.0
  0
LINE
  5
F10479
330
261
100
AcDbEntity
  8
Geo
100
AcDbLine
 10
-33.730303030303
 20
9.512957208911528
 30
0.0
 11
-33.63030303030301
 21
9.517081308747187
 31
0.0
  0
LINE
  5
F1047B
330
261
100
AcDbEntity
  8
Geo
100
AcDbLine
 10
-33.63030303030301
 20
9.517081308747187
 30
0.0
 11
-33.530303030303
 21
9.52130740938627
 31
0.0
  0
LINE
  5
F1047D
330
261
100
AcDbEntity
  8
Geo
100
AcDbLine
 10
-33.530303030303
 20
9.52130740938627
 30
0.0
 11
-33.430303030303
 21
9.669809404514527
 31
0.0
  0
LINE
  5
F1047F
330
261
100
AcDbEntity
  8
Geo
100
AcDbLine
 10
-33.430303030303
 20
9.669809404514527
 30
0.0
 11
-33.330303030303
 21
9.674021373909367
 31
0.0
  0
LINE
  5
F10481
330
261
100
AcDbEntity
  8
Geo
100
AcDbLine
 10
-33.330303030303
 20
9.674021373909367
 30
0.0
 11
-33.230303030303
 21
9.67833361805304
 31
0.0
  0
LINE
  5
F10483
330
261
100
AcDbEntity
  8
Geo
100
AcDbLine
 10
-33.230303030303
 20
9.67833361805304
 30
0.0
 11
-33.13030303030301
 21
9.6827472630588
 31
0.0
  0
LINE
  5
F10485
330
261
100
AcDbEntity
  8
Geo
100
AcDbLine
 10
-33.13030303030301
 20
9.6827472630588
 30
0.0
 11
-33.030303030303
 21
9.687263435488439
 31
0.0
  0
LINE
  5
F10487
330
261
100
AcDbEntity
  8
Geo
100
AcDbLine
 10
-33.030303030303
 20
9.687263435488439
 30
0.0
 11
-32.930303030303
 21
9.69188326218177
 31
0.0
  0
LINE
  5
F10489
330
261
100
AcDbEntity
  8
Geo
100
AcDbLine
 10
-32.930303030303
 20
9.69188326218177
 30
0.0
 11
-32.830303030303
 21
9.69660787008333
 31
0.0
  0
LINE
  5
F1048B
330
261
100
AcDbEntity
  8
Geo
100
AcDbLine
 10
-32.830303030303
 20
9.69660787008333
 30
0.0
 11
-32.730303030303
 21
9.701438386066261
 31
0.0
  0
LINE
  5
F1048D
330
261
100
AcDbEntity
  8
Geo
100
AcDbLine
 10
-32.730303030303
 20
9.701438386066261
 30
0.0
 11
-32.630303030303
 21
9.70637593675327
 31
0.0
  0
LINE
  5
F1048F
330
261
100
AcDbEntity
  8
Geo
100
AcDbLine
 10
-32.630303030303
 20
9.70637593675327
 30
0.0
 11
-32.530303030303
 21
9.711421648334779
 31
0.0
  0
LINE
  5
F10491
330
261
100
AcDbEntity
  8
Geo
100
AcDbLine
 10
-49.530303030303
 20
14.3581601351044
 30
0.0
 11
-49.430303030303
 21
14.3479471274929
 31
0.0
  0
LINE
  5
F10493
330
261
100
AcDbEntity
  8
Geo
100
AcDbLine
 10
-49.530303030303
 20
13.7848227371231
 30
0.0
 11
-49.430303030303
 21
13.7603831944436
 31
0.0
  0
LINE
  5
F10495
330
261
100
AcDbEntity
  8
Geo
100
AcDbLine
 10
-49.530303030303
 20
9.600265310381731
 30
0.0
 11
-49.430303030303
 21
9.483474919461848
 31
0.0
  0
LINE
  5
F10497
330
261
100
AcDbEntity
  8
Geo
100
AcDbLine
 10
-49.430303030303
 20
14.3479471274929
 30
0.0
 11
-49.33030303030299
 21
14.2775252523044
 31
0.0
  0
LINE
  5
F10499
330
261
100
AcDbEntity
  8
Geo
100
AcDbLine
 10
-49.430303030303
 20
13.7603831944436
 30
0.0
 11
-49.33030303030299
 21
13.6765122115183
 31
0.0
  0
LINE
  5
F1049B
330
261
100
AcDbEntity
  8
Geo
100
AcDbLine
 10
-49.430303030303
 20
9.483474919461848
 30
0.0
 11
-49.33030303030299
 21
9.446905833606299
 31
0.0
  0
LINE
  5
F1049D
330
261
100
AcDbEntity
  8
Geo
100
AcDbLine
 10
-49.33030303030299
 20
14.2775252523044
 30
0.0
 11
-49.230303030303
 21
14.1910102201073
 31
0.0
  0
LINE
  5
F1049F
330
261
100
AcDbEntity
  8
Geo
100
AcDbLine
 10
-49.33030303030299
 20
13.6765122115183
 30
0.0
 11
-49.230303030303
 21
13.5773432939222
 31
0.0
  0
LINE
  5
F104A1
330
261
100
AcDbEntity
  8
Geo
100
AcDbLine
 10
-49.33030303030299
 20
9.446905833606299
 30
0.0
 11
-49.230303030303
 21
9.433107807258499
 31
0.0
  0
LINE
  5
F104A3
330
261
100
AcDbEntity
  8
Geo
100
AcDbLine
 10
-49.230303030303
 20
14.1910102201073
 30
0.0
 11
-49.130303030303
 21
14.1021374652921
 31
0.0
  0
LINE
  5
F104A5
330
261
100
AcDbEntity
  8
Geo
100
AcDbLine
 10
-49.230303030303
 20
13.5773432939222
 30
0.0
 11
-49.130303030303
 21
13.4766286188643
 31
0.0
  0
LINE
  5
F104A7
330
261
100
AcDbEntity
  8
Geo
100
AcDbLine
 10
-49.230303030303
 20
9.433107807258499
 30
0.0
 11
-49.130303030303
 21
9.422616122641857
 31
0.0
  0
LINE
  5
F104A9
330
261
100
AcDbEntity
  8
Geo
100
AcDbLine
 10
-49.130303030303
 20
14.1021374652921
 30
0.0
 11
-49.030303030303
 21
14.0110245786513
 31
0.0
  0
LINE
  5
F104AB
330
261
100
AcDbEntity
  8
Geo
100
AcDbLine
 10
-49.130303030303
 20
13.4766286188643
 30
0.0
 11
-49.030303030303
 21
13.3745014456149
 31
0.0
  0
LINE
  5
F104AD
330
261
100
AcDbEntity
  8
Geo
100
AcDbLine
 10
-49.130303030303
 20
9.422616122641857
 30
0.0
 11
-49.030303030303
 21
9.415442436104381
 31
0.0
  0
LINE
  5
F104AF
330
261
100
AcDbEntity
  8
Geo
100
AcDbLine
 10
-49.030303030303
 20
14.0110245786513
 30
0.0
 11
-48.930303030303
 21
13.917792114978
 31
0.0
  0
LINE
  5
F104B1
330
261
100
AcDbEntity
  8
Geo
100
AcDbLine
 10
-49.030303030303
 20
13.3745014456149
 30
0.0
 11
-48.930303030303
 21
13.2710969023726
 31
0.0
  0
LINE
  5
F104B3
330
261
100
AcDbEntity
  8
Geo
100
AcDbLine
 10
-49.030303030303
 20
9.415442436104381
 30
0.0
 11
-48.930303030303
 21
9.41159471767088
 31
0.0
  0
LINE
  5
F104B5
330
261
100
AcDbEntity
  8
Geo
100
AcDbLine
 10
-48.930303030303
 20
13.917792114978
 30
0.0
 11
-48.830303030303
 21
13.8225634335549
 31
0.0
  0
LINE
  5
F104B7
330
261
100
AcDbEntity
  8
Geo
100
AcDbLine
 10
-48.930303030303
 20
13.2710969023726
 30
0.0
 11
-48.830303030303
 21
13.1665518074707
 31
0.0
  0
LINE
  5
F104B9
330
261
100
AcDbEntity
  8
Geo
100
AcDbLine
 10
-48.830303030303
 20
13.8225634335549
 30
0.0
 11
-48.730303030303
 21
13.7254645349338
 31
0.0
  0
LINE
  5
F104BB
330
261
100
AcDbEntity
  8
Geo
100
AcDbLine
 10
-48.830303030303
 20
13.1665518074707
 30
0.0
 11
-48.730303030303
 21
13.0610044883483
 31
0.0
  0
LINE
  5
F104BD
330
261
100
AcDbEntity
  8
Geo
100
AcDbLine
 10
-48.730303030303
 20
13.7254645349338
 30
0.0
 11
-48.630303030303
 21
13.6266238942189
 31
0.0
  0
LINE
  5
F104BF
330
261
100
AcDbEntity
  8
Geo
100
AcDbLine
 10
-48.730303030303
 20
13.0610044883483
 30
0.0
 11
-48.630303030303
 21
12.9545945985239
 31
0.0
  0
LINE
  5
F104C1
330
261
100
AcDbEntity
  8
Geo
100
AcDbLine
 10
-48.630303030303
 20
13.6266238942189
 30
0.0
 11
-48.530303030303
 21
13.5261722910773
 31
0.0
  0
LINE
  5
F104C3
330
261
100
AcDbEntity
  8
Geo
100
AcDbLine
 10
-48.630303030303
 20
12.9545945985239
 30
0.0
 11
-48.530303030303
 21
12.847462932815
 31
0.0
  0
LINE
  5
F104C5
330
261
100
AcDbEntity
  8
Geo
100
AcDbLine
 10
-48.530303030303
 20
13.5261722910773
 30
0.0
 11
-48.430303030303
 21
13.4242426366995
 31
0.0
  0
LINE
  5
F104C7
330
261
100
AcDbEntity
  8
Geo
100
AcDbLine
 10
-48.530303030303
 20
12.847462932815
 30
0.0
 11
-48.430303030303
 21
12.7397512410471
 31
0.0
  0
LINE
  5
F104C9
330
261
100
AcDbEntity
  8
Geo
100
AcDbLine
 10
-48.430303030303
 20
13.4242426366995
 30
0.0
 11
-48.330303030303
 21
13.3209697979393
 31
0.0
  0
LINE
  5
F104CB
330
261
100
AcDbEntity
  8
Geo
100
AcDbLine
 10
-48.430303030303
 20
12.7397512410471
 30
0.0
 11
-48.330303030303
 21
12.6316020404993
 31
0.0
  0
LINE
  5
F104CD
330
261
100
AcDbEntity
  8
Geo
100
AcDbLine
 10
-48.330303030303
 20
13.3209697979393
 30
0.0
 11
-48.230303030303
 21
13.2164904188672
 31
0.0
  0
LINE
  5
F104CF
330
261
100
AcDbEntity
  8
Geo
100
AcDbLine
 10
-48.330303030303
 20
12.6316020404993
 30
0.0
 11
-48.230303030303
 21
12.5231584273347
 31
0.0
  0
LINE
  5
F104D1
330
261
100
AcDbEntity
  8
Geo
100
AcDbLine
 10
-48.230303030303
 20
13.2164904188672
 30
0.0
 11
-48.130303030303
 21
13.1109427399713
 31
0.0
  0
LINE
  5
F104D3
330
261
100
AcDbEntity
  8
Geo
100
AcDbLine
 10
-48.230303030303
 20
12.5231584273347
 30
0.0
 11
-48.130303030303
 21
12.4145638872644
 31
0.0
  0
LINE
  5
F104D5
330
261
100
AcDbEntity
  8
Geo
100
AcDbLine
 10
-48.130303030303
 20
13.1109427399713
 30
0.0
 11
-48.030303030303
 21
13.0044664152461
 31
0.0
  0
LINE
  5
F104D7
330
261
100
AcDbEntity
  8
Geo
100
AcDbLine
 10
-48.130303030303
 20
12.4145638872644
 30
0.0
 11
-48.030303030303
 21
12.3059621056965
 31
0.0
  0
LINE
  5
F104D9
330
261
100
AcDbEntity
  8
Geo
100
AcDbLine
 10
-48.030303030303
 20
13.0044664152461
 30
0.0
 11
-47.930303030303
 21
12.8972023274115
 31
0.0
  0
LINE
  5
F104DB
330
261
100
AcDbEntity
  8
Geo
100
AcDbLine
 10
-48.030303030303
 20
12.3059621056965
 30
0.0
 11
-47.930303030303
 21
12.1974967776205
 31
0.0
  0
LINE
  5
F104DD
330
261
100
AcDbEntity
  8
Geo
100
AcDbLine
 10
-47.930303030303
 20
12.8972023274115
 30
0.0
 11
-47.830303030303
 21
12.7892924015055
 31
0.0
  0
LINE
  5
F104DF
330
261
100
AcDbEntity
  8
Geo
100
AcDbLine
 10
-47.930303030303
 20
12.1974967776205
 30
0.0
 11
-47.830303030303
 21
12.0893114174795
 31
0.0
  0
LINE
  5
F104E1
330
261
100
AcDbEntity
  8
Geo
100
AcDbLine
 10
-47.830303030303
 20
12.7892924015055
 30
0.0
 11
-47.73030303030298
 21
12.6808794170982
 31
0.0
  0
LINE
  5
F104E3
330
261
100
AcDbEntity
  8
Geo
100
AcDbLine
 10
-47.830303030303
 20
12.0893114174795
 30
0.0
 11
-47.73030303030298
 21
11.9815491692804
 31
0.0
  0
LINE
  5
F104E5
330
261
100
AcDbEntity
  8
Geo
100
AcDbLine
 10
-47.73030303030298
 20
12.6808794170982
 30
0.0
 11
-47.630303030303
 21
12.5721068193746
 31
0.0
  0
LINE
  5
F104E7
330
261
100
AcDbEntity
  8
Geo
100
AcDbLine
 10
-47.73030303030298
 20
11.9815491692804
 30
0.0
 11
-47.630303030303
 21
11.8743526171956
 31
0.0
  0
LINE
  5
F104E9
330
261
100
AcDbEntity
  8
Geo
100
AcDbLine
 10
-47.630303030303
 20
12.5721068193746
 30
0.0
 11
-47.530303030303
 21
12.4631185293375
 31
0.0
  0
LINE
  5
F104EB
330
261
100
AcDbEntity
  8
Geo
100
AcDbLine
 10
-47.630303030303
 20
11.8743526171956
 30
0.0
 11
-47.530303030303
 21
11.7678635969041
 31
0.0
  0
LINE
  5
F104ED
330
261
100
AcDbEntity
  8
Geo
100
AcDbLine
 10
-47.530303030303
 20
12.4631185293375
 30
0.0
 11
-47.430303030303
 21
12.3540587533798
 31
0.0
  0
LINE
  5
F104EF
330
261
100
AcDbEntity
  8
Geo
100
AcDbLine
 10
-47.530303030303
 20
11.7678635969041
 30
0.0
 11
-47.430303030303
 21
11.66222300792369
 31
0.0
  0
LINE
  5
F104F1
330
261
100
AcDbEntity
  8
Geo
100
AcDbLine
 10
-47.430303030303
 20
12.3540587533798
 30
0.0
 11
-47.33030303030299
 21
12.2450717924803
 31
0.0
  0
LINE
  5
F104F3
330
261
100
AcDbEntity
  8
Geo
100
AcDbLine
 10
-47.430303030303
 20
11.66222300792369
 30
0.0
 11
-47.33030303030299
 21
11.5575706271818
 31
0.0
  0
LINE
  5
F104F5
330
261
100
AcDbEntity
  8
Geo
100
AcDbLine
 10
-47.33030303030299
 20
12.2450717924803
 30
0.0
 11
-47.230303030303
 21
12.1363018512733
 31
0.0
  0
LINE
  5
F104F7
330
261
100
AcDbEntity
  8
Geo
100
AcDbLine
 10
-47.33030303030299
 20
11.5575706271818
 30
0.0
 11
-47.230303030303
 21
11.4540449240711
 31
0.0
  0
LINE
  5
F104F9
330
261
100
AcDbEntity
  8
Geo
100
AcDbLine
 10
-47.230303030303
 20
12.1363018512733
 30
0.0
 11
-47.130303030303
 21
12.0278928472467
 31
0.0
  0
LINE
  5
F104FB
330
261
100
AcDbEntity
  8
Geo
100
AcDbLine
 10
-47.230303030303
 20
11.4540449240711
 30
0.0
 11
-47.130303030303
 21
11.3517828772362
 31
0.0
  0
LINE
  5
F104FD
330
261
100
AcDbEntity
  8
Geo
100
AcDbLine
 10
-47.130303030303
 20
12.0278928472467
 30
0.0
 11
-47.030303030303
 21
11.9199882203188
 31
0.0
  0
LINE
  5
F104FF
330
261
100
AcDbEntity
  8
Geo
100
AcDbLine
 10
-47.130303030303
 20
11.3517828772362
 30
0.0
 11
-47.030303030303
 21
11.2509197933317
 31
0.0
  0
LINE
  5
F10501
330
261
100
AcDbEntity
  8
Geo
100
AcDbLine
 10
-47.030303030303
 20
11.9199882203188
 30
0.0
 11
-46.930303030303
 21
11.8127307430485
 31
0.0
  0
LINE
  5
F10503
330
261
100
AcDbEntity
  8
Geo
100
AcDbLine
 10
-47.030303030303
 20
11.2509197933317
 30
0.0
 11
-46.930303030303
 21
11.1515891279932
 31
0.0
  0
LINE
  5
F10505
330
261
100
AcDbEntity
  8
Geo
100
AcDbLine
 10
-46.930303030303
 20
11.8127307430485
 30
0.0
 11
-46.83030303030299
 21
11.7062623317271
 31
0.0
  0
LINE
  5
F10507
330
261
100
AcDbEntity
  8
Geo
100
AcDbLine
 10
-46.930303030303
 20
11.1515891279932
 30
0.0
 11
-46.83030303030299
 21
11.0539223092573
 31
0.0
  0
LINE
  5
F10509
330
261
100
AcDbEntity
  8
Geo
100
AcDbLine
 10
-46.83030303030299
 20
11.7062623317271
 30
0.0
 11
-46.730303030303
 21
11.600723858604
 31
0.0
  0
LINE
  5
F1050B
330
261
100
AcDbEntity
  8
Geo
100
AcDbLine
 10
-46.83030303030299
 20
11.0539223092573
 30
0.0
 11
-46.730303030303
 21
10.9580485636642
 31
0.0
  0
LINE
  5
F1050D
330
261
100
AcDbEntity
  8
Geo
100
AcDbLine
 10
-46.730303030303
 20
11.600723858604
 30
0.0
 11
-46.630303030303
 21
11.4962549654933
 31
0.0
  0
LINE
  5
F1050F
330
261
100
AcDbEntity
  8
Geo
100
AcDbLine
 10
-46.730303030303
 20
10.9580485636642
 30
0.0
 11
-46.630303030303
 21
10.8640947452736
 31
0.0
  0
LINE
  5
F10511
330
261
100
AcDbEntity
  8
Geo
100
AcDbLine
 10
-46.630303030303
 20
11.4962549654933
 30
0.0
 11
-46.530303030303
 21
11.3929938790086
 31
0.0
  0
LINE
  5
F10513
330
261
100
AcDbEntity
  8
Geo
100
AcDbLine
 10
-46.630303030303
 20
10.8640947452736
 30
0.0
 11
-46.530303030303
 21
10.772185167819
 31
0.0
  0
LINE
  5
F10515
330
261
100
AcDbEntity
  8
Geo
100
AcDbLine
 10
-46.530303030303
 20
11.3929938790086
 30
0.0
 11
-46.43030303030299
 21
11.2910772276705
 31
0.0
  0
LINE
  5
F10517
330
261
100
AcDbEntity
  8
Geo
100
AcDbLine
 10
-46.530303030303
 20
10.772185167819
 30
0.0
 11
-46.43030303030299
 21
10.6824414402243
 31
0.0
  0
LINE
  5
F10519
330
261
100
AcDbEntity
  8
Geo
100
AcDbLine
 10
-46.43030303030299
 20
11.2910772276705
 30
0.0
 11
-46.330303030303
 21
11.1906398611282
 31
0.0
  0
LINE
  5
F1051B
330
261
100
AcDbEntity
  8
Geo
100
AcDbLine
 10
-46.43030303030299
 20
10.6824414402243
 30
0.0
 11
-46.330303030303
 21
10.594982305698
 31
0.0
  0
LINE
  5
F1051D
330
261
100
AcDbEntity
  8
Geo
100
AcDbLine
 10
-46.330303030303
 20
11.1906398611282
 30
0.0
 11
-46.230303030303
 21
11.091814671735
 31
0.0
  0
LINE
  5
F1051F
330
261
100
AcDbEntity
  8
Geo
100
AcDbLine
 10
-46.330303030303
 20
10.594982305698
 30
0.0
 11
-46.230303030303
 21
10.5099234846201
 31
0.0
  0
LINE
  5
F10521
330
261
100
AcDbEntity
  8
Geo
100
AcDbLine
 10
-46.230303030303
 20
11.091814671735
 30
0.0
 11
-46.130303030303
 21
10.9947324187139
 31
0.0
  0
LINE
  5
F10523
330
261
100
AcDbEntity
  8
Geo
100
AcDbLine
 10
-46.230303030303
 20
10.5099234846201
 30
0.0
 11
-46.130303030303
 21
10.4273775214278
 31
0.0
  0
LINE
  5
F10525
330
261
100
AcDbEntity
  8
Geo
100
AcDbLine
 10
-46.130303030303
 20
10.9947324187139
 30
0.0
 11
-46.030303030303
 21
10.8995215551449
 31
0.0
  0
LINE
  5
F10527
330
261
100
AcDbEntity
  8
Geo
100
AcDbLine
 10
-46.130303030303
 20
10.4273775214278
 30
0.0
 11
-46.030303030303
 21
10.3474536357045
 31
0.0
  0
LINE
  5
F10529
330
261
100
AcDbEntity
  8
Geo
100
AcDbLine
 10
-46.130303030303
 20
15.3950924478552
 30
0.0
 11
-46.030303030303
 21
15.3933795464936
 31
0.0
  0
LINE
  5
F1052B
330
261
100
AcDbEntity
  8
Geo
100
AcDbLine
 10
-46.030303030303
 20
10.8995215551449
 30
0.0
 11
-45.930303030303
 21
10.8063080580039
 31
0.0
  0
LINE
  5
F1052D
330
261
100
AcDbEntity
  8
Geo
100
AcDbLine
 10
-46.030303030303
 20
10.3474536357045
 30
0.0
 11
-45.930303030303
 21
10.2702575776666
 31
0.0
  0
LINE
  5
F1052F
330
261
100
AcDbEntity
  8
Geo
100
AcDbLine
 10
-46.030303030303
 20
15.3933795464936
 30
0.0
 11
-45.930303030303
 21
15.3888826435727
 31
0.0
  0
LINE
  5
F10531
330
261
100
AcDbEntity
  8
Geo
100
AcDbLine
 10
-45.930303030303
 20
10.8063080580039
 30
0.0
 11
-45.830303030303
 21
10.7152152614787
 31
0.0
  0
LINE
  5
F10533
330
261
100
AcDbEntity
  8
Geo
100
AcDbLine
 10
-45.930303030303
 20
10.2702575776666
 30
0.0
 11
-45.830303030303
 21
10.1958914882423
 31
0.0
  0
LINE
  5
F10535
330
261
100
AcDbEntity
  8
Geo
100
AcDbLine
 10
-45.930303030303
 20
15.3888826435727
 30
0.0
 11
-45.830303030303
 21
15.3816059341909
 31
0.0
  0
LINE
  5
F10537
330
261
100
AcDbEntity
  8
Geo
100
AcDbLine
 10
-45.830303030303
 20
10.7152152614787
 30
0.0
 11
-45.73030303030299
 21
10.6263636937802
 31
0.0
  0
LINE
  5
F10539
330
261
100
AcDbEntity
  8
Geo
100
AcDbLine
 10
-45.830303030303
 20
10.1958914882423
 30
0.0
 11
-45.73030303030299
 21
10.1244537639246
 31
0.0
  0
LINE
  5
F1053B
330
261
100
AcDbEntity
  8
Geo
100
AcDbLine
 10
-45.830303030303
 20
15.3816059341909
 30
0.0
 11
-45.73030303030299
 21
15.3715562066897
 31
0.0
  0
LINE
  5
F1053D
330
261
100
AcDbEntity
  8
Geo
100
AcDbLine
 10
-45.73030303030299
 20
10.6263636937802
 30
0.0
 11
-45.630303030303
 21
10.5398709176676
 31
0.0
  0
LINE
  5
F1053F
330
261
100
AcDbEntity
  8
Geo
100
AcDbLine
 10
-45.73030303030299
 20
10.1244537639246
 30
0.0
 11
-45.630303030303
 21
10.0560389265794
 31
0.0
  0
LINE
  5
F10541
330
261
100
AcDbEntity
  8
Geo
100
AcDbLine
 10
-45.73030303030299
 20
15.3715562066897
 30
0.0
 11
-45.630303030303
 21
15.3587428363208
 31
0.0
  0
LINE
  5
F10543
330
261
100
AcDbEntity
  8
Geo
100
AcDbLine
 10
-45.630303030303
 20
10.5398709176676
 30
0.0
 11
-45.530303030303
 21
10.4558513748967
 31
0.0
  0
LINE
  5
F10545
330
261
100
AcDbEntity
  8
Geo
100
AcDbLine
 10
-45.630303030303
 20
10.0560389265794
 30
0.0
 11
-45.530303030303
 21
9.990737498380539
 31
0.0
  0
LINE
  5
F10547
330
261
100
AcDbEntity
  8
Geo
100
AcDbLine
 10
-45.630303030303
 20
15.3587428363208
 30
0.0
 11
-45.530303030303
 21
15.3431777764999
 31
0.0
  0
LINE
  5
F10549
330
261
100
AcDbEntity
  8
Geo
100
AcDbLine
 10
-45.530303030303
 20
10.4558513748967
 30
0.0
 11
-45.430303030303
 21
10.3744162347977
 31
0.0
  0
LINE
  5
F1054B
330
261
100
AcDbEntity
  8
Geo
100
AcDbLine
 10
-45.530303030303
 20
9.990737498380539
 30
0.0
 11
-45.430303030303
 21
9.928635882036212
 31
0.0
  0
LINE
  5
F1054D
330
261
100
AcDbEntity
  8
Geo
100
AcDbLine
 10
-45.530303030303
 20
15.3431777764999
 30
0.0
 11
-45.430303030303
 21
15.324875547656
 31
0.0
  0
LINE
  5
F1054F
330
261
100
AcDbEntity
  8
Geo
100
AcDbLine
 10
-45.430303030303
 20
10.3744162347977
 30
0.0
 11
-45.330303030303
 21
10.295673247183
 31
0.0
  0
LINE
  5
F10551
330
261
100
AcDbEntity
  8
Geo
100
AcDbLine
 10
-45.430303030303
 20
9.928635882036212
 30
0.0
 11
-45.330303030303
 21
9.869816246466481
 31
0.0
  0
LINE
  5
F10553
330
261
100
AcDbEntity
  8
Geo
100
AcDbLine
 10
-45.430303030303
 20
15.324875547656
 30
0.0
 11
-45.330303030303
 21
15.3038532236849
 31
0.0
  0
LINE
  5
F10555
330
261
100
AcDbEntity
  8
Geo
100
AcDbLine
 10
-45.330303030303
 20
10.295673247183
 30
0.0
 11
-45.23030303030298
 21
10.21972659978
 31
0.0
  0
LINE
  5
F10557
330
261
100
AcDbEntity
  8
Geo
100
AcDbLine
 10
-45.330303030303
 20
9.869816246466481
 30
0.0
 11
-45.23030303030298
 21
9.81435641808264
 31
0.0
  0
LINE
  5
F10559
330
261
100
AcDbEntity
  8
Geo
100
AcDbLine
 10
-45.330303030303
 20
15.4070326408403
 30
0.0
 11
-45.23030303030298
 21
15.4044059349886
 31
0.0
  0
LINE
  5
F1055B
330
261
100
AcDbEntity
  8
Geo
100
AcDbLine
 10
-45.330303030303
 20
15.3038532236849
 30
0.0
 11
-45.23030303030298
 21
15.2801304160218
 31
0.0
  0
LINE
  5
F1055D
330
261
100
AcDbEntity
  8
Geo
100
AcDbLine
 10
-45.23030303030298
 20
10.21972659978
 30
0.0
 11
-45.130303030303
 21
10.1466767803756
 31
0.0
  0
LINE
  5
F1055F
330
261
100
AcDbEntity
  8
Geo
100
AcDbLine
 10
-45.23030303030298
 20
9.81435641808264
 30
0.0
 11
-45.130303030303
 21
9.762329777812212
 31
0.0
  0
LINE
  5
F10561
330
261
100
AcDbEntity
  8
Geo
100
AcDbLine
 10
-45.23030303030298
 20
15.4044059349886
 30
0.0
 11
-45.130303030303
 21
15.3989849412123
 31
0.0
  0
LINE
  5
F10563
330
261
100
AcDbEntity
  8
Geo
100
AcDbLine
 10
-45.23030303030298
 20
15.2801304160218
 30
0.0
 11
-45.130303030303
 21
15.2537292553454
 31
0.0
  0
LINE
  5
F10565
330
261
100
AcDbEntity
  8
Geo
100
AcDbLine
 10
-45.130303030303
 20
10.1466767803756
 30
0.0
 11
-45.030303030303
 21
10.0766204438578
 31
0.0
  0
LINE
  5
F10567
330
261
100
AcDbEntity
  8
Geo
100
AcDbLine
 10
-45.130303030303
 20
9.762329777812212
 30
0.0
 11
-45.030303030303
 21
9.713805164005901
 31
0.0
  0
LINE
  5
F10569
330
261
100
AcDbEntity
  8
Geo
100
AcDbLine
 10
-45.130303030303
 20
15.3989849412123
 30
0.0
 11
-45.030303030303
 21
15.3907747166816
 31
0.0
  0
LINE
  5
F1056B
330
261
100
AcDbEntity
  8
Geo
100
AcDbLine
 10
-45.130303030303
 20
15.2537292553454
 30
0.0
 11
-45.030303030303
 21
15.2246743709332
 31
0.0
  0
LINE
  5
F1056D
330
261
100
AcDbEntity
  8
Geo
100
AcDbLine
 10
-45.030303030303
 20
10.0766204438578
 30
0.0
 11
-44.930303030303
 21
10.0096502843281
 31
0.0
  0
LINE
  5
F1056F
330
261
100
AcDbEntity
  8
Geo
100
AcDbLine
 10
-45.030303030303
 20
9.713805164005901
 30
0.0
 11
-44.930303030303
 21
9.66884678135516
 31
0.0
  0
LINE
  5
F10571
330
261
100
AcDbEntity
  8
Geo
100
AcDbLine
 10
-45.030303030303
 20
15.3907747166816
 30
0.0
 11
-44.930303030303
 21
15.3797829206011
 31
0.0
  0
LINE
  5
F10573
330
261
100
AcDbEntity
  8
Geo
100
AcDbLine
 10
-45.030303030303
 20
15.2246743709332
 30
0.0
 11
-44.930303030303
 21
15.1929928676845
 31
0.0
  0
LINE
  5
F10575
330
261
100
AcDbEntity
  8
Geo
100
AcDbLine
 10
-44.930303030303
 20
10.0096502843281
 30
0.0
 11
-44.83030303030299
 21
9.945854912453999
 31
0.0
  0
LINE
  5
F10577
330
261
100
AcDbEntity
  8
Geo
100
AcDbLine
 10
-44.930303030303
 20
9.66884678135516
 30
0.0
 11
-44.83030303030299
 21
9.62751411594051
 31
0.0
  0
LINE
  5
F10579
330
261
100
AcDbEntity
  8
Geo
100
AcDbLine
 10
-44.930303030303
 20
15.3797829206011
 30
0.0
 11
-44.83030303030299
 21
15.3660198070654
 31
0.0
  0
LINE
  5
F1057B
330
261
100
AcDbEntity
  8
Geo
100
AcDbLine
 10
-44.930303030303
 20
15.1929928676845
 30
0.0
 11
-44.83030303030299
 21
15.1587143008353
 31
0.0
  0
LINE
  5
F1057D
330
261
100
AcDbEntity
  8
Geo
100
AcDbLine
 10
-44.83030303030299
 20
9.945854912453999
 30
0.0
 11
-44.730303030303
 21
9.885318738225526
 31
0.0
  0
LINE
  5
F1057F
330
261
100
AcDbEntity
  8
Geo
100
AcDbLine
 10
-44.83030303030299
 20
9.62751411594051
 30
0.0
 11
-44.730303030303
 21
9.589861856523407
 31
0.0
  0
LINE
  5
F10581
330
261
100
AcDbEntity
  8
Geo
100
AcDbLine
 10
-44.83030303030299
 20
15.3660198070654
 30
0.0
 11
-44.730303030303
 21
15.3494982154925
 31
0.0
  0
LINE
  5
F10583
330
261
100
AcDbEntity
  8
Geo
100
AcDbLine
 10
-44.83030303030299
 20
15.1587143008353
 30
0.0
 11
-44.730303030303
 21
15.121870648386
 31
0.0
  0
LINE
  5
F10585
330
261
100
AcDbEntity
  8
Geo
100
AcDbLine
 10
-44.730303030303
 20
9.885318738225526
 30
0.0
 11
-44.630303030303
 21
9.828121859269071
 31
0.0
  0
LINE
  5
F10587
330
261
100
AcDbEntity
  8
Geo
100
AcDbLine
 10
-44.730303030303
 20
9.589861856523407
 30
0.0
 11
-44.630303030303
 21
9.5559398221855
 31
0.0
  0
LINE
  5
F10589
330
261
100
AcDbEntity
  8
Geo
100
AcDbLine
 10
-44.730303030303
 20
15.3494982154925
 30
0.0
 11
-44.630303030303
 21
15.3302335586465
 31
0.0
  0
LINE
  5
F1058B
330
261
100
AcDbEntity
  8
Geo
100
AcDbLine
 10
-44.730303030303
 20
15.121870648386
 30
0.0
 11
-44.630303030303
 21
15.08249628127
 31
0.0
  0
LINE
  5
F1058D
330
261
100
AcDbEntity
  8
Geo
100
AcDbLine
 10
-44.630303030303
 20
9.828121859269071
 30
0.0
 11
-44.530303030303
 21
9.774339954867279
 31
0.0
  0
LINE
  5
F1058F
330
261
100
AcDbEntity
  8
Geo
100
AcDbLine
 10
-44.630303030303
 20
9.5559398221855
 30
0.0
 11
-44.530303030303
 21
9.525792896411212
 31
0.0
  0
LINE
  5
F10591
330
261
100
AcDbEntity
  8
Geo
100
AcDbLine
 10
-44.630303030303
 20
15.3302335586465
 30
0.0
 11
-44.530303030303
 21
15.3082438082591
 31
0.0
  0
LINE
  5
F10593
330
261
100
AcDbEntity
  8
Geo
100
AcDbLine
 10
-44.630303030303
 20
15.08249628127
 30
0.0
 11
-44.530303030303
 21
15.0406279312892
 31
0.0
  0
LINE
  5
F10595
330
261
100
AcDbEntity
  8
Geo
100
AcDbLine
 10
-44.530303030303
 20
9.774339954867279
 30
0.0
 11
-44.430303030303
 21
9.724044185825061
 31
0.0
  0
LINE
  5
F10597
330
261
100
AcDbEntity
  8
Geo
100
AcDbLine
 10
-44.530303030303
 20
9.525792896411212
 30
0.0
 11
-44.430303030303
 21
9.499460967700699
 31
0.0
  0
LINE
  5
F10599
330
261
100
AcDbEntity
  8
Geo
100
AcDbLine
 10
-44.530303030303
 20
15.3082438082591
 30
0.0
 11
-44.430303030303
 21
15.283549478264
 31
0.0
  0
LINE
  5
F1059B
330
261
100
AcDbEntity
  8
Geo
100
AcDbLine
 10
-44.530303030303
 20
15.0406279312892
 30
0.0
 11
-44.430303030303
 21
14.996304656848
 31
0.0
  0
LINE
  5
F1059D
330
261
100
AcDbEntity
  8
Geo
100
AcDbLine
 10
-44.430303030303
 20
9.724044185825061
 30
0.0
 11
-44.33030303030299
 21
9.677301100314107
 31
0.0
  0
LINE
  5
F1059F
330
261
100
AcDbEntity
  8
Geo
100
AcDbLine
 10
-44.430303030303
 20
9.499460967700699
 30
0.0
 11
-44.33030303030299
 21
9.47697887679201
 31
0.0
  0
LINE
  5
F105A1
330
261
100
AcDbEntity
  8
Geo
100
AcDbLine
 10
-44.430303030303
 20
15.283549478264
 30
0.0
 11
-44.33030303030299
 21
15.2561736056598
 31
0.0
  0
LINE
  5
F105A3
330
261
100
AcDbEntity
  8
Geo
100
AcDbLine
 10
-44.430303030303
 20
14.996304656848
 30
0.0
 11
-44.33030303030299
 21
14.9495678065153
 31
0.0
  0
LINE
  5
F105A5
330
261
100
AcDbEntity
  8
Geo
100
AcDbLine
 10
-44.33030303030299
 20
9.677301100314107
 30
0.0
 11
-44.230303030303
 21
9.634172545820607
 31
0.0
  0
LINE
  5
F105A7
330
261
100
AcDbEntity
  8
Geo
100
AcDbLine
 10
-44.33030303030299
 20
9.47697887679201
 30
0.0
 11
-44.230303030303
 21
9.458376370561961
 31
0.0
  0
LINE
  5
F105A9
330
261
100
AcDbEntity
  8
Geo
100
AcDbLine
 10
-44.33030303030299
 20
15.2561736056598
 30
0.0
 11
-44.230303030303
 21
15.2261417290193
 31
0.0
  0
LINE
  5
F105AB
330
261
100
AcDbEntity
  8
Geo
100
AcDbLine
 10
-44.33030303030299
 20
14.9495678065153
 30
0.0
 11
-44.230303030303
 21
14.900460980452
 31
0.0
  0
LINE
  5
F105AD
330
261
100
AcDbEntity
  8
Geo
100
AcDbLine
 10
-44.230303030303
 20
9.634172545820607
 30
0.0
 11
-44.130303030303
 21
9.594715587312528
 31
0.0
  0
LINE
  5
F105AF
330
261
100
AcDbEntity
  8
Geo
100
AcDbLine
 10
-44.230303030303
 20
9.458376370561961
 30
0.0
 11
-44.130303030303
 21
9.443678062666961
 31
0.0
  0
LINE
  5
F105B1
330
261
100
AcDbEntity
  8
Geo
100
AcDbLine
 10
-44.230303030303
 20
15.2261417290193
 30
0.0
 11
-44.130303030303
 21
15.1934818646642
 31
0.0
  0
LINE
  5
F105B3
330
261
100
AcDbEntity
  8
Geo
100
AcDbLine
 10
-44.230303030303
 20
14.900460980452
 30
0.0
 11
-44.130303030303
 21
14.8490299897363
 31
0.0
  0
LINE
  5
F105B5
330
261
100
AcDbEntity
  8
Geo
100
AcDbLine
 10
-44.130303030303
 20
9.594715587312528
 30
0.0
 11
-44.030303030303
 21
9.558982431734907
 31
0.0
  0
LINE
  5
F105B7
330
261
100
AcDbEntity
  8
Geo
100
AcDbLine
 10
-44.130303030303
 20
9.443678062666961
 30
0.0
 11
-44.030303030303
 21
9.432903400975819
 31
0.0
  0
LINE
  5
F105B9
330
261
100
AcDbEntity
  8
Geo
100
AcDbLine
 10
-44.130303030303
 20
15.1934818646642
 30
0.0
 11
-44.030303030303
 21
15.1582244805301
 31
0.0
  0
LINE
  5
F105BB
330
261
100
AcDbEntity
  8
Geo
100
AcDbLine
 10
-44.130303030303
 20
14.8490299897363
 30
0.0
 11
-44.030303030303
 21
14.7953228136275
 31
0.0
  0
LINE
  5
F105BD
330
261
100
AcDbEntity
  8
Geo
100
AcDbLine
 10
-44.030303030303
 20
9.558982431734907
 30
0.0
 11
-43.93030303030299
 21
9.52702035893291
 31
0.0
  0
LINE
  5
F105BF
330
261
100
AcDbEntity
  8
Geo
100
AcDbLine
 10
-44.030303030303
 20
9.432903400975819
 30
0.0
 11
-43.93030303030299
 21
9.426066641837516
 31
0.0
  0
LINE
  5
F105C1
330
261
100
AcDbEntity
  8
Geo
100
AcDbLine
 10
-44.030303030303
 20
15.1582244805301
 30
0.0
 11
-43.93030303030299
 21
15.1204024677424
 31
0.0
  0
LINE
  5
F105C3
330
261
100
AcDbEntity
  8
Geo
100
AcDbLine
 10
-44.030303030303
 20
14.7953228136275
 30
0.0
 11
-43.93030303030299
 21
14.7393895548067
 31
0.0
  0
LINE
  5
F105C5
330
261
100
AcDbEntity
  8
Geo
100
AcDbLine
 10
-43.93030303030299
 20
9.52702035893291
 30
0.0
 11
-43.830303030303
 21
9.49887165909414
 31
0.0
  0
LINE
  5
F105C7
330
261
100
AcDbEntity
  8
Geo
100
AcDbLine
 10
-43.93030303030299
 20
9.426066641837516
 30
0.0
 11
-43.830303030303
 21
9.42317683121816
 31
0.0
  0
LINE
  5
F105C9
330
261
100
AcDbEntity
  8
Geo
100
AcDbLine
 10
-43.93030303030299
 20
15.1204024677424
 30
0.0
 11
-43.830303030303
 21
15.0800511099335
 31
0.0
  0
LINE
  5
F105CB
330
261
100
AcDbEntity
  8
Geo
100
AcDbLine
 10
-43.93030303030299
 20
14.7393895548067
 30
0.0
 11
-43.830303030303
 21
14.6812823926368
 31
0.0
  0
LINE
  5
F105CD
330
261
100
AcDbEntity
  8
Geo
100
AcDbLine
 10
-43.830303030303
 20
9.49887165909414
 30
0.0
 11
-43.730303030303
 21
9.474573576792961
 31
0.0
  0
LINE
  5
F105CF
330
261
100
AcDbEntity
  8
Geo
100
AcDbLine
 10
-43.830303030303
 20
15.0800511099335
 30
0.0
 11
-43.730303030303
 21
15.0372080503263
 31
0.0
  0
LINE
  5
F105D1
330
261
100
AcDbEntity
  8
Geo
100
AcDbLine
 10
-43.830303030303
 20
14.6812823926368
 30
0.0
 11
-43.730303030303
 21
14.6210555344851
 31
0.0
  0
LINE
  5
F105D3
330
261
100
AcDbEntity
  8
Geo
100
AcDbLine
 10
-43.730303030303
 20
9.474573576792961
 30
0.0
 11
-43.630303030303
 21
9.454158261710819
 31
0.0
  0
LINE
  5
F105D5
330
261
100
AcDbEntity
  8
Geo
100
AcDbLine
 10
-43.730303030303
 20
15.0372080503263
 30
0.0
 11
-43.630303030303
 21
14.9919132566182
 31
0.0
  0
LINE
  5
F105D7
330
261
100
AcDbEntity
  8
Geo
100
AcDbLine
 10
-43.730303030303
 20
14.6210555344851
 30
0.0
 11
-43.630303030303
 21
14.5587651651539
 31
0.0
  0
LINE
  5
F105D9
330
261
100
AcDbEntity
  8
Geo
100
AcDbLine
 10
-43.630303030303
 20
9.454158261710819
 30
0.0
 11
-43.530303030303
 21
9.437652726097839
 31
0.0
  0
LINE
  5
F105DB
330
261
100
AcDbEntity
  8
Geo
100
AcDbLine
 10
-43.630303030303
 20
14.9919132566182
 30
0.0
 11
-43.530303030303
 21
14.9442089836952
 31
0.0
  0
LINE
  5
F105DD
330
261
100
AcDbEntity
  8
Geo
100
AcDbLine
 10
-43.630303030303
 20
14.5587651651539
 30
0.0
 11
-43.530303030303
 21
14.4944693944663
 31
0.0
  0
LINE
  5
F105DF
330
261
100
AcDbEntity
  8
Geo
100
AcDbLine
 10
-43.530303030303
 20
9.437652726097839
 30
0.0
 11
-43.430303030303
 21
9.425078809031939
 31
0.0
  0
LINE
  5
F105E1
330
261
100
AcDbEntity
  8
Geo
100
AcDbLine
 10
-43.530303030303
 20
14.9442089836952
 30
0.0
 11
-43.430303030303
 21
14.8941397342132
 31
0.0
  0
LINE
  5
F105E3
330
261
100
AcDbEntity
  8
Geo
100
AcDbLine
 10
-43.530303030303
 20
14.4944693944663
 30
0.0
 11
-43.430303030303
 21
14.4282282030569
 31
0.0
  0
LINE
  5
F105E5
330
261
100
AcDbEntity
  8
Geo
100
AcDbLine
 10
-43.430303030303
 20
9.425078809031939
 30
0.0
 11
-43.330303030303
 21
9.416453147522679
 31
0.0
  0
LINE
  5
F105E7
330
261
100
AcDbEntity
  8
Geo
100
AcDbLine
 10
-43.430303030303
 20
14.8941397342132
 30
0.0
 11
-43.330303030303
 21
14.8417522170819
 31
0.0
  0
LINE
  5
F105E9
330
261
100
AcDbEntity
  8
Geo
100
AcDbLine
 10
-43.430303030303
 20
14.4282282030569
 30
0.0
 11
-43.330303030303
 21
14.3601033864162
 31
0.0
  0
LINE
  5
F105EB
330
261
100
AcDbEntity
  8
Geo
100
AcDbLine
 10
-43.330303030303
 20
9.416453147522679
 30
0.0
 11
-43.23030303030299
 21
9.411787154498306
 31
0.0
  0
LINE
  5
F105ED
330
261
100
AcDbEntity
  8
Geo
100
AcDbLine
 10
-43.330303030303
 20
14.8417522170819
 30
0.0
 11
-43.23030303030299
 21
14.7870953038908
 31
0.0
  0
LINE
  5
F105EF
330
261
100
AcDbEntity
  8
Geo
100
AcDbLine
 10
-43.330303030303
 20
14.3601033864162
 30
0.0
 11
-43.23030303030299
 21
14.2901584972426
 31
0.0
  0
LINE
  5
F105F1
330
261
100
AcDbEntity
  8
Geo
100
AcDbLine
 10
-43.23030303030299
 20
14.7870953038908
 30
0.0
 11
-43.130303030303
 21
14.7302199833178
 31
0.0
  0
LINE
  5
F105F3
330
261
100
AcDbEntity
  8
Geo
100
AcDbLine
 10
-43.23030303030299
 20
14.2901584972426
 30
0.0
 11
-43.130303030303
 21
14.2184587861549
 31
0.0
  0
LINE
  5
F105F5
330
261
100
AcDbEntity
  8
Geo
100
AcDbLine
 10
-43.130303030303
 20
14.7302199833178
 30
0.0
 11
-43.030303030303
 21
14.6711793135619
 31
0.0
  0
LINE
  5
F105F7
330
261
100
AcDbEntity
  8
Geo
100
AcDbLine
 10
-43.130303030303
 20
14.2184587861549
 30
0.0
 11
-43.030303030303
 21
14.1450711408212
 31
0.0
  0
LINE
  5
F105F9
330
261
100
AcDbEntity
  8
Geo
100
AcDbLine
 10
-43.030303030303
 20
14.6711793135619
 30
0.0
 11
-42.930303030303
 21
14.6100283728469
 31
0.0
  0
LINE
  5
F105FB
330
261
100
AcDbEntity
  8
Geo
100
AcDbLine
 10
-43.030303030303
 20
14.1450711408212
 30
0.0
 11
-42.930303030303
 21
14.0700640235599
 31
0.0
  0
LINE
  5
F105FD
330
261
100
AcDbEntity
  8
Geo
100
AcDbLine
 10
-42.930303030303
 20
14.6100283728469
 30
0.0
 11
-42.830303030303
 21
14.5468242080387
 31
0.0
  0
LINE
  5
F105FF
330
261
100
AcDbEntity
  8
Geo
100
AcDbLine
 10
-42.930303030303
 20
14.0700640235599
 30
0.0
 11
-42.830303030303
 21
13.9935074074723
 31
0.0
  0
LINE
  5
F10601
330
261
100
AcDbEntity
  8
Geo
100
AcDbLine
 10
-42.830303030303
 20
14.5468242080387
 30
0.0
 11
-42.73030303030298
 21
14.4816257814278
 31
0.0
  0
LINE
  5
F10603
330
261
100
AcDbEntity
  8
Geo
100
AcDbLine
 10
-42.830303030303
 20
13.9935074074723
 30
0.0
 11
-42.73030303030298
 21
13.915472711166
 31
0.0
  0
LINE
  5
F10605
330
261
100
AcDbEntity
  8
Geo
100
AcDbLine
 10
-42.73030303030298
 20
14.4816257814278
 30
0.0
 11
-42.630303030303
 21
14.4144939157239
 31
0.0
  0
LINE
  5
F10607
330
261
100
AcDbEntity
  8
Geo
100
AcDbLine
 10
-42.73030303030298
 20
13.915472711166
 30
0.0
 11
-42.630303030303
 21
13.8360327321288
 31
0.0
  0
LINE
  5
F10609
330
261
100
AcDbEntity
  8
Geo
100
AcDbLine
 10
-42.630303030303
 20
14.4144939157239
 30
0.0
 11
-42.530303030303
 21
14.3454912373152
 31
0.0
  0
LINE
  5
F1060B
330
261
100
AcDbEntity
  8
Geo
100
AcDbLine
 10
-42.630303030303
 20
13.8360327321288
 30
0.0
 11
-42.530303030303
 21
13.7552615788176
 31
0.0
  0
LINE
  5
F1060D
330
261
100
AcDbEntity
  8
Geo
100
AcDbLine
 10
-42.530303030303
 20
14.3454912373152
 30
0.0
 11
-42.430303030303
 21
14.2746821178452
 31
0.0
  0
LINE
  5
F1060F
330
261
100
AcDbEntity
  8
Geo
100
AcDbLine
 10
-42.530303030303
 20
13.7552615788176
 30
0.0
 11
-42.430303030303
 21
13.6732346015231
 31
0.0
  0
LINE
  5
F10611
330
261
100
AcDbEntity
  8
Geo
100
AcDbLine
 10
-42.430303030303
 20
14.2746821178452
 30
0.0
 11
-42.33030303030299
 21
14.2021326141613
 31
0.0
  0
LINE
  5
F10613
330
261
100
AcDbEntity
  8
Geo
100
AcDbLine
 10
-42.430303030303
 20
13.6732346015231
 30
0.0
 11
-42.33030303030299
 21
13.5900283220771
 31
0.0
  0
LINE
  5
F10615
330
261
100
AcDbEntity
  8
Geo
100
AcDbLine
 10
-42.33030303030299
 20
14.2021326141613
 30
0.0
 11
-42.230303030303
 21
14.1279104066912
 31
0.0
  0
LINE
  5
F10617
330
261
100
AcDbEntity
  8
Geo
100
AcDbLine
 10
-42.33030303030299
 20
13.5900283220771
 30
0.0
 11
-42.230303030303
 21
13.5057203624658
 31
0.0
  0
LINE
  5
F10619
330
261
100
AcDbEntity
  8
Geo
100
AcDbLine
 10
-42.230303030303
 20
14.1279104066912
 30
0.0
 11
-42.130303030303
 21
14.0520847363048
 31
0.0
  0
LINE
  5
F1061B
330
261
100
AcDbEntity
  8
Geo
100
AcDbLine
 10
-42.230303030303
 20
13.5057203624658
 30
0.0
 11
-42.130303030303
 21
13.4203893724177
 31
0.0
  0
LINE
  5
F1061D
330
261
100
AcDbEntity
  8
Geo
100
AcDbLine
 10
-42.130303030303
 20
14.0520847363048
 30
0.0
 11
-42.030303030303
 21
13.9747263397204
 31
0.0
  0
LINE
  5
F1061F
330
261
100
AcDbEntity
  8
Geo
100
AcDbLine
 10
-42.130303030303
 20
13.4203893724177
 30
0.0
 11
-42.030303030303
 21
13.3341149560323
 31
0.0
  0
LINE
  5
F10621
330
261
100
AcDbEntity
  8
Geo
100
AcDbLine
 10
-42.030303030303
 20
13.9747263397204
 30
0.0
 11
-41.930303030303
 21
13.8959073835154
 31
0.0
  0
LINE
  5
F10623
330
261
100
AcDbEntity
  8
Geo
100
AcDbLine
 10
-42.030303030303
 20
13.3341149560323
 30
0.0
 11
-41.930303030303
 21
13.2469775975182
 31
0.0
  0
LINE
  5
F10625
330
261
100
AcDbEntity
  8
Geo
100
AcDbLine
 10
-41.930303030303
 20
13.8959073835154
 30
0.0
 11
-41.83030303030299
 21
13.8157013968028
 31
0.0
  0
LINE
  5
F10627
330
261
100
AcDbEntity
  8
Geo
100
AcDbLine
 10
-41.930303030303
 20
13.2469775975182
 30
0.0
 11
-41.83030303030299
 21
13.1590585861111
 31
0.0
  0
LINE
  5
F10629
330
261
100
AcDbEntity
  8
Geo
100
AcDbLine
 10
-41.83030303030299
 20
13.8157013968028
 30
0.0
 11
-41.730303030303
 21
13.7341832026374
 31
0.0
  0
LINE
  5
F1062B
330
261
100
AcDbEntity
  8
Geo
100
AcDbLine
 10
-41.83030303030299
 20
13.1590585861111
 30
0.0
 11
-41.730303030303
 21
13.0704399402396
 31
0.0
  0
LINE
  5
F1062D
330
261
100
AcDbEntity
  8
Geo
100
AcDbLine
 10
-41.730303030303
 20
13.7341832026374
 30
0.0
 11
-41.630303030303
 21
13.6514288482142
 31
0.0
  0
LINE
  5
F1062F
330
261
100
AcDbEntity
  8
Geo
100
AcDbLine
 10
-41.730303030303
 20
13.0704399402396
 30
0.0
 11
-41.630303030303
 21
12.9812043310118
 31
0.0
  0
LINE
  5
F10631
330
261
100
AcDbEntity
  8
Geo
100
AcDbLine
 10
-41.630303030303
 20
13.6514288482142
 30
0.0
 11
-41.530303030303
 21
13.5675155339248
 31
0.0
  0
LINE
  5
F10633
330
261
100
AcDbEntity
  8
Geo
100
AcDbLine
 10
-41.630303030303
 20
12.9812043310118
 30
0.0
 11
-41.530303030303
 21
12.8914350050923
 31
0.0
  0
LINE
  5
F10635
330
261
100
AcDbEntity
  8
Geo
100
AcDbLine
 10
-41.530303030303
 20
13.5675155339248
 30
0.0
 11
-41.43030303030299
 21
13.4825215413386
 31
0.0
  0
LINE
  5
F10637
330
261
100
AcDbEntity
  8
Geo
100
AcDbLine
 10
-41.530303030303
 20
12.8914350050923
 30
0.0
 11
-41.43030303030299
 21
12.8012157070425
 31
0.0
  0
LINE
  5
F10639
330
261
100
AcDbEntity
  8
Geo
100
AcDbLine
 10
-41.43030303030299
 20
13.4825215413386
 30
0.0
 11
-41.330303030303
 21
13.3965261601747
 31
0.0
  0
LINE
  5
F1063B
330
261
100
AcDbEntity
  8
Geo
100
AcDbLine
 10
-41.43030303030299
 20
12.8012157070425
 30
0.0
 11
-41.330303030303
 21
12.7106306011967
 31
0.0
  0
LINE
  5
F1063D
330
261
100
AcDbEntity
  8
Geo
100
AcDbLine
 10
-41.330303030303
 20
13.3965261601747
 30
0.0
 11
-41.230303030303
 21
13.3096096143338
 31
0.0
  0
LINE
  5
F1063F
330
261
100
AcDbEntity
  8
Geo
100
AcDbLine
 10
-41.330303030303
 20
12.7106306011967
 30
0.0
 11
-41.230303030303
 21
12.6197641931463
 31
0.0
  0
LINE
  5
F10641
330
261
100
AcDbEntity
  8
Geo
100
AcDbLine
 10
-41.230303030303
 20
13.3096096143338
 30
0.0
 11
-41.130303030303
 21
13.2218529870583
 31
0.0
  0
LINE
  5
F10643
330
261
100
AcDbEntity
  8
Geo
100
AcDbLine
 10
-41.230303030303
 20
12.6197641931463
 30
0.0
 11
-41.130303030303
 21
12.5287012509055
 31
0.0
  0
LINE
  5
F10645
330
261
100
AcDbEntity
  8
Geo
100
AcDbLine
 10
-41.130303030303
 20
13.2218529870583
 30
0.0
 11
-41.030303030303
 21
13.1333381452911
 31
0.0
  0
LINE
  5
F10647
330
261
100
AcDbEntity
  8
Geo
100
AcDbLine
 10
-41.130303030303
 20
12.5287012509055
 30
0.0
 11
-41.030303030303
 21
12.4375267258325
 31
0.0
  0
LINE
  5
F10649
330
261
100
AcDbEntity
  8
Geo
100
AcDbLine
 10
-41.030303030303
 20
13.1333381452911
 30
0.0
 11
-40.930303030303
 21
13.0441476633027
 31
0.0
  0
LINE
  5
F1064B
330
261
100
AcDbEntity
  8
Geo
100
AcDbLine
 10
-41.030303030303
 20
12.4375267258325
 30
0.0
 11
-40.930303030303
 21
12.3463256733797
 31
0.0
  0
LINE
  5
F1064D
330
261
100
AcDbEntity
  8
Geo
100
AcDbLine
 10
-40.930303030303
 20
13.0441476633027
 30
0.0
 11
-40.830303030303
 21
12.9543647456592
 31
0.0
  0
LINE
  5
F1064F
330
261
100
AcDbEntity
  8
Geo
100
AcDbLine
 10
-40.930303030303
 20
12.3463256733797
 30
0.0
 11
-40.830303030303
 21
12.2551831737465
 31
0.0
  0
LINE
  5
F10651
330
261
100
AcDbEntity
  8
Geo
100
AcDbLine
 10
-40.830303030303
 20
12.9543647456592
 30
0.0
 11
-40.73030303030299
 21
12.8640731496016
 31
0.0
  0
LINE
  5
F10653
330
261
100
AcDbEntity
  8
Geo
100
AcDbLine
 10
-40.830303030303
 20
12.2551831737465
 30
0.0
 11
-40.73030303030299
 21
12.164184252509
 31
0.0
  0
LINE
  5
F10655
330
261
100
AcDbEntity
  8
Geo
100
AcDbLine
 10
-40.73030303030299
 20
12.8640731496016
 30
0.0
 11
-40.630303030303
 21
12.77335710691
 31
0.0
  0
LINE
  5
F10657
330
261
100
AcDbEntity
  8
Geo
100
AcDbLine
 10
-40.73030303030299
 20
12.164184252509
 30
0.0
 11
-40.630303030303
 21
12.0734138013014
 31
0.0
  0
LINE
  5
F10659
330
261
100
AcDbEntity
  8
Geo
100
AcDbLine
 10
-40.630303030303
 20
12.77335710691
 30
0.0
 11
-40.530303030303
 21
12.6823012453248
 31
0.0
  0
LINE
  5
F1065B
330
261
100
AcDbEntity
  8
Geo
100
AcDbLine
 10
-40.630303030303
 20
12.0734138013014
 30
0.0
 11
-40.530303030303
 21
11.9829564986209
 31
0.0
  0
LINE
  5
F1065D
330
261
100
AcDbEntity
  8
Geo
100
AcDbLine
 10
-40.530303030303
 20
12.6823012453248
 30
0.0
 11
-40.430303030303
 21
12.590990509599
 31
0.0
  0
LINE
  5
F1065F
330
261
100
AcDbEntity
  8
Geo
100
AcDbLine
 10
-40.530303030303
 20
11.9829564986209
 30
0.0
 11
-40.430303030303
 21
11.8928967308332
 31
0.0
  0
LINE
  5
F10661
330
261
100
AcDbEntity
  8
Geo
100
AcDbLine
 10
-40.430303030303
 20
12.590990509599
 30
0.0
 11
-40.330303030303
 21
12.4995100822537
 31
0.0
  0
LINE
  5
F10663
330
261
100
AcDbEntity
  8
Geo
100
AcDbLine
 10
-40.430303030303
 20
11.8928967308332
 30
0.0
 11
-40.330303030303
 21
11.8033185134488
 31
0.0
  0
LINE
  5
F10665
330
261
100
AcDbEntity
  8
Geo
100
AcDbLine
 10
-40.330303030303
 20
12.4995100822537
 30
0.0
 11
-40.23030303030298
 21
12.4079453041135
 31
0.0
  0
LINE
  5
F10667
330
261
100
AcDbEntity
  8
Geo
100
AcDbLine
 10
-40.330303030303
 20
11.8033185134488
 30
0.0
 11
-40.23030303030298
 21
11.7143054127468
 31
0.0
  0
LINE
  5
F10669
330
261
100
AcDbEntity
  8
Geo
100
AcDbLine
 10
-40.23030303030298
 20
12.4079453041135
 30
0.0
 11
-40.130303030303
 21
12.3163815946923
 31
0.0
  0
LINE
  5
F1066B
330
261
100
AcDbEntity
  8
Geo
100
AcDbLine
 10
-40.23030303030298
 20
11.7143054127468
 30
0.0
 11
-40.130303030303
 21
11.6259404678167
 31
0.0
  0
LINE
  5
F1066D
330
261
100
AcDbEntity
  8
Geo
100
AcDbLine
 10
-40.130303030303
 20
15.3950826488466
 30
0.0
 11
-40.030303030303
 21
15.3929914581516
 31
0.0
  0
LINE
  5
F1066F
330
261
100
AcDbEntity
  8
Geo
100
AcDbLine
 10
-40.130303030303
 20
12.3163815946923
 30
0.0
 11
-40.030303030303
 21
12.2249043725072
 31
0.0
  0
LINE
  5
F10671
330
261
100
AcDbEntity
  8
Geo
100
AcDbLine
 10
-40.130303030303
 20
11.6259404678167
 30
0.0
 11
-40.030303030303
 21
11.5383061130924
 31
0.0
  0
LINE
  5
F10673
330
261
100
AcDbEntity
  8
Geo
100
AcDbLine
 10
-40.030303030303
 20
15.3929914581516
 30
0.0
 11
-39.930303030303
 21
15.3875851293764
 31
0.0
  0
LINE
  5
F10675
330
261
100
AcDbEntity
  8
Geo
100
AcDbLine
 10
-40.030303030303
 20
12.2249043725072
 30
0.0
 11
-39.930303030303
 21
12.1335989753924
 31
0.0
  0
LINE
  5
F10677
330
261
100
AcDbEntity
  8
Geo
100
AcDbLine
 10
-40.030303030303
 20
11.5383061130924
 30
0.0
 11
-39.930303030303
 21
11.4514841014503
 31
0.0
  0
LINE
  5
F10679
330
261
100
AcDbEntity
  8
Geo
100
AcDbLine
 10
-39.930303030303
 20
15.3875851293764
 30
0.0
 11
-39.830303030303
 21
15.3788696689968
 31
0.0
  0
LINE
  5
F1067B
330
261
100
AcDbEntity
  8
Geo
100
AcDbLine
 10
-39.930303030303
 20
12.1335989753924
 30
0.0
 11
-39.830303030303
 21
12.0425505808891
 31
0.0
  0
LINE
  5
F1067D
330
261
100
AcDbEntity
  8
Geo
100
AcDbLine
 10
-39.930303030303
 20
11.4514841014503
 30
0.0
 11
-39.830303030303
 21
11.3655554279433
 31
0.0
  0
LINE
  5
F1067F
330
261
100
AcDbEntity
  8
Geo
100
AcDbLine
 10
-39.830303030303
 20
15.3788696689968
 30
0.0
 11
-39.730303030303
 21
15.3668547599609
 31
0.0
  0
LINE
  5
F10681
330
261
100
AcDbEntity
  8
Geo
100
AcDbLine
 10
-39.830303030303
 20
12.0425505808891
 30
0.0
 11
-39.730303030303
 21
11.951844126784
 31
0.0
  0
LINE
  5
F10683
330
261
100
AcDbEntity
  8
Geo
100
AcDbLine
 10
-39.830303030303
 20
11.3655554279433
 30
0.0
 11
-39.730303030303
 21
11.2806002542413
 31
0.0
  0
LINE
  5
F10685
330
261
100
AcDbEntity
  8
Geo
100
AcDbLine
 10
-39.730303030303
 20
15.3668547599609
 30
0.0
 11
-39.63030303030301
 21
15.3515537509317
 31
0.0
  0
LINE
  5
F10687
330
261
100
AcDbEntity
  8
Geo
100
AcDbLine
 10
-39.730303030303
 20
11.951844126784
 30
0.0
 11
-39.63030303030301
 21
11.8615642318726
 31
0.0
  0
LINE
  5
F10689
330
261
100
AcDbEntity
  8
Geo
100
AcDbLine
 10
-39.730303030303
 20
11.2806002542413
 30
0.0
 11
-39.63030303030301
 21
11.1966978338499
 31
0.0
  0
LINE
  5
F1068B
330
261
100
AcDbEntity
  8
Geo
100
AcDbLine
 10
-39.63030303030301
 20
15.3515537509317
 30
0.0
 11
-39.530303030303
 21
15.3329836414562
 31
0.0
  0
LINE
  5
F1068D
330
261
100
AcDbEntity
  8
Geo
100
AcDbLine
 10
-39.63030303030301
 20
11.8615642318726
 30
0.0
 11
-39.530303030303
 21
11.7717951170192
 31
0.0
  0
LINE
  5
F1068F
330
261
100
AcDbEntity
  8
Geo
100
AcDbLine
 10
-39.63030303030301
 20
11.1966978338499
 30
0.0
 11
-39.530303030303
 21
11.1139264381756
 31
0.0
  0
LINE
  5
F10691
330
261
100
AcDbEntity
  8
Geo
100
AcDbLine
 10
-39.530303030303
 20
15.3329836414562
 30
0.0
 11
-39.430303030303
 21
15.311165063079
 31
0.0
  0
LINE
  5
F10693
330
261
100
AcDbEntity
  8
Geo
100
AcDbLine
 10
-39.530303030303
 20
11.7717951170192
 30
0.0
 11
-39.430303030303
 21
11.6826205265883
 31
0.0
  0
LINE
  5
F10695
330
261
100
AcDbEntity
  8
Geo
100
AcDbLine
 10
-39.530303030303
 20
11.1139264381756
 30
0.0
 11
-39.430303030303
 21
11.0323632835078
 31
0.0
  0
LINE
  5
F10697
330
261
100
AcDbEntity
  8
Geo
100
AcDbLine
 10
-39.430303030303
 20
15.4072868037146
 30
0.0
 11
-39.330303030303
 21
15.4052986221963
 31
0.0
  0
LINE
  5
F10699
330
261
100
AcDbEntity
  8
Geo
100
AcDbLine
 10
-39.430303030303
 20
15.311165063079
 30
0.0
 11
-39.330303030303
 21
15.2861222564202
 31
0.0
  0
LINE
  5
F1069B
330
261
100
AcDbEntity
  8
Geo
100
AcDbLine
 10
-39.430303030303
 20
11.6826205265883
 30
0.0
 11
-39.330303030303
 21
11.594123650321
 31
0.0
  0
LINE
  5
F1069D
330
261
100
AcDbEntity
  8
Geo
100
AcDbLine
 10
-39.430303030303
 20
11.0323632835078
 30
0.0
 11
-39.330303030303
 21
10.9520844589843
 31
0.0
  0
LINE
  5
F1069F
330
261
100
AcDbEntity
  8
Geo
100
AcDbLine
 10
-39.330303030303
 20
15.4052986221963
 30
0.0
 11
-39.230303030303
 21
15.3999816292373
 31
0.0
  0
LINE
  5
F106A1
330
261
100
AcDbEntity
  8
Geo
100
AcDbLine
 10
-39.330303030303
 20
15.2861222564202
 30
0.0
 11
-39.230303030303
 21
15.2578830442444
 31
0.0
  0
LINE
  5
F106A3
330
261
100
AcDbEntity
  8
Geo
100
AcDbLine
 10
-39.330303030303
 20
11.594123650321
 30
0.0
 11
-39.230303030303
 21
11.5063870457281
 31
0.0
  0
LINE
  5
F106A5
330
261
100
AcDbEntity
  8
Geo
100
AcDbLine
 10
-39.330303030303
 20
10.9520844589843
 30
0.0
 11
-39.230303030303
 21
10.8731648556092
 31
0.0
  0
LINE
  5
F106A7
330
261
100
AcDbEntity
  8
Geo
100
AcDbLine
 10
-39.230303030303
 20
15.3999816292373
 30
0.0
 11
-39.130303030303
 21
15.3913417320603
 31
0.0
  0
LINE
  5
F106A9
330
261
100
AcDbEntity
  8
Geo
100
AcDbLine
 10
-39.230303030303
 20
15.2578830442444
 30
0.0
 11
-39.130303030303
 21
15.2264788005487
 31
0.0
  0
LINE
  5
F106AB
330
261
100
AcDbEntity
  8
Geo
100
AcDbLine
 10
-39.230303030303
 20
11.5063870457281
 30
0.0
 11
-39.130303030303
 21
11.4194925610736
 31
0.0
  0
LINE
  5
F106AD
330
261
100
AcDbEntity
  8
Geo
100
AcDbLine
 10
-39.230303030303
 20
10.8731648556092
 30
0.0
 11
-39.130303030303
 21
10.7956780963882
 31
0.0
  0
LINE
  5
F106AF
330
261
100
AcDbEntity
  8
Geo
100
AcDbLine
 10
-39.130303030303
 20
15.3913417320603
 30
0.0
 11
-39.030303030303
 21
15.3793885296624
 31
0.0
  0
LINE
  5
F106B1
330
261
100
AcDbEntity
  8
Geo
100
AcDbLine
 10
-39.130303030303
 20
15.2264788005487
 30
0.0
 11
-39.030303030303
 21
15.1919444157064
 31
0.0
  0
LINE
  5
F106B3
330
261
100
AcDbEntity
  8
Geo
100
AcDbLine
 10
-39.130303030303
 20
11.4194925610736
 30
0.0
 11
-39.030303030303
 21
11.3335212590192
 31
0.0
  0
LINE
  5
F106B5
330
261
100
AcDbEntity
  8
Geo
100
AcDbLine
 10
-39.130303030303
 20
10.7956780963882
 30
0.0
 11
-39.030303030303
 21
10.7196964676463
 31
0.0
  0
LINE
  5
F106B7
330
261
100
AcDbEntity
  8
Geo
100
AcDbLine
 10
-39.030303030303
 20
15.3793885296624
 30
0.0
 11
-38.930303030303
 21
15.3641353021498
 31
0.0
  0
LINE
  5
F106B9
330
261
100
AcDbEntity
  8
Geo
100
AcDbLine
 10
-39.030303030303
 20
15.1919444157064
 30
0.0
 11
-38.930303030303
 21
15.1543182577036
 31
0.0
  0
LINE
  5
F106BB
330
261
100
AcDbEntity
  8
Geo
100
AcDbLine
 10
-39.030303030303
 20
11.3335212590192
 30
0.0
 11
-38.930303030303
 21
11.2485533410026
 31
0.0
  0
LINE
  5
F106BD
330
261
100
AcDbEntity
  8
Geo
100
AcDbLine
 10
-39.030303030303
 20
10.7196964676463
 30
0.0
 11
-38.930303030303
 21
10.645290851593
 31
0.0
  0
LINE
  5
F106BF
330
261
100
AcDbEntity
  8
Geo
100
AcDbLine
 10
-38.930303030303
 20
15.3641353021498
 30
0.0
 11
-38.830303030303
 21
15.3455989959839
 31
0.0
  0
LINE
  5
F106C1
330
261
100
AcDbEntity
  8
Geo
100
AcDbLine
 10
-38.930303030303
 20
15.1543182577036
 30
0.0
 11
-38.830303030303
 21
15.1136421295115
 31
0.0
  0
LINE
  5
F106C3
330
261
100
AcDbEntity
  8
Geo
100
AcDbLine
 10
-38.930303030303
 20
11.2485533410026
 30
0.0
 11
-38.830303030303
 21
11.1646680724184
 31
0.0
  0
LINE
  5
F106C5
330
261
100
AcDbEntity
  8
Geo
100
AcDbLine
 10
-38.930303030303
 20
10.645290851593
 30
0.0
 11
-38.830303030303
 21
10.5725306601977
 31
0.0
  0
LINE
  5
F106C7
330
261
100
AcDbEntity
  8
Geo
100
AcDbLine
 10
-38.830303030303
 20
15.3455989959839
 30
0.0
 11
-38.730303030303
 21
15.3238002051535
 31
0.0
  0
LINE
  5
F106C9
330
261
100
AcDbEntity
  8
Geo
100
AcDbLine
 10
-38.830303030303
 20
15.1136421295115
 30
0.0
 11
-38.730303030303
 21
15.0699612226435
 31
0.0
  0
LINE
  5
F106CB
330
261
100
AcDbEntity
  8
Geo
100
AcDbLine
 10
-38.830303030303
 20
11.1646680724184
 30
0.0
 11
-38.730303030303
 21
11.0819437086724
 31
0.0
  0
LINE
  5
F106CD
330
261
100
AcDbEntity
  8
Geo
100
AcDbLine
 10
-38.830303030303
 20
10.5725306601977
 30
0.0
 11
-38.730303030303
 21
10.5014837704358
 31
0.0
  0
LINE
  5
F106CF
330
261
100
AcDbEntity
  8
Geo
100
AcDbLine
 10
-38.730303030303
 20
15.3238002051535
 30
0.0
 11
-38.63030303030301
 21
15.2987631482947
 31
0.0
  0
LINE
  5
F106D1
330
261
100
AcDbEntity
  8
Geo
100
AcDbLine
 10
-38.730303030303
 20
15.0699612226435
 30
0.0
 11
-38.63030303030301
 21
15.0233240669469
 31
0.0
  0
LINE
  5
F106D3
330
261
100
AcDbEntity
  8
Geo
100
AcDbLine
 10
-38.730303030303
 20
11.0819437086724
 30
0.0
 11
-38.63030303030301
 21
11.0004574221784
 31
0.0
  0
LINE
  5
F106D5
330
261
100
AcDbEntity
  8
Geo
100
AcDbLine
 10
-38.730303030303
 20
10.5014837704358
 30
0.0
 11
-38.63030303030301
 21
10.4322164609672
 31
0.0
  0
LINE
  5
F106D7
330
261
100
AcDbEntity
  8
Geo
100
AcDbLine
 10
-38.63030303030301
 20
15.2987631482947
 30
0.0
 11
-38.530303030303
 21
15.2705156417838
 31
0.0
  0
LINE
  5
F106D9
330
261
100
AcDbEntity
  8
Geo
100
AcDbLine
 10
-38.63030303030301
 20
15.0233240669469
 30
0.0
 11
-38.530303030303
 21
14.9737824766856
 31
0.0
  0
LINE
  5
F106DB
330
261
100
AcDbEntity
  8
Geo
100
AcDbLine
 10
-38.63030303030301
 20
11.0004574221784
 30
0.0
 11
-38.530303030303
 21
10.9202852303651
 31
0.0
  0
LINE
  5
F106DD
330
261
100
AcDbEntity
  8
Geo
100
AcDbLine
 10
-38.63030303030301
 20
10.4322164609672
 30
0.0
 11
-38.530303030303
 21
10.364793350306
 31
0.0
  0
LINE
  5
F106DF
330
261
100
AcDbEntity
  8
Geo
100
AcDbLine
 10
-38.530303030303
 20
15.2705156417838
 30
0.0
 11
-38.430303030303
 21
15.2390890688331
 31
0.0
  0
LINE
  5
F106E1
330
261
100
AcDbEntity
  8
Geo
100
AcDbLine
 10
-38.530303030303
 20
14.9737824766856
 30
0.0
 11
-38.430303030303
 21
14.9213914929744
 31
0.0
  0
LINE
  5
F106E3
330
261
100
AcDbEntity
  8
Geo
100
AcDbLine
 10
-38.530303030303
 20
10.9202852303651
 30
0.0
 11
-38.430303030303
 21
10.8415019247606
 31
0.0
  0
LINE
  5
F106E5
330
261
100
AcDbEntity
  8
Geo
100
AcDbLine
 10
-38.530303030303
 20
10.364793350306
 30
0.0
 11
-38.430303030303
 21
10.2992773365389
 31
0.0
  0
LINE
  5
F106E7
330
261
100
AcDbEntity
  8
Geo
100
AcDbLine
 10
-38.430303030303
 20
15.2390890688331
 30
0.0
 11
-38.330303030303
 21
15.2045183446241
 31
0.0
  0
LINE
  5
F106E9
330
261
100
AcDbEntity
  8
Geo
100
AcDbLine
 10
-38.430303030303
 20
14.9213914929744
 30
0.0
 11
-38.330303030303
 21
14.8662093226275
 31
0.0
  0
LINE
  5
F106EB
330
261
100
AcDbEntity
  8
Geo
100
AcDbLine
 10
-38.430303030303
 20
10.8415019247606
 30
0.0
 11
-38.330303030303
 21
10.7641810012199
 31
0.0
  0
LINE
  5
F106ED
330
261
100
AcDbEntity
  8
Geo
100
AcDbLine
 10
-38.430303030303
 20
10.2992773365389
 30
0.0
 11
-38.330303030303
 21
10.2357295386482
 31
0.0
  0
LINE
  5
F106EF
330
261
100
AcDbEntity
  8
Geo
100
AcDbLine
 10
-38.330303030303
 20
15.2045183446241
 30
0.0
 11
-38.230303030303
 21
15.1668418775159
 31
0.0
  0
LINE
  5
F106F1
330
261
100
AcDbEntity
  8
Geo
100
AcDbLine
 10
-38.330303030303
 20
14.8662093226275
 30
0.0
 11
-38.230303030303
 21
14.80829727349069
 31
0.0
  0
LINE
  5
F106F3
330
261
100
AcDbEntity
  8
Geo
100
AcDbLine
 10
-38.330303030303
 20
10.7641810012199
 30
0.0
 11
-38.230303030303
 21
10.6883945913623
 31
0.0
  0
LINE
  5
F106F5
330
261
100
AcDbEntity
  8
Geo
100
AcDbLine
 10
-38.330303030303
 20
10.2357295386482
 30
0.0
 11
-38.230303030303
 21
10.174209239495
 31
0.0
  0
LINE
  5
F106F7
330
261
100
AcDbEntity
  8
Geo
100
AcDbLine
 10
-38.230303030303
 20
15.1668418775159
 30
0.0
 11
-38.13030303030301
 21
15.1261015263737
 31
0.0
  0
LINE
  5
F106F9
330
261
100
AcDbEntity
  8
Geo
100
AcDbLine
 10
-38.230303030303
 20
14.80829727349069
 30
0.0
 11
-38.13030303030301
 21
14.7477196863273
 31
0.0
  0
LINE
  5
F106FB
330
261
100
AcDbEntity
  8
Geo
100
AcDbLine
 10
-38.230303030303
 20
10.6883945913623
 30
0.0
 11
-38.13030303030301
 21
10.6142133952805
 31
0.0
  0
LINE
  5
F106FD
330
261
100
AcDbEntity
  8
Geo
100
AcDbLine
 10
-38.230303030303
 20
10.174209239495
 30
0.0
 11
-38.13030303030301
 21
10.1147738305146
 31
0.0
  0
LINE
  5
F106FF
330
261
100
AcDbEntity
  8
Geo
100
AcDbLine
 10
-38.13030303030301
 20
15.1261015263737
 30
0.0
 11
-38.030303030303
 21
15.0823425540631
 31
0.0
  0
LINE
  5
F10701
330
261
100
AcDbEntity
  8
Geo
100
AcDbLine
 10
-38.13030303030301
 20
14.7477196863273
 30
0.0
 11
-38.030303030303
 21
14.6845438633355
 31
0.0
  0
LINE
  5
F10703
330
261
100
AcDbEntity
  8
Geo
100
AcDbLine
 10
-38.13030303030301
 20
10.6142133952805
 30
0.0
 11
-38.030303030303
 21
10.5417066155855
 31
0.0
  0
LINE
  5
F10705
330
261
100
AcDbEntity
  8
Geo
100
AcDbLine
 10
-38.13030303030301
 20
10.1147738305146
 30
0.0
 11
-38.030303030303
 21
10.0574787581774
 31
0.0
  0
LINE
  5
F10707
330
261
100
AcDbEntity
  8
Geo
100
AcDbLine
 10
-38.030303030303
 20
15.0823425540631
 30
0.0
 11
-37.930303030303
 21
15.0356135771627
 31
0.0
  0
LINE
  5
F10709
330
261
100
AcDbEntity
  8
Geo
100
AcDbLine
 10
-38.030303030303
 20
14.6845438633355
 30
0.0
 11
-37.930303030303
 21
14.6188399933748
 31
0.0
  0
LINE
  5
F1070B
330
261
100
AcDbEntity
  8
Geo
100
AcDbLine
 10
-38.030303030303
 20
10.5417066155855
 30
0.0
 11
-37.930303030303
 21
10.4709418928484
 31
0.0
  0
LINE
  5
F1070D
330
261
100
AcDbEntity
  8
Geo
100
AcDbLine
 10
-38.030303030303
 20
10.0574787581774
 30
0.0
 11
-37.930303030303
 21
10.0023774722632
 31
0.0
  0
LINE
  5
F1070F
330
261
100
AcDbEntity
  8
Geo
100
AcDbLine
 10
-37.930303030303
 20
15.0356135771627
 30
0.0
 11
-37.830303030303
 21
14.9859665119506
 31
0.0
  0
LINE
  5
F10711
330
261
100
AcDbEntity
  8
Geo
100
AcDbLine
 10
-37.930303030303
 20
14.6188399933748
 30
0.0
 11
-37.830303030303
 21
14.5506810739859
 31
0.0
  0
LINE
  5
F10713
330
261
100
AcDbEntity
  8
Geo
100
AcDbLine
 10
-37.930303030303
 20
10.4709418928484
 30
0.0
 11
-37.830303030303
 21
10.4019852424994
 31
0.0
  0
LINE
  5
F10715
330
261
100
AcDbEntity
  8
Geo
100
AcDbLine
 10
-37.930303030303
 20
10.0023774722632
 30
0.0
 11
-37.830303030303
 21
9.94952137599891
 31
0.0
  0
LINE
  5
F10717
330
261
100
AcDbEntity
  8
Geo
100
AcDbLine
 10
-37.830303030303
 20
14.9859665119506
 30
0.0
 11
-37.730303030303
 21
14.9334565167251
 31
0.0
  0
LINE
  5
F10719
330
261
100
AcDbEntity
  8
Geo
100
AcDbLine
 10
-37.830303030303
 20
14.5506810739859
 30
0.0
 11
-37.730303030303
 21
14.4801428302894
 31
0.0
  0
LINE
  5
F1071B
330
261
100
AcDbEntity
  8
Geo
100
AcDbLine
 10
-37.830303030303
 20
10.4019852424994
 30
0.0
 11
-37.730303030303
 21
10.3349009932431
 31
0.0
  0
LINE
  5
F1071D
330
261
100
AcDbEntity
  8
Geo
100
AcDbLine
 10
-37.830303030303
 20
9.94952137599891
 30
0.0
 11
-37.730303030303
 21
9.898959778105099
 31
0.0
  0
LINE
  5
F1071F
330
261
100
AcDbEntity
  8
Geo
100
AcDbLine
 10
-37.730303030303
 20
14.9334565167251
 30
0.0
 11
-37.630303030303
 21
14.8781419305231
 31
0.0
  0
LINE
  5
F10721
330
261
100
AcDbEntity
  8
Geo
100
AcDbLine
 10
-37.730303030303
 20
14.4801428302894
 30
0.0
 11
-37.630303030303
 21
14.4073036308548
 31
0.0
  0
LINE
  5
F10723
330
261
100
AcDbEntity
  8
Geo
100
AcDbLine
 10
-37.730303030303
 20
10.3349009932431
 30
0.0
 11
-37.630303030303
 21
10.269751727047
 31
0.0
  0
LINE
  5
F10725
330
261
100
AcDbEntity
  8
Geo
100
AcDbLine
 10
-37.730303030303
 20
9.898959778105099
 30
0.0
 11
-37.630303030303
 21
9.850739846796519
 31
0.0
  0
LINE
  5
F10727
330
261
100
AcDbEntity
  8
Geo
100
AcDbLine
 10
-37.630303030303
 20
14.8781419305231
 30
0.0
 11
-37.530303030303
 21
14.8200842083056
 31
0.0
  0
LINE
  5
F10729
330
261
100
AcDbEntity
  8
Geo
100
AcDbLine
 10
-37.630303030303
 20
14.4073036308548
 30
0.0
 11
-37.530303030303
 21
14.3322444006325
 31
0.0
  0
LINE
  5
F1072B
330
261
100
AcDbEntity
  8
Geo
100
AcDbLine
 10
-37.630303030303
 20
10.269751727047
 30
0.0
 11
-37.530303030303
 21
10.2065982207597
 31
0.0
  0
LINE
  5
F1072D
330
261
100
AcDbEntity
  8
Geo
100
AcDbLine
 10
-37.630303030303
 20
9.850739846796519
 30
0.0
 11
-37.530303030303
 21
9.80490656577958
 31
0.0
  0
LINE
  5
F1072F
330
261
100
AcDbEntity
  8
Geo
100
AcDbLine
 10
-37.530303030303
 20
14.8200842083056
 30
0.0
 11
-37.430303030303
 21
14.7593478526799
 31
0.0
  0
LINE
  5
F10731
330
261
100
AcDbEntity
  8
Geo
100
AcDbLine
 10
-37.530303030303
 20
14.3322444006325
 30
0.0
 11
-37.430303030303
 21
14.2550485310454
 31
0.0
  0
LINE
  5
F10733
330
261
100
AcDbEntity
  8
Geo
100
AcDbLine
 10
-37.530303030303
 20
10.2065982207597
 30
0.0
 11
-37.430303030303
 21
10.145499389413
 31
0.0
  0
LINE
  5
F10735
330
261
100
AcDbEntity
  8
Geo
100
AcDbLine
 10
-37.530303030303
 20
9.80490656577958
 30
0.0
 11
-37.430303030303
 21
9.761502692287686
 31
0.0
  0
LINE
  5
F10737
330
261
100
AcDbEntity
  8
Geo
100
AcDbLine
 10
-37.430303030303
 20
14.7593478526799
 30
0.0
 11
-37.330303030303
 21
14.6960003422372
 31
0.0
  0
LINE
  5
F10739
330
261
100
AcDbEntity
  8
Geo
100
AcDbLine
 10
-37.430303030303
 20
14.2550485310454
 30
0.0
 11
-37.330303030303
 21
14.1758017873401
 31
0.0
  0
LINE
  5
F1073B
330
261
100
AcDbEntity
  8
Geo
100
AcDbLine
 10
-37.430303030303
 20
10.145499389413
 30
0.0
 11
-37.330303030303
 21
10.0865122312609
 31
0.0
  0
LINE
  5
F1073D
330
261
100
AcDbEntity
  8
Geo
100
AcDbLine
 10
-37.430303030303
 20
9.761502692287686
 30
0.0
 11
-37.330303030303
 21
9.720568717193616
 31
0.0
  0
LINE
  5
F1073F
330
261
100
AcDbEntity
  8
Geo
100
AcDbLine
 10
-37.330303030303
 20
14.6960003422372
 30
0.0
 11
-37.230303030303
 21
14.6301120565833
 31
0.0
  0
LINE
  5
F10741
330
261
100
AcDbEntity
  8
Geo
100
AcDbLine
 10
-37.330303030303
 20
14.1758017873401
 30
0.0
 11
-37.230303030303
 21
14.0945922133016
 31
0.0
  0
LINE
  5
F10743
330
261
100
AcDbEntity
  8
Geo
100
AcDbLine
 10
-37.330303030303
 20
10.0865122312609
 30
0.0
 11
-37.230303030303
 21
10.0296917746067
 31
0.0
  0
LINE
  5
F10745
330
261
100
AcDbEntity
  8
Geo
100
AcDbLine
 10
-37.330303030303
 20
9.720568717193616
 30
0.0
 11
-37.230303030303
 21
9.682142827236097
 31
0.0
  0
LINE
  5
F10747
330
261
100
AcDbEntity
  8
Geo
100
AcDbLine
 10
-37.230303030303
 20
14.6301120565833
 30
0.0
 11
-37.13030303030301
 21
14.561756198146
 31
0.0
  0
LINE
  5
F10749
330
261
100
AcDbEntity
  8
Geo
100
AcDbLine
 10
-37.230303030303
 20
14.0945922133016
 30
0.0
 11
-37.13030303030301
 21
14.0115100334353
 31
0.0
  0
LINE
  5
F1074B
330
261
100
AcDbEntity
  8
Geo
100
AcDbLine
 10
-37.230303030303
 20
10.0296917746067
 30
0.0
 11
-37.13030303030301
 21
9.97509102646789
 31
0.0
  0
LINE
  5
F1074D
330
261
100
AcDbEntity
  8
Geo
100
AcDbLine
 10
-37.230303030303
 20
9.682142827236097
 30
0.0
 11
-37.13030303030301
 21
9.646260869395927
 31
0.0
  0
LINE
  5
F1074F
330
261
100
AcDbEntity
  8
Geo
100
AcDbLine
 10
-37.13030303030301
 20
14.561756198146
 30
0.0
 11
-37.030303030303
 21
14.491008710847
 31
0.0
  0
LINE
  5
F10751
330
261
100
AcDbEntity
  8
Geo
100
AcDbLine
 10
-37.13030303030301
 20
14.0115100334353
 30
0.0
 11
-37.030303030303
 21
13.926647552727
 31
0.0
  0
LINE
  5
F10753
330
261
100
AcDbEntity
  8
Geo
100
AcDbLine
 10
-37.13030303030301
 20
9.97509102646789
 30
0.0
 11
-37.030303030303
 21
9.922760923126539
 31
0.0
  0
LINE
  5
F10755
330
261
100
AcDbEntity
  8
Geo
100
AcDbLine
 10
-37.13030303030301
 20
9.646260869395927
 30
0.0
 11
-37.030303030303
 21
9.61295631745491
 31
0.0
  0
LINE
  5
F10757
330
261
100
AcDbEntity
  8
Geo
100
AcDbLine
 10
-37.030303030303
 20
14.491008710847
 30
0.0
 11
-36.930303030303
 21
14.4179481957272
 31
0.0
  0
LINE
  5
F10759
330
261
100
AcDbEntity
  8
Geo
100
AcDbLine
 10
-37.030303030303
 20
13.926647552727
 30
0.0
 11
-36.930303030303
 21
13.8400990540917
 31
0.0
  0
LINE
  5
F1075B
330
261
100
AcDbEntity
  8
Geo
100
AcDbLine
 10
-37.030303030303
 20
9.922760923126539
 30
0.0
 11
-36.930303030303
 21
9.87275028261169
 31
0.0
  0
LINE
  5
F1075D
330
261
100
AcDbEntity
  8
Geo
100
AcDbLine
 10
-37.030303030303
 20
9.61295631745491
 30
0.0
 11
-36.930303030303
 21
9.5822602407685
 31
0.0
  0
LINE
  5
F1075F
330
261
100
AcDbEntity
  8
Geo
100
AcDbLine
 10
-36.930303030303
 20
14.4179481957272
 30
0.0
 11
-36.830303030303
 21
14.3426558236204
 31
0.0
  0
LINE
  5
F10761
330
261
100
AcDbEntity
  8
Geo
100
AcDbLine
 10
-36.930303030303
 20
13.8400990540917
 30
0.0
 11
-36.830303030303
 21
13.7519606936241
 31
0.0
  0
LINE
  5
F10763
330
261
100
AcDbEntity
  8
Geo
100
AcDbLine
 10
-36.930303030303
 20
9.87275028261169
 30
0.0
 11
-36.830303030303
 21
9.825105759157599
 31
0.0
  0
LINE
  5
F10765
330
261
100
AcDbEntity
  8
Geo
100
AcDbLine
 10
-36.930303030303
 20
9.5822602407685
 30
0.0
 11
-36.830303030303
 21
9.55420127528173
 31
0.0
  0
LINE
  5
F10767
330
261
100
AcDbEntity
  8
Geo
100
AcDbLine
 10
-36.830303030303
 20
14.3426558236204
 30
0.0
 11
-36.730303030303
 21
14.2652152449722
 31
0.0
  0
LINE
  5
F10769
330
261
100
AcDbEntity
  8
Geo
100
AcDbLine
 10
-36.830303030303
 20
13.7519606936241
 30
0.0
 11
-36.730303030303
 21
13.6623303937682
 31
0.0
  0
LINE
  5
F1076B
330
261
100
AcDbEntity
  8
Geo
100
AcDbLine
 10
-36.830303030303
 20
9.825105759157599
 30
0.0
 11
-36.730303030303
 21
9.77987179968067
 31
0.0
  0
LINE
  5
F1076D
330
261
100
AcDbEntity
  8
Geo
100
AcDbLine
 10
-36.830303030303
 20
9.55420127528173
 30
0.0
 11
-36.730303030303
 21
9.528805596815097
 31
0.0
  0
LINE
  5
F1076F
330
261
100
AcDbEntity
  8
Geo
100
AcDbLine
 10
-36.730303030303
 20
14.2652152449722
 30
0.0
 11
-36.630303030303
 21
14.1857124969029
 31
0.0
  0
LINE
  5
F10771
330
261
100
AcDbEntity
  8
Geo
100
AcDbLine
 10
-36.730303030303
 20
13.6623303937682
 30
0.0
 11
-36.630303030303
 21
13.5713077345254
 31
0.0
  0
LINE
  5
F10773
330
261
100
AcDbEntity
  8
Geo
100
AcDbLine
 10
-36.730303030303
 20
9.77987179968067
 30
0.0
 11
-36.630303030303
 21
9.73709060231555
 31
0.0
  0
LINE
  5
F10775
330
261
100
AcDbEntity
  8
Geo
100
AcDbLine
 10
-36.730303030303
 20
9.528805596815097
 30
0.0
 11
-36.630303030303
 21
9.506096896645498
 31
0.0
  0
LINE
  5
F10777
330
261
100
AcDbEntity
  8
Geo
100
AcDbLine
 10
-36.630303030303
 20
14.1857124969029
 30
0.0
 11
-36.53030303030301
 21
14.1042359076205
 31
0.0
  0
LINE
  5
F10779
330
261
100
AcDbEntity
  8
Geo
100
AcDbLine
 10
-36.630303030303
 20
13.5713077345254
 30
0.0
 11
-36.53030303030301
 21
13.4789938428195
 31
0.0
  0
LINE
  5
F1077B
330
261
100
AcDbEntity
  8
Geo
100
AcDbLine
 10
-36.630303030303
 20
9.73709060231555
 30
0.0
 11
-36.53030303030301
 21
9.696802077049039
 31
0.0
  0
LINE
  5
F1077D
330
261
100
AcDbEntity
  8
Geo
100
AcDbLine
 10
-36.630303030303
 20
9.506096896645498
 30
0.0
 11
-36.53030303030301
 21
9.486096359404966
 31
0.0
  0
LINE
  5
F1077F
330
261
100
AcDbEntity
  8
Geo
100
AcDbLine
 10
-36.53030303030301
 20
14.1042359076205
 30
0.0
 11
-36.430303030303
 21
14.0208759982864
 31
0.0
  0
LINE
  5
F10781
330
261
100
AcDbEntity
  8
Geo
100
AcDbLine
 10
-36.53030303030301
 20
13.4789938428195
 30
0.0
 11
-36.430303030303
 21
13.3854912801444
 31
0.0
  0
LINE
  5
F10783
330
261
100
AcDbEntity
  8
Geo
100
AcDbLine
 10
-36.53030303030301
 20
9.696802077049039
 30
0.0
 11
-36.430303030303
 21
9.65904380848867
 31
0.0
  0
LINE
  5
F10785
330
261
100
AcDbEntity
  8
Geo
100
AcDbLine
 10
-36.53030303030301
 20
9.486096359404966
 30
0.0
 11
-36.430303030303
 21
9.468822643317846
 31
0.0
  0
LINE
  5
F10787
330
261
100
AcDbEntity
  8
Geo
100
AcDbLine
 10
-36.430303030303
 20
14.0208759982864
 30
0.0
 11
-36.330303030303
 21
13.9357253824463
 31
0.0
  0
LINE
  5
F10789
330
261
100
AcDbEntity
  8
Geo
100
AcDbLine
 10
-36.430303030303
 20
13.3854912801444
 30
0.0
 11
-36.330303030303
 21
13.2909039286171
 31
0.0
  0
LINE
  5
F1078B
330
261
100
AcDbEntity
  8
Geo
100
AcDbLine
 10
-36.430303030303
 20
9.65904380848867
 30
0.0
 11
-36.330303030303
 21
9.623851020800508
 31
0.0
  0
LINE
  5
F1078D
330
261
100
AcDbEntity
  8
Geo
100
AcDbLine
 10
-36.430303030303
 20
9.468822643317846
 30
0.0
 11
-36.330303030303
 21
9.454291862794748
 31
0.0
  0
LINE
  5
F1078F
330
261
100
AcDbEntity
  8
Geo
100
AcDbLine
 10
-36.330303030303
 20
13.9357253824463
 30
0.0
 11
-36.230303030303
 21
13.8488786631357
 31
0.0
  0
LINE
  5
F10791
330
261
100
AcDbEntity
  8
Geo
100
AcDbLine
 10
-36.330303030303
 20
13.2909039286171
 30
0.0
 11
-36.230303030303
 21
13.1953368755641
 31
0.0
  0
LINE
  5
F10793
330
261
100
AcDbEntity
  8
Geo
100
AcDbLine
 10
-36.330303030303
 20
9.623851020800508
 30
0.0
 11
-36.230303030303
 21
9.591256544849027
 31
0.0
  0
LINE
  5
F10795
330
261
100
AcDbEntity
  8
Geo
100
AcDbLine
 10
-36.330303030303
 20
9.454291862794748
 30
0.0
 11
-36.230303030303
 21
9.442517573399687
 31
0.0
  0
LINE
  5
F10797
330
261
100
AcDbEntity
  8
Geo
100
AcDbLine
 10
-36.230303030303
 20
13.8488786631357
 30
0.0
 11
-36.13030303030301
 21
13.7604323277747
 31
0.0
  0
LINE
  5
F10799
330
261
100
AcDbEntity
  8
Geo
100
AcDbLine
 10
-36.230303030303
 20
13.1953368755641
 30
0.0
 11
-36.13030303030301
 21
13.0988962967681
 31
0.0
  0
LINE
  5
F1079B
330
261
100
AcDbEntity
  8
Geo
100
AcDbLine
 10
-36.230303030303
 20
9.591256544849027
 30
0.0
 11
-36.13030303030301
 21
9.561290787569641
 31
0.0
  0
LINE
  5
F1079D
330
261
100
AcDbEntity
  8
Geo
100
AcDbLine
 10
-36.230303030303
 20
9.442517573399687
 30
0.0
 11
-36.13030303030301
 21
9.433510759204247
 31
0.0
  0
LINE
  5
F1079F
330
261
100
AcDbEntity
  8
Geo
100
AcDbLine
 10
-36.13030303030301
 20
13.7604323277747
 30
0.0
 11
-36.030303030303
 21
13.6704846409702
 31
0.0
  0
LINE
  5
F107A1
330
261
100
AcDbEntity
  8
Geo
100
AcDbLine
 10
-36.13030303030301
 20
13.0988962967681
 30
0.0
 11
-36.030303030303
 21
13.0016893385064
 31
0.0
  0
LINE
  5
F107A3
330
261
100
AcDbEntity
  8
Geo
100
AcDbLine
 10
-36.13030303030301
 20
9.561290787569641
 30
0.0
 11
-36.030303030303
 21
9.533981703602519
 31
0.0
  0
LINE
  5
F107A5
330
261
100
AcDbEntity
  8
Geo
100
AcDbLine
 10
-36.13030303030301
 20
9.433510759204247
 30
0.0
 11
-36.030303030303
 21
9.427279822540711
 31
0.0
  0
LINE
  5
F107A7
330
261
100
AcDbEntity
  8
Geo
100
AcDbLine
 10
-36.030303030303
 20
13.6704846409702
 30
0.0
 11
-35.930303030303
 21
13.579135535343
 31
0.0
  0
LINE
  5
F107A9
330
261
100
AcDbEntity
  8
Geo
100
AcDbLine
 10
-36.030303030303
 20
13.0016893385064
 30
0.0
 11
-35.930303030303
 21
12.90382399851
 31
0.0
  0
LINE
  5
F107AB
330
261
100
AcDbEntity
  8
Geo
100
AcDbLine
 10
-36.030303030303
 20
9.533981703602519
 30
0.0
 11
-35.930303030303
 21
9.50935476921405
 31
0.0
  0
LINE
  5
F107AD
330
261
100
AcDbEntity
  8
Geo
100
AcDbLine
 10
-36.030303030303
 20
9.427279822540711
 30
0.0
 11
-35.930303030303
 21
9.42383057616365
 31
0.0
  0
LINE
  5
F107AF
330
261
100
AcDbEntity
  8
Geo
100
AcDbLine
 10
-35.930303030303
 20
13.579135535343
 30
0.0
 11
-35.830303030303
 21
13.4864865005015
 31
0.0
  0
LINE
  5
F107B1
330
261
100
AcDbEntity
  8
Geo
100
AcDbLine
 10
-35.930303030303
 20
12.90382399851
 30
0.0
 11
-35.830303030303
 21
12.8054090059775
 31
0.0
  0
LINE
  5
F107B3
330
261
100
AcDbEntity
  8
Geo
100
AcDbLine
 10
-35.930303030303
 20
9.50935476921405
 30
0.0
 11
-35.830303030303
 21
9.487432958530439
 31
0.0
  0
LINE
  5
F107B5
330
261
100
AcDbEntity
  8
Geo
100
AcDbLine
 10
-35.830303030303
 20
13.4864865005015
 30
0.0
 11
-35.730303030303
 21
13.3926404702865
 31
0.0
  0
LINE
  5
F107B7
330
261
100
AcDbEntity
  8
Geo
100
AcDbLine
 10
-35.830303030303
 20
12.8054090059775
 30
0.0
 11
-35.730303030303
 21
12.7065537007759
 31
0.0
  0
LINE
  5
F107B9
330
261
100
AcDbEntity
  8
Geo
100
AcDbLine
 10
-35.830303030303
 20
9.487432958530439
 30
0.0
 11
-35.730303030303
 21
9.468236722105407
 31
0.0
  0
LINE
  5
F107BB
330
261
100
AcDbEntity
  8
Geo
100
AcDbLine
 10
-35.730303030303
 20
13.3926404702865
 30
0.0
 11
-35.63030303030301
 21
13.2977017084101
 31
0.0
  0
LINE
  5
F107BD
330
261
100
AcDbEntity
  8
Geo
100
AcDbLine
 10
-35.730303030303
 20
12.7065537007759
 30
0.0
 11
-35.63030303030301
 21
12.6073679119634
 31
0.0
  0
LINE
  5
F107BF
330
261
100
AcDbEntity
  8
Geo
100
AcDbLine
 10
-35.730303030303
 20
9.468236722105407
 30
0.0
 11
-35.63030303030301
 21
9.451783967842187
 31
0.0
  0
LINE
  5
F107C1
330
261
100
AcDbEntity
  8
Geo
100
AcDbLine
 10
-35.63030303030301
 20
13.2977017084101
 30
0.0
 11
-35.530303030303
 21
13.2017756926186
 31
0.0
  0
LINE
  5
F107C3
330
261
100
AcDbEntity
  8
Geo
100
AcDbLine
 10
-35.63030303030301
 20
12.6073679119634
 30
0.0
 11
-35.530303030303
 21
12.5079618357681
 31
0.0
  0
LINE
  5
F107C5
330
261
100
AcDbEntity
  8
Geo
100
AcDbLine
 10
-35.63030303030301
 20
9.451783967842187
 30
0.0
 11
-35.530303030303
 21
9.438090044287488
 31
0.0
  0
LINE
  5
F107C7
330
261
100
AcDbEntity
  8
Geo
100
AcDbLine
 10
-49.530303030303
 20
12.409090909091
 30
0.0
 11
-49.530303030303
 21
12.409090909091
 31
0.0
  0
LINE
  5
F107C9
330
261
100
AcDbEntity
  8
Geo
100
AcDbLine
 10
-49.530303030303
 20
12.409090909091
 30
0.0
 11
-49.530303030303
 21
12.409090909091
 31
0.0
  0
LINE
  5
F107CB
330
261
100
AcDbEntity
  8
Geo
100
AcDbLine
 10
-50.530303030303
 20
12.409090909091
 30
0.0
 11
-50.23030303030299
 21
12.409090909091
 31
0.0
  0
LINE
  5
F107CD
330
261
100
AcDbEntity
  8
Geo
100
AcDbLine
 10
-50.102803030303
 20
12.409090909091
 30
0.0
 11
-50.017803030303
 21
12.409090909091
 31
0.0
  0
LINE
  5
F107CF
330
261
100
AcDbEntity
  8
Geo
100
AcDbLine
 10
-49.805303030303
 20
12.409090909091
 30
0.0
 11
-49.380303030303
 21
12.409090909091
 31
0.0
  0
LINE
  5
F107D1
330
261
100
AcDbEntity
  8
Geo
100
AcDbLine
 10
-49.252803030303
 20
12.409090909091
 30
0.0
 11
-49.167803030303
 21
12.409090909091
 31
0.0
  0
LINE
  5
F107D3
330
261
100
AcDbEntity
  8
Geo
100
AcDbLine
 10
-48.955303030303
 20
12.409090909091
 30
0.0
 11
-48.530303030303
 21
12.409090909091
 31
0.0
  0
LINE
  5
F107D5
330
261
100
AcDbEntity
  8
Geo
100
AcDbLine
 10
30.469696969697
 20
14.909090909091
 30
0.0
 11
30.469696969697
 21
12.409090909091
 31
0.0
  0
LINE
  5
F107D7
330
261
100
AcDbEntity
  8
Geo
100
AcDbLine
 10
-49.530303030303
 20
12.409090909091
 30
0.0
 11
-49.530303030303
 21
9.52909090909101
 31
0.0
  0
LINE
  5
F107D9
330
261
100
AcDbEntity
  8
Geo
100
AcDbLine
 10
-49.530303030303
 20
9.52909090909101
 30
0.0
 11
-49.41030303030299
 21
9.409090909091007
 31
0.0
  0
LINE
  5
F107DB
330
261
100
AcDbEntity
  8
Geo
100
AcDbLine
 10
-49.41030303030299
 20
9.409090909091007
 30
0.0
 11
-33.530303030303
 21
9.409090909091007
 31
0.0
  0
LINE
  5
F107DD
330
261
100
AcDbEntity
  8
Geo
100
AcDbLine
 10
-33.530303030303
 20
9.409090909091007
 30
0.0
 11
-33.530303030303
 21
9.559090909091008
 31
0.0
  0
LINE
  5
F107DF
330
261
100
AcDbEntity
  8
Geo
100
AcDbLine
 10
-33.530303030303
 20
9.559090909091008
 30
0.0
 11
-5.530303030303
 21
9.559090909091008
 31
0.0
  0
LINE
  5
F107E1
330
261
100
AcDbEntity
  8
Geo
100
AcDbLine
 10
-5.530303030303
 20
9.559090909091008
 30
0.0
 11
-5.530303030303
 21
9.409090909091007
 31
0.0
  0
LINE
  5
F107E3
330
261
100
AcDbEntity
  8
Geo
100
AcDbLine
 10
-5.530303030303
 20
9.409090909091007
 30
0.0
 11
29.969696969697
 21
9.409090909091007
 31
0.0
  0
LINE
  5
F107E5
330
261
100
AcDbEntity
  8
Geo
100
AcDbLine
 10
29.969696969697
 20
9.409090909091007
 30
0.0
 11
30.469696969697
 21
9.909090909091007
 31
0.0
  0
LINE
  5
F107E7
330
261
100
AcDbEntity
  8
Geo
100
AcDbLine
 10
-49.530303030303
 20
15.289090909091
 30
0.0
 11
-49.530303030303
 21
9.52909090909101
 31
0.0
  0
LINE
  5
F107E9
330
261
100
AcDbEntity
  8
Geo
100
AcDbLine
 10
-49.41030303030299
 20
15.409090909091
 30
0.0
 11
-49.41030303030299
 21
9.409090909091007
 31
0.0
  0
LINE
  5
F107EB
330
261
100
AcDbEntity
  8
Geo
100
AcDbLine
 10
-49.41030303030299
 20
15.409090909091
 30
0.0
 11
-49.41030303030299
 21
9.409090909091007
 31
0.0
  0
LINE
  5
F107ED
330
261
100
AcDbEntity
  8
Geo
100
AcDbLine
 10
-33.530303030303
 20
15.409090909091
 30
0.0
 11
-33.530303030303
 21
9.409090909091007
 31
0.0
  0
LINE
  5
F107EF
330
261
100
AcDbEntity
  8
Geo
100
AcDbLine
 10
-33.530303030303
 20
15.259090909091
 30
0.0
 11
-33.530303030303
 21
9.559090909091008
 31
0.0
  0
LINE
  5
F107F1
330
261
100
AcDbEntity
  8
Geo
100
AcDbLine
 10
-5.530303030303
 20
15.259090909091
 30
0.0
 11
-5.530303030303
 21
9.559090909091008
 31
0.0
  0
LINE
  5
F107F3
330
261
100
AcDbEntity
  8
Geo
100
AcDbLine
 10
-5.530303030303
 20
15.259090909091
 30
0.0
 11
-5.530303030303
 21
9.559090909091008
 31
0.0
  0
LINE
  5
F107F5
330
261
100
AcDbEntity
  8
Geo
100
AcDbLine
 10
29.969696969697
 20
15.409090909091
 30
0.0
 11
29.969696969697
 21
9.409090909091007
 31
0.0
  0
LINE
  5
F107F7
330
261
100
AcDbEntity
  8
Geo
100
AcDbLine
 10
30.469696969697
 20
14.909090909091
 30
0.0
 11
30.469696969697
 21
9.909090909091007
 31
0.0
  0
LWPOLYLINE
  5
F10875
330
261
100
AcDbEntity
  8
Rahmen
100
AcDbPolyline
 90
        4
 70
     1
 43
0.0
 10
-134.650259067358
 20
99.8316062176166
 10
143.354922279793
 20
99.8316062176166
 10
143.354922279793
 20
-100.103626943005
 10
-134.650259067358
 20
-100.103626943005
  0
LWPOLYLINE
  5
F10879
330
261
100
AcDbEntity
  8
Rahmen
100
AcDbPolyline
 90
        4
 70
     1
 43
0.0
 10
103.367875647668
 20
-97.11139896373062
 10
143.354922279793
 20
-97.11139896373062
 10
143.354922279793
 20
-100.103626943005
 10
103.367875647668
 20
-100.103626943005
  0
TEXT
  5
F1087B
330
261
100
AcDbEntity
  8
Text
100
AcDbText
 10
104.455958549223
 20
-98.11139896373061
 30
0.0
 40
0.75
  1
Ers. durch:
100
AcDbText
  0
LWPOLYLINE
  5
F1087F
330
261
100
AcDbEntity
  8
Rahmen
100
AcDbPolyline
 90
        4
 70
     1
 43
0.0
 10
63.380829015544
 20
-97.11139896373062
 10
103.367875647668
 20
-97.11139896373062
 10
103.367875647668
 20
-100.103626943005
 10
63.380829015544
 20
-100.103626943005
  0
TEXT
  5
F10881
330
261
100
AcDbEntity
  8
Text
100
AcDbText
 10
64.46891191709839
 20
-98.11139896373061
 30
0.0
 40
0.75
  1
Ers. für:
100
AcDbText
  0
TEXT
  5
F10883
330
261
100
AcDbEntity
  8
Text
100
AcDbText
 10
91.39896373056991
 20
-99.4715025906736
 30
0.0
 40
0.75
  1

100
AcDbText
  0
LWPOLYLINE
  5
F10885
330
261
100
AcDbEntity
  8
Rahmen
100
AcDbPolyline
 90
        4
 70
     1
 43
0.0
 10
130.025906735751
 20
-94.119170984456
 10
143.354922279793
 20
-94.119170984456
 10
143.354922279793
 20
-97.11139896373062
 10
130.025906735751
 20
-97.11139896373062
  0
TEXT
  5
F10887
330
261
100
AcDbEntity
  8
Text
100
AcDbText
 10
131.113989637306
 20
-95.119170984456
 30
0.0
 40
0.75
  1
Blätter
100
AcDbText
  0
TEXT
  5
F10889
330
261
100
AcDbEntity
  8
Text
100
AcDbText
 10
141.178756476684
 20
-96.479274611399
 30
0.0
 40
0.75
  1

100
AcDbText
  0
LWPOLYLINE
  5
F1088B
330
261
100
AcDbEntity
  8
Rahmen
100
AcDbPolyline
 90
        4
 70
     1
 43
0.0
 10
130.025906735751
 20
-91.12694300518127
 10
143.354922279793
 20
-91.12694300518127
 10
143.354922279793
 20
-94.119170984456
 10
130.025906735751
 20
-94.119170984456
  0
TEXT
  5
F1088D
330
261
100
AcDbEntity
  8
Text
100
AcDbText
 10
131.113989637306
 20
-92.12694300518128
 30
0.0
 40
0.75
  1
Blatt
100
AcDbText
  0
TEXT
  5
F1088F
330
261
100
AcDbEntity
  8
Text
100
AcDbText
 10
141.178756476684
 20
-93.48704663212428
 30
0.0
 40
0.75
  1

100
AcDbText
  0
LWPOLYLINE
  5
F10891
330
261
100
AcDbEntity
  8
Rahmen
100
AcDbPolyline
 90
        4
 70
     1
 43
0.0
 10
63.380829015544
 20
-91.12694300518127
 10
130.025906735751
 20
-91.12694300518127
 10
130.025906735751
 20
-97.11139896373062
 10
63.380829015544
 20
-97.11139896373062
  0
TEXT
  5
F10893
330
261
100
AcDbEntity
  8
Text
100
AcDbText
 10
64.46891191709839
 20
-92.12694300518128
 30
0.0
 40
0.75
  1
Datum:
100
AcDbText
  0
TEXT
  5
F10895
330
261
100
AcDbEntity
  8
Text
100
AcDbText
 10
92.21502590673571
 20
-95.119170984456
 30
0.0
 40
0.75
  1
4.07.2014
100
AcDbText
  0
LWPOLYLINE
  5
F10897
330
261
100
AcDbEntity
  8
Rahmen
100
AcDbPolyline
 90
        4
 70
     1
 43
0.0
 10
63.380829015544
 20
-85.14248704663208
 10
143.354922279793
 20
-85.14248704663208
 10
143.354922279793
 20
-91.12694300518127
 10
63.380829015544
 20
-91.12694300518127
  0
TEXT
  5
F10899
330
261
100
AcDbEntity
  8
Text
100
AcDbText
 10
-208.09585492228
 20
103.0
 30
0.0
 40
1.5
  1

100
AcDbText
  0
TEXT
  5
F1089B
330
261
100
AcDbEntity
  8
Text
100
AcDbText
 10
94.119170984456
 20
-89.01986183074269
 30
0.0
 40
2.5
  1
5500-060
100
AcDbText
  0
LWPOLYLINE
  5
F1089D
330
261
100
AcDbEntity
  8
Rahmen
100
AcDbPolyline
 90
        4
 70
     1
 43
0.0
 10
103.367875647668
 20
-79.1580310880829
 10
143.354922279793
 20
-79.1580310880829
 10
143.354922279793
 20
-85.14248704663208
 10
103.367875647668
 20
-85.14248704663208
  0
TEXT
  5
F1089F
330
261
100
AcDbEntity
  8
Text
100
AcDbText
 10
104.455958549223
 20
-80.1580310880829
 30
0.0
 40
0.75
  1
Zu bearb. Material:
100
AcDbText
  0
TEXT
  5
F108A1
330
261
100
AcDbEntity
  8
Text
100
AcDbText
 10
123.225388601036
 20
-84.5103626943005
 30
0.0
 40
0.75
  1

100
AcDbText
  0
LWPOLYLINE
  5
F108A3
330
261
100
AcDbEntity
  8
Rahmen
100
AcDbPolyline
 90
        4
 70
     1
 43
0.0
 10
63.380829015544
 20
-79.1580310880829
 10
103.367875647668
 20
-79.1580310880829
 10
103.367875647668
 20
-85.14248704663208
 10
63.380829015544
 20
-85.14248704663208
  0
TEXT
  5
F108A5
330
261
100
AcDbEntity
  8
Text
100
AcDbText
 10
64.46891191709839
 20
-80.1580310880829
 30
0.0
 40
0.75
  1
Werkstoff:
100
AcDbText
  0
LWPOLYLINE
  5
F108A9
330
261
100
AcDbEntity
  8
Rahmen
100
AcDbPolyline
 90
        4
 70
     1
 43
0.0
 10
103.367875647668
 20
-76.16580310880832
 10
143.354922279793
 20
-76.16580310880832
 10
143.354922279793
 20
-79.1580310880829
 10
103.367875647668
 20
-79.1580310880829
  0
TEXT
  5
F108AB
330
261
100
AcDbEntity
  8
Text
100
AcDbText
 10
-208.09585492228
 20
103.0
 30
0.0
 40
1.5
  1

100
AcDbText
  0
LWPOLYLINE
  5
F108AF
330
261
100
AcDbEntity
  8
Rahmen
100
AcDbPolyline
 90
        4
 70
     1
 43
0.0
 10
63.380829015544
 20
-76.16580310880832
 10
103.367875647668
 20
-76.16580310880832
 10
103.367875647668
 20
-79.1580310880829
 10
63.380829015544
 20
-79.1580310880829
  0
TEXT
  5
F108B1
330
261
100
AcDbEntity
  8
Text
100
AcDbText
 10
64.46891191709839
 20
-77.1658031088083
 30
0.0
 40
0.75
  1
Maßstab:
100
AcDbText
  0
TEXT
  5
F108B3
330
261
100
AcDbEntity
  8
Text
100
AcDbText
 10
89.49481865284978
 20
-77.1658031088083
 30
0.0
 40
0.75
  1
1 : 1
100
AcDbText
  0
VIEWPORT
  5
294
102
{ACAD_XDICTIONARY
360
F10AD6
102
}
330
25D
100
AcDbEntity
 67
     1
  8
0
 60
     1
100
AcDbViewport
 10
0.0
 20
0.0
 30
0.0
 40
10.0
 41
10.0
 68
    -1
 69
     1
 12
0.0
 22
0.0
 13
0.0
 23
0.0
 14
1.0
 24
1.0
 15
0.0
 25
0.0
 16
0.0
 26
0.0
 36
1.0
 17
0.0
 27
0.0
 37
0.0
 42
0.0
 43
0.0
 44
0.0
 45
10.0
 50
0.0
 51
0.0000000000007958
 72
   100
 90
    32800
  1

281
     0
 71
     0
 74
     0
110
0.0
120
0.0
130
0.0
111
1.0
121
0.0
131
0.0
112
0.0
122
1.0
132
0.0
 79
     0
146
0.0
1001
VD_INVISIBLE_NOT_FOR_READ
1000
VD_INVISIBLE_NOT_FOR_READ
1001
GENIUS_GENODEF_13
1002
{
1000
HIER
1070
     0
1002
}
1002
{
1000
MANEDIT
1070
     0
1002
}
1002
{
1000
NOSEL
1070
     0
1002
}
1002
{
1000
BEHIND
1070
     0
1002
}
1002
{
1000
OTHER
1070
     0
1002
}
1002
{
1000
REACTOR
1002
}
1001
GENIUS_GENOBJ-N-SDF_13
1002
{
1000
OWNER
1000
GEN
1002
}
1001
GENIUS_GENSCREG_15
1000
PF
1040
1.0
1000
DF
1040
1.0
1000
MIN
1011
-5.0
1021
-5.0
1031
0.0
1000
MAX
1011
5.0
1021
5.0
1031
0.0
1000
FLAGS
1070
     4
  0
VIEWPORT
  5
295
102
{ACAD_XDICTIONARY
360
F10AD8
102
}
330
25D
100
AcDbEntity
 67
     1
  8
0
 60
     1
100
AcDbViewport
 10
0.0
 20
0.0
 30
0.0
 40
10.0
 41
10.0
 68
     0
 69
     2
 12
0.0
 22
0.0
 13
0.0
 23
0.0
 14
1.0
 24
1.0
 15
0.0
 25
0.0
 16
0.0
 26
0.0
 36
1.0
 17
0.0
 27
0.0
 37
0.0
 42
0.0
 43
0.0
 44
0.0
 45
10.0
 50
0.0
 51
0.0000000000007958
 72
   100
 90
   163872
  1

281
     0
 71
     0
 74
     0
110
0.0
120
0.0
130
0.0
111
1.0
121
0.0
131
0.0
112
0.0
122
1.0
132
0.0
 79
     0
146
0.0
1001
VD_INVISIBLE_NOT_FOR_READ
1000
VD_INVISIBLE_NOT_FOR_READ
1001
GENIUS_GENODEF_13
1002
{
1000
HIER
1070
     0
1002
}
1002
{
1000
MANEDIT
1070
     0
1002
}
1002
{
1000
NOSEL
1070
     0
1002
}
1002
{
1000
BEHIND
1070
     0
1002
}
1002
{
1000
OTHER
1070
     0
1002
}
1002
{
1000
REACTOR
1002
}
1001
GENIUS_GENOBJ-N-SDF_13
1002
{
1000
OWNER
1000
GEN
1002
}
1001
GENIUS_GENSCREG_15
1000
PF
1040
1.0
1000
DF
1040
1.0
1000
MIN
1011
-5.0
1021
-5.0
1031
0.0
1000
MAX
1011
5.0
1021
5.0
1031
0.0
1000
FLAGS
1070
     4
  0
ENDSEC
  0
SECTION
  2
OBJECTS
  0
DICTIONARY
  5
13
330
0
100
AcDbDictionary
281
     1
  3
ACAD_2007HEADERVARS_RT
350
F10AD1
  3
ACAD_COLOR
350
FA7
  3
ACAD_GROUP
350
14
  3
ACAD_LAYOUT
350
FCF
  3
ACAD_MATERIAL
350
F7A
  3
ACAD_MLEADERSTYLE
350
FCD
  3
ACAD_MLINESTYLE
350
16
  3
ACAD_PLOTSETTINGS
350
17
  3
ACAD_PLOTSTYLENAME
350
18
  3
ACAD_SCALELIST
350
FAB
  3
ACAD_TABLESTYLE
350
FA8
  3
ACAD_VISUALSTYLE
350
F93
  3
ACDB_RECOMPOSE_DATA
350
F10ACF
  3
AcDbVariableDictionary
350
F10A0B
  3
AcmDictionary
350
F1090A
  3
AMG
350
F108BE
  3
AMGSNAPSETTINGS
350
F109A4
  3
DWGPROPS
350
F10AD0
  0
DICTIONARY
  5
F10A01
330
252
100
AcDbDictionary
280
     1
281
     1
  3
ADSK_XREC_LAYER_RECONCILED
360
F10A02
  0
DICTIONARY
  5
F10A03
330
23F
100
AcDbDictionary
280
     1
281
     1
  3
ADSK_XREC_LAYER_RECONCILED
360
F10A04
  0
DICTIONARY
  5
F10A05
330
240
100
AcDbDictionary
280
     1
281
     1
  3
ADSK_XREC_LAYER_RECONCILED
360
F10A06
  0
DICTIONARY
  5
F10A07
330
241
100
AcDbDictionary
280
     1
281
     1
  3
ADSK_XREC_LAYER_RECONCILED
360
F10A08
  0
DICTIONARY
  5
F10A09
330
57E
100
AcDbDictionary
280
     1
281
     1
  3
ADSK_XREC_LAYER_RECONCILED
360
F10A0A
  0
DICTIONARY
  5
F10ADA
330
296
100
AcDbDictionary
280
     1
281
     1
  3
ACAD_XREC_ROUNDTRIP
360
F10ADB
  0
DICTIONARY
  5
F10ADC
330
297
100
AcDbDictionary
280
     1
281
     1
  3
ACAD_XREC_ROUNDTRIP
360
F10ADD
  0
DICTIONARY
  5
F10AD6
330
294
100
AcDbDictionary
280
     1
281
     1
  3
ACAD_XREC_ROUNDTRIP
360
F10AD7
  0
DICTIONARY
  5
F10AD8
330
295
100
AcDbDictionary
280
     1
281
     1
  3
ACAD_XREC_ROUNDTRIP
360
F10AD9
  0
DICTIONARY
  5
F10AD1
102
{ACAD_REACTORS
330
13
102
}
330
13
100
AcDbDictionary
281
     1
  3
DIMARCSYM
350
F10AD2
  3
DIMLTEX1
350
F10AD4
  3
DIMLTEX2
350
F10AD5
  3
DIMLTYPE
350
F10AD3
  0
DICTIONARY
  5
FA7
102
{ACAD_REACTORS
330
13
102
}
330
13
100
AcDbDictionary
281
     1
  0
DICTIONARY
  5
14
330
13
100
AcDbDictionary
281
     1
  0
DICTIONARY
  5
FCF
102
{ACAD_REACTORS
330
13
102
}
330
13
100
AcDbDictionary
281
     1
  3
Layout1
350
FD1
  3
Model
350
FD0
  0
DICTIONARY
  5
F7A
102
{ACAD_REACTORS
330
13
102
}
330
13
100
AcDbDictionary
281
     1
  3
ByBlock
350
F83
  3
ByLayer
350
F7B
  3
Global
350
F8B
  0
DICTIONARY
  5
FCD
102
{ACAD_REACTORS
330
13
102
}
330
13
100
AcDbDictionary
281
     1
  3
Standard
350
FCE
  0
DICTIONARY
  5
16
330
13
100
AcDbDictionary
281
     1
  3
Standard
350
FAA
  0
DICTIONARY
  5
17
102
{ACAD_REACTORS
330
13
102
}
330
13
100
AcDbDictionary
281
     1
  0
ACDBDICTIONARYWDFLT
  5
18
102
{ACAD_REACTORS
330
13
102
}
330
13
100
AcDbDictionary
281
     1
  3
Normal
350
19
100
AcDbDictionaryWithDefault
340
19
  0
DICTIONARY
  5
FAB
102
{ACAD_REACTORS
330
13
102
}
330
13
100
AcDbDictionary
281
     1
  3
A0
350
FAC
  3
A1
350
FAD
  3
A2
350
FAE
  3
A3
350
FAF
  3
A4
350
FB0
  3
A5
350
FB1
  3
A6
350
FB2
  3
A7
350
FB3
  3
A8
350
FB4
  3
A9
350
FB5
  3
B0
350
FB6
  3
B1
350
FB7
  3
B2
350
FB8
  3
B3
350
FB9
  3
B4
350
FBA
  3
B5
350
FBB
  3
B6
350
FBC
  3
B7
350
FBD
  3
B8
350
FBE
  3
B9
350
FBF
  3
C0
350
FC0
  3
C1
350
FC1
  3
C2
350
FC2
  3
C3
350
FC3
  3
C4
350
FC4
  3
C5
350
FC5
  3
C6
350
FC6
  3
C7
350
FC7
  3
C8
350
FC8
  3
C9
350
FC9
  3
D0
350
FCA
  3
D1
350
FCB
  3
D2
350
FCC
  0
DICTIONARY
  5
FA8
102
{ACAD_REACTORS
330
13
102
}
330
13
100
AcDbDictionary
281
     1
  3
Standard
350
FA9
  0
DICTIONARY
  5
F93
102
{ACAD_REACTORS
330
13
102
}
330
13
100
AcDbDictionary
281
     1
  3
2dWireframe
350
F99
  3
3D Hidden
350
F9B
  3
3dWireframe
350
F9A
  3
Basic
350
F98
  3
Brighten
350
F9F
  3
ColorChange
350
FA3
  3
Conceptual
350
F9C
  3
Dim
350
F9E
  3
EdgeColorOff
350
FA6
  3
Facepattern
350
FA2
  3
Flat
350
F94
  3
FlatWithEdges
350
F95
  3
Gouraud
350
F96
  3
GouraudWithEdges
350
F97
  3
Hidden
350
F108B6
  3
JitterOff
350
FA4
  3
Linepattern
350
FA1
  3
OverhangOff
350
FA5
  3
Realistic
350
F9D
  3
Shaded
350
F108BB
  3
Shaded with edges
350
F108BA
  3
Shades of Gray
350
F108B7
  3
Sketchy
350
F108B8
  3
Thicken
350
FA0
  3
Wireframe
350
F108B5
  3
X-Ray
350
F108B9
  0
XRECORD
  5
F10ACF
102
{ACAD_REACTORS
330
13
102
}
330
13
100
AcDbXrecord
280
     1
 90
        1
330
FA9
  0
DICTIONARY
  5
F10A0B
102
{ACAD_REACTORS
330
13
102
}
330
13
100
AcDbDictionary
281
     1
  3
CANNOSCALE
350
F10A0E
  3
CMLEADERSTYLE
350
F10A0D
  3
CTABLESTYLE
350
F10A0C
  3
DIMASSOC
350
F10A11
  3
INDEXCTL
350
F10A10
  3
SORTENTS
350
F10A0F
  3
XCLIPFRAME
350
F10ACD
  0
DICTIONARY
  5
F1090A
102
{ACAD_REACTORS
330
13
102
}
330
13
100
AcDbDictionary
281
     1
  3
AcmStdDictionary
350
F10915
  0
DICTIONARY
  5
F108BE
102
{ACAD_REACTORS
330
13
102
}
330
13
100
AcDbDictionary
281
     1
  0
DICTIONARY
  5
F109A4
102
{ACAD_REACTORS
330
13
102
}
330
13
100
AcDbDictionary
281
     1
  0
XRECORD
  5
F10AD0
102
{ACAD_REACTORS
330
13
102
}
330
13
100
AcDbXrecord
280
     1
  1
DWGPROPS COOKIE
  2

  3

  4

  6

  7

  8
Steigner
  9

300
=
301
=
302
=
303
=
304
=
305
=
306
=
307
=
308
=
309
=
 40
0.0013242592592593
 41
2457002.670719584
 42
2457002.677329491
  1

 90
        0
  0
XRECORD
  5
F10A02
102
{ACAD_REACTORS
330
F10A01
102
}
330
F10A01
100
AcDbXrecord
280
     1
290
     1
  0
XRECORD
  5
F10A04
102
{ACAD_REACTORS
330
F10A03
102
}
330
F10A03
100
AcDbXrecord
280
     1
290
     1
  0
XRECORD
  5
F10A06
102
{ACAD_REACTORS
330
F10A05
102
}
330
F10A05
100
AcDbXrecord
280
     1
290
     1
  0
XRECORD
  5
F10A08
102
{ACAD_REACTORS
330
F10A07
102
}
330
F10A07
100
AcDbXrecord
280
     1
290
     1
  0
XRECORD
  5
F10A0A
102
{ACAD_REACTORS
330
F10A09
102
}
330
F10A09
100
AcDbXrecord
280
     1
290
     1
  0
XRECORD
  5
F10ADB
102
{ACAD_REACTORS
330
F10ADA
102
}
330
F10ADA
100
AcDbXrecord
280
     1
102
SHADEPLOT
 70
     0
  0
XRECORD
  5
F10ADD
102
{ACAD_REACTORS
330
F10ADC
102
}
330
F10ADC
100
AcDbXrecord
280
     1
102
SHADEPLOT
 70
     0
  0
XRECORD
  5
F10AD7
102
{ACAD_REACTORS
330
F10AD6
102
}
330
F10AD6
100
AcDbXrecord
280
     1
102
SHADEPLOT
 70
     0
  0
XRECORD
  5
F10AD9
102
{ACAD_REACTORS
330
F10AD8
102
}
330
F10AD8
100
AcDbXrecord
280
     1
102
SHADEPLOT
 70
     0
  0
XRECORD
  5
F10AD2
102
{ACAD_REACTORS
330
F10AD1
102
}
330
F10AD1
100
AcDbXrecord
280
     1
 70
     1
  0
XRECORD
  5
F10AD4
102
{ACAD_REACTORS
330
F10AD1
102
}
330
F10AD1
100
AcDbXrecord
280
     1
340
256
  0
XRECORD
  5
F10AD5
102
{ACAD_REACTORS
330
F10AD1
102
}
330
F10AD1
100
AcDbXrecord
280
     1
340
256
  0
XRECORD
  5
F10AD3
102
{ACAD_REACTORS
330
F10AD1
102
}
330
F10AD1
100
AcDbXrecord
280
     1
340
256
  0
LAYOUT
  5
FD1
102
{ACAD_XDICTIONARY
360
F10B07
102
}
102
{ACAD_REACTORS
330
FCF
102
}
330
FCF
100
AcDbPlotSettings
  1

  2
Microsoft XPS Document Writer
  4

  6

 40
0.0
 41
0.0
 42
0.0
 43
0.0
 44
0.0
 45
0.0
 46
0.0
 47
0.0
 48
0.0
 49
0.0
140
0.0
141
0.0
142
1.0
143
1.0
 70
   688
 72
     0
 73
     0
 74
     5
  7

 75
    16
147
1.0
148
0.0
149
0.0
100
AcDbLayout
  1
Layout1
 70
     1
 71
     1
 10
0.0
 20
0.0
 11
12.0
 21
9.0
 12
0.0
 22
0.0
 32
0.0
 14
1.000000000000000E+20
 24
1.000000000000000E+20
 34
1.000000000000000E+20
 15
-1.000000000000000E+20
 25
-1.000000000000000E+20
 35
-1.000000000000000E+20
146
0.0
 13
0.0
 23
0.0
 33
0.0
 16
1.0
 26
0.0
 36
0.0
 17
0.0
 27
1.0
 37
0.0
 76
     0
330
25D
  0
LAYOUT
  5
FD0
102
{ACAD_XDICTIONARY
360
F10B05
102
}
102
{ACAD_REACTORS
330
FCF
102
}
330
FCF
100
AcDbPlotSettings
  1

  2
Microsoft XPS Document Writer
  4

  6

 40
0.0
 41
0.0
 42
0.0
 43
0.0
 44
0.0
 45
0.0
 46
0.0
 47
0.0
 48
0.0
 49
0.0
140
0.0
141
0.0
142
1.0
143
1.0
 70
  1712
 72
     0
 73
     0
 74
     0
  7

 75
     0
147
1.0
148
0.0
149
0.0
100
AcDbLayout
  1
Model
 70
     1
 71
     0
 10
0.0
 20
0.0
 11
12.0
 21
9.0
 12
0.0
 22
0.0
 32
0.0
 14
0.0
 24
0.0
 34
0.0
 15
0.0
 25
0.0
 35
0.0
146
0.0
 13
0.0
 23
0.0
 33
0.0
 16
1.0
 26
0.0
 36
0.0
 17
0.0
 27
1.0
 37
0.0
 76
     0
330
261
331
26B
  0
MATERIAL
  5
F83
102
{ACAD_XDICTIONARY
360
F84
102
}
102
{ACAD_REACTORS
330
F7A
102
}
330
F7A
100
AcDbMaterial
  1
ByBlock
 72
     0
 43
0.0208333333333333
 43
0.0
 43
0.0
 43
0.0
 43
0.0
 43
0.0208333333333333
 43
0.0
 43
0.0
 43
0.0
 43
0.0
 43
1.0
 43
0.0
 43
0.0
 43
0.0
 43
0.0
 43
1.0
 77
     0
 47
0.0208333333333333
 47
0.0
 47
0.0
 47
0.0
 47
0.0
 47
0.0208333333333333
 47
0.0
 47
0.0
 47
0.0
 47
0.0
 47
1.0
 47
0.0
 47
0.0
 47
0.0
 47
0.0
 47
1.0
171
     0
 49
0.0208333333333333
 49
0.0
 49
0.0
 49
0.0
 49
0.0
 49
0.0208333333333333
 49
0.0
 49
0.0
 49
0.0
 49
0.0
 49
1.0
 49
0.0
 49
0.0
 49
0.0
 49
0.0
 49
1.0
175
     0
142
0.0208333333333333
142
0.0
142
0.0
142
0.0
142
0.0
142
0.0208333333333333
142
0.0
142
0.0
142
0.0
142
0.0
142
1.0
142
0.0
142
0.0
142
0.0
142
0.0
142
1.0
179
     0
144
0.0208333333333333
144
0.0
144
0.0
144
0.0
144
0.0
144
0.0208333333333333
144
0.0
144
0.0
144
0.0
144
0.0
144
1.0
144
0.0
144
0.0
144
0.0
144
0.0
144
1.0
147
0.0208333333333333
147
0.0
147
0.0
147
0.0
147
0.0
147
0.0208333333333333
147
0.0
147
0.0
147
0.0
147
0.0
147
1.0
147
0.0
147
0.0
147
0.0
147
0.0
147
1.0
  0
MATERIAL
  5
F7B
102
{ACAD_XDICTIONARY
360
F7C
102
}
102
{ACAD_REACTORS
330
F7A
102
}
330
F7A
100
AcDbMaterial
  1
ByLayer
 72
     0
 43
0.0208333333333333
 43
0.0
 43
0.0
 43
0.0
 43
0.0
 43
0.0208333333333333
 43
0.0
 43
0.0
 43
0.0
 43
0.0
 43
1.0
 43
0.0
 43
0.0
 43
0.0
 43
0.0
 43
1.0
 77
     0
 47
0.0208333333333333
 47
0.0
 47
0.0
 47
0.0
 47
0.0
 47
0.0208333333333333
 47
0.0
 47
0.0
 47
0.0
 47
0.0
 47
1.0
 47
0.0
 47
0.0
 47
0.0
 47
0.0
 47
1.0
171
     0
 49
0.0208333333333333
 49
0.0
 49
0.0
 49
0.0
 49
0.0
 49
0.0208333333333333
 49
0.0
 49
0.0
 49
0.0
 49
0.0
 49
1.0
 49
0.0
 49
0.0
 49
0.0
 49
0.0
 49
1.0
175
     0
142
0.0208333333333333
142
0.0
142
0.0
142
0.0
142
0.0
142
0.0208333333333333
142
0.0
142
0.0
142
0.0
142
0.0
142
1.0
142
0.0
142
0.0
142
0.0
142
0.0
142
1.0
179
     0
144
0.0208333333333333
144
0.0
144
0.0
144
0.0
144
0.0
144
0.0208333333333333
144
0.0
144
0.0
144
0.0
144
0.0
144
1.0
144
0.0
144
0.0
144
0.0
144
0.0
144
1.0
147
0.0208333333333333
147
0.0
147
0.0
147
0.0
147
0.0
147
0.0208333333333333
147
0.0
147
0.0
147
0.0
147
0.0
147
1.0
147
0.0
147
0.0
147
0.0
147
0.0
147
1.0
  0
MATERIAL
  5
F8B
102
{ACAD_XDICTIONARY
360
F8C
102
}
102
{ACAD_REACTORS
330
F7A
102
}
330
F7A
100
AcDbMaterial
  1
Global
 72
     0
 43
0.0208333333333333
 43
0.0
 43
0.0
 43
0.0
 43
0.0
 43
0.0208333333333333
 43
0.0
 43
0.0
 43
0.0
 43
0.0
 43
1.0
 43
0.0
 43
0.0
 43
0.0
 43
0.0
 43
1.0
 77
     0
 47
0.0208333333333333
 47
0.0
 47
0.0
 47
0.0
 47
0.0
 47
0.0208333333333333
 47
0.0
 47
0.0
 47
0.0
 47
0.0
 47
1.0
 47
0.0
 47
0.0
 47
0.0
 47
0.0
 47
1.0
171
     0
 49
0.0208333333333333
 49
0.0
 49
0.0
 49
0.0
 49
0.0
 49
0.0208333333333333
 49
0.0
 49
0.0
 49
0.0
 49
0.0
 49
1.0
 49
0.0
 49
0.0
 49
0.0
 49
0.0
 49
1.0
175
     0
142
0.0208333333333333
142
0.0
142
0.0
142
0.0
142
0.0
142
0.0208333333333333
142
0.0
142
0.0
142
0.0
142
0.0
142
1.0
142
0.0
142
0.0
142
0.0
142
0.0
142
1.0
179
     0
144
0.0208333333333333
144
0.0
144
0.0
144
0.0
144
0.0
144
0.0208333333333333
144
0.0
144
0.0
144
0.0
144
0.0
144
1.0
144
0.0
144
0.0
144
0.0
144
0.0
144
1.0
147
0.0208333333333333
147
0.0
147
0.0
147
0.0
147
0.0
147
0.0208333333333333
147
0.0
147
0.0
147
0.0
147
0.0
147
1.0
147
0.0
147
0.0
147
0.0
147
0.0
147
1.0
  0
MLEADERSTYLE
  5
FCE
102
{ACAD_REACTORS
330
FCD
102
}
330
FCD
100
AcDbMLeaderStyle
170
     2
171
     1
172
     0
 90
        2
 40
0.0
 41
0.0
173
     1
 91
-1056964608
340
256
 92
       -2
290
     1
 42
0.09
291
     1
 43
0.36
  3
Standard
 44
0.18
300

342
253
174
     1
178
     6
175
     1
176
     0
 93
-1056964608
 45
0.18
292
     0
297
     0
 46
0.18
 94
-1056964608
 47
1.0
 49
1.0
140
1.0
293
     1
141
0.0
294
     1
177
     0
142
1.0
295
     0
296
     0
143
0.125
1001
ACAD_MLEADERVER
1070
     2
  0
MLINESTYLE
  5
FAA
102
{ACAD_REACTORS
330
16
102
}
330
16
100
AcDbMlineStyle
  2
STANDARD
 70
     0
  3

 62
   256
 51
90.0
 52
90.0
 71
     2
 49
0.5
 62
   256
  6
BYLAYER
 49
-0.5
 62
   256
  6
BYLAYER
  0
ACDBPLACEHOLDER
  5
19
102
{ACAD_REACTORS
330
18
102
}
330
18
  0
SCALE
  5
FAC
102
{ACAD_REACTORS
330
FAB
102
}
330
FAB
100
AcDbScale
 70
     0
300
1:1
140
1.0
141
1.0
290
     1
  0
SCALE
  5
FAD
102
{ACAD_REACTORS
330
FAB
102
}
330
FAB
100
AcDbScale
 70
     0
300
1:2
140
1.0
141
2.0
290
     0
  0
SCALE
  5
FAE
102
{ACAD_REACTORS
330
FAB
102
}
330
FAB
100
AcDbScale
 70
     0
300
1:4
140
1.0
141
4.0
290
     0
  0
SCALE
  5
FAF
102
{ACAD_REACTORS
330
FAB
102
}
330
FAB
100
AcDbScale
 70
     0
300
1:5
140
1.0
141
5.0
290
     0
  0
SCALE
  5
FB0
102
{ACAD_REACTORS
330
FAB
102
}
330
FAB
100
AcDbScale
 70
     0
300
1:8
140
1.0
141
8.0
290
     0
  0
SCALE
  5
FB1
102
{ACAD_REACTORS
330
FAB
102
}
330
FAB
100
AcDbScale
 70
     0
300
1:10
140
1.0
141
10.0
290
     0
  0
SCALE
  5
FB2
102
{ACAD_REACTORS
330
FAB
102
}
330
FAB
100
AcDbScale
 70
     0
300
1:16
140
1.0
141
16.0
290
     0
  0
SCALE
  5
FB3
102
{ACAD_REACTORS
330
FAB
102
}
330
FAB
100
AcDbScale
 70
     0
300
1:20
140
1.0
141
20.0
290
     0
  0
SCALE
  5
FB4
102
{ACAD_REACTORS
330
FAB
102
}
330
FAB
100
AcDbScale
 70
     0
300
1:30
140
1.0
141
30.0
290
     0
  0
SCALE
  5
FB5
102
{ACAD_REACTORS
330
FAB
102
}
330
FAB
100
AcDbScale
 70
     0
300
1:40
140
1.0
141
40.0
290
     0
  0
SCALE
  5
FB6
102
{ACAD_REACTORS
330
FAB
102
}
330
FAB
100
AcDbScale
 70
     0
300
1:50
140
1.0
141
50.0
290
     0
  0
SCALE
  5
FB7
102
{ACAD_REACTORS
330
FAB
102
}
330
FAB
100
AcDbScale
 70
     0
300
1:100
140
1.0
141
100.0
290
     0
  0
SCALE
  5
FB8
102
{ACAD_REACTORS
330
FAB
102
}
330
FAB
100
AcDbScale
 70
     0
300
2:1
140
2.0
141
1.0
290
     0
  0
SCALE
  5
FB9
102
{ACAD_REACTORS
330
FAB
102
}
330
FAB
100
AcDbScale
 70
     0
300
4:1
140
4.0
141
1.0
290
     0
  0
SCALE
  5
FBA
102
{ACAD_REACTORS
330
FAB
102
}
330
FAB
100
AcDbScale
 70
     0
300
8:1
140
8.0
141
1.0
290
     0
  0
SCALE
  5
FBB
102
{ACAD_REACTORS
330
FAB
102
}
330
FAB
100
AcDbScale
 70
     0
300
10:1
140
10.0
141
1.0
290
     0
  0
SCALE
  5
FBC
102
{ACAD_REACTORS
330
FAB
102
}
330
FAB
100
AcDbScale
 70
     0
300
100:1
140
100.0
141
1.0
290
     0
  0
SCALE
  5
FBD
102
{ACAD_REACTORS
330
FAB
102
}
330
FAB
100
AcDbScale
 70
     0
300
1/128" = 1'-0"
140
0.0078125
141
12.0
290
     0
  0
SCALE
  5
FBE
102
{ACAD_REACTORS
330
FAB
102
}
330
FAB
100
AcDbScale
 70
     0
300
1/64" = 1'-0"
140
0.015625
141
12.0
290
     0
  0
SCALE
  5
FBF
102
{ACAD_REACTORS
330
FAB
102
}
330
FAB
100
AcDbScale
 70
     0
300
1/32" = 1'-0"
140
0.03125
141
12.0
290
     0
  0
SCALE
  5
FC0
102
{ACAD_REACTORS
330
FAB
102
}
330
FAB
100
AcDbScale
 70
     0
300
1/16" = 1'-0"
140
0.0625
141
12.0
290
     0
  0
SCALE
  5
FC1
102
{ACAD_REACTORS
330
FAB
102
}
330
FAB
100
AcDbScale
 70
     0
300
3/32" = 1'-0"
140
0.09375
141
12.0
290
     0
  0
SCALE
  5
FC2
102
{ACAD_REACTORS
330
FAB
102
}
330
FAB
100
AcDbScale
 70
     0
300
1/8" = 1'-0"
140
0.125
141
12.0
290
     0
  0
SCALE
  5
FC3
102
{ACAD_REACTORS
330
FAB
102
}
330
FAB
100
AcDbScale
 70
     0
300
3/16" = 1'-0"
140
0.1875
141
12.0
290
     0
  0
SCALE
  5
FC4
102
{ACAD_REACTORS
330
FAB
102
}
330
FAB
100
AcDbScale
 70
     0
300
1/4" = 1'-0"
140
0.25
141
12.0
290
     0
  0
SCALE
  5
FC5
102
{ACAD_REACTORS
330
FAB
102
}
330
FAB
100
AcDbScale
 70
     0
300
3/8" = 1'-0"
140
0.375
141
12.0
290
     0
  0
SCALE
  5
FC6
102
{ACAD_REACTORS
330
FAB
102
}
330
FAB
100
AcDbScale
 70
     0
300
1/2" = 1'-0"
140
0.5
141
12.0
290
     0
  0
SCALE
  5
FC7
102
{ACAD_REACTORS
330
FAB
102
}
330
FAB
100
AcDbScale
 70
     0
300
3/4" = 1'-0"
140
0.75
141
12.0
290
     0
  0
SCALE
  5
FC8
102
{ACAD_REACTORS
330
FAB
102
}
330
FAB
100
AcDbScale
 70
     0
300
1" = 1'-0"
140
1.0
141
12.0
290
     0
  0
SCALE
  5
FC9
102
{ACAD_REACTORS
330
FAB
102
}
330
FAB
100
AcDbScale
 70
     0
300
1-1/2" = 1'-0"
140
1.5
141
12.0
290
     0
  0
SCALE
  5
FCA
102
{ACAD_REACTORS
330
FAB
102
}
330
FAB
100
AcDbScale
 70
     0
300
3" = 1'-0"
140
3.0
141
12.0
290
     0
  0
SCALE
  5
FCB
102
{ACAD_REACTORS
330
FAB
102
}
330
FAB
100
AcDbScale
 70
     0
300
6" = 1'-0"
140
6.0
141
12.0
290
     0
  0
SCALE
  5
FCC
102
{ACAD_REACTORS
330
FAB
102
}
330
FAB
100
AcDbScale
 70
     0
300
1'-0" = 1'-0"
140
12.0
141
12.0
290
     0
  0
TABLESTYLE
  5
FA9
102
{ACAD_XDICTIONARY
360
FF8
102
}
102
{ACAD_REACTORS
330
FA8
102
}
330
FA8
100
AcDbTableStyle
  3
Standard
 70
     0
 71
     0
 40
0.06
 41
0.06
280
     0
281
     0
  7
Standard
140
0.18
170
     2
 62
     0
 63
     7
283
     0
274
    -2
284
     1
 64
     0
275
    -2
285
     1
 65
     0
276
    -2
286
     1
 66
     0
277
    -2
287
     1
 67
     0
278
    -2
288
     1
 68
     0
279
    -2
289
     1
 69
     0
  7
Standard
140
0.25
170
     5
 62
     0
 63
     7
283
     0
274
    -2
284
     1
 64
     0
275
    -2
285
     1
 65
     0
276
    -2
286
     1
 66
     0
277
    -2
287
     1
 67
     0
278
    -2
288
     1
 68
     0
279
    -2
289
     1
 69
     0
  7
Standard
140
0.18
170
     5
 62
     0
 63
     7
283
     0
274
    -2
284
     1
 64
     0
275
    -2
285
     1
 65
     0
276
    -2
286
     1
 66
     0
277
    -2
287
     1
 67
     0
278
    -2
288
     1
 68
     0
279
    -2
289
     1
 69
     0
  0
VISUALSTYLE
  5
F99
102
{ACAD_XDICTIONARY
360
F10AE8
102
}
102
{ACAD_REACTORS
330
F93
102
}
330
F93
100
AcDbVisualStyle
  2

 70
     4
 71
     0
 72
     2
 73
     0
 90
        0
 40
-0.6
 41
-30.0
 62
     5
 63
     7
 74
     1
 91
        4
 64
     7
 65
   257
 75
     1
175
     1
 42
1.0
 92
        0
 66
   257
 43
1.0
 76
     1
 77
     6
 78
     2
 67
     7
 79
     5
170
     0
171
     0
290
     0
174
     0
 93
        1
 44
0.0
173
     0
291
     0
 45
0.0
1001
ACAD
1000
AcDbSavedByObjectVersion
1070
     0
  0
VISUALSTYLE
  5
F9B
102
{ACAD_XDICTIONARY
360
F10AEC
102
}
102
{ACAD_REACTORS
330
F93
102
}
330
F93
100
AcDbVisualStyle
  2

 70
     6
 71
     1
 72
     2
 73
     2
 90
        0
 40
-0.6
 41
-30.0
 62
     5
 63
     7
 74
     2
 91
        2
 64
     7
 65
   257
 75
     2
175
     1
 42
179.0
 92
        0
 66
   257
 43
1.0
 76
     1
 77
     6
 78
     2
 67
     7
 79
     3
170
     0
171
     0
290
     0
174
     0
 93
        1
 44
0.0
173
     0
291
     0
 45
0.0
1001
ACAD
1000
AcDbSavedByObjectVersion
1070
     0
  0
VISUALSTYLE
  5
F9A
102
{ACAD_XDICTIONARY
360
F10AEA
102
}
102
{ACAD_REACTORS
330
F93
102
}
330
F93
100
AcDbVisualStyle
  2

 70
     5
 71
     0
 72
     2
 73
     0
 90
        0
 40
-0.6
 41
-30.0
 62
     5
 63
     7
 74
     1
 91
        4
 64
     7
 65
   257
 75
     1
175
     1
 42
1.0
 92
        0
 66
   257
 43
1.0
 76
     1
 77
     6
 78
     2
 67
     7
 79
     5
170
     0
171
     0
290
     0
174
     0
 93
        1
 44
0.0
173
     0
291
     0
 45
0.0
1001
ACAD
1000
AcDbSavedByObjectVersion
1070
     0
  0
VISUALSTYLE
  5
F98
102
{ACAD_XDICTIONARY
360
F10AE6
102
}
102
{ACAD_REACTORS
330
F93
102
}
330
F93
100
AcDbVisualStyle
  2

 70
     7
 71
     1
 72
     0
 73
     1
 90
        0
 40
-0.6
 41
-30.0
 62
     5
 63
     7
 74
     0
 91
        4
 64
     7
 65
   257
 75
     1
175
     1
 42
1.0
 92
        8
 66
     7
 43
1.0
 76
     1
 77
     6
 78
     2
 67
     7
 79
     5
170
     0
171
     0
290
     0
174
     0
 93
        1
 44
0.0
173
     0
291
     1
 45
0.0
1001
ACAD
1000
AcDbSavedByObjectVersion
1070
     0
  0
VISUALSTYLE
  5
F9F
102
{ACAD_XDICTIONARY
360
F10AF4
102
}
102
{ACAD_REACTORS
330
F93
102
}
330
F93
100
AcDbVisualStyle
  2

 70
    12
 71
     2
 72
     2
 73
     0
 90
        0
 40
-0.6
 41
-30.0
 62
     5
 63
     7
 74
     1
 91
        4
 64
     7
 65
   257
 75
     1
175
     1
 42
1.0
 92
        8
 66
     7
 43
1.0
 76
     1
 77
     6
 78
     2
 67
     7
 79
     5
170
     0
171
     0
290
     0
174
     0
 93
        1
 44
50.0
173
     0
291
     1
 45
0.0
1001
ACAD
1000
AcDbSavedByObjectVersion
1070
     0
  0
VISUALSTYLE
  5
FA3
102
{ACAD_XDICTIONARY
360
F10AFC
102
}
102
{ACAD_REACTORS
330
F93
102
}
330
F93
100
AcDbVisualStyle
  2

 70
    16
 71
     2
 72
     2
 73
     3
 90
        0
 40
-0.6
 41
-30.0
 62
     5
 63
     8
 74
     1
 91
        4
 64
     7
 65
   257
 75
     1
175
     1
 42
1.0
 92
        8
 66
     8
 43
1.0
 76
     1
 77
     6
 78
     2
 67
     7
 79
     5
170
     0
171
     0
290
     0
174
     0
 93
        1
 44
0.0
173
     0
291
     1
 45
0.0
1001
ACAD
1000
AcDbSavedByObjectVersion
1070
     0
  0
VISUALSTYLE
  5
F9C
102
{ACAD_XDICTIONARY
360
F10AEE
102
}
102
{ACAD_REACTORS
330
F93
102
}
330
F93
100
AcDbVisualStyle
  2

 70
     9
 71
     3
 72
     2
 73
     0
 90
        0
 40
-0.6
 41
-30.0
 62
     5
 63
     7
 74
     2
 91
        2
 64
     7
 65
   257
 75
     1
175
     1
 42
179.0
 92
        8
 66
     7
 43
1.0
 76
     1
 77
     6
 78
     2
 67
     7
 79
     3
170
     0
171
     0
290
     0
174
     0
 93
        1
 44
0.0
173
     0
291
     0
 45
0.0
1001
ACAD
1000
AcDbSavedByObjectVersion
1070
     0
  0
VISUALSTYLE
  5
F9E
102
{ACAD_XDICTIONARY
360
F10AF2
102
}
102
{ACAD_REACTORS
330
F93
102
}
330
F93
100
AcDbVisualStyle
  2

 70
    11
 71
     2
 72
     2
 73
     0
 90
        0
 40
-0.6
 41
-30.0
 62
     5
 63
     7
 74
     1
 91
        4
 64
     7
 65
   257
 75
     1
175
     1
 42
1.0
 92
        8
 66
     7
 43
1.0
 76
     1
 77
     6
 78
     2
 67
     7
 79
     5
170
     0
171
     0
290
     0
174
     0
 93
        1
 44
-50.0
173
     0
291
     1
 45
0.0
1001
ACAD
1000
AcDbSavedByObjectVersion
1070
     0
  0
VISUALSTYLE
  5
FA6
102
{ACAD_XDICTIONARY
360
F10B02
102
}
102
{ACAD_REACTORS
330
F93
102
}
330
F93
100
AcDbVisualStyle
  2

 70
    22
 71
     2
 72
     2
 73
     0
 90
        0
 40
-0.6
 41
-30.0
 62
     5
 63
     7
 74
     1
 91
        4
 64
     7
 65
   257
 75
     1
175
     1
 42
1.0
 92
        8
 66
     7
 43
1.0
 76
     1
 77
     6
 78
     2
 67
     7
 79
     5
170
     0
171
     0
290
     0
174
     0
 93
        1
 44
0.0
173
     0
291
     1
 45
0.0
1001
ACAD
1000
AcDbSavedByObjectVersion
1070
     0
  0
VISUALSTYLE
  5
FA2
102
{ACAD_XDICTIONARY
360
F10AFA
102
}
102
{ACAD_REACTORS
330
F93
102
}
330
F93
100
AcDbVisualStyle
  2

 70
    15
 71
     2
 72
     2
 73
     0
 90
        0
 40
-0.6
 41
-30.0
 62
     5
 63
     7
 74
     1
 91
        4
 64
     7
 65
   257
 75
     1
175
     1
 42
1.0
 92
        8
 66
     7
 43
1.0
 76
     1
 77
     6
 78
     2
 67
     7
 79
     5
170
     0
171
     0
290
     0
174
     0
 93
        1
 44
0.0
173
     0
291
     1
 45
0.0
1001
ACAD
1000
AcDbSavedByObjectVersion
1070
     0
  0
VISUALSTYLE
  5
F94
102
{ACAD_XDICTIONARY
360
F10ADE
102
}
102
{ACAD_REACTORS
330
F93
102
}
330
F93
100
AcDbVisualStyle
  2

 70
     0
 71
     2
 72
     1
 73
     1
 90
        2
 40
-0.6
 41
30.0
 62
     5
 63
     7
 74
     0
 91
        4
 64
     7
 65
   257
 75
     1
175
     1
 42
1.0
 92
        8
 66
     7
 43
1.0
 76
     1
 77
     6
 78
     2
 67
     7
 79
     5
170
     0
171
     0
290
     0
174
     0
 93
       13
 44
0.0
173
     0
291
     1
 45
0.0
1001
ACAD
1000
AcDbSavedByObjectVersion
1070
     0
  0
VISUALSTYLE
  5
F95
102
{ACAD_XDICTIONARY
360
F10AE0
102
}
102
{ACAD_REACTORS
330
F93
102
}
330
F93
100
AcDbVisualStyle
  2

 70
     1
 71
     2
 72
     1
 73
     1
 90
        2
 40
-0.6
 41
30.0
 62
     5
 63
     7
 74
     1
 91
        4
 64
     7
 65
   257
 75
     1
175
     1
 42
1.0
 92
        0
 66
   257
 43
1.0
 76
     1
 77
     6
 78
     2
 67
     7
 79
     5
170
     0
171
     0
290
     0
174
     0
 93
       13
 44
0.0
173
     0
291
     1
 45
0.0
1001
ACAD
1000
AcDbSavedByObjectVersion
1070
     0
  0
VISUALSTYLE
  5
F96
102
{ACAD_XDICTIONARY
360
F10AE2
102
}
102
{ACAD_REACTORS
330
F93
102
}
330
F93
100
AcDbVisualStyle
  2

 70
     2
 71
     2
 72
     2
 73
     1
 90
        2
 40
-0.6
 41
30.0
 62
     5
 63
     7
 74
     0
 91
        4
 64
     7
 65
   257
 75
     1
175
     1
 42
1.0
 92
        0
 66
     7
 43
1.0
 76
     1
 77
     6
 78
     2
 67
     7
 79
     5
170
     0
171
     0
290
     0
174
     0
 93
       13
 44
0.0
173
     0
291
     1
 45
0.0
1001
ACAD
1000
AcDbSavedByObjectVersion
1070
     0
  0
VISUALSTYLE
  5
F97
102
{ACAD_XDICTIONARY
360
F10AE4
102
}
102
{ACAD_REACTORS
330
F93
102
}
330
F93
100
AcDbVisualStyle
  2

 70
     3
 71
     2
 72
     2
 73
     1
 90
        2
 40
-0.6
 41
30.0
 62
     5
 63
     7
 74
     1
 91
        4
 64
     7
 65
   257
 75
     1
175
     1
 42
1.0
 92
        0
 66
   257
 43
1.0
 76
     1
 77
     6
 78
     2
 67
     7
 79
     5
170
     0
171
     0
290
     0
174
     0
 93
       13
 44
0.0
173
     0
291
     1
 45
0.0
1001
ACAD
1000
AcDbSavedByObjectVersion
1070
     0
  0
VISUALSTYLE
  5
F108B6
102
{ACAD_XDICTIONARY
360
F10B0B
102
}
102
{ACAD_REACTORS
330
F93
102
}
330
F93
100
AcDbVisualStyle
  2

 70
     6
 71
     1
 72
     2
 73
     2
 90
        0
 40
-0.6
 41
-30.0
 62
     5
 63
     7
 74
     2
 91
        2
 64
     7
 65
   257
 75
     2
175
     1
 42
40.0
 92
        0
 66
   257
 43
1.0
 76
     1
 77
     6
 78
     2
 67
     7
 79
     3
170
     0
171
     0
290
     0
174
     0
 93
        1
 44
0.0
173
     0
291
     0
 45
0.0
1001
ACAD
1000
AcDbSavedByObjectVersion
1070
     0
  0
VISUALSTYLE
  5
FA4
102
{ACAD_XDICTIONARY
360
F10AFE
102
}
102
{ACAD_REACTORS
330
F93
102
}
330
F93
100
AcDbVisualStyle
  2

 70
    20
 71
     2
 72
     2
 73
     0
 90
        0
 40
-0.6
 41
-30.0
 62
     5
 63
     7
 74
     1
 91
        4
 64
     7
 65
   257
 75
     1
175
     1
 42
1.0
 92
       10
 66
     7
 43
1.0
 76
     1
 77
     6
 78
     2
 67
     7
 79
     5
170
     0
171
     0
290
     0
174
     0
 93
        1
 44
0.0
173
     0
291
     1
 45
0.0
1001
ACAD
1000
AcDbSavedByObjectVersion
1070
     0
  0
VISUALSTYLE
  5
FA1
102
{ACAD_XDICTIONARY
360
F10AF8
102
}
102
{ACAD_REACTORS
330
F93
102
}
330
F93
100
AcDbVisualStyle
  2

 70
    14
 71
     2
 72
     2
 73
     0
 90
        0
 40
-0.6
 41
-30.0
 62
     5
 63
     7
 74
     1
 91
        4
 64
     7
 65
   257
 75
     7
175
     7
 42
1.0
 92
        8
 66
     7
 43
1.0
 76
     1
 77
     6
 78
     2
 67
     7
 79
     5
170
     0
171
     0
290
     0
174
     0
 93
        1
 44
0.0
173
     0
291
     1
 45
0.0
1001
ACAD
1000
AcDbSavedByObjectVersion
1070
     0
  0
VISUALSTYLE
  5
FA5
102
{ACAD_XDICTIONARY
360
F10B00
102
}
102
{ACAD_REACTORS
330
F93
102
}
330
F93
100
AcDbVisualStyle
  2

 70
    21
 71
     2
 72
     2
 73
     0
 90
        0
 40
-0.6
 41
-30.0
 62
     5
 63
     7
 74
     1
 91
        4
 64
     7
 65
   257
 75
     1
175
     1
 42
1.0
 92
        9
 66
     7
 43
1.0
 76
     1
 77
     6
 78
     2
 67
     7
 79
     5
170
     0
171
     0
290
     0
174
     0
 93
        1
 44
0.0
173
     0
291
     1
 45
0.0
1001
ACAD
1000
AcDbSavedByObjectVersion
1070
     0
  0
VISUALSTYLE
  5
F9D
102
{ACAD_XDICTIONARY
360
F10AF0
102
}
102
{ACAD_REACTORS
330
F93
102
}
330
F93
100
AcDbVisualStyle
  2

 70
     8
 71
     2
 72
     2
 73
     0
 90
        0
 40
-0.6
 41
-30.0
 62
     5
 63
     7
 74
     1
 91
        0
 64
     7
 65
   257
 75
     1
175
     1
 42
1.0
 92
        8
 66
     8
 43
1.0
 76
     1
 77
     6
 78
     2
 67
     7
 79
     5
170
     0
171
     0
290
     0
174
     0
 93
       13
 44
0.0
173
     0
291
     0
 45
0.0
1001
ACAD
1000
AcDbSavedByObjectVersion
1070
     0
  0
VISUALSTYLE
  5
F108BB
102
{ACAD_XDICTIONARY
360
F10B15
102
}
102
{ACAD_REACTORS
330
F93
102
}
330
F93
100
AcDbVisualStyle
  2

 70
    27
 71
     2
 72
     2
 73
     1
 90
        2
 40
-0.6
 41
30.0
 62
     5
 63
     7
 74
     0
 91
        4
 64
     7
 65
   257
 75
     1
175
     1
 42
1.0
 92
        8
 66
   257
 43
1.0
 76
     1
 77
     6
 78
     2
 67
     8
 79
     3
170
     0
171
     0
290
     0
174
     0
 93
        5
 44
0.0
173
     0
291
     0
 45
0.0
1001
ACAD
1000
AcDbSavedByObjectVersion
1070
     0
  0
VISUALSTYLE
  5
F108BA
102
{ACAD_XDICTIONARY
360
F10B13
102
}
102
{ACAD_REACTORS
330
F93
102
}
330
F93
100
AcDbVisualStyle
  2

 70
    26
 71
     2
 72
     2
 73
     1
 90
        2
 40
-0.6
 41
30.0
 62
     5
 63
     7
 74
     1
 91
       10
 64
     7
 65
   257
 75
     2
175
     1
 42
1.0
 92
        8
 66
   257
 43
1.0
 76
     1
 77
     6
 78
     2
 67
     7
 79
     3
170
     0
171
     0
290
     0
174
     0
 93
        5
 44
0.0
173
     0
291
     0
 45
0.0
1001
ACAD
1000
AcDbSavedByObjectVersion
1070
     0
  0
VISUALSTYLE
  5
F108B7
102
{ACAD_XDICTIONARY
360
F10B0D
102
}
102
{ACAD_REACTORS
330
F93
102
}
330
F93
100
AcDbVisualStyle
  2

 70
    23
 71
     2
 72
     2
 73
     3
 90
        0
 40
-0.6
 41
-30.0
 62
     5
 63
     7
 74
     2
 91
        2
 64
     7
 65
     7
 75
     1
175
     1
 42
40.0
 92
        8
 66
     7
 43
1.0
 76
     1
 77
     6
 78
     2
 67
     7
 79
     3
170
     0
171
     0
290
     0
174
     0
 93
        1
 44
0.0
173
     0
291
     0
 45
0.0
1001
ACAD
1000
AcDbSavedByObjectVersion
1070
     0
  0
VISUALSTYLE
  5
F108B8
102
{ACAD_XDICTIONARY
360
F10B0F
102
}
102
{ACAD_REACTORS
330
F93
102
}
330
F93
100
AcDbVisualStyle
  2

 70
    24
 71
     1
 72
     2
 73
     2
 90
        0
 40
-0.6
 41
-30.0
 62
     5
 63
     7
 74
     2
 91
        2
 64
     7
 65
     7
 75
     1
175
     1
 42
40.0
 92
       11
 66
     7
 43
1.0
 76
     1
 77
     6
 78
     2
 67
     7
 79
     6
170
     0
171
     0
290
     0
174
     0
 93
        1
 44
0.0
173
     0
291
     0
 45
0.0
1001
ACAD
1000
AcDbSavedByObjectVersion
1070
     0
  0
VISUALSTYLE
  5
FA0
102
{ACAD_XDICTIONARY
360
F10AF6
102
}
102
{ACAD_REACTORS
330
F93
102
}
330
F93
100
AcDbVisualStyle
  2

 70
    13
 71
     2
 72
     2
 73
     0
 90
        0
 40
-0.6
 41
-30.0
 62
     5
 63
     7
 74
     1
 91
        4
 64
     7
 65
   257
 75
     1
175
     1
 42
1.0
 92
       12
 66
     7
 43
1.0
 76
     1
 77
     6
 78
     2
 67
     7
 79
     5
170
     0
171
     0
290
     0
174
     0
 93
        1
 44
0.0
173
     0
291
     1
 45
0.0
1001
ACAD
1000
AcDbSavedByObjectVersion
1070
     0
  0
VISUALSTYLE
  5
F108B5
102
{ACAD_XDICTIONARY
360
F10B09
102
}
102
{ACAD_REACTORS
330
F93
102
}
330
F93
100
AcDbVisualStyle
  2

 70
     5
 71
     0
 72
     2
 73
     0
 90
        0
 40
-0.6
 41
-30.0
 62
     5
 63
     7
 74
     1
 91
        4
 64
     7
 65
   257
 75
     1
175
     1
 42
1.0
 92
        0
 66
   257
 43
1.0
 76
     1
 77
     6
 78
     2
 67
     7
 79
     3
170
     0
171
     0
290
     0
174
     0
 93
        1
 44
0.0
173
     0
291
     0
 45
0.0
1001
ACAD
1000
AcDbSavedByObjectVersion
1070
     0
  0
VISUALSTYLE
  5
F108B9
102
{ACAD_XDICTIONARY
360
F10B11
102
}
102
{ACAD_REACTORS
330
F93
102
}
330
F93
100
AcDbVisualStyle
  2

 70
    25
 71
     2
 72
     2
 73
     1
 90
        1
 40
0.5
 41
-30.0
 62
     5
 63
     7
 74
     1
 91
        0
 64
     7
 65
   257
 75
     1
175
     1
 42
1.0
 92
        8
 66
     7
 43
1.0
 76
     1
 77
     6
 78
     2
 67
     7
 79
     3
170
     0
171
     0
290
     0
174
     0
 93
       13
 44
0.0
173
     0
291
     0
 45
0.0
1001
ACAD
1000
AcDbSavedByObjectVersion
1070
     0
  0
DICTIONARYVAR
  5
F10A0E
102
{ACAD_REACTORS
330
F10A0B
102
}
330
F10A0B
100
DictionaryVariables
280
     0
  1
1:1
  0
DICTIONARYVAR
  5
F10A0D
102
{ACAD_REACTORS
330
F10A0B
102
}
330
F10A0B
100
DictionaryVariables
280
     0
  1
STANDARD
  0
DICTIONARYVAR
  5
F10A0C
102
{ACAD_REACTORS
330
F10A0B
102
}
330
F10A0B
100
DictionaryVariables
280
     0
  1
STANDARD
  0
DICTIONARYVAR
  5
F10A11
102
{ACAD_REACTORS
330
F10A0B
102
}
330
F10A0B
100
DictionaryVariables
280
     0
  1
1
  0
DICTIONARYVAR
  5
F10A10
102
{ACAD_REACTORS
330
F10A0B
102
}
330
F10A0B
100
DictionaryVariables
280
     0
  1
0
  0
DICTIONARYVAR
  5
F10A0F
102
{ACAD_REACTORS
330
F10A0B
102
}
330
F10A0B
100
DictionaryVariables
280
     0
  1
127
  0
DICTIONARYVAR
  5
F10ACD
102
{ACAD_REACTORS
330
F10A0B
102
}
330
F10A0B
100
DictionaryVariables
280
     0
  1
2
  0
DICTIONARY
  5
F10915
102
{ACAD_REACTORS
330
F1090A
102
}
330
F1090A
100
AcDbDictionary
281
     1
  0
DICTIONARY
  5
F10B07
330
FD1
100
AcDbDictionary
280
     1
281
     1
  3
ACAD_XREC_ROUNDTRIP
360
F10B08
  0
DICTIONARY
  5
F10B05
330
FD0
100
AcDbDictionary
280
     1
281
     1
  3
ACAD_XREC_ROUNDTRIP
360
F10B06
  0
DICTIONARY
  5
F84
330
F83
100
AcDbDictionary
280
     1
281
     1
  3
ACAD_XREC_ROUNDTRIP
360
FFF
  3
BUMPTILE
360
F86
  3
DIFFUSETILE
360
F85
  3
OPACITYTILE
360
F89
  3
REFLECTIONTILE
360
F88
  3
REFRACTIONTILE
360
F8A
  3
SPECULARTILE
360
F87
  0
DICTIONARY
  5
F7C
330
F7B
100
AcDbDictionary
280
     1
281
     1
  3
ACAD_XREC_ROUNDTRIP
360
FFE
  3
BUMPTILE
360
F7E
  3
DIFFUSETILE
360
F7D
  3
OPACITYTILE
360
F81
  3
REFLECTIONTILE
360
F80
  3
REFRACTIONTILE
360
F82
  3
SPECULARTILE
360
F7F
  0
DICTIONARY
  5
F8C
330
F8B
100
AcDbDictionary
280
     1
281
     1
  3
ACAD_XREC_ROUNDTRIP
360
1000
  3
BUMPTILE
360
F8E
  3
DIFFUSETILE
360
F8D
  3
OPACITYTILE
360
F91
  3
REFLECTIONTILE
360
F90
  3
REFRACTIONTILE
360
F92
  3
SPECULARTILE
360
F8F
  0
DICTIONARY
  5
FF8
330
FA9
100
AcDbDictionary
280
     1
281
     1
  3
ACAD_ROUNDTRIP_2008_TABLESTYLE_CELLSTYLEMAP
360
F10ACE
  3
ACAD_XREC_ROUNDTRIP
360
F10B04
  0
DICTIONARY
  5
F10AE8
330
F99
100
AcDbDictionary
280
     1
281
     1
  3
ACAD_XREC_ROUNDTRIP
360
F10AE9
  0
DICTIONARY
  5
F10AEC
330
F9B
100
AcDbDictionary
280
     1
281
     1
  3
ACAD_XREC_ROUNDTRIP
360
F10AED
  0
DICTIONARY
  5
F10AEA
330
F9A
100
AcDbDictionary
280
     1
281
     1
  3
ACAD_XREC_ROUNDTRIP
360
F10AEB
  0
DICTIONARY
  5
F10AE6
330
F98
100
AcDbDictionary
280
     1
281
     1
  3
ACAD_XREC_ROUNDTRIP
360
F10AE7
  0
DICTIONARY
  5
F10AF4
330
F9F
100
AcDbDictionary
280
     1
281
     1
  3
ACAD_XREC_ROUNDTRIP
360
F10AF5
  0
DICTIONARY
  5
F10AFC
330
FA3
100
AcDbDictionary
280
     1
281
     1
  3
ACAD_XREC_ROUNDTRIP
360
F10AFD
  0
DICTIONARY
  5
F10AEE
330
F9C
100
AcDbDictionary
280
     1
281
     1
  3
ACAD_XREC_ROUNDTRIP
360
F10AEF
  0
DICTIONARY
  5
F10AF2
330
F9E
100
AcDbDictionary
280
     1
281
     1
  3
ACAD_XREC_ROUNDTRIP
360
F10AF3
  0
DICTIONARY
  5
F10B02
330
FA6
100
AcDbDictionary
280
     1
281
     1
  3
ACAD_XREC_ROUNDTRIP
360
F10B03
  0
DICTIONARY
  5
F10AFA
330
FA2
100
AcDbDictionary
280
     1
281
     1
  3
ACAD_XREC_ROUNDTRIP
360
F10AFB
  0
DICTIONARY
  5
F10ADE
330
F94
100
AcDbDictionary
280
     1
281
     1
  3
ACAD_XREC_ROUNDTRIP
360
F10ADF
  0
DICTIONARY
  5
F10AE0
330
F95
100
AcDbDictionary
280
     1
281
     1
  3
ACAD_XREC_ROUNDTRIP
360
F10AE1
  0
DICTIONARY
  5
F10AE2
330
F96
100
AcDbDictionary
280
     1
281
     1
  3
ACAD_XREC_ROUNDTRIP
360
F10AE3
  0
DICTIONARY
  5
F10AE4
330
F97
100
AcDbDictionary
280
     1
281
     1
  3
ACAD_XREC_ROUNDTRIP
360
F10AE5
  0
DICTIONARY
  5
F10B0B
330
F108B6
100
AcDbDictionary
280
     1
281
     1
  3
ACAD_XREC_ROUNDTRIP
360
F10B0C
  0
DICTIONARY
  5
F10AFE
330
FA4
100
AcDbDictionary
280
     1
281
     1
  3
ACAD_XREC_ROUNDTRIP
360
F10AFF
  0
DICTIONARY
  5
F10AF8
330
FA1
100
AcDbDictionary
280
     1
281
     1
  3
ACAD_XREC_ROUNDTRIP
360
F10AF9
  0
DICTIONARY
  5
F10B00
330
FA5
100
AcDbDictionary
280
     1
281
     1
  3
ACAD_XREC_ROUNDTRIP
360
F10B01
  0
DICTIONARY
  5
F10AF0
330
F9D
100
AcDbDictionary
280
     1
281
     1
  3
ACAD_XREC_ROUNDTRIP
360
F10AF1
  0
DICTIONARY
  5
F10B15
330
F108BB
100
AcDbDictionary
280
     1
281
     1
  3
ACAD_XREC_ROUNDTRIP
360
F10B16
  0
DICTIONARY
  5
F10B13
330
F108BA
100
AcDbDictionary
280
     1
281
     1
  3
ACAD_XREC_ROUNDTRIP
360
F10B14
  0
DICTIONARY
  5
F10B0D
330
F108B7
100
AcDbDictionary
280
     1
281
     1
  3
ACAD_XREC_ROUNDTRIP
360
F10B0E
  0
DICTIONARY
  5
F10B0F
330
F108B8
100
AcDbDictionary
280
     1
281
     1
  3
ACAD_XREC_ROUNDTRIP
360
F10B10
  0
DICTIONARY
  5
F10AF6
330
FA0
100
AcDbDictionary
280
     1
281
     1
  3
ACAD_XREC_ROUNDTRIP
360
F10AF7
  0
DICTIONARY
  5
F10B09
330
F108B5
100
AcDbDictionary
280
     1
281
     1
  3
ACAD_XREC_ROUNDTRIP
360
F10B0A
  0
DICTIONARY
  5
F10B11
330
F108B9
100
AcDbDictionary
280
     1
281
     1
  3
ACAD_XREC_ROUNDTRIP
360
F10B12
  0
XRECORD
  5
F10B08
102
{ACAD_REACTORS
330
F10B07
102
}
330
F10B07
100
AcDbXrecord
280
     1
102
SHADEPLOT
 70
     0
102
SHADEPLOTRESLEVEL
 70
     2
102
SHADEPLOTCUSTOMDPI
 70
   300
  0
XRECORD
  5
F10B06
102
{ACAD_REACTORS
330
F10B05
102
}
330
F10B05
100
AcDbXrecord
280
     1
102
SHADEPLOT
 70
     0
102
SHADEPLOTRESLEVEL
 70
     2
102
SHADEPLOTCUSTOMDPI
 70
   300
  0
XRECORD
  5
FFF
102
{ACAD_REACTORS
330
F84
102
}
330
F84
100
AcDbXrecord
280
     1
102
MATERIAL
148
0.0
149
0.0
149
0.0
 93
        0
 94
      127
282
     0
 72
     0
 77
     0
171
     0
175
     0
179
     0
273
     0
  0
XRECORD
  5
F86
102
{ACAD_REACTORS
330
F84
102
}
330
F84
100
AcDbXrecord
280
     1
270
     1
271
     1
  0
XRECORD
  5
F85
102
{ACAD_REACTORS
330
F84
102
}
330
F84
100
AcDbXrecord
280
     1
270
     1
271
     1
  0
XRECORD
  5
F89
102
{ACAD_REACTORS
330
F84
102
}
330
F84
100
AcDbXrecord
280
     1
270
     1
271
     1
  0
XRECORD
  5
F88
102
{ACAD_REACTORS
330
F84
102
}
330
F84
100
AcDbXrecord
280
     1
270
     1
271
     1
  0
XRECORD
  5
F8A
102
{ACAD_REACTORS
330
F84
102
}
330
F84
100
AcDbXrecord
280
     1
270
     1
271
     1
  0
XRECORD
  5
F87
102
{ACAD_REACTORS
330
F84
102
}
330
F84
100
AcDbXrecord
280
     1
270
     1
271
     1
  0
XRECORD
  5
FFE
102
{ACAD_REACTORS
330
F7C
102
}
330
F7C
100
AcDbXrecord
280
     1
102
MATERIAL
148
0.0
149
0.0
149
0.0
 93
        0
 94
      127
282
     0
 72
     0
 77
     0
171
     0
175
     0
179
     0
273
     0
  0
XRECORD
  5
F7E
102
{ACAD_REACTORS
330
F7C
102
}
330
F7C
100
AcDbXrecord
280
     1
270
     1
271
     1
  0
XRECORD
  5
F7D
102
{ACAD_REACTORS
330
F7C
102
}
330
F7C
100
AcDbXrecord
280
     1
270
     1
271
     1
  0
XRECORD
  5
F81
102
{ACAD_REACTORS
330
F7C
102
}
330
F7C
100
AcDbXrecord
280
     1
270
     1
271
     1
  0
XRECORD
  5
F80
102
{ACAD_REACTORS
330
F7C
102
}
330
F7C
100
AcDbXrecord
280
     1
270
     1
271
     1
  0
XRECORD
  5
F82
102
{ACAD_REACTORS
330
F7C
102
}
330
F7C
100
AcDbXrecord
280
     1
270
     1
271
     1
  0
XRECORD
  5
F7F
102
{ACAD_REACTORS
330
F7C
102
}
330
F7C
100
AcDbXrecord
280
     1
270
     1
271
     1
  0
XRECORD
  5
1000
102
{ACAD_REACTORS
330
F8C
102
}
330
F8C
100
AcDbXrecord
280
     1
102
MATERIAL
148
0.0
149
0.0
149
0.0
 93
        0
 94
      127
282
     0
 72
     0
 77
     0
171
     0
175
     0
179
     0
273
     0
  0
XRECORD
  5
F8E
102
{ACAD_REACTORS
330
F8C
102
}
330
F8C
100
AcDbXrecord
280
     1
270
     1
271
     1
  0
XRECORD
  5
F8D
102
{ACAD_REACTORS
330
F8C
102
}
330
F8C
100
AcDbXrecord
280
     1
270
     1
271
     1
  0
XRECORD
  5
F91
102
{ACAD_REACTORS
330
F8C
102
}
330
F8C
100
AcDbXrecord
280
     1
270
     1
271
     1
  0
XRECORD
  5
F90
102
{ACAD_REACTORS
330
F8C
102
}
330
F8C
100
AcDbXrecord
280
     1
270
     1
271
     1
  0
XRECORD
  5
F92
102
{ACAD_REACTORS
330
F8C
102
}
330
F8C
100
AcDbXrecord
280
     1
270
     1
271
     1
  0
XRECORD
  5
F8F
102
{ACAD_REACTORS
330
F8C
102
}
330
F8C
100
AcDbXrecord
280
     1
270
     1
271
     1
  0
CELLSTYLEMAP
  5
F10ACE
102
{ACAD_REACTORS
330
FF8
102
}
330
FF8
100
AcDbCellStyleMap
 90
        3
300
CELLSTYLE
  1
TABLEFORMAT_BEGIN
 90
        5
170
     1
 91
        0
 92
    32768
 62
   257
 93
        1
300
CONTENTFORMAT
  1
CONTENTFORMAT_BEGIN
 90
        0
 91
        0
 92
      512
 93
        0
300

 40
0.0
140
1.0
 94
        5
 62
     0
340
253
144
0.25
309
CONTENTFORMAT_END
171
     1
301
MARGIN
  1
CELLMARGIN_BEGIN
 40
0.06
 40
0.06
 40
0.06
 40
0.06
 40
0.18
 40
0.18
309
CELLMARGIN_END
 94
        6
 95
        1
302
GRIDFORMAT
  1
GRIDFORMAT_BEGIN
 90
        0
 91
        1
 62
     0
 92
       -2
340
0
 93
        0
 40
0.045
309
GRIDFORMAT_END
 95
        2
302
GRIDFORMAT
  1
GRIDFORMAT_BEGIN
 90
        0
 91
        1
 62
     0
 92
       -2
340
0
 93
        0
 40
0.045
309
GRIDFORMAT_END
 95
        4
302
GRIDFORMAT
  1
GRIDFORMAT_BEGIN
 90
        0
 91
        1
 62
     0
 92
       -2
340
0
 93
        0
 40
0.045
309
GRIDFORMAT_END
 95
        8
302
GRIDFORMAT
  1
GRIDFORMAT_BEGIN
 90
        0
 91
        1
 62
     0
 92
       -2
340
0
 93
        0
 40
0.045
309
GRIDFORMAT_END
 95
       16
302
GRIDFORMAT
  1
GRIDFORMAT_BEGIN
 90
        0
 91
        1
 62
     0
 92
       -2
340
0
 93
        0
 40
0.045
309
GRIDFORMAT_END
 95
       32
302
GRIDFORMAT
  1
GRIDFORMAT_BEGIN
 90
        0
 91
        1
 62
     0
 92
       -2
340
0
 93
        0
 40
0.045
309
GRIDFORMAT_END
309
TABLEFORMAT_END
  1
CELLSTYLE_BEGIN
 90
        1
 91
        1
300
_TITLE
309
CELLSTYLE_END
300
CELLSTYLE
  1
TABLEFORMAT_BEGIN
 90
        5
170
     1
 91
        0
 92
        0
 62
   257
 93
        1
300
CONTENTFORMAT
  1
CONTENTFORMAT_BEGIN
 90
        0
 91
        0
 92
      512
 93
        0
300

 40
0.0
140
1.0
 94
        5
 62
     0
340
253
144
0.18
309
CONTENTFORMAT_END
171
     1
301
MARGIN
  1
CELLMARGIN_BEGIN
 40
0.06
 40
0.06
 40
0.06
 40
0.06
 40
0.18
 40
0.18
309
CELLMARGIN_END
 94
        6
 95
        1
302
GRIDFORMAT
  1
GRIDFORMAT_BEGIN
 90
        0
 91
        1
 62
     0
 92
       -2
340
0
 93
        0
 40
0.045
309
GRIDFORMAT_END
 95
        2
302
GRIDFORMAT
  1
GRIDFORMAT_BEGIN
 90
        0
 91
        1
 62
     0
 92
       -2
340
0
 93
        0
 40
0.045
309
GRIDFORMAT_END
 95
        4
302
GRIDFORMAT
  1
GRIDFORMAT_BEGIN
 90
        0
 91
        1
 62
     0
 92
       -2
340
0
 93
        0
 40
0.045
309
GRIDFORMAT_END
 95
        8
302
GRIDFORMAT
  1
GRIDFORMAT_BEGIN
 90
        0
 91
        1
 62
     0
 92
       -2
340
0
 93
        0
 40
0.045
309
GRIDFORMAT_END
 95
       16
302
GRIDFORMAT
  1
GRIDFORMAT_BEGIN
 90
        0
 91
        1
 62
     0
 92
       -2
340
0
 93
        0
 40
0.045
309
GRIDFORMAT_END
 95
       32
302
GRIDFORMAT
  1
GRIDFORMAT_BEGIN
 90
        0
 91
        1
 62
     0
 92
       -2
340
0
 93
        0
 40
0.045
309
GRIDFORMAT_END
309
TABLEFORMAT_END
  1
CELLSTYLE_BEGIN
 90
        2
 91
        1
300
_HEADER
309
CELLSTYLE_END
300
CELLSTYLE
  1
TABLEFORMAT_BEGIN
 90
        5
170
     1
 91
        0
 92
        0
 62
   257
 93
        1
300
CONTENTFORMAT
  1
CONTENTFORMAT_BEGIN
 90
        0
 91
        0
 92
      512
 93
        0
300

 40
0.0
140
1.0
 94
        2
 62
     0
340
253
144
0.18
309
CONTENTFORMAT_END
171
     1
301
MARGIN
  1
CELLMARGIN_BEGIN
 40
0.06
 40
0.06
 40
0.06
 40
0.06
 40
0.18
 40
0.18
309
CELLMARGIN_END
 94
        6
 95
        1
302
GRIDFORMAT
  1
GRIDFORMAT_BEGIN
 90
        0
 91
        1
 62
     0
 92
       -2
340
0
 93
        0
 40
0.045
309
GRIDFORMAT_END
 95
        2
302
GRIDFORMAT
  1
GRIDFORMAT_BEGIN
 90
        0
 91
        1
 62
     0
 92
       -2
340
0
 93
        0
 40
0.045
309
GRIDFORMAT_END
 95
        4
302
GRIDFORMAT
  1
GRIDFORMAT_BEGIN
 90
        0
 91
        1
 62
     0
 92
       -2
340
0
 93
        0
 40
0.045
309
GRIDFORMAT_END
 95
        8
302
GRIDFORMAT
  1
GRIDFORMAT_BEGIN
 90
        0
 91
        1
 62
     0
 92
       -2
340
0
 93
        0
 40
0.045
309
GRIDFORMAT_END
 95
       16
302
GRIDFORMAT
  1
GRIDFORMAT_BEGIN
 90
        0
 91
        1
 62
     0
 92
       -2
340
0
 93
        0
 40
0.045
309
GRIDFORMAT_END
 95
       32
302
GRIDFORMAT
  1
GRIDFORMAT_BEGIN
 90
        0
 91
        1
 62
     0
 92
       -2
340
0
 93
        0
 40
0.045
309
GRIDFORMAT_END
309
TABLEFORMAT_END
  1
CELLSTYLE_BEGIN
 90
        3
 91
        2
300
_DATA
309
CELLSTYLE_END
  0
XRECORD
  5
F10B04
102
{ACAD_REACTORS
330
FF8
102
}
330
FF8
100
AcDbXrecord
280
     1
102
ACAD_ROUNDTRIP_PRE2007_TABLESTYLE
 90
      512
 91
        0
  1

 92
      512
 93
        0
  2

 94
      512
 95
        0
  3

  0
XRECORD
  5
F10AE9
102
{ACAD_REACTORS
330
F10AE8
102
}
330
F10AE8
100
AcDbXrecord
280
     1
102
RTVSPropertyOp0
 70
     1
102
RTVSPropertyOp1
 70
     1
102
RTVSPropertyOp2
 70
     1
102
RTVSPropertyOp3
 70
     1
102
RTVSPropertyOp4
 70
     1
102
RTVSPropertyOp5
 70
     1
102
RTVSPropertyOp6
 70
     1
102
RTVSPropertyOp7
 70
     1
102
RTVSPropertyOp8
 70
     1
102
RTVSPropertyOp9
 70
     1
102
RTVSPropertyOp10
 70
     1
102
RTVSPropertyOp11
 70
     1
102
RTVSPropertyOp12
 70
     1
102
RTVSPropertyOp13
 70
     1
102
RTVSPropertyOp14
 70
     1
102
RTVSPropertyOp15
 70
     1
102
RTVSPropertyOp16
 70
     1
102
RTVSPropertyOp17
 70
     1
102
RTVSPropertyOp18
 70
     1
102
RTVSPropertyOp19
 70
     1
102
RTVSPropertyOp20
 70
     1
102
RTVSPropertyOp21
 70
     1
102
RTVSPropertyOp22
 70
     1
102
RTVSPropertyOp23
 70
     1
102
RTVSPropertyOp24
 70
     1
102
RTVSPropertyOp25
 70
     1
102
RTVSPropertyOp26
 70
     1
102
RTVSPropertyOp27
 70
     1
102
RTVSPropertyOp28
 70
     1
102
RTVSPropertyOp29
 70
     1
102
RTVSPropertyOp30
 70
     1
102
RTVSPropertyOp31
 70
     1
102
RTVSPropertyOp32
 70
     1
  0
XRECORD
  5
F10AED
102
{ACAD_REACTORS
330
F10AEC
102
}
330
F10AEC
100
AcDbXrecord
280
     1
102
RTVSPropertyOp0
 70
     1
102
RTVSPropertyOp1
 70
     1
102
RTVSPropertyOp2
 70
     1
102
RTVSPropertyOp3
 70
     1
102
RTVSPropertyOp4
 70
     1
102
RTVSPropertyOp5
 70
     1
102
RTVSPropertyOp6
 70
     1
102
RTVSPropertyOp7
 70
     1
102
RTVSPropertyOp8
 70
     1
102
RTVSPropertyOp9
 70
     1
102
RTVSPropertyOp10
 70
     1
102
RTVSPropertyOp11
 70
     1
102
RTVSPropertyOp12
 70
     1
102
RTVSPropertyOp13
 70
     1
102
RTVSPropertyOp14
 70
     1
102
RTVSPropertyOp15
 70
     1
102
RTVSPropertyOp16
 70
     1
102
RTVSPropertyOp17
 70
     1
102
RTVSPropertyOp18
 70
     1
102
RTVSPropertyOp19
 70
     1
102
RTVSPropertyOp20
 70
     1
102
RTVSPropertyOp21
 70
     1
102
RTVSPropertyOp22
 70
     1
102
RTVSPropertyOp23
 70
     1
102
RTVSPropertyOp24
 70
     1
102
RTVSPropertyOp25
 70
     1
102
RTVSPropertyOp26
 70
     1
102
RTVSPropertyOp27
 70
     1
102
RTVSPropertyOp28
 70
     1
102
RTVSPropertyOp29
 70
     1
102
RTVSPropertyOp30
 70
     1
102
RTVSPropertyOp31
 70
     1
102
RTVSPropertyOp32
 70
     1
  0
XRECORD
  5
F10AEB
102
{ACAD_REACTORS
330
F10AEA
102
}
330
F10AEA
100
AcDbXrecord
280
     1
102
RTVSPropertyOp0
 70
     1
102
RTVSPropertyOp1
 70
     1
102
RTVSPropertyOp2
 70
     1
102
RTVSPropertyOp3
 70
     1
102
RTVSPropertyOp4
 70
     1
102
RTVSPropertyOp5
 70
     1
102
RTVSPropertyOp6
 70
     1
102
RTVSPropertyOp7
 70
     1
102
RTVSPropertyOp8
 70
     1
102
RTVSPropertyOp9
 70
     1
102
RTVSPropertyOp10
 70
     1
102
RTVSPropertyOp11
 70
     1
102
RTVSPropertyOp12
 70
     1
102
RTVSPropertyOp13
 70
     1
102
RTVSPropertyOp14
 70
     1
102
RTVSPropertyOp15
 70
     1
102
RTVSPropertyOp16
 70
     1
102
RTVSPropertyOp17
 70
     1
102
RTVSPropertyOp18
 70
     1
102
RTVSPropertyOp19
 70
     1
102
RTVSPropertyOp20
 70
     1
102
RTVSPropertyOp21
 70
     1
102
RTVSPropertyOp22
 70
     1
102
RTVSPropertyOp23
 70
     1
102
RTVSPropertyOp24
 70
     1
102
RTVSPropertyOp25
 70
     1
102
RTVSPropertyOp26
 70
     1
102
RTVSPropertyOp27
 70
     1
102
RTVSPropertyOp28
 70
     1
102
RTVSPropertyOp29
 70
     1
102
RTVSPropertyOp30
 70
     1
102
RTVSPropertyOp31
 70
     1
102
RTVSPropertyOp32
 70
     1
  0
XRECORD
  5
F10AE7
102
{ACAD_REACTORS
330
F10AE6
102
}
330
F10AE6
100
AcDbXrecord
280
     1
102
RTVSPropertyOp0
 70
     1
102
RTVSPropertyOp1
 70
     1
102
RTVSPropertyOp2
 70
     1
102
RTVSPropertyOp3
 70
     1
102
RTVSPropertyOp4
 70
     1
102
RTVSPropertyOp5
 70
     1
102
RTVSPropertyOp6
 70
     1
102
RTVSPropertyOp7
 70
     1
102
RTVSPropertyOp8
 70
     1
102
RTVSPropertyOp9
 70
     1
102
RTVSPropertyOp10
 70
     1
102
RTVSPropertyOp11
 70
     1
102
RTVSPropertyOp12
 70
     1
102
RTVSPropertyOp13
 70
     1
102
RTVSPropertyOp14
 70
     1
102
RTVSPropertyOp15
 70
     1
102
RTVSPropertyOp16
 70
     1
102
RTVSPropertyOp17
 70
     1
102
RTVSPropertyOp18
 70
     1
102
RTVSPropertyOp19
 70
     1
102
RTVSPropertyOp20
 70
     1
102
RTVSPropertyOp21
 70
     1
102
RTVSPropertyOp22
 70
     1
102
RTVSPropertyOp23
 70
     1
102
RTVSPropertyOp24
 70
     1
102
RTVSPropertyOp25
 70
     1
102
RTVSPropertyOp26
 70
     1
102
RTVSPropertyOp27
 70
     1
102
RTVSPropertyOp28
 70
     1
102
RTVSPropertyOp29
 70
     1
102
RTVSPropertyOp30
 70
     1
102
RTVSPropertyOp31
 70
     1
102
RTVSPropertyOp32
 70
     1
  0
XRECORD
  5
F10AF5
102
{ACAD_REACTORS
330
F10AF4
102
}
330
F10AF4
100
AcDbXrecord
280
     1
102
RTVSPropertyOp0
 70
     1
102
RTVSPropertyOp1
 70
     1
102
RTVSPropertyOp2
 70
     1
102
RTVSPropertyOp3
 70
     1
102
RTVSPropertyOp4
 70
     1
102
RTVSPropertyOp5
 70
     1
102
RTVSPropertyOp6
 70
     1
102
RTVSPropertyOp7
 70
     1
102
RTVSPropertyOp8
 70
     1
102
RTVSPropertyOp9
 70
     1
102
RTVSPropertyOp10
 70
     1
102
RTVSPropertyOp11
 70
     1
102
RTVSPropertyOp12
 70
     1
102
RTVSPropertyOp13
 70
     1
102
RTVSPropertyOp14
 70
     1
102
RTVSPropertyOp15
 70
     1
102
RTVSPropertyOp16
 70
     1
102
RTVSPropertyOp17
 70
     1
102
RTVSPropertyOp18
 70
     1
102
RTVSPropertyOp19
 70
     1
102
RTVSPropertyOp20
 70
     1
102
RTVSPropertyOp21
 70
     1
102
RTVSPropertyOp22
 70
     1
102
RTVSPropertyOp23
 70
     1
102
RTVSPropertyOp24
 70
     1
102
RTVSPropertyOp25
 70
     1
102
RTVSPropertyOp26
 70
     1
102
RTVSPropertyOp27
 70
     1
102
RTVSPropertyOp28
 70
     1
102
RTVSPropertyOp29
 70
     1
102
RTVSPropertyOp30
 70
     1
102
RTVSPropertyOp31
 70
     1
102
RTVSPropertyOp32
 70
     1
  0
XRECORD
  5
F10AFD
102
{ACAD_REACTORS
330
F10AFC
102
}
330
F10AFC
100
AcDbXrecord
280
     1
102
RTVSPropertyOp0
 70
     1
102
RTVSPropertyOp1
 70
     1
102
RTVSPropertyOp2
 70
     1
102
RTVSPropertyOp3
 70
     1
102
RTVSPropertyOp4
 70
     1
102
RTVSPropertyOp5
 70
     1
102
RTVSPropertyOp6
 70
     1
102
RTVSPropertyOp7
 70
     1
102
RTVSPropertyOp8
 70
     1
102
RTVSPropertyOp9
 70
     1
102
RTVSPropertyOp10
 70
     1
102
RTVSPropertyOp11
 70
     1
102
RTVSPropertyOp12
 70
     1
102
RTVSPropertyOp13
 70
     1
102
RTVSPropertyOp14
 70
     1
102
RTVSPropertyOp15
 70
     1
102
RTVSPropertyOp16
 70
     1
102
RTVSPropertyOp17
 70
     1
102
RTVSPropertyOp18
 70
     1
102
RTVSPropertyOp19
 70
     1
102
RTVSPropertyOp20
 70
     1
102
RTVSPropertyOp21
 70
     1
102
RTVSPropertyOp22
 70
     1
102
RTVSPropertyOp23
 70
     1
102
RTVSPropertyOp24
 70
     1
102
RTVSPropertyOp25
 70
     1
102
RTVSPropertyOp26
 70
     1
102
RTVSPropertyOp27
 70
     1
102
RTVSPropertyOp28
 70
     1
102
RTVSPropertyOp29
 70
     1
102
RTVSPropertyOp30
 70
     1
102
RTVSPropertyOp31
 70
     1
102
RTVSPropertyOp32
 70
     1
  0
XRECORD
  5
F10AEF
102
{ACAD_REACTORS
330
F10AEE
102
}
330
F10AEE
100
AcDbXrecord
280
     1
102
RTVSPropertyOp0
 70
     1
102
RTVSPropertyOp1
 70
     1
102
RTVSPropertyOp2
 70
     1
102
RTVSPropertyOp3
 70
     1
102
RTVSPropertyOp4
 70
     1
102
RTVSPropertyOp5
 70
     1
102
RTVSPropertyOp6
 70
     1
102
RTVSPropertyOp7
 70
     1
102
RTVSPropertyOp8
 70
     1
102
RTVSPropertyOp9
 70
     1
102
RTVSPropertyOp10
 70
     1
102
RTVSPropertyOp11
 70
     1
102
RTVSPropertyOp12
 70
     1
102
RTVSPropertyOp13
 70
     1
102
RTVSPropertyOp14
 70
     1
102
RTVSPropertyOp15
 70
     1
102
RTVSPropertyOp16
 70
     1
102
RTVSPropertyOp17
 70
     1
102
RTVSPropertyOp18
 70
     1
102
RTVSPropertyOp19
 70
     1
102
RTVSPropertyOp20
 70
     1
102
RTVSPropertyOp21
 70
     1
102
RTVSPropertyOp22
 70
     1
102
RTVSPropertyOp23
 70
     1
102
RTVSPropertyOp24
 70
     1
102
RTVSPropertyOp25
 70
     1
102
RTVSPropertyOp26
 70
     1
102
RTVSPropertyOp27
 70
     1
102
RTVSPropertyOp28
 70
     1
102
RTVSPropertyOp29
 70
     1
102
RTVSPropertyOp30
 70
     1
102
RTVSPropertyOp31
 70
     1
102
RTVSPropertyOp32
 70
     1
  0
XRECORD
  5
F10AF3
102
{ACAD_REACTORS
330
F10AF2
102
}
330
F10AF2
100
AcDbXrecord
280
     1
102
RTVSPropertyOp0
 70
     1
102
RTVSPropertyOp1
 70
     1
102
RTVSPropertyOp2
 70
     1
102
RTVSPropertyOp3
 70
     1
102
RTVSPropertyOp4
 70
     1
102
RTVSPropertyOp5
 70
     1
102
RTVSPropertyOp6
 70
     1
102
RTVSPropertyOp7
 70
     1
102
RTVSPropertyOp8
 70
     1
102
RTVSPropertyOp9
 70
     1
102
RTVSPropertyOp10
 70
     1
102
RTVSPropertyOp11
 70
     1
102
RTVSPropertyOp12
 70
     1
102
RTVSPropertyOp13
 70
     1
102
RTVSPropertyOp14
 70
     1
102
RTVSPropertyOp15
 70
     1
102
RTVSPropertyOp16
 70
     1
102
RTVSPropertyOp17
 70
     1
102
RTVSPropertyOp18
 70
     1
102
RTVSPropertyOp19
 70
     1
102
RTVSPropertyOp20
 70
     1
102
RTVSPropertyOp21
 70
     1
102
RTVSPropertyOp22
 70
     1
102
RTVSPropertyOp23
 70
     1
102
RTVSPropertyOp24
 70
     1
102
RTVSPropertyOp25
 70
     1
102
RTVSPropertyOp26
 70
     1
102
RTVSPropertyOp27
 70
     1
102
RTVSPropertyOp28
 70
     1
102
RTVSPropertyOp29
 70
     1
102
RTVSPropertyOp30
 70
     1
102
RTVSPropertyOp31
 70
     1
102
RTVSPropertyOp32
 70
     1
  0
XRECORD
  5
F10B03
102
{ACAD_REACTORS
330
F10B02
102
}
330
F10B02
100
AcDbXrecord
280
     1
102
RTVSPropertyOp0
 70
     0
102
RTVSPropertyOp1
 70
     0
102
RTVSPropertyOp2
 70
     0
102
RTVSPropertyOp3
 70
     0
102
RTVSPropertyOp4
 70
     0
102
RTVSPropertyOp5
 70
     0
102
RTVSPropertyOp6
 70
     0
102
RTVSPropertyOp7
 70
     0
102
RTVSPropertyOp8
 70
     0
102
RTVSPropertyOp9
 70
     0
102
RTVSPropertyOp10
 70
     0
102
RTVSPropertyOp11
 70
     0
102
RTVSPropertyOp12
 70
     0
102
RTVSPropertyOp13
 70
     0
102
RTVSPropertyOp14
 70
     2
102
RTVSPropertyOp15
 70
     0
102
RTVSPropertyOp16
 70
     0
102
RTVSPropertyOp17
 70
     0
102
RTVSPropertyOp18
 70
     0
102
RTVSPropertyOp19
 70
     0
102
RTVSPropertyOp20
 70
     0
102
RTVSPropertyOp21
 70
     0
102
RTVSPropertyOp22
 70
     0
102
RTVSPropertyOp23
 70
     0
102
RTVSPropertyOp24
 70
     0
102
RTVSPropertyOp25
 70
     0
102
RTVSPropertyOp26
 70
     0
102
RTVSPropertyOp27
 70
     0
102
RTVSPropertyOp28
 70
     1
102
RTVSPropertyOp29
 70
     1
102
RTVSPropertyOp30
 70
     1
102
RTVSPropertyOp31
 70
     1
102
RTVSPropertyOp32
 70
     1
  0
XRECORD
  5
F10AFB
102
{ACAD_REACTORS
330
F10AFA
102
}
330
F10AFA
100
AcDbXrecord
280
     1
102
RTVSPropertyOp0
 70
     1
102
RTVSPropertyOp1
 70
     1
102
RTVSPropertyOp2
 70
     1
102
RTVSPropertyOp3
 70
     1
102
RTVSPropertyOp4
 70
     1
102
RTVSPropertyOp5
 70
     1
102
RTVSPropertyOp6
 70
     1
102
RTVSPropertyOp7
 70
     1
102
RTVSPropertyOp8
 70
     1
102
RTVSPropertyOp9
 70
     1
102
RTVSPropertyOp10
 70
     1
102
RTVSPropertyOp11
 70
     1
102
RTVSPropertyOp12
 70
     1
102
RTVSPropertyOp13
 70
     1
102
RTVSPropertyOp14
 70
     1
102
RTVSPropertyOp15
 70
     1
102
RTVSPropertyOp16
 70
     1
102
RTVSPropertyOp17
 70
     1
102
RTVSPropertyOp18
 70
     1
102
RTVSPropertyOp19
 70
     1
102
RTVSPropertyOp20
 70
     1
102
RTVSPropertyOp21
 70
     1
102
RTVSPropertyOp22
 70
     1
102
RTVSPropertyOp23
 70
     1
102
RTVSPropertyOp24
 70
     1
102
RTVSPropertyOp25
 70
     1
102
RTVSPropertyOp26
 70
     1
102
RTVSPropertyOp27
 70
     1
102
RTVSPropertyOp28
 70
     1
102
RTVSPropertyOp29
 70
     1
102
RTVSPropertyOp30
 70
     1
102
RTVSPropertyOp31
 70
     1
102
RTVSPropertyOp32
 70
     1
  0
XRECORD
  5
F10ADF
102
{ACAD_REACTORS
330
F10ADE
102
}
330
F10ADE
100
AcDbXrecord
280
     1
102
RTVSPropertyOp0
 70
     1
102
RTVSPropertyOp1
 70
     1
102
RTVSPropertyOp2
 70
     1
102
RTVSPropertyOp3
 70
     1
102
RTVSPropertyOp4
 70
     1
102
RTVSPropertyOp5
 70
     1
102
RTVSPropertyOp6
 70
     1
102
RTVSPropertyOp7
 70
     1
102
RTVSPropertyOp8
 70
     1
102
RTVSPropertyOp9
 70
     1
102
RTVSPropertyOp10
 70
     1
102
RTVSPropertyOp11
 70
     1
102
RTVSPropertyOp12
 70
     1
102
RTVSPropertyOp13
 70
     1
102
RTVSPropertyOp14
 70
     1
102
RTVSPropertyOp15
 70
     1
102
RTVSPropertyOp16
 70
     1
102
RTVSPropertyOp17
 70
     1
102
RTVSPropertyOp18
 70
     1
102
RTVSPropertyOp19
 70
     1
102
RTVSPropertyOp20
 70
     1
102
RTVSPropertyOp21
 70
     1
102
RTVSPropertyOp22
 70
     1
102
RTVSPropertyOp23
 70
     1
102
RTVSPropertyOp24
 70
     1
102
RTVSPropertyOp25
 70
     1
102
RTVSPropertyOp26
 70
     1
102
RTVSPropertyOp27
 70
     1
102
RTVSPropertyOp28
 70
     1
102
RTVSPropertyOp29
 70
     1
102
RTVSPropertyOp30
 70
     1
102
RTVSPropertyOp31
 70
     1
102
RTVSPropertyOp32
 70
     1
  0
XRECORD
  5
F10AE1
102
{ACAD_REACTORS
330
F10AE0
102
}
330
F10AE0
100
AcDbXrecord
280
     1
102
RTVSPropertyOp0
 70
     1
102
RTVSPropertyOp1
 70
     1
102
RTVSPropertyOp2
 70
     1
102
RTVSPropertyOp3
 70
     1
102
RTVSPropertyOp4
 70
     1
102
RTVSPropertyOp5
 70
     1
102
RTVSPropertyOp6
 70
     1
102
RTVSPropertyOp7
 70
     1
102
RTVSPropertyOp8
 70
     1
102
RTVSPropertyOp9
 70
     1
102
RTVSPropertyOp10
 70
     1
102
RTVSPropertyOp11
 70
     1
102
RTVSPropertyOp12
 70
     1
102
RTVSPropertyOp13
 70
     1
102
RTVSPropertyOp14
 70
     1
102
RTVSPropertyOp15
 70
     1
102
RTVSPropertyOp16
 70
     1
102
RTVSPropertyOp17
 70
     1
102
RTVSPropertyOp18
 70
     1
102
RTVSPropertyOp19
 70
     1
102
RTVSPropertyOp20
 70
     1
102
RTVSPropertyOp21
 70
     1
102
RTVSPropertyOp22
 70
     1
102
RTVSPropertyOp23
 70
     1
102
RTVSPropertyOp24
 70
     1
102
RTVSPropertyOp25
 70
     1
102
RTVSPropertyOp26
 70
     1
102
RTVSPropertyOp27
 70
     1
102
RTVSPropertyOp28
 70
     1
102
RTVSPropertyOp29
 70
     1
102
RTVSPropertyOp30
 70
     1
102
RTVSPropertyOp31
 70
     1
102
RTVSPropertyOp32
 70
     1
  0
XRECORD
  5
F10AE3
102
{ACAD_REACTORS
330
F10AE2
102
}
330
F10AE2
100
AcDbXrecord
280
     1
102
RTVSPropertyOp0
 70
     1
102
RTVSPropertyOp1
 70
     1
102
RTVSPropertyOp2
 70
     1
102
RTVSPropertyOp3
 70
     1
102
RTVSPropertyOp4
 70
     1
102
RTVSPropertyOp5
 70
     1
102
RTVSPropertyOp6
 70
     1
102
RTVSPropertyOp7
 70
     1
102
RTVSPropertyOp8
 70
     1
102
RTVSPropertyOp9
 70
     1
102
RTVSPropertyOp10
 70
     1
102
RTVSPropertyOp11
 70
     1
102
RTVSPropertyOp12
 70
     1
102
RTVSPropertyOp13
 70
     1
102
RTVSPropertyOp14
 70
     1
102
RTVSPropertyOp15
 70
     1
102
RTVSPropertyOp16
 70
     1
102
RTVSPropertyOp17
 70
     1
102
RTVSPropertyOp18
 70
     1
102
RTVSPropertyOp19
 70
     1
102
RTVSPropertyOp20
 70
     1
102
RTVSPropertyOp21
 70
     1
102
RTVSPropertyOp22
 70
     1
102
RTVSPropertyOp23
 70
     1
102
RTVSPropertyOp24
 70
     1
102
RTVSPropertyOp25
 70
     1
102
RTVSPropertyOp26
 70
     1
102
RTVSPropertyOp27
 70
     1
102
RTVSPropertyOp28
 70
     1
102
RTVSPropertyOp29
 70
     1
102
RTVSPropertyOp30
 70
     1
102
RTVSPropertyOp31
 70
     1
102
RTVSPropertyOp32
 70
     1
  0
XRECORD
  5
F10AE5
102
{ACAD_REACTORS
330
F10AE4
102
}
330
F10AE4
100
AcDbXrecord
280
     1
102
RTVSPropertyOp0
 70
     1
102
RTVSPropertyOp1
 70
     1
102
RTVSPropertyOp2
 70
     1
102
RTVSPropertyOp3
 70
     1
102
RTVSPropertyOp4
 70
     1
102
RTVSPropertyOp5
 70
     1
102
RTVSPropertyOp6
 70
     1
102
RTVSPropertyOp7
 70
     1
102
RTVSPropertyOp8
 70
     1
102
RTVSPropertyOp9
 70
     1
102
RTVSPropertyOp10
 70
     1
102
RTVSPropertyOp11
 70
     1
102
RTVSPropertyOp12
 70
     1
102
RTVSPropertyOp13
 70
     1
102
RTVSPropertyOp14
 70
     1
102
RTVSPropertyOp15
 70
     1
102
RTVSPropertyOp16
 70
     1
102
RTVSPropertyOp17
 70
     1
102
RTVSPropertyOp18
 70
     1
102
RTVSPropertyOp19
 70
     1
102
RTVSPropertyOp20
 70
     1
102
RTVSPropertyOp21
 70
     1
102
RTVSPropertyOp22
 70
     1
102
RTVSPropertyOp23
 70
     1
102
RTVSPropertyOp24
 70
     1
102
RTVSPropertyOp25
 70
     1
102
RTVSPropertyOp26
 70
     1
102
RTVSPropertyOp27
 70
     1
102
RTVSPropertyOp28
 70
     1
102
RTVSPropertyOp29
 70
     1
102
RTVSPropertyOp30
 70
     1
102
RTVSPropertyOp31
 70
     1
102
RTVSPropertyOp32
 70
     1
  0
XRECORD
  5
F10B0C
102
{ACAD_REACTORS
330
F10B0B
102
}
330
F10B0B
100
AcDbXrecord
280
     1
102
RTVSPropertyOp0
 70
     1
102
RTVSPropertyOp1
 70
     1
102
RTVSPropertyOp2
 70
     1
102
RTVSPropertyOp3
 70
     1
102
RTVSPropertyOp4
 70
     1
102
RTVSPropertyOp5
 70
     1
102
RTVSPropertyOp6
 70
     1
102
RTVSPropertyOp7
 70
     1
102
RTVSPropertyOp8
 70
     1
102
RTVSPropertyOp9
 70
     1
102
RTVSPropertyOp10
 70
     1
102
RTVSPropertyOp11
 70
     1
102
RTVSPropertyOp12
 70
     1
102
RTVSPropertyOp13
 70
     1
102
RTVSPropertyOp14
 70
     1
102
RTVSPropertyOp15
 70
     1
102
RTVSPropertyOp16
 70
     1
102
RTVSPropertyOp17
 70
     1
102
RTVSPropertyOp18
 70
     1
102
RTVSPropertyOp19
 70
     1
102
RTVSPropertyOp20
 70
     1
102
RTVSPropertyOp21
 70
     1
102
RTVSPropertyOp22
 70
     1
102
RTVSPropertyOp23
 70
     1
102
RTVSPropertyOp24
 70
     1
102
RTVSPropertyOp25
 70
     1
102
RTVSPropertyOp26
 70
     1
102
RTVSPropertyOp27
 70
     1
102
RTVSPropertyOp28
 70
     1
102
RTVSPropertyOp29
 70
     1
102
RTVSPropertyOp30
 70
     1
102
RTVSPropertyOp31
 70
     1
102
RTVSPropertyOp32
 70
     1
  0
XRECORD
  5
F10AFF
102
{ACAD_REACTORS
330
F10AFE
102
}
330
F10AFE
100
AcDbXrecord
280
     1
102
RTVSPropertyOp0
 70
     0
102
RTVSPropertyOp1
 70
     0
102
RTVSPropertyOp2
 70
     0
102
RTVSPropertyOp3
 70
     0
102
RTVSPropertyOp4
 70
     0
102
RTVSPropertyOp5
 70
     0
102
RTVSPropertyOp6
 70
     0
102
RTVSPropertyOp7
 70
     0
102
RTVSPropertyOp8
 70
     0
102
RTVSPropertyOp9
 70
     0
102
RTVSPropertyOp10
 70
     0
102
RTVSPropertyOp11
 70
     0
102
RTVSPropertyOp12
 70
     0
102
RTVSPropertyOp13
 70
     0
102
RTVSPropertyOp14
 70
     2
102
RTVSPropertyOp15
 70
     0
102
RTVSPropertyOp16
 70
     0
102
RTVSPropertyOp17
 70
     0
102
RTVSPropertyOp18
 70
     0
102
RTVSPropertyOp19
 70
     0
102
RTVSPropertyOp20
 70
     0
102
RTVSPropertyOp21
 70
     0
102
RTVSPropertyOp22
 70
     0
102
RTVSPropertyOp23
 70
     0
102
RTVSPropertyOp24
 70
     0
102
RTVSPropertyOp25
 70
     0
102
RTVSPropertyOp26
 70
     0
102
RTVSPropertyOp27
 70
     0
102
RTVSPropertyOp28
 70
     1
102
RTVSPropertyOp29
 70
     1
102
RTVSPropertyOp30
 70
     1
102
RTVSPropertyOp31
 70
     1
102
RTVSPropertyOp32
 70
     1
  0
XRECORD
  5
F10AF9
102
{ACAD_REACTORS
330
F10AF8
102
}
330
F10AF8
100
AcDbXrecord
280
     1
102
RTVSPropertyOp0
 70
     1
102
RTVSPropertyOp1
 70
     1
102
RTVSPropertyOp2
 70
     1
102
RTVSPropertyOp3
 70
     1
102
RTVSPropertyOp4
 70
     1
102
RTVSPropertyOp5
 70
     1
102
RTVSPropertyOp6
 70
     1
102
RTVSPropertyOp7
 70
     1
102
RTVSPropertyOp8
 70
     1
102
RTVSPropertyOp9
 70
     1
102
RTVSPropertyOp10
 70
     1
102
RTVSPropertyOp11
 70
     1
102
RTVSPropertyOp12
 70
     1
102
RTVSPropertyOp13
 70
     1
102
RTVSPropertyOp14
 70
     1
102
RTVSPropertyOp15
 70
     1
102
RTVSPropertyOp16
 70
     1
102
RTVSPropertyOp17
 70
     1
102
RTVSPropertyOp18
 70
     1
102
RTVSPropertyOp19
 70
     1
102
RTVSPropertyOp20
 70
     1
102
RTVSPropertyOp21
 70
     1
102
RTVSPropertyOp22
 70
     1
102
RTVSPropertyOp23
 70
     1
102
RTVSPropertyOp24
 70
     1
102
RTVSPropertyOp25
 70
     1
102
RTVSPropertyOp26
 70
     1
102
RTVSPropertyOp27
 70
     1
102
RTVSPropertyOp28
 70
     1
102
RTVSPropertyOp29
 70
     1
102
RTVSPropertyOp30
 70
     1
102
RTVSPropertyOp31
 70
     1
102
RTVSPropertyOp32
 70
     1
  0
XRECORD
  5
F10B01
102
{ACAD_REACTORS
330
F10B00
102
}
330
F10B00
100
AcDbXrecord
280
     1
102
RTVSPropertyOp0
 70
     0
102
RTVSPropertyOp1
 70
     0
102
RTVSPropertyOp2
 70
     0
102
RTVSPropertyOp3
 70
     0
102
RTVSPropertyOp4
 70
     0
102
RTVSPropertyOp5
 70
     0
102
RTVSPropertyOp6
 70
     0
102
RTVSPropertyOp7
 70
     0
102
RTVSPropertyOp8
 70
     0
102
RTVSPropertyOp9
 70
     0
102
RTVSPropertyOp10
 70
     0
102
RTVSPropertyOp11
 70
     0
102
RTVSPropertyOp12
 70
     0
102
RTVSPropertyOp13
 70
     0
102
RTVSPropertyOp14
 70
     2
102
RTVSPropertyOp15
 70
     0
102
RTVSPropertyOp16
 70
     0
102
RTVSPropertyOp17
 70
     0
102
RTVSPropertyOp18
 70
     0
102
RTVSPropertyOp19
 70
     0
102
RTVSPropertyOp20
 70
     0
102
RTVSPropertyOp21
 70
     0
102
RTVSPropertyOp22
 70
     0
102
RTVSPropertyOp23
 70
     0
102
RTVSPropertyOp24
 70
     0
102
RTVSPropertyOp25
 70
     0
102
RTVSPropertyOp26
 70
     0
102
RTVSPropertyOp27
 70
     0
102
RTVSPropertyOp28
 70
     1
102
RTVSPropertyOp29
 70
     1
102
RTVSPropertyOp30
 70
     1
102
RTVSPropertyOp31
 70
     1
102
RTVSPropertyOp32
 70
     1
  0
XRECORD
  5
F10AF1
102
{ACAD_REACTORS
330
F10AF0
102
}
330
F10AF0
100
AcDbXrecord
280
     1
102
RTVSPropertyOp0
 70
     1
102
RTVSPropertyOp1
 70
     1
102
RTVSPropertyOp2
 70
     1
102
RTVSPropertyOp3
 70
     1
102
RTVSPropertyOp4
 70
     1
102
RTVSPropertyOp5
 70
     1
102
RTVSPropertyOp6
 70
     1
102
RTVSPropertyOp7
 70
     1
102
RTVSPropertyOp8
 70
     1
102
RTVSPropertyOp9
 70
     1
102
RTVSPropertyOp10
 70
     1
102
RTVSPropertyOp11
 70
     1
102
RTVSPropertyOp12
 70
     1
102
RTVSPropertyOp13
 70
     1
102
RTVSPropertyOp14
 70
     1
102
RTVSPropertyOp15
 70
     1
102
RTVSPropertyOp16
 70
     1
102
RTVSPropertyOp17
 70
     1
102
RTVSPropertyOp18
 70
     1
102
RTVSPropertyOp19
 70
     1
102
RTVSPropertyOp20
 70
     1
102
RTVSPropertyOp21
 70
     1
102
RTVSPropertyOp22
 70
     1
102
RTVSPropertyOp23
 70
     1
102
RTVSPropertyOp24
 70
     1
102
RTVSPropertyOp25
 70
     1
102
RTVSPropertyOp26
 70
     1
102
RTVSPropertyOp27
 70
     1
102
RTVSPropertyOp28
 70
     1
102
RTVSPropertyOp29
 70
     1
102
RTVSPropertyOp30
 70
     1
102
RTVSPropertyOp31
 70
     1
102
RTVSPropertyOp32
 70
     1
  0
XRECORD
  5
F10B16
102
{ACAD_REACTORS
330
F10B15
102
}
330
F10B15
100
AcDbXrecord
280
     1
102
RTVSPropertyOp0
 70
     1
102
RTVSPropertyOp1
 70
     1
102
RTVSPropertyOp2
 70
     1
102
RTVSPropertyOp3
 70
     1
102
RTVSPropertyOp4
 70
     1
102
RTVSPropertyOp5
 70
     1
102
RTVSPropertyOp6
 70
     1
102
RTVSPropertyOp7
 70
     1
102
RTVSPropertyOp8
 70
     1
102
RTVSPropertyOp9
 70
     1
102
RTVSPropertyOp10
 70
     1
102
RTVSPropertyOp11
 70
     1
102
RTVSPropertyOp12
 70
     1
102
RTVSPropertyOp13
 70
     1
102
RTVSPropertyOp14
 70
     1
102
RTVSPropertyOp15
 70
     1
102
RTVSPropertyOp16
 70
     1
102
RTVSPropertyOp17
 70
     1
102
RTVSPropertyOp18
 70
     1
102
RTVSPropertyOp19
 70
     1
102
RTVSPropertyOp20
 70
     1
102
RTVSPropertyOp21
 70
     1
102
RTVSPropertyOp22
 70
     1
102
RTVSPropertyOp23
 70
     1
102
RTVSPropertyOp24
 70
     1
102
RTVSPropertyOp25
 70
     1
102
RTVSPropertyOp26
 70
     1
102
RTVSPropertyOp27
 70
     1
102
RTVSPropertyOp28
 70
     1
102
RTVSPropertyOp29
 70
     1
102
RTVSPropertyOp30
 70
     1
102
RTVSPropertyOp31
 70
     1
102
RTVSPropertyOp32
 70
     1
  0
XRECORD
  5
F10B14
102
{ACAD_REACTORS
330
F10B13
102
}
330
F10B13
100
AcDbXrecord
280
     1
102
RTVSPropertyOp0
 70
     1
102
RTVSPropertyOp1
 70
     1
102
RTVSPropertyOp2
 70
     1
102
RTVSPropertyOp3
 70
     1
102
RTVSPropertyOp4
 70
     1
102
RTVSPropertyOp5
 70
     1
102
RTVSPropertyOp6
 70
     1
102
RTVSPropertyOp7
 70
     1
102
RTVSPropertyOp8
 70
     1
102
RTVSPropertyOp9
 70
     1
102
RTVSPropertyOp10
 70
     1
102
RTVSPropertyOp11
 70
     1
102
RTVSPropertyOp12
 70
     1
102
RTVSPropertyOp13
 70
     1
102
RTVSPropertyOp14
 70
     1
102
RTVSPropertyOp15
 70
     1
102
RTVSPropertyOp16
 70
     1
102
RTVSPropertyOp17
 70
     1
102
RTVSPropertyOp18
 70
     1
102
RTVSPropertyOp19
 70
     1
102
RTVSPropertyOp20
 70
     1
102
RTVSPropertyOp21
 70
     1
102
RTVSPropertyOp22
 70
     1
102
RTVSPropertyOp23
 70
     1
102
RTVSPropertyOp24
 70
     1
102
RTVSPropertyOp25
 70
     1
102
RTVSPropertyOp26
 70
     1
102
RTVSPropertyOp27
 70
     1
102
RTVSPropertyOp28
 70
     1
102
RTVSPropertyOp29
 70
     1
102
RTVSPropertyOp30
 70
     1
102
RTVSPropertyOp31
 70
     1
102
RTVSPropertyOp32
 70
     1
  0
XRECORD
  5
F10B0E
102
{ACAD_REACTORS
330
F10B0D
102
}
330
F10B0D
100
AcDbXrecord
280
     1
102
RTVSPropertyOp0
 70
     1
102
RTVSPropertyOp1
 70
     1
102
RTVSPropertyOp2
 70
     1
102
RTVSPropertyOp3
 70
     1
102
RTVSPropertyOp4
 70
     1
102
RTVSPropertyOp5
 70
     1
102
RTVSPropertyOp6
 70
     1
102
RTVSPropertyOp7
 70
     1
102
RTVSPropertyOp8
 70
     1
102
RTVSPropertyOp9
 70
     1
102
RTVSPropertyOp10
 70
     1
102
RTVSPropertyOp11
 70
     1
102
RTVSPropertyOp12
 70
     1
102
RTVSPropertyOp13
 70
     1
102
RTVSPropertyOp14
 70
     1
102
RTVSPropertyOp15
 70
     1
102
RTVSPropertyOp16
 70
     1
102
RTVSPropertyOp17
 70
     1
102
RTVSPropertyOp18
 70
     1
102
RTVSPropertyOp19
 70
     1
102
RTVSPropertyOp20
 70
     1
102
RTVSPropertyOp21
 70
     1
102
RTVSPropertyOp22
 70
     1
102
RTVSPropertyOp23
 70
     1
102
RTVSPropertyOp24
 70
     1
102
RTVSPropertyOp25
 70
     1
102
RTVSPropertyOp26
 70
     1
102
RTVSPropertyOp27
 70
     1
102
RTVSPropertyOp28
 70
     1
102
RTVSPropertyOp29
 70
     1
102
RTVSPropertyOp30
 70
     1
102
RTVSPropertyOp31
 70
     1
102
RTVSPropertyOp32
 70
     1
  0
XRECORD
  5
F10B10
102
{ACAD_REACTORS
330
F10B0F
102
}
330
F10B0F
100
AcDbXrecord
280
     1
102
RTVSPropertyOp0
 70
     1
102
RTVSPropertyOp1
 70
     1
102
RTVSPropertyOp2
 70
     1
102
RTVSPropertyOp3
 70
     1
102
RTVSPropertyOp4
 70
     1
102
RTVSPropertyOp5
 70
     1
102
RTVSPropertyOp6
 70
     1
102
RTVSPropertyOp7
 70
     1
102
RTVSPropertyOp8
 70
     1
102
RTVSPropertyOp9
 70
     1
102
RTVSPropertyOp10
 70
     1
102
RTVSPropertyOp11
 70
     1
102
RTVSPropertyOp12
 70
     1
102
RTVSPropertyOp13
 70
     1
102
RTVSPropertyOp14
 70
     1
102
RTVSPropertyOp15
 70
     1
102
RTVSPropertyOp16
 70
     1
102
RTVSPropertyOp17
 70
     1
102
RTVSPropertyOp18
 70
     1
102
RTVSPropertyOp19
 70
     1
102
RTVSPropertyOp20
 70
     1
102
RTVSPropertyOp21
 70
     1
102
RTVSPropertyOp22
 70
     1
102
RTVSPropertyOp23
 70
     1
102
RTVSPropertyOp24
 70
     1
102
RTVSPropertyOp25
 70
     1
102
RTVSPropertyOp26
 70
     1
102
RTVSPropertyOp27
 70
     1
102
RTVSPropertyOp28
 70
     1
102
RTVSPropertyOp29
 70
     1
102
RTVSPropertyOp30
 70
     1
102
RTVSPropertyOp31
 70
     1
102
RTVSPropertyOp32
 70
     1
  0
XRECORD
  5
F10AF7
102
{ACAD_REACTORS
330
F10AF6
102
}
330
F10AF6
100
AcDbXrecord
280
     1
102
RTVSPropertyOp0
 70
     1
102
RTVSPropertyOp1
 70
     1
102
RTVSPropertyOp2
 70
     1
102
RTVSPropertyOp3
 70
     1
102
RTVSPropertyOp4
 70
     1
102
RTVSPropertyOp5
 70
     1
102
RTVSPropertyOp6
 70
     1
102
RTVSPropertyOp7
 70
     1
102
RTVSPropertyOp8
 70
     1
102
RTVSPropertyOp9
 70
     1
102
RTVSPropertyOp10
 70
     1
102
RTVSPropertyOp11
 70
     1
102
RTVSPropertyOp12
 70
     1
102
RTVSPropertyOp13
 70
     1
102
RTVSPropertyOp14
 70
     1
102
RTVSPropertyOp15
 70
     1
102
RTVSPropertyOp16
 70
     1
102
RTVSPropertyOp17
 70
     1
102
RTVSPropertyOp18
 70
     1
102
RTVSPropertyOp19
 70
     1
102
RTVSPropertyOp20
 70
     1
102
RTVSPropertyOp21
 70
     1
102
RTVSPropertyOp22
 70
     1
102
RTVSPropertyOp23
 70
     1
102
RTVSPropertyOp24
 70
     1
102
RTVSPropertyOp25
 70
     1
102
RTVSPropertyOp26
 70
     1
102
RTVSPropertyOp27
 70
     1
102
RTVSPropertyOp28
 70
     1
102
RTVSPropertyOp29
 70
     1
102
RTVSPropertyOp30
 70
     1
102
RTVSPropertyOp31
 70
     1
102
RTVSPropertyOp32
 70
     1
  0
XRECORD
  5
F10B0A
102
{ACAD_REACTORS
330
F10B09
102
}
330
F10B09
100
AcDbXrecord
280
     1
102
RTVSPropertyOp0
 70
     1
102
RTVSPropertyOp1
 70
     1
102
RTVSPropertyOp2
 70
     1
102
RTVSPropertyOp3
 70
     1
102
RTVSPropertyOp4
 70
     1
102
RTVSPropertyOp5
 70
     1
102
RTVSPropertyOp6
 70
     1
102
RTVSPropertyOp7
 70
     1
102
RTVSPropertyOp8
 70
     1
102
RTVSPropertyOp9
 70
     1
102
RTVSPropertyOp10
 70
     1
102
RTVSPropertyOp11
 70
     1
102
RTVSPropertyOp12
 70
     1
102
RTVSPropertyOp13
 70
     1
102
RTVSPropertyOp14
 70
     1
102
RTVSPropertyOp15
 70
     1
102
RTVSPropertyOp16
 70
     1
102
RTVSPropertyOp17
 70
     1
102
RTVSPropertyOp18
 70
     1
102
RTVSPropertyOp19
 70
     1
102
RTVSPropertyOp20
 70
     1
102
RTVSPropertyOp21
 70
     1
102
RTVSPropertyOp22
 70
     1
102
RTVSPropertyOp23
 70
     1
102
RTVSPropertyOp24
 70
     1
102
RTVSPropertyOp25
 70
     1
102
RTVSPropertyOp26
 70
     1
102
RTVSPropertyOp27
 70
     1
102
RTVSPropertyOp28
 70
     1
102
RTVSPropertyOp29
 70
     1
102
RTVSPropertyOp30
 70
     1
102
RTVSPropertyOp31
 70
     1
102
RTVSPropertyOp32
 70
     1
  0
XRECORD
  5
F10B12
102
{ACAD_REACTORS
330
F10B11
102
}
330
F10B11
100
AcDbXrecord
280
     1
102
RTVSPropertyOp0
 70
     1
102
RTVSPropertyOp1
 70
     1
102
RTVSPropertyOp2
 70
     1
102
RTVSPropertyOp3
 70
     1
102
RTVSPropertyOp4
 70
     1
102
RTVSPropertyOp5
 70
     1
102
RTVSPropertyOp6
 70
     1
102
RTVSPropertyOp7
 70
     1
102
RTVSPropertyOp8
 70
     1
102
RTVSPropertyOp9
 70
     1
102
RTVSPropertyOp10
 70
     1
102
RTVSPropertyOp11
 70
     1
102
RTVSPropertyOp12
 70
     1
102
RTVSPropertyOp13
 70
     1
102
RTVSPropertyOp14
 70
     1
102
RTVSPropertyOp15
 70
     1
102
RTVSPropertyOp16
 70
     1
102
RTVSPropertyOp17
 70
     1
102
RTVSPropertyOp18
 70
     1
102
RTVSPropertyOp19
 70
     1
102
RTVSPropertyOp20
 70
     1
102
RTVSPropertyOp21
 70
     1
102
RTVSPropertyOp22
 70
     1
102
RTVSPropertyOp23
 70
     1
102
RTVSPropertyOp24
 70
     1
102
RTVSPropertyOp25
 70
     1
102
RTVSPropertyOp26
 70
     1
102
RTVSPropertyOp27
 70
     1
102
RTVSPropertyOp28
 70
     1
102
RTVSPropertyOp29
 70
     1
102
RTVSPropertyOp30
 70
     1
102
RTVSPropertyOp31
 70
     1
102
RTVSPropertyOp32
 70
     1
  0
ENDSEC
  0
EOF
