  0
SECTION
  2
HEADER
  9
$ACADVER
  1
AC1015
  9
$ACADMAINTVER
 70
    20
  9
$DWGCODEPAGE
  3
ANSI_1252
  9
$INSBASE
 10
0.0
 20
0.0
 30
0.0
  9
$EXTMIN
 10
-208.09585492228
 20
-100.103626943005
 30
0.0
  9
$EXTMAX
 10
143.354922279793
 20
106.7646657571623
 30
0.0
  9
$LIMMIN
 10
0.0
 20
0.0
  9
$LIMMAX
 10
12.0
 20
9.0
  9
$ORTHOMODE
 70
     0
  9
$REGENMODE
 70
     1
  9
$FILLMODE
 70
     1
  9
$QTEXTMODE
 70
     0
  9
$MIRRTEXT
 70
     1
  9
$LTSCALE
 40
1.0
  9
$ATTMODE
 70
     1
  9
$TEXTSIZE
 40
0.2
  9
$TRACEWID
 40
0.05
  9
$TEXTSTYLE
  7
Standard
  9
$CLAYER
  8
0
  9
$CELTYPE
  6
ByLayer
  9
$CECOLOR
 62
   256
  9
$CELTSCALE
 40
1.0
  9
$DISPSILH
 70
     0
  9
$DIMSCALE
 40
1.0
  9
$DIMASZ
 40
2.5
  9
$DIMEXO
 40
0.625
  9
$DIMDLI
 40
0.38
  9
$DIMRND
 40
0.0
  9
$DIMDLE
 40
0.0
  9
$DIMEXE
 40
1.25
  9
$DIMTP
 40
0.0
  9
$DIMTM
 40
0.000000001
  9
$DIMTXT
 40
2.5
  9
$DIMCEN
 40
0.09
  9
$DIMTSZ
 40
0.0
  9
$DIMTOL
 70
     1
  9
$DIMLIM
 70
     0
  9
$DIMTIH
 70
     0
  9
$DIMTOH
 70
     0
  9
$DIMSE1
 70
     0
  9
$DIMSE2
 70
     0
  9
$DIMTAD
 70
     1
  9
$DIMZIN
 70
     0
  9
$DIMBLK
  1
VDDIM_DEFAULT
  9
$DIMASO
 70
     1
  9
$DIMSHO
 70
     1
  9
$DIMPOST
  1

  9
$DIMAPOST
  1

  9
$DIMALT
 70
     0
  9
$DIMALTD
 70
     2
  9
$DIMALTF
 40
25.4
  9
$DIMLFAC
 40
1.0
  9
$DIMTOFL
 70
     0
  9
$DIMTVP
 40
0.0
  9
$DIMTIX
 70
     0
  9
$DIMSOXD
 70
     0
  9
$DIMSAH
 70
     0
  9
$DIMBLK1
  1

  9
$DIMBLK2
  1

  9
$DIMSTYLE
  2
BEM-ISBE
  9
$DIMCLRD
 70
     0
  9
$DIMCLRE
 70
     0
  9
$DIMCLRT
 70
     0
  9
$DIMTFAC
 40
0.5
  9
$DIMGAP
 40
0.625
  9
$DIMJUST
 70
     0
  9
$DIMSD1
 70
     0
  9
$DIMSD2
 70
     0
  9
$DIMTOLJ
 70
     1
  9
$DIMTZIN
 70
     0
  9
$DIMALTZ
 70
     0
  9
$DIMALTTZ
 70
     0
  9
$DIMUPT
 70
     0
  9
$DIMDEC
 70
     3
  9
$DIMTDEC
 70
     3
  9
$DIMALTU
 70
     2
  9
$DIMALTTD
 70
     2
  9
$DIMTXSTY
  7
Standard
  9
$DIMAUNIT
 70
     0
  9
$DIMADEC
 70
     3
  9
$DIMALTRND
 40
0.0
  9
$DIMAZIN
 70
     0
  9
$DIMDSEP
 70
    46
  9
$DIMATFIT
 70
     3
  9
$DIMFRAC
 70
     0
  9
$DIMLDRBLK
  1

  9
$DIMLUNIT
 70
     2
  9
$DIMLWD
 70
    -2
  9
$DIMLWE
 70
    -2
  9
$DIMTMOVE
 70
     0
  9
$LUNITS
 70
     2
  9
$LUPREC
 70
     4
  9
$SKETCHINC
 40
0.1
  9
$FILLETRAD
 40
0.0
  9
$AUNITS
 70
     0
  9
$AUPREC
 70
     0
  9
$MENU
  1
.
  9
$ELEVATION
 40
0.0
  9
$PELEVATION
 40
0.0
  9
$THICKNESS
 40
0.0
  9
$LIMCHECK
 70
     0
  9
$CHAMFERA
 40
0.5
  9
$CHAMFERB
 40
0.5
  9
$CHAMFERC
 40
1.0
  9
$CHAMFERD
 40
0.0
  9
$SKPOLY
 70
     0
  9
$TDCREATE
 40
2457002.639735162
  9
$TDUCREATE
 40
2457002.598068495
  9
$TDUPDATE
 40
2457002.641365348
  9
$TDUUPDATE
 40
2457002.599698681
  9
$TDINDWG
 40
0.0016313889
  9
$TDUSRTIMER
 40
0.0016313426
  9
$USRTIMER
 70
     1
  9
$ANGBASE
 50
0.0
  9
$ANGDIR
 70
     0
  9
$PDMODE
 70
     0
  9
$PDSIZE
 40
0.0
  9
$PLINEWID
 40
0.0
  9
$SPLFRAME
 70
     0
  9
$SPLINETYPE
 70
     6
  9
$SPLINESEGS
 70
     8
  9
$HANDSEED
  5
F10B61
  9
$SURFTAB1
 70
     6
  9
$SURFTAB2
 70
     6
  9
$SURFTYPE
 70
     6
  9
$SURFU
 70
     6
  9
$SURFV
 70
     6
  9
$UCSBASE
  2

  9
$UCSNAME
  2

  9
$UCSORG
 10
-11.32710031629895
 20
-3.271308387148786
 30
0.0
  9
$UCSXDIR
 10
1.0
 20
0.0
 30
0.0
  9
$UCSYDIR
 10
0.0
 20
1.0
 30
0.0
  9
$UCSORTHOREF
  2

  9
$UCSORTHOVIEW
 70
     0
  9
$UCSORGTOP
 10
0.0
 20
0.0
 30
0.0
  9
$UCSORGBOTTOM
 10
0.0
 20
0.0
 30
0.0
  9
$UCSORGLEFT
 10
0.0
 20
0.0
 30
0.0
  9
$UCSORGRIGHT
 10
0.0
 20
0.0
 30
0.0
  9
$UCSORGFRONT
 10
0.0
 20
0.0
 30
0.0
  9
$UCSORGBACK
 10
0.0
 20
0.0
 30
0.0
  9
$PUCSBASE
  2

  9
$PUCSNAME
  2

  9
$PUCSORG
 10
0.0
 20
0.0
 30
0.0
  9
$PUCSXDIR
 10
1.0
 20
0.0
 30
0.0
  9
$PUCSYDIR
 10
0.0
 20
1.0
 30
0.0
  9
$PUCSORTHOREF
  2

  9
$PUCSORTHOVIEW
 70
     0
  9
$PUCSORGTOP
 10
0.0
 20
0.0
 30
0.0
  9
$PUCSORGBOTTOM
 10
0.0
 20
0.0
 30
0.0
  9
$PUCSORGLEFT
 10
0.0
 20
0.0
 30
0.0
  9
$PUCSORGRIGHT
 10
0.0
 20
0.0
 30
0.0
  9
$PUCSORGFRONT
 10
0.0
 20
0.0
 30
0.0
  9
$PUCSORGBACK
 10
0.0
 20
0.0
 30
0.0
  9
$USERI1
 70
     0
  9
$USERI2
 70
     0
  9
$USERI3
 70
     0
  9
$USERI4
 70
     0
  9
$USERI5
 70
     0
  9
$USERR1
 40
0.0
  9
$USERR2
 40
0.0
  9
$USERR3
 40
0.0
  9
$USERR4
 40
0.0
  9
$USERR5
 40
0.0
  9
$WORLDVIEW
 70
     1
  9
$SHADEDGE
 70
     3
  9
$SHADEDIF
 70
    70
  9
$TILEMODE
 70
     1
  9
$MAXACTVP
 70
    64
  9
$PINSBASE
 10
0.0
 20
0.0
 30
0.0
  9
$PLIMCHECK
 70
     0
  9
$PEXTMIN
 10
1.000000000000000E+20
 20
1.000000000000000E+20
 30
1.000000000000000E+20
  9
$PEXTMAX
 10
-1.000000000000000E+20
 20
-1.000000000000000E+20
 30
-1.000000000000000E+20
  9
$PLIMMIN
 10
0.0
 20
0.0
  9
$PLIMMAX
 10
12.0
 20
9.0
  9
$UNITMODE
 70
     0
  9
$VISRETAIN
 70
     1
  9
$PLINEGEN
 70
     0
  9
$PSLTSCALE
 70
     1
  9
$TREEDEPTH
 70
  3020
  9
$CMLSTYLE
  2
Standard
  9
$CMLJUST
 70
     0
  9
$CMLSCALE
 40
1.0
  9
$PROXYGRAPHICS
 70
     1
  9
$MEASUREMENT
 70
     0
  9
$CELWEIGHT
370
    -1
  9
$ENDCAPS
280
     0
  9
$JOINSTYLE
280
     0
  9
$LWDISPLAY
290
     0
  9
$INSUNITS
 70
     4
  9
$HYPERLINKBASE
  1

  9
$STYLESHEET
  1

  9
$XEDIT
290
     1
  9
$CEPSNTYPE
380
     0
  9
$PSTYLEMODE
290
     0
  9
$FINGERPRINTGUID
  2
{FAEB1C30-E019-11D5-929B-00C0DF256EC4}
  9
$VERSIONGUID
  2
{1889202A-53F1-4467-B224-DC7043910AE5}
  9
$EXTNAMES
290
     1
  9
$PSVPSCALE
 40
0.0
  9
$OLESTARTUP
290
     0
  0
ENDSEC
  0
SECTION
  2
CLASSES
  0
CLASS
  1
ACDBDICTIONARYWDFLT
  2
AcDbDictionaryWithDefault
  3
ObjectDBX Classes
 90
        0
280
     0
281
     0
  0
CLASS
  1
MATERIAL
  2
AcDbMaterial
  3
ObjectDBX Classes
 90
     1153
280
     0
281
     0
  0
CLASS
  1
MLEADERSTYLE
  2
AcDbMLeaderStyle
  3
ACDB_MLEADERSTYLE_CLASS
 90
     4095
280
     0
281
     0
  0
CLASS
  1
SCALE
  2
AcDbScale
  3
ObjectDBX Classes
 90
     1153
280
     0
281
     0
  0
CLASS
  1
TABLESTYLE
  2
AcDbTableStyle
  3
ObjectDBX Classes
 90
     4095
280
     0
281
     0
  0
CLASS
  1
VISUALSTYLE
  2
AcDbVisualStyle
  3
ObjectDBX Classes
 90
     4095
280
     0
281
     0
  0
CLASS
  1
DICTIONARYVAR
  2
AcDbDictionaryVar
  3
ObjectDBX Classes
 90
        0
280
     0
281
     0
  0
CLASS
  1
CELLSTYLEMAP
  2
AcDbCellStyleMap
  3
ObjectDBX Classes
 90
     1152
280
     0
281
     0
  0
CLASS
  1
AMGSETTINGSOBJ
  2
AmgSettingsObj
  3
"AcadM|Product Description: AutoCAD Mechanical|Company: Autodesk, Inc."
 90
     1024
280
     0
281
     0
  0
CLASS
  1
ACME_DOCUMENT
  2
AcMeDbDoc
  3
AcMeServices
 90
     1024
280
     0
281
     0
  0
CLASS
  1
ACMESCOPE
  2
AcMeScope
  3
AcMeServices
 90
     1024
280
     0
281
     0
  0
CLASS
  1
ACMECOMMANDHISTORY
  2
AcMeCommandHistory
  3
AcMeServices
 90
     1024
280
     0
281
     0
  0
CLASS
  1
ACIMSYSVARMAN
  2
AcImSysVarManager
  3
AcMeServices
 90
     1024
280
     0
281
     0
  0
CLASS
  1
ACIMINTSYSVAR
  2
AcImIntSysVar
  3
AcMeServices
 90
     1024
280
     0
281
     0
  0
CLASS
  1
ACMESTATEMGR
  2
AcMeStateMgr
  3
AcMeServices
 90
     1024
280
     0
281
     0
  0
CLASS
  1
ACDBENTITYCACHE
  2
AcMeEntityCache
  3
AcMeServices
 90
     1024
280
     0
281
     0
  0
CLASS
  1
ACGREFMASTER
  2
AcGrefMaster
  3
AcAttribServices
 90
     1024
280
     0
281
     0
  0
CLASS
  1
AM_DRAWING_MGR
  2
AcDmDwgMgr
  3
AcMechDwgViewMgmt
 90
     1024
280
     0
281
     0
  0
CLASS
  1
AM_DWG_DOCUMENT
  2
AcDmDwgDocument
  3
AcMechDwgViewMgmt
 90
     1024
280
     0
281
     0
  0
CLASS
  1
AM_DWG_SHEET
  2
AcDmSheet
  3
AcMechDwgViewMgmt
 90
     1024
280
     0
281
     0
  0
CLASS
  1
AM_VIEWDIMPARMAP
  2
AcDmViewDimParMap
  3
AcMechDwgViewMgmt
 90
     1024
280
     0
281
     0
  0
CLASS
  1
AMDTINTERNALREACTOR
  2
AmdtInternalReactor
  3
AcMeServices
 90
     1024
280
     0
281
     0
  0
CLASS
  1
ACIMREALSYSVAR
  2
AcImRealSysVar
  3
AcMeServices
 90
     1024
280
     0
281
     0
  0
CLASS
  1
AM_DWGMGR_NAME
  2
AcDmDwgMgrName
  3
AcMechDwgViewMgmt
 90
     1024
280
     0
281
     0
  0
CLASS
  1
ACME_DATABASE
  2
AcMeDbDatabase
  3
AcMeServices
 90
     1024
280
     0
281
     0
  0
CLASS
  1
ACRFINSADJUSTERMGR
  2
AcRfInsAdjusterMgr
  3
AcMeServices
 90
     1024
280
     0
281
     0
  0
CLASS
  1
ACGREFACADMASTER
  2
AcGrefacadMaster
  3
AcGrefServices
 90
     1024
280
     0
281
     0
  0
CLASS
  1
AMDTMENUSTATEMGR
  2
AmdtMenuStateMgr
  3
McadcomServices
 90
     1024
280
     0
281
     0
  0
CLASS
  1
AMDTMCOMMENUSTATE
  2
AmdtMcomMenuState
  3
McadcomServices
 90
     1024
280
     0
281
     0
  0
CLASS
  1
AMIMASTER
  2
AmiMaster
  3
AmiServices
 90
     1024
280
     0
281
     0
  0
CLASS
  1
MAPIAMMOUDLE
  2
MApiAmModule
  3
MApiAmServices
 90
     1024
280
     0
281
     0
  0
CLASS
  1
ACIMSTRSYSVAR
  2
AcImStrSysVar
  3
AcMeServices
 90
     1024
280
     0
281
     0
  0
CLASS
  1
AMDTDMMENUSTATE
  2
AmdtDmMenuState
  3
AcMechDwgViewMgmt
 90
     1024
280
     0
281
     0
  0
CLASS
  1
AMDTAMMENUSTATE
  2
AmdtAmMenuState
  3
DesignerAssemblies
 90
     1024
280
     0
281
     0
  0
CLASS
  1
ACAMPROJECT
  2
AcAmProject
  3
DesignerAssemblies
 90
     1024
280
     0
281
     0
  0
CLASS
  1
ACAMGRCOMPDEF
  2
AcAmGrCompDef
  3
DesignerAssemblies
 90
     1024
280
     0
281
     0
  0
CLASS
  1
ACAMCOMPDEF
  2
AcAmCompDef
  3
DesignerAssemblies
 90
     1024
280
     0
281
     0
  0
CLASS
  1
ACAMCOMPDEFMGR
  2
AcAmCompDefMgr
  3
DesignerAssemblies
 90
     1024
280
     0
281
     0
  0
CLASS
  1
AMCONTEXTMGR
  2
AcAmContextMgr
  3
DesignerAssemblies
 90
     1024
280
     0
281
     0
  0
CLASS
  1
ACAMCONTEXTMODELER
  2
AcAmContextModeler
  3
DesignerAssemblies
 90
     1024
280
     0
281
     0
  0
CLASS
  1
ACMDATADICTIONARY
  2
AcmDataDictionary
  3
"AcmSymBB|Product Description: AutoCAD Mechanical|Company: Autodesk, Inc."
 90
     1024
280
     0
281
     0
  0
CLASS
  1
ACAMGRCOMPDEFSET
  2
AcAmGrCompDefSet
  3
DesignerAssemblies
 90
     1024
280
     0
281
     0
  0
CLASS
  1
AMDTBROWSERDBTAB
  2
AmdtBrowserDbTab
  3
McadcomServices
 90
     1024
280
     0
281
     0
  0
CLASS
  1
CBROWSERAPPOBJECT
  2
CBrowserAppObject
  3
McadcomServices
 90
     1024
280
     0
281
     0
  0
CLASS
  1
DM_PLACEHOLDER
  2
AcDmSelsetPlaceholder
  3
AcMechDwgViewMgmt
 90
     1024
280
     0
281
     0
  0
CLASS
  1
EXACXREFPANELOBJECT
  2
ExAcXREFPanelObject
  3
EXAC_ESW
 90
     1025
280
     0
281
     0
  0
CLASS
  1
NPOCOLLECTION
  2
AcDbImpNonPersistentObjectsCollection
  3
ObjectDBX Classes
 90
     1153
280
     0
281
     0
  0
CLASS
  1
ACMSTANDARDANSI
  2
AcmStandardANSI
  3
"Amdt_StdImp|Product Description: AutoCAD Mechanical|Company: Autodesk, Inc."
 90
     1024
280
     0
281
     0
  0
CLASS
  1
ACMSURFSTANDARDANSI
  2
AcmSurfTextStdANSI
  3
"Amdt_StdImp|Product Description: AutoCAD Mechanical|Company: Autodesk, Inc."
 90
     1024
280
     0
281
     0
  0
CLASS
  1
ACMFCFSTANDARDANSI
  2
AcmFCFStdANSI
  3
"Amdt_StdImp|Product Description: AutoCAD Mechanical|Company: Autodesk, Inc."
 90
     1024
280
     0
281
     0
  0
CLASS
  1
ACMWELDSTANDARDANSI
  2
AcmWeldingStdANSI
  3
"Amdt_StdImp|Product Description: AutoCAD Mechanical|Company: Autodesk, Inc."
 90
     1024
280
     0
281
     0
  0
CLASS
  1
ACMIDSTANDARDANSI
  2
AcmIdStdANSI
  3
"Amdt_StdImp|Product Description: AutoCAD Mechanical|Company: Autodesk, Inc."
 90
     1024
280
     0
281
     0
  0
CLASS
  1
ACMDATUMSTANDARDANSI
  2
AcmDatumStdANSI
  3
"Amdt_StdImp|Product Description: AutoCAD Mechanical|Company: Autodesk, Inc."
 90
     1024
280
     0
281
     0
  0
CLASS
  1
ACMBOMSTANDARDANSI
  2
AcmBOMStdANSI
  3
"Amdt_StdImp|Product Description: AutoCAD Mechanical|Company: Autodesk, Inc."
 90
     1024
280
     0
281
     0
  0
CLASS
  1
ACMDETAILSTANDARDANSI
  2
AmdtDetailSymStdANSI
  3
"Amdt_StdImp|Product Description: AutoCAD Mechanical|Company: Autodesk, Inc."
 90
     1024
280
     0
281
     0
  0
CLASS
  1
ACMSECTIONSTANDARDANSI
  2
AmdtSectionSymStdANSI
  3
"Amdt_StdImp|Product Description: AutoCAD Mechanical|Company: Autodesk, Inc."
 90
     1024
280
     0
281
     0
  0
CLASS
  1
ACMCENTERLINESTANDARDANSI
  2
AmdtCenterLineStdANSI
  3
"Amdt_StdImp|Product Description: AutoCAD Mechanical|Company: Autodesk, Inc."
 90
     1024
280
     0
281
     0
  0
CLASS
  1
ACMTHREADLINESTANDARDANSI
  2
AmdtThreadLineStdANSI
  3
"Amdt_StdImp|Product Description: AutoCAD Mechanical|Company: Autodesk, Inc."
 90
     1024
280
     0
281
     0
  0
CLASS
  1
ACMNOTESTANDARDANSI
  2
AmdtNoteStdANSI
  3
"Amdt_StdImp|Product Description: AutoCAD Mechanical|Company: Autodesk, Inc."
 90
     1024
280
     0
281
     0
  0
CLASS
  1
ACMTAPERSTANDARDANSI
  2
AcmTaperStdANSI
  3
"Amdt_StdImp|Product Description: AutoCAD Mechanical|Company: Autodesk, Inc."
 90
     1024
280
     0
281
     0
  0
CLASS
  1
ACMANOOTATIONVIEWSTANDARDANSI
  2
AmdtAnViewStdANSI
  3
"Amdt_StdImp|Product Description: AutoCAD Mechanical|Company: Autodesk, Inc."
 90
     1024
280
     0
281
     0
  0
CLASS
  1
ACAMGLAYSTD
  2
AcAmgLayStd
  3
"AmgLay|Product Description: AutoCAD Mechanical|Company: Autodesk, Inc."
 90
     1024
280
     0
281
     0
  0
CLASS
  1
ACAMGDIMSTD
  2
AcAmgDimStd
  3
"AmgDim|Product Description: AutoCAD Mechanical|Company: Autodesk, Inc."
 90
     1024
280
     0
281
     0
  0
CLASS
  1
AMGOBJPROPCFG
  2
AmgObjPropCfg
  3
"AmgLay|Product Description: AutoCAD Mechanical|Company: Autodesk, Inc."
 90
     1025
280
     0
281
     0
  0
CLASS
  1
ACAMGHOLECHARTSTDANSI
  2
AcAmgHoleChartStdANSI
  3
AmgDim|Product Description: AutoCAD Mechanical|Company: Autodesk, Inc.
 90
     1024
280
     0
281
     0
  0
CLASS
  1
ACAMGTITLESTD
  2
AcAmgTitleStd
  3
"AmgTitle|Product Description: AutoCAD Mechanical|Company: Autodesk, Inc."
 90
     4095
280
     0
281
     0
  0
CLASS
  1
AMDTNOTETEMPLATEDB
  2
AmdtNoteTemplateDB
  3
AcmSymBB|Product Description: AutoCAD Mechanical|Company: Autodesk, Inc.
 90
     1024
280
     0
281
     0
  0
CLASS
  1
ACAMGFILTERDAT
  2
AcAmgFilterDat
  3
"AcadM|Product Description: AutoCAD Mechanical|Company: Autodesk, Inc."
 90
     1024
280
     0
281
     0
  0
CLASS
  1
ACDBPLACEHOLDER
  2
AcDbPlaceHolder
  3
ObjectDBX Classes
 90
        0
280
     0
281
     0
  0
CLASS
  1
LAYOUT
  2
AcDbLayout
  3
ObjectDBX Classes
 90
        0
280
     0
281
     0
  0
ENDSEC
  0
SECTION
  2
TABLES
  0
TABLE
  2
VPORT
  5
24A
330
0
100
AcDbSymbolTable
 70
     1
  0
VPORT
  5
26B
330
24A
100
AcDbSymbolTableRecord
100
AcDbViewportTableRecord
  2
*Active
 70
     0
 10
0.0
 20
0.0
 11
1.0
 21
1.0
 12
6.10479906587966
 22
-15.04752499987174
 13
0.0
 23
0.0
 14
10.0
 24
10.0
 15
10.0
 25
10.0
 16
0.0
 26
0.0
 36
1.0
 17
0.0
 27
0.0
 37
0.0
 40
214.9096397589101
 41
1.492489270386266
 42
1.0
 43
0.0
 44
0.0
 50
0.0
 51
0.0000000000007958
 71
     0
 72
   100
 73
     1
 74
     3
 75
     0
 76
     0
 77
     0
 78
     1
281
     0
 65
     0
110
0.0
120
0.0
130
0.0
111
1.0
121
0.0
131
0.0
112
0.0
122
1.0
132
0.0
 79
     0
146
0.0
  0
ENDTAB
  0
TABLE
  2
LTYPE
  5
247
330
0
100
AcDbSymbolTable
 70
    37
  0
LTYPE
  5
256
330
247
100
AcDbSymbolTableRecord
100
AcDbLinetypeTableRecord
  2
ByBlock
 70
     0
  3

 72
    65
 73
     0
 40
0.0
  0
LTYPE
  5
257
330
247
100
AcDbSymbolTableRecord
100
AcDbLinetypeTableRecord
  2
ByLayer
 70
     0
  3

 72
    65
 73
     0
 40
0.0
  0
LTYPE
  5
258
330
247
100
AcDbSymbolTableRecord
100
AcDbLinetypeTableRecord
  2
Continuous
 70
     0
  3
Solid line
 72
    65
 73
     0
 40
0.0
  0
LTYPE
  5
273
330
247
100
AcDbSymbolTableRecord
100
AcDbLinetypeTableRecord
  2
CENTER
 70
     0
  3
Center ____ _ ____ _ ____ _ ____ _ ____ _ ____
 72
    65
 73
     4
 40
2.0
 49
1.25
 74
     0
 49
-0.25
 74
     0
 49
0.25
 74
     0
 49
-0.25
 74
     0
  0
LTYPE
  5
274
330
247
100
AcDbSymbolTableRecord
100
AcDbLinetypeTableRecord
  2
DASHDOT
 70
     0
  3
Dashdot __ . __ . __ . __ . __ . __ . __ . __
 72
    65
 73
     4
 40
1.0
 49
0.5
 74
     0
 49
-0.25
 74
     0
 49
0.0
 74
     0
 49
-0.25
 74
     0
  0
LTYPE
  5
275
330
247
100
AcDbSymbolTableRecord
100
AcDbLinetypeTableRecord
  2
DASHED
 70
     0
  3
Dashed __ __ __ __ __ __ __ __ __ __ __ __ __ _
 72
    65
 73
     2
 40
0.75
 49
0.5
 74
     0
 49
-0.25
 74
     0
  0
LTYPE
  5
276
330
247
100
AcDbSymbolTableRecord
100
AcDbLinetypeTableRecord
  2
HIDDEN
 70
     0
  3
Hidden __ __ __ __ __ __ __ __ __ __ __ __ __ __
 72
    65
 73
     2
 40
0.375
 49
0.25
 74
     0
 49
-0.125
 74
     0
  0
LTYPE
  5
277
330
247
100
AcDbSymbolTableRecord
100
AcDbLinetypeTableRecord
  2
HIDDEN2
 70
     0
  3
Hidden2 _ _ _ _ _ _ _ _ _ _ _ _ _ _ _ _ _
 72
    65
 73
     2
 40
0.1875
 49
0.125
 74
     0
 49
-0.0625
 74
     0
  0
LTYPE
  5
278
330
247
100
AcDbSymbolTableRecord
100
AcDbLinetypeTableRecord
  2
BORDER
 70
     0
  3
Border __ __ . __ __ . __ __ . __ __ . __ __ .
 72
    65
 73
     6
 40
1.75
 49
0.5
 74
     0
 49
-0.25
 74
     0
 49
0.5
 74
     0
 49
-0.25
 74
     0
 49
0.0
 74
     0
 49
-0.25
 74
     0
  0
LTYPE
  5
279
330
247
100
AcDbSymbolTableRecord
100
AcDbLinetypeTableRecord
  2
BORDER2
 70
     0
  3
Border2 __.__.__.__.__.__.__.__.__.__.__.
 72
    65
 73
     6
 40
0.875
 49
0.25
 74
     0
 49
-0.125
 74
     0
 49
0.25
 74
     0
 49
-0.125
 74
     0
 49
0.0
 74
     0
 49
-0.125
 74
     0
  0
LTYPE
  5
27A
330
247
100
AcDbSymbolTableRecord
100
AcDbLinetypeTableRecord
  2
BORDERX2
 70
     0
  3
Borderx2  ____  ____  .  ____  ____  .  ___
 72
    65
 73
     6
 40
3.5
 49
1.0
 74
     0
 49
-0.5
 74
     0
 49
1.0
 74
     0
 49
-0.5
 74
     0
 49
0.0
 74
     0
 49
-0.5
 74
     0
  0
LTYPE
  5
27B
330
247
100
AcDbSymbolTableRecord
100
AcDbLinetypeTableRecord
  2
CENTER2
 70
     0
  3
Center2  ___ _ ___ _ ___ _ ___ _ ___ _ ___
 72
    65
 73
     4
 40
1.125
 49
0.75
 74
     0
 49
-0.125
 74
     0
 49
0.125
 74
     0
 49
-0.125
 74
     0
  0
LTYPE
  5
27C
330
247
100
AcDbSymbolTableRecord
100
AcDbLinetypeTableRecord
  2
CENTERX2
 70
     0
  3
Centerx2  ________  __  ________  __  _____
 72
    65
 73
     4
 40
4.0
 49
2.5
 74
     0
 49
-0.5
 74
     0
 49
0.5
 74
     0
 49
-0.5
 74
     0
  0
LTYPE
  5
27D
330
247
100
AcDbSymbolTableRecord
100
AcDbLinetypeTableRecord
  2
DASHDOT2
 70
     0
  3
Dashdot2  _._._._._._._._._._._._._._._.
 72
    65
 73
     4
 40
0.5
 49
0.25
 74
     0
 49
-0.125
 74
     0
 49
0.0
 74
     0
 49
-0.125
 74
     0
  0
LTYPE
  5
27E
330
247
100
AcDbSymbolTableRecord
100
AcDbLinetypeTableRecord
  2
DASHDOTX2
 70
     0
  3
Dashdotx2 ____  .  ____  .  ____  .  ___
 72
    65
 73
     4
 40
2.0
 49
1.0
 74
     0
 49
-0.5
 74
     0
 49
0.0
 74
     0
 49
-0.5
 74
     0
  0
LTYPE
  5
27F
330
247
100
AcDbSymbolTableRecord
100
AcDbLinetypeTableRecord
  2
DASHED2
 70
     0
  3
Dashed2 _ _ _ _ _ _ _ _ _ _ _ _ _ _ _ _ _
 72
    65
 73
     2
 40
0.375
 49
0.25
 74
     0
 49
-0.125
 74
     0
  0
LTYPE
  5
280
330
247
100
AcDbSymbolTableRecord
100
AcDbLinetypeTableRecord
  2
DASHEDX2
 70
     0
  3
Dashedx2 ____  ____  ____  ____  ____  ___
 72
    65
 73
     2
 40
1.5
 49
1.0
 74
     0
 49
-0.5
 74
     0
  0
LTYPE
  5
281
330
247
100
AcDbSymbolTableRecord
100
AcDbLinetypeTableRecord
  2
DIVIDE
 70
     0
  3
Divide ____ . . ____ . . ____ . . ____ . . ____
 72
    65
 73
     6
 40
1.25
 49
0.5
 74
     0
 49
-0.25
 74
     0
 49
0.0
 74
     0
 49
-0.25
 74
     0
 49
0.0
 74
     0
 49
-0.25
 74
     0
  0
LTYPE
  5
282
330
247
100
AcDbSymbolTableRecord
100
AcDbLinetypeTableRecord
  2
DIVIDE2
 70
     0
  3
Divide2 __..__..__..__..__..__..__..__.._
 72
    65
 73
     6
 40
0.625
 49
0.25
 74
     0
 49
-0.125
 74
     0
 49
0.0
 74
     0
 49
-0.125
 74
     0
 49
0.0
 74
     0
 49
-0.125
 74
     0
  0
LTYPE
  5
283
330
247
100
AcDbSymbolTableRecord
100
AcDbLinetypeTableRecord
  2
DIVIDEX2
 70
     0
  3
Dividex2 ________  .  .  ________  .  .  _
 72
    65
 73
     6
 40
2.5
 49
1.0
 74
     0
 49
-0.5
 74
     0
 49
0.0
 74
     0
 49
-0.5
 74
     0
 49
0.0
 74
     0
 49
-0.5
 74
     0
  0
LTYPE
  5
284
330
247
100
AcDbSymbolTableRecord
100
AcDbLinetypeTableRecord
  2
DOT
 70
     0
  3
Dot . . . . . . . . . . . . . . . . . . . . . . . .
 72
    65
 73
     2
 40
0.25
 49
0.0
 74
     0
 49
-0.25
 74
     0
  0
LTYPE
  5
285
330
247
100
AcDbSymbolTableRecord
100
AcDbLinetypeTableRecord
  2
DOT2
 70
     0
  3
Dot2 ........................................
 72
    65
 73
     2
 40
0.125
 49
0.0
 74
     0
 49
-0.125
 74
     0
  0
LTYPE
  5
286
330
247
100
AcDbSymbolTableRecord
100
AcDbLinetypeTableRecord
  2
DOTX2
 70
     0
  3
Dotx2 .  .  .  .  .  .  .  .  .  .  .  .  .  .
 72
    65
 73
     2
 40
0.5
 49
0.0
 74
     0
 49
-0.5
 74
     0
  0
LTYPE
  5
287
330
247
100
AcDbSymbolTableRecord
100
AcDbLinetypeTableRecord
  2
HIDDENX2
 70
     0
  3
Hiddenx2 ____ ____ ____ ____ ____ ____ ____
 72
    65
 73
     2
 40
0.75
 49
0.5
 74
     0
 49
-0.25
 74
     0
  0
LTYPE
  5
288
330
247
100
AcDbSymbolTableRecord
100
AcDbLinetypeTableRecord
  2
PHANTOM
 70
     0
  3
Phantom ______  __  __  ______  __  __  ______
 72
    65
 73
     6
 40
2.5
 49
1.25
 74
     0
 49
-0.25
 74
     0
 49
0.25
 74
     0
 49
-0.25
 74
     0
 49
0.25
 74
     0
 49
-0.25
 74
     0
  0
LTYPE
  5
289
330
247
100
AcDbSymbolTableRecord
100
AcDbLinetypeTableRecord
  2
PHANTOM2
 70
     0
  3
Phantom2 ___ _ _ ___ _ _ ___ _ _ ___ _ _
 72
    65
 73
     6
 40
1.25
 49
0.625
 74
     0
 49
-0.125
 74
     0
 49
0.125
 74
     0
 49
-0.125
 74
     0
 49
0.125
 74
     0
 49
-0.125
 74
     0
  0
LTYPE
  5
28A
330
247
100
AcDbSymbolTableRecord
100
AcDbLinetypeTableRecord
  2
PHANTOMX2
 70
     0
  3
Phantomx2 ____________    ____    ____   _
 72
    65
 73
     6
 40
5.0
 49
2.5
 74
     0
 49
-0.5
 74
     0
 49
0.5
 74
     0
 49
-0.5
 74
     0
 49
0.5
 74
     0
 49
-0.5
 74
     0
  0
LTYPE
  5
F109BC
330
247
100
AcDbSymbolTableRecord
100
AcDbLinetypeTableRecord
  2
AM_ISO02W050
 70
     0
  3
__ __ __ __ __ __ __ __ __ __ __ __ __ __ __
 72
    65
 73
     2
 40
7.5
 49
6.0
 74
     0
 49
-1.5
 74
     0
  0
LTYPE
  5
F109BD
330
247
100
AcDbSymbolTableRecord
100
AcDbLinetypeTableRecord
  2
AM_ISO08W050
 70
     0
  3
____ . ____ . ____ . ____ . ____ . ____ . ____
 72
    65
 73
     4
 40
18.0
 49
12.0
 74
     0
 49
-1.5
 74
     0
 49
3.0
 74
     0
 49
-1.5
 74
     0
  0
LTYPE
  5
F109BE
330
247
100
AcDbSymbolTableRecord
100
AcDbLinetypeTableRecord
  2
AM_ISO09W050
 70
     0
  3
_____ . . _____ . . _____ . . ____ .. ____
 72
    65
 73
     6
 40
22.5
 49
12.0
 74
     0
 49
-1.5
 74
     0
 49
3.0
 74
     0
 49
-1.5
 74
     0
 49
3.0
 74
     0
 49
-1.5
 74
     0
  0
LTYPE
  5
F109BF
330
247
100
AcDbSymbolTableRecord
100
AcDbLinetypeTableRecord
  2
Amconstr
 70
     0
  3
_______________________
 72
    65
 73
     2
 40
9999.0
 49
9999.0
 74
     0
 49
0.0
 74
     0
  0
LTYPE
  5
F109C0
330
247
100
AcDbSymbolTableRecord
100
AcDbLinetypeTableRecord
  2
AM_ISO08W050x2
 70
     0
  3
__ . __ . __ . __ . __ . __
 72
    65
 73
     4
 40
9.0
 49
6.0
 74
     0
 49
-0.75
 74
     0
 49
1.5
 74
     0
 49
-0.75
 74
     0
  0
LTYPE
  5
F109C1
330
247
100
AcDbSymbolTableRecord
100
AcDbLinetypeTableRecord
  2
AM_ISO02W050x2
 70
     0
  3
 _ _ _ _ _ _ _ _ _ _ _ _
 72
    65
 73
     2
 40
3.75
 49
3.0
 74
     0
 49
-0.75
 74
     0
  0
LTYPE
  5
F109C4
330
247
100
AcDbSymbolTableRecord
100
AcDbLinetypeTableRecord
  2
Amzigzag
 70
     0
  3
/\/-/\/-/\/-/\/-/\/-/\/
 72
    65
 73
     2
 40
11.0001
 49
0.0001
 74
     4
 75
   136
340
F109C3
 46
0.04
 50
0.0
 44
0.0
 45
0.0
 49
-11.0
 74
     0
  0
LTYPE
  5
F109C5
330
247
100
AcDbSymbolTableRecord
100
AcDbLinetypeTableRecord
  2
Amzigzag2
 70
     0
  3
/\/-/\/-/\/-/\/-/\/-/\/
 72
    65
 73
     2
 40
0.4401
 49
0.0001
 74
     4
 75
   136
340
F109C3
 46
0.0016
 50
0.0
 44
0.0
 45
0.0
 49
-0.4400000000000001
 74
     0
  0
LTYPE
  5
F109D3
330
247
100
AcDbSymbolTableRecord
100
AcDbLinetypeTableRecord
  2
ACANSTGB
 70
     0
  3
__ . . __ . .
 72
    65
 73
     6
 40
0.35433070866
 49
0.15748031496
 74
     0
 49
-0.03937007874
 74
     0
 49
0.03937007874
 74
     0
 49
-0.03937007874
 74
     0
 49
0.03937007874
 74
     0
 49
-0.03937007874
 74
     0
  0
LTYPE
  5
F109D4
330
247
100
AcDbSymbolTableRecord
100
AcDbLinetypeTableRecord
  2
ACANSTGL
 70
     0
  3
_ _ _ _ _
 72
    65
 73
     2
 40
0.11811023622
 49
0.07874015748
 74
     0
 49
-0.03937007874
 74
     0
  0
ENDTAB
  0
TABLE
  2
LAYER
  5
244
330
0
100
AcDbSymbolTable
 70
     6
  0
LAYER
  5
252
102
{ACAD_XDICTIONARY
360
F10B04
102
}
330
244
100
AcDbSymbolTableRecord
100
AcDbLayerTableRecord
  2
0
 70
     0
 62
     7
  6
Continuous
370
     0
390
19
  0
LAYER
  5
23F
102
{ACAD_XDICTIONARY
360
F10B06
102
}
330
244
100
AcDbSymbolTableRecord
100
AcDbLayerTableRecord
  2
Bemassung
 70
     0
 62
     7
  6
Continuous
370
     0
390
19
  0
LAYER
  5
240
102
{ACAD_XDICTIONARY
360
F10B08
102
}
330
244
100
AcDbSymbolTableRecord
100
AcDbLayerTableRecord
  2
Rahmen
 70
     0
 62
     7
  6
Continuous
370
     0
390
19
  0
LAYER
  5
241
102
{ACAD_XDICTIONARY
360
F10B0A
102
}
330
244
100
AcDbSymbolTableRecord
100
AcDbLayerTableRecord
  2
Geo
 70
     0
 62
     7
  6
Continuous
370
     0
390
19
  0
LAYER
  5
33A
330
244
100
AcDbSymbolTableRecord
100
AcDbLayerTableRecord
  2
Defpoints
 70
     0
 62
     7
  6
Continuous
290
     0
370
    -3
390
19
  0
LAYER
  5
57E
102
{ACAD_XDICTIONARY
360
F10B0C
102
}
330
244
100
AcDbSymbolTableRecord
100
AcDbLayerTableRecord
  2
Text
 70
     0
 62
     7
  6
Continuous
370
     0
390
19
1001
AcAecLayerStandard
1000

1000

  0
ENDTAB
  0
TABLE
  2
STYLE
  5
245
330
0
100
AcDbSymbolTable
 70
     5
  0
STYLE
  5
253
330
245
100
AcDbSymbolTableRecord
100
AcDbTextStyleTableRecord
  2
Standard
 70
     0
 40
0.0
 41
1.0
 50
0.0
 71
     0
 42
0.2
  3
Arial
  4

1001
ACAD
1000
Arial
1071
        0
  0
STYLE
  5
132
330
245
100
AcDbSymbolTableRecord
100
AcDbTextStyleTableRecord
  2
Beschriftung
 70
     0
 40
0.0
 41
1.0
 50
0.0
 71
     0
 42
0.2
  3
Arial
  4

1001
ACAD
1000
Arial
1071
        0
1001
AcadAnnotative
1000
AnnotativeData
1070
     1
1070
     1
  0
STYLE
  5
F109C3
330
245
100
AcDbSymbolTableRecord
100
AcDbTextStyleTableRecord
  2

 70
     1
 40
0.0
 41
1.0
 50
0.0
 71
     0
 42
0.2
  3
genltshp.shx
  4

  0
STYLE
  5
F109D1
330
245
100
AcDbSymbolTableRecord
100
AcDbTextStyleTableRecord
  2
ACANSTS
 70
     0
 40
1.0
 41
1.0
 50
0.0
 71
     0
 42
0.2
  3
romans.shx
  4

  0
STYLE
  5
F109D2
330
245
100
AcDbSymbolTableRecord
100
AcDbTextStyleTableRecord
  2
ACANSGDT
 70
     0
 40
0.0
 41
1.0
 50
0.0
 71
     0
 42
0.2
  3
amgdt.shx
  4

  0
ENDTAB
  0
TABLE
  2
VIEW
  5
248
330
0
100
AcDbSymbolTable
 70
     0
  0
ENDTAB
  0
TABLE
  2
UCS
  5
249
330
0
100
AcDbSymbolTable
 70
     0
  0
ENDTAB
  0
TABLE
  2
APPID
  5
24B
330
0
100
AcDbSymbolTable
 70
    28
  0
APPID
  5
254
330
24B
100
AcDbSymbolTableRecord
100
AcDbRegAppTableRecord
  2
ACAD
 70
     0
  0
APPID
  5
26C
330
24B
100
AcDbSymbolTableRecord
100
AcDbRegAppTableRecord
  2
VD_INVISIBLE_NOT_FOR_READ
 70
     0
  0
APPID
  5
26D
330
24B
100
AcDbSymbolTableRecord
100
AcDbRegAppTableRecord
  2
VD_TEMPHATCH
 70
     0
  0
APPID
  5
26E
330
24B
100
AcDbSymbolTableRecord
100
AcDbRegAppTableRecord
  2
VDEXTRAPARAM
 70
     0
  0
APPID
  5
26F
330
24B
100
AcDbSymbolTableRecord
100
AcDbRegAppTableRecord
  2
PE_URL
 70
     0
  0
APPID
  5
270
330
24B
100
AcDbSymbolTableRecord
100
AcDbRegAppTableRecord
  2
VD_UNKNOWN
 70
     0
  0
APPID
  5
28F
330
24B
100
AcDbSymbolTableRecord
100
AcDbRegAppTableRecord
  2
AcadAnnotative
 70
     0
  0
APPID
  5
290
330
24B
100
AcDbSymbolTableRecord
100
AcDbRegAppTableRecord
  2
ACAD_DSTYLE_DIMJAG
 70
     0
  0
APPID
  5
291
330
24B
100
AcDbSymbolTableRecord
100
AcDbRegAppTableRecord
  2
ACAD_DSTYLE_DIMTALN
 70
     0
  0
APPID
  5
293
330
24B
100
AcDbSymbolTableRecord
100
AcDbRegAppTableRecord
  2
ACAD_PSEXT
 70
     0
  0
APPID
  5
42A
330
24B
100
AcDbSymbolTableRecord
100
AcDbRegAppTableRecord
  2
ACAD_MLEADERVER
 70
     0
  0
APPID
  5
532
330
24B
100
AcDbSymbolTableRecord
100
AcDbRegAppTableRecord
  2
ACAD_EXEMPT_FROM_CAD_STANDARDS
 70
     0
  0
APPID
  5
57F
330
24B
100
AcDbSymbolTableRecord
100
AcDbRegAppTableRecord
  2
AcAecLayerStandard
 70
     0
  0
APPID
  5
F10956
330
24B
100
AcDbSymbolTableRecord
100
AcDbRegAppTableRecord
  2
MCAD_NO_VIS
 70
     0
  0
APPID
  5
F10957
330
24B
100
AcDbSymbolTableRecord
100
AcDbRegAppTableRecord
  2
ACAD_TEMP_GRAPHIC
 70
     0
  0
APPID
  5
F10980
330
24B
100
AcDbSymbolTableRecord
100
AcDbRegAppTableRecord
  2
AD_DRAW
 70
     0
  0
APPID
  5
F10983
330
24B
100
AcDbSymbolTableRecord
100
AcDbRegAppTableRecord
  2
ACATTRIBSERVICES
 70
     0
  0
APPID
  5
F1099C
330
24B
100
AcDbSymbolTableRecord
100
AcDbRegAppTableRecord
  2
DESIGNERASSEMBLIES
 70
     0
  0
APPID
  5
F109A1
330
24B
100
AcDbSymbolTableRecord
100
AcDbRegAppTableRecord
  2
ACADM_DIM_EDIT
 70
     0
  0
APPID
  5
F109A2
330
24B
100
AcDbSymbolTableRecord
100
AcDbRegAppTableRecord
  2
AMDT_DM_ADJ
 70
     0
  0
APPID
  5
F109BA
330
24B
100
AcDbSymbolTableRecord
100
AcDbRegAppTableRecord
  2
ACAD_DSTYLE_DIMBREAK
 70
     0
  0
APPID
  5
F109DB
330
24B
100
AcDbSymbolTableRecord
100
AcDbRegAppTableRecord
  2
GENIUS_GENSCREG_15
 70
     0
  0
APPID
  5
F109DC
330
24B
100
AcDbSymbolTableRecord
100
AcDbRegAppTableRecord
  2
GENIUS_GENOBJ-N-SDF_13
 70
     0
  0
APPID
  5
F109DD
330
24B
100
AcDbSymbolTableRecord
100
AcDbRegAppTableRecord
  2
GENIUS_GENODEF_13
 70
     0
  0
APPID
  5
F10B5D
330
24B
100
AcDbSymbolTableRecord
100
AcDbRegAppTableRecord
  2
ACAD_DSTYLE_DIMARC_LENGTH_SYMBOL
 70
     0
  0
APPID
  5
F10B5E
330
24B
100
AcDbSymbolTableRecord
100
AcDbRegAppTableRecord
  2
ACAD_DSTYLE_DIM_LINETYPE
 70
     0
  0
APPID
  5
F10B5F
330
24B
100
AcDbSymbolTableRecord
100
AcDbRegAppTableRecord
  2
ACAD_DSTYLE_DIM_EXT1_LINETYPE
 70
     0
  0
APPID
  5
F10B60
330
24B
100
AcDbSymbolTableRecord
100
AcDbRegAppTableRecord
  2
ACAD_DSTYLE_DIM_EXT2_LINETYPE
 70
     0
  0
ENDTAB
  0
TABLE
  2
DIMSTYLE
  5
24C
330
0
100
AcDbSymbolTable
 70
    10
100
AcDbDimStyleTable
 71
     2
340
27
340
269
  0
DIMSTYLE
105
269
330
24C
100
AcDbSymbolTableRecord
100
AcDbDimStyleTableRecord
  2
Standard
 70
     0
172
     1
174
     1
288
     1
340
253
342
23C
  0
DIMSTYLE
105
137
330
24C
100
AcDbSymbolTableRecord
100
AcDbDimStyleTableRecord
  2
Beschriftung
 70
     0
 41
2.5
 42
0.625
 44
1.25
 73
     0
 74
     0
 77
     1
140
2.5
147
0.625
172
     1
174
     1
271
     2
288
     1
340
253
342
23C
1001
AcadAnnotative
1000
AnnotativeData
1070
     1
1070
     1
1001
ACAD_DSTYLE_DIMJAG
1070
   388
1040
1.5
1001
ACAD_DSTYLE_DIMTALN
1070
   392
1070
     0
  0
DIMSTYLE
105
27
102
{ACAD_REACTORS
330
F10017
330
F10030
330
F10008
330
F1000D
330
F1001C
330
F10021
330
F1002B
102
}
330
24C
100
AcDbSymbolTableRecord
100
AcDbDimStyleTableRecord
  2
BEM-ISBE
 70
     0
 41
2.5
 42
0.625
 44
1.25
 48
0.000000001
 71
     1
 73
     0
 74
     0
 77
     1
140
2.5
146
0.5
147
0.625
171
     3
172
     1
179
     3
271
     3
272
     3
274
     3
340
253
342
23C
1001
ACAD_DSTYLE_DIMJAG
1070
   388
1040
1.5
1001
ACAD_DSTYLE_DIMTALN
1070
   392
1070
     1
  0
DIMSTYLE
105
F109B9
102
{ACAD_REACTORS
330
F109A9
102
}
330
24C
100
AcDbSymbolTableRecord
100
AcDbDimStyleTableRecord
  2
AM_ANSI
 70
     0
  4
mm
 41
0.12
 42
0.05
 43
0.5
 44
0.1
 47
0.1
 48
0.1
 78
     7
 79
     2
140
0.12
141
0.0
146
0.71
147
0.06
176
   256
177
   256
178
     2
274
     4
284
     7
340
253
371
    -1
372
    -1
1001
ACAD_DSTYLE_DIMJAG
1070
   388
1040
1.5
1001
ACAD_DSTYLE_DIMBREAK
1070
   391
1040
0.125
1001
ACAD_DSTYLE_DIMARC_LENGTH_SYMBOL
1070
   379
1070
     1
1001
ACAD_DSTYLE_DIM_LINETYPE
1070
   380
1005
256
1001
ACAD_DSTYLE_DIM_EXT1_LINETYPE
1070
   381
1005
256
1001
ACAD_DSTYLE_DIM_EXT2_LINETYPE
1070
   382
1005
256
  0
DIMSTYLE
105
F109C6
330
24C
100
AcDbSymbolTableRecord
100
AcDbDimStyleTableRecord
  2
AM_ANSI$3
 70
     0
  4
mm
 41
0.12
 42
0.05
 43
0.5
 44
0.1
 47
0.1
 48
0.1
 78
     7
 79
     2
140
0.12
141
0.0
146
0.71
147
0.06
176
   256
177
   256
178
     2
274
     4
284
     7
288
     1
289
     0
340
253
371
    -1
372
    -1
1001
ACAD_DSTYLE_DIMBREAK
1070
   391
1040
0.125
1001
ACAD_DSTYLE_DIMJAG
1070
   388
1040
1.5
1001
ACAD_DSTYLE_DIMARC_LENGTH_SYMBOL
1070
   379
1070
     1
1001
ACAD_DSTYLE_DIM_LINETYPE
1070
   380
1005
256
1001
ACAD_DSTYLE_DIM_EXT1_LINETYPE
1070
   381
1005
256
1001
ACAD_DSTYLE_DIM_EXT2_LINETYPE
1070
   382
1005
256
  0
DIMSTYLE
105
F109C7
330
24C
100
AcDbSymbolTableRecord
100
AcDbDimStyleTableRecord
  2
AM_ANSI$4
 70
     0
  4
mm
 41
0.12
 42
0.05
 43
0.5
 44
0.1
 47
0.1
 48
0.1
 78
     7
 79
     2
140
0.12
141
0.0
146
0.71
147
0.06
176
   256
177
   256
178
     2
274
     4
284
     7
288
     1
289
     0
340
253
371
    -1
372
    -1
1001
ACAD_DSTYLE_DIMBREAK
1070
   391
1040
0.125
1001
ACAD_DSTYLE_DIMJAG
1070
   388
1040
1.5
1001
ACAD_DSTYLE_DIMARC_LENGTH_SYMBOL
1070
   379
1070
     1
1001
ACAD_DSTYLE_DIM_LINETYPE
1070
   380
1005
256
1001
ACAD_DSTYLE_DIM_EXT1_LINETYPE
1070
   381
1005
256
1001
ACAD_DSTYLE_DIM_EXT2_LINETYPE
1070
   382
1005
256
  0
DIMSTYLE
105
F109C8
330
24C
100
AcDbSymbolTableRecord
100
AcDbDimStyleTableRecord
  2
AM_ANSI$7
 70
     0
  4
mm
 41
0.12
 42
0.05
 43
0.5
 44
0.1
 47
0.1
 48
0.1
 78
     7
 79
     2
140
0.12
141
0.0
146
0.71
147
0.06
176
   256
177
   256
178
     2
274
     4
284
     7
340
253
371
    -1
372
    -1
1001
ACAD_DSTYLE_DIMBREAK
1070
   391
1040
0.125
1001
ACAD_DSTYLE_DIMJAG
1070
   388
1040
1.5
1001
ACAD_DSTYLE_DIMARC_LENGTH_SYMBOL
1070
   379
1070
     1
1001
ACAD_DSTYLE_DIM_LINETYPE
1070
   380
1005
256
1001
ACAD_DSTYLE_DIM_EXT1_LINETYPE
1070
   381
1005
256
1001
ACAD_DSTYLE_DIM_EXT2_LINETYPE
1070
   382
1005
256
  0
DIMSTYLE
105
F109C9
330
24C
100
AcDbSymbolTableRecord
100
AcDbDimStyleTableRecord
  2
AM_ANSI$SF
 70
     0
  4
mm
 41
0.12
 42
0.05
 43
0.5
 44
0.1
 47
0.1
 48
0.1
 75
     1
 76
     1
 78
     7
 79
     2
140
0.12
141
0.0
146
0.71
147
0.06
176
   256
177
   256
178
     2
274
     4
284
     7
340
253
371
    -1
372
    -1
1001
ACAD_DSTYLE_DIMBREAK
1070
   391
1040
0.125
1001
ACAD_DSTYLE_DIMJAG
1070
   388
1040
1.5
1001
ACAD_DSTYLE_DIMARC_LENGTH_SYMBOL
1070
   379
1070
     1
1001
ACAD_DSTYLE_DIM_LINETYPE
1070
   380
1005
256
1001
ACAD_DSTYLE_DIM_EXT1_LINETYPE
1070
   381
1005
256
1001
ACAD_DSTYLE_DIM_EXT2_LINETYPE
1070
   382
1005
256
  0
DIMSTYLE
105
F109CE
330
24C
100
AcDbSymbolTableRecord
100
AcDbDimStyleTableRecord
  2
AM_ANSI$SH
 70
     0
  4
mm
 41
0.12
 42
0.05
 43
0.5
 44
0.1
 47
0.1
 48
0.1
 75
     1
 76
     1
 78
     7
 79
     2
140
0.12
141
0.0
146
0.71
147
0.06
173
     1
176
   256
177
   256
178
     2
274
     4
284
     7
340
253
343
F109CA
371
    -1
372
    -1
1001
ACAD_DSTYLE_DIMBREAK
1070
   391
1040
0.125
1001
ACAD_DSTYLE_DIMJAG
1070
   388
1040
1.5
1001
ACAD_DSTYLE_DIMARC_LENGTH_SYMBOL
1070
   379
1070
     1
1001
ACAD_DSTYLE_DIM_LINETYPE
1070
   380
1005
256
1001
ACAD_DSTYLE_DIM_EXT1_LINETYPE
1070
   381
1005
256
1001
ACAD_DSTYLE_DIM_EXT2_LINETYPE
1070
   382
1005
256
  0
ENDTAB
  0
TABLE
  2
BLOCK_RECORD
  5
243
330
0
100
AcDbSymbolTable
 70
    16
  0
BLOCK_RECORD
  5
261
330
243
100
AcDbSymbolTableRecord
100
AcDbBlockTableRecord
  2
*Model_Space
340
FD0
  0
BLOCK_RECORD
  5
25D
330
243
100
AcDbSymbolTableRecord
100
AcDbBlockTableRecord
  2
*Paper_Space
340
FD1
  0
BLOCK_RECORD
  5
265
330
243
100
AcDbSymbolTableRecord
100
AcDbBlockTableRecord
  2
*Paper_Space0
340
0
  0
BLOCK_RECORD
  5
23C
330
243
100
AcDbSymbolTableRecord
100
AcDbBlockTableRecord
  2
VDDIM_DEFAULT
340
0
102
{BLKREFS
331
F10038
331
F10039
331
F10056
331
F10057
331
F10074
331
F10075
331
F10AC3
331
F10AC4
331
F10ACE
331
F10ACF
331
F10AD7
331
F10AD8
331
F10AE2
331
F10AE3
331
F10AEB
331
F10AEC
331
F10AF4
331
F10AF5
331
F10AFD
331
F10AFE
102
}
  0
BLOCK_RECORD
  5
23E
330
243
100
AcDbSymbolTableRecord
100
AcDbBlockTableRecord
  2
VDDIM_NONE
340
0
  0
BLOCK_RECORD
  5
F10002
330
243
100
AcDbSymbolTableRecord
100
AcDbBlockTableRecord
  2
*D3
340
0
  0
BLOCK_RECORD
  5
F10016
330
243
100
AcDbSymbolTableRecord
100
AcDbBlockTableRecord
  2
*D4
340
0
  0
BLOCK_RECORD
  5
F10020
330
243
100
AcDbSymbolTableRecord
100
AcDbBlockTableRecord
  2
*D5
340
0
  0
BLOCK_RECORD
  5
F10025
330
243
100
AcDbSymbolTableRecord
100
AcDbBlockTableRecord
  2
*D6
340
0
  0
BLOCK_RECORD
  5
F1002A
330
243
100
AcDbSymbolTableRecord
100
AcDbBlockTableRecord
  2
*D7
340
0
  0
BLOCK_RECORD
  5
F1002F
330
243
100
AcDbSymbolTableRecord
100
AcDbBlockTableRecord
  2
*D8
340
0
  0
BLOCK_RECORD
  5
F10011
330
243
100
AcDbSymbolTableRecord
100
AcDbBlockTableRecord
  2
*D9
340
0
  0
BLOCK_RECORD
  5
F10007
330
243
100
AcDbSymbolTableRecord
100
AcDbBlockTableRecord
  2
*D10
340
0
  0
BLOCK_RECORD
  5
F1000C
330
243
100
AcDbSymbolTableRecord
100
AcDbBlockTableRecord
  2
*D11
340
0
  0
BLOCK_RECORD
  5
F1001B
330
243
100
AcDbSymbolTableRecord
100
AcDbBlockTableRecord
  2
*D12
340
0
  0
BLOCK_RECORD
  5
F109CA
330
243
100
AcDbSymbolTableRecord
100
AcDbBlockTableRecord
  2
GENAXEH
340
0
  0
ENDTAB
  0
ENDSEC
  0
SECTION
  2
BLOCKS
  0
BLOCK
  5
262
330
261
100
AcDbEntity
  8
0
100
AcDbBlockBegin
  2
*Model_Space
 70
     0
 10
0.0
 20
0.0
 30
0.0
  3
*Model_Space
  1

  0
ENDBLK
  5
263
330
261
100
AcDbEntity
  8
0
100
AcDbBlockEnd
  0
BLOCK
  5
25E
330
25D
100
AcDbEntity
 67
     1
  8
0
100
AcDbBlockBegin
  2
*Paper_Space
 70
     0
 10
0.0
 20
0.0
 30
0.0
  3
*Paper_Space
  1

  0
ENDBLK
  5
25F
330
25D
100
AcDbEntity
 67
     1
  8
0
100
AcDbBlockEnd
  0
BLOCK
  5
266
330
265
100
AcDbEntity
  8
0
100
AcDbBlockBegin
  2
*Paper_Space0
 70
     0
 10
0.0
 20
0.0
 30
0.0
  3
*Paper_Space0
  1

  0
VIEWPORT
  5
296
102
{ACAD_XDICTIONARY
360
F10B1D
102
}
330
265
100
AcDbEntity
  8
0
 60
     1
100
AcDbViewport
 10
0.0
 20
0.0
 30
0.0
 40
10.0
 41
10.0
 69
     0
 12
0.0
 22
0.0
 13
0.0
 23
0.0
 14
1.0
 24
1.0
 15
0.0
 25
0.0
 16
0.0
 26
0.0
 36
1.0
 17
0.0
 27
0.0
 37
0.0
 42
0.0
 43
0.0
 44
0.0
 45
10.0
 50
0.0
 51
0.0000000000007958
 72
   100
 90
   163872
  1

281
     0
 71
     0
 74
     0
110
0.0
120
0.0
130
0.0
111
1.0
121
0.0
131
0.0
112
0.0
122
1.0
132
0.0
 79
     0
146
0.0
1001
VD_INVISIBLE_NOT_FOR_READ
1000
VD_INVISIBLE_NOT_FOR_READ
  0
VIEWPORT
  5
297
102
{ACAD_XDICTIONARY
360
F10B1F
102
}
330
265
100
AcDbEntity
  8
0
 60
     1
100
AcDbViewport
 10
0.0
 20
0.0
 30
0.0
 40
10.0
 41
10.0
 69
     0
 12
0.0
 22
0.0
 13
0.0
 23
0.0
 14
1.0
 24
1.0
 15
0.0
 25
0.0
 16
0.0
 26
0.0
 36
1.0
 17
0.0
 27
0.0
 37
0.0
 42
0.0
 43
0.0
 44
0.0
 45
10.0
 50
0.0
 51
0.0000000000007958
 72
   100
 90
   163872
  1

281
     0
 71
     0
 74
     0
110
0.0
120
0.0
130
0.0
111
1.0
121
0.0
131
0.0
112
0.0
122
1.0
132
0.0
 79
     0
146
0.0
1001
VD_INVISIBLE_NOT_FOR_READ
1000
VD_INVISIBLE_NOT_FOR_READ
  0
ENDBLK
  5
267
330
265
100
AcDbEntity
  8
0
100
AcDbBlockEnd
  0
BLOCK
  5
28B
330
23C
100
AcDbEntity
  8
0
100
AcDbBlockBegin
  2
VDDIM_DEFAULT
 70
     0
 10
0.0
 20
0.0
 30
0.0
  3
VDDIM_DEFAULT
  1

  0
LWPOLYLINE
  5
23D
330
23C
100
AcDbEntity
  8
0
  6
Continuous
 62
     0
100
AcDbPolyline
 90
        4
 70
     0
 43
0.0
 10
0.0
 20
0.0
 10
-1.0
 20
-0.1665
 10
-1.0
 20
0.1665
 10
0.0
 20
0.0
1001
VDEXTRAPARAM
1071
        1
1071
        0
1071
        0
1040
1.0
1000

1000

1040
0.0
1040
0.0
  0
HATCH
  5
292
330
23C
100
AcDbEntity
  8
0
  6
Continuous
 62
     0
100
AcDbHatch
 10
0.0
 20
0.0
 30
0.0
210
0.0
220
0.0
230
1.0
  2
SOLID
 70
     1
 71
     0
 91
        1
 92
        2
 72
     0
 73
     1
 93
        3
 10
0.0
 20
0.0
 10
-1.0
 20
-0.1665
 10
-1.0
 20
0.1665
 97
        0
 75
     0
 76
     1
 98
        1
 10
0.0
 20
0.0
1001
VDEXTRAPARAM
1071
        1
1071
        0
1071
        0
1040
1.0
1000

1000

1040
0.0
1040
0.0
1001
VD_TEMPHATCH
1000
VD_TEMPHATCH
  0
ENDBLK
  5
28C
330
23C
100
AcDbEntity
  8
0
100
AcDbBlockEnd
  0
BLOCK
  5
28D
330
23E
100
AcDbEntity
  8
0
100
AcDbBlockBegin
  2
VDDIM_NONE
 70
     0
 10
0.0
 20
0.0
 30
0.0
  3
VDDIM_NONE
  1

  0
ENDBLK
  5
28E
330
23E
100
AcDbEntity
  8
0
100
AcDbBlockEnd
  0
BLOCK
  5
F10034
330
F10002
100
AcDbEntity
  8
0
100
AcDbBlockBegin
  2
*D3
 70
     1
 10
0.0
 20
0.0
 30
0.0
  3
*D3
  1

  0
LINE
  5
F10035
330
F10002
100
AcDbEntity
  8
Bemassung
 62
     0
370
    -2
100
AcDbLine
 10
-87.44273127753301
 20
-9.911894273127609
 30
0.0
 11
-87.44273127753301
 21
55.0881057268724
 31
0.0
  0
LINE
  5
F10036
330
F10002
100
AcDbEntity
  8
Bemassung
 62
     0
370
    -2
100
AcDbLine
 10
-87.34273127753299
 20
7.588105726872389
 30
0.0
 11
-87.34273127753299
 21
19.9647577092512
 31
0.0
  0
LINE
  5
F10037
330
F10002
100
AcDbEntity
  8
Bemassung
 62
     0
370
    -2
100
AcDbLine
 10
-87.44273127753301
 20
17.9647577092512
 30
0.0
 11
-87.34273127753299
 21
17.9647577092512
 31
0.0
  0
INSERT
  5
F10038
330
F10002
100
AcDbEntity
  8
Bemassung
 62
     0
370
    -2
100
AcDbBlockReference
  2
VDDIM_DEFAULT
 10
-87.44273127753301
 20
17.9647577092512
 30
0.0
 41
2.5
 42
2.5
 43
2.5
  0
INSERT
  5
F10039
330
F10002
100
AcDbEntity
  8
Bemassung
 62
     0
370
    -2
100
AcDbBlockReference
  2
VDDIM_DEFAULT
 10
-87.34273127753299
 20
17.9647577092512
 30
0.0
 41
2.5
 42
2.5
 43
2.5
 50
180.0
  0
MTEXT
  5
F1003A
102
{ACAD_XDICTIONARY
360
F10005
102
}
330
F10002
100
AcDbEntity
  8
Bemassung
 62
     0
100
AcDbMText
 10
-87.89867841409691
 20
17.2980910425845
 30
0.0
 40
2.5
 41
0.0
 71
     8
 72
     1
  1
\A1;0.1 x 45\U+00B0
 73
     1
 44
1.0
1001
ACAD
1000
MTEXTBEGIN
1070
    73
1070
     1
1070
    44
1040
1.0
1070
    74
1070
     0
1000
MTEXTEND
  0
POINT
  5
F1003B
330
F10002
100
AcDbEntity
  8
Bemassung
 62
     0
100
AcDbPoint
 10
-87.44273127753301
 20
-9.911894273127609
 30
0.0
  0
POINT
  5
F1003C
330
F10002
100
AcDbEntity
  8
Bemassung
 62
     0
100
AcDbPoint
 10
-87.34273127753299
 20
7.588105726872389
 30
0.0
  0
ENDBLK
  5
F1003D
330
F10002
100
AcDbEntity
  8
0
100
AcDbBlockEnd
  0
BLOCK
  5
F1003E
330
F10016
100
AcDbEntity
  8
0
100
AcDbBlockBegin
  2
*D4
 70
     1
 10
0.0
 20
0.0
 30
0.0
  3
*D4
  1

  0
LINE
  5
F10AD4
330
F10016
100
AcDbEntity
  8
Bemassung
 62
     0
370
    -2
100
AcDbLine
 10
-11.32710031629895
 20
0.3536916128512129
 30
0.0
 11
-11.32710031629895
 21
17.28115953368277
 31
0.0
  0
LINE
  5
F10AD5
330
F10016
100
AcDbEntity
  8
Bemassung
 62
     0
370
    -2
100
AcDbLine
 10
24.67289968370105
 20
-0.1463083871487862
 30
0.0
 11
24.67289968370105
 21
17.28115953368277
 31
0.0
  0
LINE
  5
F10AD6
330
F10016
100
AcDbEntity
  8
Bemassung
 62
     0
370
    -2
100
AcDbLine
 10
-8.827100316298951
 20
16.03115953368277
 30
0.0
 11
22.17289968370105
 21
16.03115953368277
 31
0.0
  0
INSERT
  5
F10AD7
330
F10016
100
AcDbEntity
  8
Bemassung
 62
     0
370
    -2
100
AcDbBlockReference
  2
VDDIM_DEFAULT
 10
-11.32710031629895
 20
16.03115953368277
 30
0.0
 41
2.5
 42
2.5
 43
2.5
 50
180.0
  0
INSERT
  5
F10AD8
330
F10016
100
AcDbEntity
  8
Bemassung
 62
     0
370
    -2
100
AcDbBlockReference
  2
VDDIM_DEFAULT
 10
24.67289968370105
 20
16.03115953368277
 30
0.0
 41
2.5
 42
2.5
 43
2.5
  0
MTEXT
  5
F10AD9
330
F10016
100
AcDbEntity
  8
Bemassung
 62
     0
100
AcDbMText
 10
6.033281580237144
 20
16.65615953368277
 30
0.0
 40
2.5
 41
0.0
 71
     8
 72
     1
  1
\A1;36
 73
     1
 44
1.0
1001
ACAD
1000
MTEXTBEGIN
1070
    73
1070
     1
1070
    44
1040
1.0
1070
    74
1070
     0
1000
MTEXTEND
  0
POINT
  5
F10ADA
330
F10016
100
AcDbEntity
  8
Defpoints
 62
     0
100
AcDbPoint
 10
-11.32710031629895
 20
-0.2713083871487871
 30
0.0
  0
POINT
  5
F10ADB
330
F10016
100
AcDbEntity
  8
Defpoints
 62
     0
100
AcDbPoint
 10
24.67289968370105
 20
-0.7713083871487863
 30
0.0
  0
POINT
  5
F10ADC
330
F10016
100
AcDbEntity
  8
Defpoints
 62
     0
100
AcDbPoint
 10
24.67289968370105
 20
16.03115953368277
 30
0.0
  0
ENDBLK
  5
F10047
330
F10016
100
AcDbEntity
  8
0
100
AcDbBlockEnd
  0
BLOCK
  5
F10048
330
F10020
100
AcDbEntity
  8
0
100
AcDbBlockBegin
  2
*D5
 70
     1
 10
0.0
 20
0.0
 30
0.0
  3
*D5
  1

  0
LINE
  5
F10AE8
330
F10020
100
AcDbEntity
  8
Bemassung
 62
     0
370
    -2
100
AcDbLine
 10
-18.32710031629895
 20
-6.396308387148787
 30
0.0
 11
-18.32710031629895
 21
-17.53877551182061
 31
0.0
  0
LINE
  5
F10AE9
330
F10020
100
AcDbEntity
  8
Bemassung
 62
     0
370
    -2
100
AcDbLine
 10
-32.32710031629896
 20
-3.896308387148785
 30
0.0
 11
-32.32710031629896
 21
-17.53877551182061
 31
0.0
  0
LINE
  5
F10AEA
330
F10020
100
AcDbEntity
  8
Bemassung
 62
     0
370
    -2
100
AcDbLine
 10
-20.82710031629895
 20
-16.28877551182061
 30
0.0
 11
-29.82710031629896
 21
-16.28877551182061
 31
0.0
  0
INSERT
  5
F10AEB
330
F10020
100
AcDbEntity
  8
Bemassung
 62
     0
370
    -2
100
AcDbBlockReference
  2
VDDIM_DEFAULT
 10
-18.32710031629895
 20
-16.28877551182061
 30
0.0
 41
2.5
 42
2.5
 43
2.5
  0
INSERT
  5
F10AEC
330
F10020
100
AcDbEntity
  8
Bemassung
 62
     0
370
    -2
100
AcDbBlockReference
  2
VDDIM_DEFAULT
 10
-32.32710031629896
 20
-16.28877551182061
 30
0.0
 41
2.5
 42
2.5
 43
2.5
 50
180.0
  0
MTEXT
  5
F10AED
330
F10020
100
AcDbEntity
  8
Bemassung
 62
     0
100
AcDbMText
 10
-26.21552445561758
 20
-15.66377551182061
 30
0.0
 40
2.5
 41
0.0
 71
     8
 72
     1
  1
\A1;14
 73
     1
 44
1.0
1001
ACAD
1000
MTEXTBEGIN
1070
    73
1070
     1
1070
    44
1040
1.0
1070
    74
1070
     0
1000
MTEXTEND
  0
POINT
  5
F10AEE
330
F10020
100
AcDbEntity
  8
Defpoints
 62
     0
100
AcDbPoint
 10
-18.32710031629895
 20
-5.771308387148787
 30
0.0
  0
POINT
  5
F10AEF
330
F10020
100
AcDbEntity
  8
Defpoints
 62
     0
100
AcDbPoint
 10
-32.32710031629896
 20
-3.271308387148785
 30
0.0
  0
POINT
  5
F10AF0
330
F10020
100
AcDbEntity
  8
Defpoints
 62
     0
100
AcDbPoint
 10
-32.32710031629896
 20
-16.28877551182061
 30
0.0
  0
ENDBLK
  5
F10051
330
F10020
100
AcDbEntity
  8
0
100
AcDbBlockEnd
  0
BLOCK
  5
F10052
330
F10025
100
AcDbEntity
  8
0
100
AcDbBlockBegin
  2
*D6
 70
     1
 10
0.0
 20
0.0
 30
0.0
  3
*D6
  1

  0
LINE
  5
F10053
330
F10025
100
AcDbEntity
  8
Bemassung
 62
     0
370
    -2
100
AcDbLine
 10
-81.142731277533
 20
2.58810572687239
 30
0.0
 11
-81.142731277533
 21
-9.911894273127618
 31
0.0
  0
LINE
  5
F10054
330
F10025
100
AcDbEntity
  8
Bemassung
 62
     0
370
    -2
100
AcDbLine
 10
-87.44273127753301
 20
-9.911894273127609
 30
0.0
 11
-87.44273127753301
 21
55.0881057268724
 31
0.0
  0
LINE
  5
F10055
330
F10025
100
AcDbEntity
  8
Bemassung
 62
     0
370
    -2
100
AcDbLine
 10
-81.142731277533
 20
-7.91189427312762
 30
0.0
 11
-87.44273127753301
 21
-7.91189427312762
 31
0.0
  0
INSERT
  5
F10056
330
F10025
100
AcDbEntity
  8
Bemassung
 62
     0
370
    -2
100
AcDbBlockReference
  2
VDDIM_DEFAULT
 10
-81.142731277533
 20
-7.91189427312762
 30
0.0
 41
2.5
 42
2.5
 43
2.5
 50
180.0
  0
INSERT
  5
F10057
330
F10025
100
AcDbEntity
  8
Bemassung
 62
     0
370
    -2
100
AcDbBlockReference
  2
VDDIM_DEFAULT
 10
-87.44273127753301
 20
-7.91189427312762
 30
0.0
 41
2.5
 42
2.5
 43
2.5
  0
MTEXT
  5
F10058
102
{ACAD_XDICTIONARY
360
F10028
102
}
330
F10025
100
AcDbEntity
  8
Bemassung
 62
     0
100
AcDbMText
 10
-70.292896374608
 20
-7.24522760646095
 30
0.0
 40
2.5
 41
0.0
 71
     8
 72
     1
  1
\A1;6.3 L\U+00E4nge 2.Kern
 73
     1
 44
1.0
1001
ACAD
1000
MTEXTBEGIN
1070
    73
1070
     1
1070
    44
1040
1.0
1070
    74
1070
     0
1000
MTEXTEND
  0
POINT
  5
F10059
330
F10025
100
AcDbEntity
  8
Bemassung
 62
     0
100
AcDbPoint
 10
-81.142731277533
 20
2.58810572687239
 30
0.0
  0
POINT
  5
F1005A
330
F10025
100
AcDbEntity
  8
Bemassung
 62
     0
100
AcDbPoint
 10
-87.44273127753301
 20
-9.911894273127609
 30
0.0
  0
ENDBLK
  5
F1005B
330
F10025
100
AcDbEntity
  8
0
100
AcDbBlockEnd
  0
BLOCK
  5
F1005C
330
F1002A
100
AcDbEntity
  8
0
100
AcDbBlockBegin
  2
*D7
 70
     1
 10
0.0
 20
0.0
 30
0.0
  3
*D7
  1

  0
LINE
  5
F10AF1
330
F1002A
100
AcDbEntity
  8
Bemassung
 62
     0
370
    -2
100
AcDbLine
 10
24.67289968370105
 20
-0.1463083871487862
 30
0.0
 11
24.67289968370105
 21
27.08263189376641
 31
0.0
  0
LINE
  5
F10AF2
330
F1002A
100
AcDbEntity
  8
Bemassung
 62
     0
370
    -2
100
AcDbLine
 10
-32.32710031629896
 20
-2.646308387148785
 30
0.0
 11
-32.32710031629896
 21
27.08263189376641
 31
0.0
  0
LINE
  5
F10AF3
330
F1002A
100
AcDbEntity
  8
Bemassung
 62
     0
370
    -2
100
AcDbLine
 10
22.17289968370105
 20
25.83263189376641
 30
0.0
 11
-29.82710031629896
 21
25.83263189376641
 31
0.0
  0
INSERT
  5
F10AF4
330
F1002A
100
AcDbEntity
  8
Bemassung
 62
     0
370
    -2
100
AcDbBlockReference
  2
VDDIM_DEFAULT
 10
24.67289968370105
 20
25.83263189376641
 30
0.0
 41
2.5
 42
2.5
 43
2.5
  0
INSERT
  5
F10AF5
330
F1002A
100
AcDbEntity
  8
Bemassung
 62
     0
370
    -2
100
AcDbBlockReference
  2
VDDIM_DEFAULT
 10
-32.32710031629896
 20
25.83263189376641
 30
0.0
 41
2.5
 42
2.5
 43
2.5
 50
180.0
  0
MTEXT
  5
F10AF6
330
F1002A
100
AcDbEntity
  8
Bemassung
 62
     0
100
AcDbMText
 10
-4.811576131290259
 20
26.45763189376641
 30
0.0
 40
2.5
 41
0.0
 71
     8
 72
     1
  1
\A1;57
 73
     1
 44
1.0
1001
ACAD
1000
MTEXTBEGIN
1070
    73
1070
     1
1070
    44
1040
1.0
1070
    74
1070
     0
1000
MTEXTEND
  0
POINT
  5
F10AF7
330
F1002A
100
AcDbEntity
  8
Defpoints
 62
     0
100
AcDbPoint
 10
24.67289968370105
 20
-0.7713083871487863
 30
0.0
  0
POINT
  5
F10AF8
330
F1002A
100
AcDbEntity
  8
Defpoints
 62
     0
100
AcDbPoint
 10
-32.32710031629896
 20
-3.271308387148785
 30
0.0
  0
POINT
  5
F10AF9
330
F1002A
100
AcDbEntity
  8
Defpoints
 62
     0
100
AcDbPoint
 10
-32.32710031629896
 20
25.83263189376641
 30
0.0
  0
ENDBLK
  5
F10065
330
F1002A
100
AcDbEntity
  8
0
100
AcDbBlockEnd
  0
BLOCK
  5
F10066
330
F1002F
100
AcDbEntity
  8
0
100
AcDbBlockBegin
  2
*D8
 70
     1
 10
0.0
 20
0.0
 30
0.0
  3
*D8
  1

  0
LINE
  5
F10AFA
330
F1002F
100
AcDbEntity
  8
Bemassung
 62
     0
370
    -2
100
AcDbLine
 10
-32.32710031629896
 20
-3.896308387148786
 30
0.0
 11
-32.32710031629896
 21
-26.05830863333173
 31
0.0
  0
LINE
  5
F10AFB
330
F1002F
100
AcDbEntity
  8
Bemassung
 62
     0
370
    -2
100
AcDbLine
 10
-13.32710031629895
 20
-1.596308387148796
 30
0.0
 11
-13.32710031629895
 21
-26.05830863333173
 31
0.0
  0
LINE
  5
F10AFC
330
F1002F
100
AcDbEntity
  8
Bemassung
 62
     0
370
    -2
100
AcDbLine
 10
-29.82710031629896
 20
-24.80830863333173
 30
0.0
 11
-15.82710031629895
 21
-24.80830863333173
 31
0.0
  0
INSERT
  5
F10AFD
330
F1002F
100
AcDbEntity
  8
Bemassung
 62
     0
370
    -2
100
AcDbBlockReference
  2
VDDIM_DEFAULT
 10
-32.32710031629896
 20
-24.80830863333173
 30
0.0
 41
2.5
 42
2.5
 43
2.5
 50
180.0
  0
INSERT
  5
F10AFE
330
F1002F
100
AcDbEntity
  8
Bemassung
 62
     0
370
    -2
100
AcDbBlockReference
  2
VDDIM_DEFAULT
 10
-13.32710031629895
 20
-24.80830863333173
 30
0.0
 41
2.5
 42
2.5
 43
2.5
  0
MTEXT
  5
F10AFF
330
F1002F
100
AcDbEntity
  8
Bemassung
 62
     0
100
AcDbMText
 10
-23.53009791068917
 20
-24.18330863333173
 30
0.0
 40
2.5
 41
0.0
 71
     8
 72
     1
  1
\A1;19
 73
     1
 44
1.0
1001
ACAD
1000
MTEXTBEGIN
1070
    73
1070
     1
1070
    44
1040
1.0
1070
    74
1070
     0
1000
MTEXTEND
  0
POINT
  5
F10B00
330
F1002F
100
AcDbEntity
  8
Defpoints
 62
     0
100
AcDbPoint
 10
-32.32710031629896
 20
-3.271308387148786
 30
0.0
  0
POINT
  5
F10B01
330
F1002F
100
AcDbEntity
  8
Defpoints
 62
     0
100
AcDbPoint
 10
-13.32710031629895
 20
-0.9713083871487961
 30
0.0
  0
POINT
  5
F10B02
330
F1002F
100
AcDbEntity
  8
Defpoints
 62
     0
100
AcDbPoint
 10
-13.32710031629895
 20
-24.80830863333173
 30
0.0
  0
ENDBLK
  5
F1006F
330
F1002F
100
AcDbEntity
  8
0
100
AcDbBlockEnd
  0
BLOCK
  5
F10070
330
F10011
100
AcDbEntity
  8
0
100
AcDbBlockBegin
  2
*D9
 70
     1
 10
0.0
 20
0.0
 30
0.0
  3
*D9
  1

  0
ARC
  5
F10071
330
F10011
100
AcDbEntity
  8
Bemassung
 62
     0
370
    -2
100
AcDbCircle
 10
-66.442731277533
 20
8.088105726872388
 30
0.0
 40
28.4325393483544
100
AcDbArc
 50
0.0
 51
30.0000000000001
  0
LINE
  5
F10072
330
F10011
100
AcDbEntity
  8
Bemassung
 62
     0
370
    -2
100
AcDbLine
 10
-66.442731277533
 20
8.088105726872388
 30
0.0
 11
-36.0101919291786
 21
8.088105726872388
 31
0.0
  0
LINE
  5
F10073
330
F10011
100
AcDbEntity
  8
Bemassung
 62
     0
370
    -2
100
AcDbLine
 10
-66.442731277533
 20
8.088105726872388
 30
0.0
 11
-40.08737910018861
 21
23.3043754010496
 31
0.0
  0
INSERT
  5
F10074
330
F10011
100
AcDbEntity
  8
Bemassung
 62
     0
370
    -2
100
AcDbBlockReference
  2
VDDIM_DEFAULT
 10
-38.01019192917861
 20
8.088105726872388
 30
0.0
 41
2.5
 42
2.5
 43
2.5
 50
272.519747350033
  0
INSERT
  5
F10075
330
F10011
100
AcDbEntity
  8
Bemassung
 62
     0
370
    -2
100
AcDbBlockReference
  2
VDDIM_DEFAULT
 10
-41.8194299077575
 20
22.3043754010496
 30
0.0
 41
2.5
 42
2.5
 43
2.5
 50
117.480252649967
  0
MTEXT
  5
F10076
102
{ACAD_XDICTIONARY
360
F10014
102
}
330
F10011
100
AcDbEntity
  8
Bemassung
 62
     0
100
AcDbMText
 10
-38.762114537445
 20
14.5837004405287
 30
0.0
 40
2.5
 41
0.0
 71
     8
 72
     1
  1
\A1;30\U+00B0{\H1.25000000000000;\S +5.000^  --5.000;}
 11
0.2588190451025211
 21
-0.9659258262890681
 31
0.0
 73
     1
 44
1.0
1001
ACAD
1000
MTEXTBEGIN
1070
    73
1070
     1
1070
    44
1040
1.0
1070
    74
1070
     0
1000
MTEXTEND
  0
POINT
  5
F10077
330
F10011
100
AcDbEntity
  8
Bemassung
 62
     0
100
AcDbPoint
 10
-66.442731277533
 20
8.088105726872388
 30
0.0
  0
POINT
  5
F10078
330
F10011
100
AcDbEntity
  8
Bemassung
 62
     0
100
AcDbPoint
 10
-38.01019192917861
 20
8.088105726872388
 30
0.0
  0
POINT
  5
F10079
330
F10011
100
AcDbEntity
  8
Bemassung
 62
     0
100
AcDbPoint
 10
-41.8194299077575
 20
22.3043754010496
 30
0.0
  0
POINT
  5
F1007A
330
F10011
100
AcDbEntity
  8
Bemassung
 62
     0
100
AcDbPoint
 10
-38.9790072139773
 20
15.4469884108533
 30
0.0
  0
ENDBLK
  5
F1007B
330
F10011
100
AcDbEntity
  8
0
100
AcDbBlockEnd
  0
BLOCK
  5
F1007C
330
F10007
100
AcDbEntity
  8
0
100
AcDbBlockBegin
  2
*D10
 70
     1
 10
0.0
 20
0.0
 30
0.0
  3
*D10
  1

  0
LINE
  5
F10ABE
330
F10007
100
AcDbEntity
  8
Bemassung
 62
     0
370
    -2
100
AcDbLine
 10
-32.85210031629894
 20
-5.771308387148785
 30
0.0
 11
-41.27022463978057
 21
-5.771308387148782
 31
0.0
  0
LINE
  5
F10ABF
330
F10007
100
AcDbEntity
  8
Bemassung
 62
     0
370
    -2
100
AcDbLine
 10
-32.85210031629894
 20
-0.7713083871487861
 30
0.0
 11
-41.27022463978057
 21
-0.7713083871487836
 31
0.0
  0
LINE
  5
F10AC0
330
F10007
100
AcDbEntity
  8
Bemassung
 62
     0
370
    -2
100
AcDbLine
 10
-40.02022463978057
 20
1.728691612851215
 30
0.0
 11
-40.02022463978057
 21
4.228691612851216
 31
0.0
  0
LINE
  5
F10AC1
330
F10007
100
AcDbEntity
  8
Bemassung
 62
     0
370
    -2
100
AcDbLine
 10
-40.02022463978057
 20
-8.271308387148783
 30
0.0
 11
-40.02022463978058
 21
-16.78106529824987
 31
0.0
  0
LINE
  5
F10AC2
330
F10007
100
AcDbEntity
  8
Bemassung
 62
     0
370
    -2
100
AcDbLine
 10
-40.02022463978057
 20
-0.7713083871487841
 30
0.0
 11
-40.02022463978057
 21
-5.771308387148782
 31
0.0
  0
INSERT
  5
F10AC3
330
F10007
100
AcDbEntity
  8
Bemassung
 62
     0
370
    -2
100
AcDbBlockReference
  2
VDDIM_DEFAULT
 10
-40.02022463978057
 20
-0.7713083871487841
 30
0.0
 41
2.5
 42
2.5
 43
2.5
 50
270.0
  0
INSERT
  5
F10AC4
330
F10007
100
AcDbEntity
  8
Bemassung
 62
     0
370
    -2
100
AcDbBlockReference
  2
VDDIM_DEFAULT
 10
-40.02022463978057
 20
-5.771308387148782
 30
0.0
 41
2.5
 42
2.5
 43
2.5
 50
90.0
  0
MTEXT
  5
F10AC5
330
F10007
100
AcDbEntity
  8
Bemassung
 62
     0
100
AcDbMText
 10
-40.64522463978057
 20
-13.96728630779968
 30
0.0
 40
2.5
 41
0.0
 71
     8
 72
     1
  1
\A1;%%c5
 11
0.0000000000000001
 21
1.0
 31
0.0
 73
     1
 44
1.0
1001
ACAD
1000
MTEXTBEGIN
1070
    73
1070
     1
1070
    44
1040
1.0
1070
    74
1070
     0
1000
MTEXTEND
  0
POINT
  5
F10AC6
330
F10007
100
AcDbEntity
  8
Defpoints
 62
     0
100
AcDbPoint
 10
-32.22710031629894
 20
-5.771308387148785
 30
0.0
  0
POINT
  5
F10AC7
330
F10007
100
AcDbEntity
  8
Defpoints
 62
     0
100
AcDbPoint
 10
-32.22710031629894
 20
-0.7713083871487863
 30
0.0
  0
POINT
  5
F10AC8
330
F10007
100
AcDbEntity
  8
Defpoints
 62
     0
100
AcDbPoint
 10
-40.02022463978057
 20
-0.7713083871487841
 30
0.0
  0
ENDBLK
  5
F10085
330
F10007
100
AcDbEntity
  8
0
100
AcDbBlockEnd
  0
BLOCK
  5
F10086
330
F1000C
100
AcDbEntity
  8
0
100
AcDbBlockBegin
  2
*D11
 70
     1
 10
0.0
 20
0.0
 30
0.0
  3
*D11
  1

  0
LINE
  5
F10AC9
330
F1000C
100
AcDbEntity
  8
Bemassung
 62
     0
370
    -2
100
AcDbLine
 10
-15.72188895072045
 20
-5.571308387148786
 30
0.0
 11
-13.09688895072045
 21
-5.571308387148786
 31
0.0
  0
LINE
  5
F10ACA
330
F1000C
100
AcDbEntity
  8
Bemassung
 62
     0
370
    -2
100
AcDbLine
 10
-15.72188895072045
 20
-0.9713083871487963
 30
0.0
 11
-13.09688895072045
 21
-0.9713083871487972
 31
0.0
  0
LINE
  5
F10ACB
330
F1000C
100
AcDbEntity
  8
Bemassung
 62
     0
370
    -2
100
AcDbLine
 10
-14.34688895072046
 20
-8.071308387148786
 30
0.0
 11
-14.34688895072046
 21
-10.57130838714878
 31
0.0
  0
LINE
  5
F10ACC
330
F1000C
100
AcDbEntity
  8
Bemassung
 62
     0
370
    -2
100
AcDbLine
 10
-14.34688895072045
 20
1.528691612851203
 30
0.0
 11
-14.34688895072045
 21
12.54847333181437
 31
0.0
  0
LINE
  5
F10ACD
330
F1000C
100
AcDbEntity
  8
Bemassung
 62
     0
370
    -2
100
AcDbLine
 10
-14.34688895072046
 20
-5.571308387148786
 30
0.0
 11
-14.34688895072045
 21
-0.9713083871487967
 31
0.0
  0
INSERT
  5
F10ACE
330
F1000C
100
AcDbEntity
  8
Bemassung
 62
     0
370
    -2
100
AcDbBlockReference
  2
VDDIM_DEFAULT
 10
-14.34688895072046
 20
-5.571308387148786
 30
0.0
 41
2.5
 42
2.5
 43
2.5
 50
90.0
  0
INSERT
  5
F10ACF
330
F1000C
100
AcDbEntity
  8
Bemassung
 62
     0
370
    -2
100
AcDbBlockReference
  2
VDDIM_DEFAULT
 10
-14.34688895072045
 20
-0.9713083871487967
 30
0.0
 41
2.5
 42
2.5
 43
2.5
 50
270.0
  0
MTEXT
  5
F10AD0
330
F1000C
100
AcDbEntity
  8
Bemassung
 62
     0
100
AcDbMText
 10
-14.97188895072045
 20
8.288582472332784
 30
0.0
 40
2.5
 41
0.0
 71
     8
 72
     1
  1
\A1;%%c4.6
 11
0.0000000000000001
 21
1.0
 31
0.0
 73
     1
 44
1.0
1001
ACAD
1000
MTEXTBEGIN
1070
    73
1070
     1
1070
    44
1040
1.0
1070
    74
1070
     0
1000
MTEXTEND
  0
POINT
  5
F10AD1
330
F1000C
100
AcDbEntity
  8
Defpoints
 62
     0
100
AcDbPoint
 10
-16.34688895072045
 20
-5.571308387148786
 30
0.0
  0
POINT
  5
F10AD2
330
F1000C
100
AcDbEntity
  8
Defpoints
 62
     0
100
AcDbPoint
 10
-16.34688895072045
 20
-0.9713083871487961
 30
0.0
  0
POINT
  5
F10AD3
330
F1000C
100
AcDbEntity
  8
Defpoints
 62
     0
100
AcDbPoint
 10
-14.34688895072045
 20
-0.9713083871487967
 30
0.0
  0
ENDBLK
  5
F1008F
330
F1000C
100
AcDbEntity
  8
0
100
AcDbBlockEnd
  0
BLOCK
  5
F10090
330
F1001B
100
AcDbEntity
  8
0
100
AcDbBlockBegin
  2
*D12
 70
     1
 10
0.0
 20
0.0
 30
0.0
  3
*D12
  1

  0
LINE
  5
F10ADD
330
F1001B
100
AcDbEntity
  8
Bemassung
 62
     0
370
    -2
100
AcDbLine
 10
24.79789968370104
 20
-6.271308387148785
 30
0.0
 11
35.92289968370105
 21
-6.271308387148788
 31
0.0
  0
LINE
  5
F10ADE
330
F1001B
100
AcDbEntity
  8
Bemassung
 62
     0
370
    -2
100
AcDbLine
 10
24.79789968370104
 20
-0.2713083871487873
 30
0.0
 11
35.92289968370105
 21
-0.2713083871487905
 31
0.0
  0
LINE
  5
F10ADF
330
F1001B
100
AcDbEntity
  8
Bemassung
 62
     0
370
    -2
100
AcDbLine
 10
34.67289968370105
 20
-8.771308387148788
 30
0.0
 11
34.67289968370105
 21
-11.27130838714879
 31
0.0
  0
LINE
  5
F10AE0
330
F1001B
100
AcDbEntity
  8
Bemassung
 62
     0
370
    -2
100
AcDbLine
 10
34.67289968370105
 20
2.22869161285121
 30
0.0
 11
34.67289968370105
 21
15.19083349552515
 31
0.0
  0
LINE
  5
F10AE1
330
F1001B
100
AcDbEntity
  8
Bemassung
 62
     0
370
    -2
100
AcDbLine
 10
34.67289968370105
 20
-6.271308387148788
 30
0.0
 11
34.67289968370105
 21
-0.2713083871487901
 31
0.0
  0
INSERT
  5
F10AE2
330
F1001B
100
AcDbEntity
  8
Bemassung
 62
     0
370
    -2
100
AcDbBlockReference
  2
VDDIM_DEFAULT
 10
34.67289968370105
 20
-6.271308387148788
 30
0.0
 41
2.5
 42
2.5
 43
2.5
 50
90.0
  0
INSERT
  5
F10AE3
330
F1001B
100
AcDbEntity
  8
Bemassung
 62
     0
370
    -2
100
AcDbBlockReference
  2
VDDIM_DEFAULT
 10
34.67289968370105
 20
-0.2713083871487901
 30
0.0
 41
2.5
 42
2.5
 43
2.5
 50
270.0
  0
MTEXT
  5
F10AE4
330
F1001B
100
AcDbEntity
  8
Bemassung
 62
     0
100
AcDbMText
 10
34.04789968370105
 20
9.959762554188188
 30
0.0
 40
2.5
 41
0.0
 71
     8
 72
     1
  1
\A1;%%c6 h6
 11
0.0000000000000001
 21
1.0
 31
0.0
 73
     1
 44
1.0
1001
ACAD
1000
MTEXTBEGIN
1070
    73
1070
     1
1070
    44
1040
1.0
1070
    74
1070
     0
1000
MTEXTEND
  0
POINT
  5
F10AE5
330
F1001B
100
AcDbEntity
  8
Defpoints
 62
     0
100
AcDbPoint
 10
24.17289968370104
 20
-6.271308387148785
 30
0.0
  0
POINT
  5
F10AE6
330
F1001B
100
AcDbEntity
  8
Defpoints
 62
     0
100
AcDbPoint
 10
24.17289968370104
 20
-0.2713083871487871
 30
0.0
  0
POINT
  5
F10AE7
330
F1001B
100
AcDbEntity
  8
Defpoints
 62
     0
100
AcDbPoint
 10
34.67289968370105
 20
-0.2713083871487901
 30
0.0
  0
ENDBLK
  5
F10099
330
F1001B
100
AcDbEntity
  8
0
100
AcDbBlockEnd
  0
BLOCK
  5
F109CC
330
F109CA
100
AcDbEntity
  8
0
100
AcDbBlockBegin
  2
GENAXEH
 70
     0
 10
0.0
 20
0.0
 30
0.0
  3
GENAXEH
  1

  0
LINE
  5
F109CB
330
F109CA
100
AcDbEntity
  8
0
100
AcDbLine
 10
-1.0
 20
0.0
 30
0.0
 11
1.0
 21
0.0
 31
0.0
  0
ENDBLK
  5
F109CD
330
F109CA
100
AcDbEntity
  8
0
100
AcDbBlockEnd
  0
ENDSEC
  0
SECTION
  2
ENTITIES
  0
DIMENSION
  5
F10017
330
261
100
AcDbEntity
  8
Bemassung
100
AcDbDimension
  2
*D4
 10
24.67289968370105
 20
16.03115953368277
 30
0.0
 11
6.033281580237144
 21
16.03115953368277
 31
0.0
 70
   160
  1
<>
 71
     8
 42
36.0
  3
BEM-ISBE
100
AcDbAlignedDimension
 13
-11.32710031629895
 23
-0.2713083871487871
 33
0.0
 14
24.67289968370105
 24
-0.7713083871487863
 34
0.0
100
AcDbRotatedDimension
1001
ACAD
1000
DSTYLE
1002
{
1070
   147
1040
0.625
1070
    72
1070
     0
1070
    71
1070
     0
1070
   284
1070
     8
1070
    78
1070
     8
1070
   144
1040
1.0
1070
    47
1040
2.0
1070
    48
1040
0.0
1002
}
  0
DIMENSION
  5
F10021
330
261
100
AcDbEntity
  8
Bemassung
100
AcDbDimension
  2
*D5
 10
-32.32710031629896
 20
-16.28877551182061
 30
0.0
 11
-26.21552445561758
 21
-16.28877551182061
 31
0.0
 70
   160
  1
<>
 71
     8
 42
14.0
  3
BEM-ISBE
100
AcDbAlignedDimension
 13
-18.32710031629895
 23
-5.771308387148787
 33
0.0
 14
-32.32710031629896
 24
-3.271308387148785
 34
0.0
100
AcDbRotatedDimension
1001
ACAD
1000
DSTYLE
1002
{
1070
   147
1040
0.625
1070
    72
1070
     0
1070
    71
1070
     0
1070
   284
1070
     8
1070
    78
1070
     8
1070
   144
1040
1.0
1070
    47
1040
1.5
1070
    48
1040
0.0
1002
}
  0
DIMENSION
  5
F1002B
330
261
100
AcDbEntity
  8
Bemassung
100
AcDbDimension
  2
*D7
 10
-32.32710031629896
 20
25.83263189376641
 30
0.0
 11
-4.811576131290259
 21
25.83263189376641
 31
0.0
 70
   160
  1
<>
 71
     8
 42
57.0
  3
BEM-ISBE
100
AcDbAlignedDimension
 13
24.67289968370105
 23
-0.7713083871487863
 33
0.0
 14
-32.32710031629896
 24
-3.271308387148785
 34
0.0
100
AcDbRotatedDimension
1001
ACAD
1000
DSTYLE
1002
{
1070
   147
1040
0.625
1070
    72
1070
     0
1070
    71
1070
     0
1070
   284
1070
     8
1070
    78
1070
     8
1070
   144
1040
1.0
1070
    47
1040
2.0
1070
    48
1040
0.0
1002
}
  0
DIMENSION
  5
F10030
330
261
100
AcDbEntity
  8
Bemassung
100
AcDbDimension
  2
*D8
 10
-13.32710031629895
 20
-24.80830863333173
 30
0.0
 11
-23.53009791068917
 21
-24.80830863333173
 31
0.0
 70
   160
  1
<>
 71
     8
 42
19.0
  3
BEM-ISBE
100
AcDbAlignedDimension
 13
-32.32710031629896
 23
-3.271308387148786
 33
0.0
 14
-13.32710031629895
 24
-0.9713083871487961
 34
0.0
100
AcDbRotatedDimension
1001
ACAD
1000
DSTYLE
1002
{
1070
   284
1070
     8
1070
    78
1070
     8
1070
   144
1040
1.0
1070
   147
1040
0.625
1070
    72
1070
     0
1070
    71
1070
     0
1002
}
  0
DIMENSION
  5
F10008
330
261
100
AcDbEntity
  8
Bemassung
100
AcDbDimension
  2
*D10
 10
-40.02022463978057
 20
-0.7713083871487841
 30
0.0
 11
-40.02022463978057
 21
-13.96728630779968
 31
0.0
 70
   160
  1
%%c<>
 71
     8
 42
4.999999999999999
  3
BEM-ISBE
100
AcDbAlignedDimension
 13
-32.22710031629894
 23
-5.771308387148785
 33
0.0
 14
-32.22710031629894
 24
-0.7713083871487863
 34
0.0
 50
90.0
100
AcDbRotatedDimension
1001
ACAD
1000
DSTYLE
1002
{
1070
   147
1040
0.625
1070
    72
1070
     0
1070
    71
1070
     0
1070
   284
1070
     8
1070
    78
1070
     8
1070
   144
1040
1.0
1070
    47
1040
0.0
1070
    48
1040
-0.048
1002
}
  0
DIMENSION
  5
F1000D
330
261
100
AcDbEntity
  8
Bemassung
100
AcDbDimension
  2
*D11
 10
-14.34688895072045
 20
-0.9713083871487967
 30
0.0
 11
-16.31823956463587
 21
8.288582472332784
 31
0.0
 70
    32
  1
%%c<>
 71
     8
 42
4.599999999999989
  3
BEM-ISBE
100
AcDbAlignedDimension
 13
-16.34688895072045
 23
-5.571308387148786
 33
0.0
 14
-16.34688895072045
 24
-0.9713083871487961
 34
0.0
 50
90.0
100
AcDbRotatedDimension
1001
ACAD
1000
DSTYLE
1002
{
1070
   147
1040
0.625
1070
    72
1070
     0
1070
    71
1070
     0
1070
   284
1070
     8
1070
    78
1070
     8
1070
   144
1040
1.0
1070
    47
1040
0.0
1070
    48
1040
-0.1
1002
}
  0
DIMENSION
  5
F1001C
330
261
100
AcDbEntity
  8
Bemassung
100
AcDbDimension
  2
*D12
 10
34.67289968370105
 20
-0.2713083871487901
 30
0.0
 11
32.70154906978563
 21
9.959762554188188
 31
0.0
 70
    32
  1
%%c<> h6
 71
     8
 42
5.999999999999998
  3
BEM-ISBE
100
AcDbAlignedDimension
 13
24.17289968370104
 23
-6.271308387148785
 33
0.0
 14
24.17289968370104
 24
-0.2713083871487871
 34
0.0
 50
90.0
100
AcDbRotatedDimension
1001
ACAD
1000
DSTYLE
1002
{
1070
   284
1070
     8
1070
    78
1070
     8
1070
   144
1040
1.0
1070
   147
1040
0.625
1070
    72
1070
     0
1070
    71
1070
     0
1002
}
  0
LINE
  5
F1009A
330
261
100
AcDbEntity
  8
Geo
100
AcDbLine
 10
-32.32710031629896
 20
-3.271308387148786
 30
0.0
 11
-32.32710031629896
 21
-0.8713083871487867
 31
0.0
  0
LINE
  5
F1009C
330
261
100
AcDbEntity
  8
Geo
100
AcDbLine
 10
-32.32710031629896
 20
-0.8713083871487867
 30
0.0
 11
-32.22710031629894
 21
-0.7713083871487863
 31
0.0
  0
LINE
  5
F1009E
330
261
100
AcDbEntity
  8
Geo
100
AcDbLine
 10
-32.22710031629894
 20
-0.7713083871487863
 30
0.0
 11
-18.32710031629895
 21
-0.7713083871487863
 31
0.0
  0
LINE
  5
F100A0
330
261
100
AcDbEntity
  8
Geo
100
AcDbLine
 10
-18.32710031629895
 20
-0.7713083871487863
 30
0.0
 11
-18.32710031629895
 21
-0.9713083871487961
 31
0.0
  0
LINE
  5
F100A2
330
261
100
AcDbEntity
  8
Geo
100
AcDbLine
 10
-18.32710031629895
 20
-0.9713083871487961
 30
0.0
 11
-13.32710031629895
 21
-0.9713083871487961
 31
0.0
  0
LINE
  5
F100A4
330
261
100
AcDbEntity
  8
Geo
100
AcDbLine
 10
-13.32710031629895
 20
-0.9713083871487961
 30
0.0
 11
-11.32710031629895
 21
-0.2713083871487871
 31
0.0
  0
LINE
  5
F100A6
330
261
100
AcDbEntity
  8
Geo
100
AcDbLine
 10
-11.32710031629895
 20
-0.2713083871487871
 30
0.0
 11
3.672899683701047
 21
-0.2713083871487871
 31
0.0
  0
LINE
  5
F100A8
330
261
100
AcDbEntity
  8
Geo
100
AcDbLine
 10
3.672899683701047
 20
-0.2713083871487871
 30
0.0
 11
4.572899683701052
 21
-1.171308387148796
 31
0.0
  0
LINE
  5
F100AA
330
261
100
AcDbEntity
  8
Geo
100
AcDbLine
 10
4.572899683701052
 20
-1.171308387148796
 30
0.0
 11
8.772899683701048
 21
-1.171308387148796
 31
0.0
  0
LINE
  5
F100AC
330
261
100
AcDbEntity
  8
Geo
100
AcDbLine
 10
8.772899683701048
 20
-1.171308387148796
 30
0.0
 11
9.672899683701047
 21
-0.2713083871487871
 31
0.0
  0
LINE
  5
F100AE
330
261
100
AcDbEntity
  8
Geo
100
AcDbLine
 10
9.672899683701047
 20
-0.2713083871487871
 30
0.0
 11
24.17289968370104
 21
-0.2713083871487871
 31
0.0
  0
LINE
  5
F100B0
330
261
100
AcDbEntity
  8
Geo
100
AcDbLine
 10
24.17289968370104
 20
-0.2713083871487871
 30
0.0
 11
24.67289968370105
 21
-0.7713083871487863
 31
0.0
  0
LINE
  5
F100B2
330
261
100
AcDbEntity
  8
Geo
100
AcDbLine
 10
-30.62710031629895
 20
-0.7714292995511256
 30
0.0
 11
-30.52710031629896
 21
-0.7727377515893954
 31
0.0
  0
LINE
  5
F100B4
330
261
100
AcDbEntity
  8
Geo
100
AcDbLine
 10
-30.52710031629896
 20
-0.7727377515893954
 30
0.0
 11
-30.42710031629895
 21
-0.7788065409289056
 31
0.0
  0
LINE
  5
F100B6
330
261
100
AcDbEntity
  8
Geo
100
AcDbLine
 10
-30.42710031629895
 20
-0.7788065409289056
 30
0.0
 11
-30.32710031629895
 21
-0.7896241051651858
 31
0.0
  0
LINE
  5
F100B8
330
261
100
AcDbEntity
  8
Geo
100
AcDbLine
 10
-30.32710031629895
 20
-0.7896241051651858
 30
0.0
 11
-30.22710031629895
 21
-0.8051698344128057
 31
0.0
  0
LINE
  5
F100BA
330
261
100
AcDbEntity
  8
Geo
100
AcDbLine
 10
-30.22710031629895
 20
-0.8051698344128057
 30
0.0
 11
-30.12710031629895
 21
-0.8254141105718453
 31
0.0
  0
LINE
  5
F100BC
330
261
100
AcDbEntity
  8
Geo
100
AcDbLine
 10
-30.12710031629895
 20
-0.8254141105718453
 30
0.0
 11
-30.02710031629896
 21
-0.8503183637569255
 31
0.0
  0
LINE
  5
F100BE
330
261
100
AcDbEntity
  8
Geo
100
AcDbLine
 10
-30.02710031629896
 20
-0.8503183637569255
 30
0.0
 11
-29.92710031629895
 21
-0.8798351457815956
 31
0.0
  0
LINE
  5
F100C0
330
261
100
AcDbEntity
  8
Geo
100
AcDbLine
 10
-29.92710031629895
 20
-0.8798351457815956
 30
0.0
 11
-29.82710031629896
 21
-0.9139082205577251
 31
0.0
  0
LINE
  5
F100C2
330
261
100
AcDbEntity
  8
Geo
100
AcDbLine
 10
-29.82710031629896
 20
-0.9139082205577251
 30
0.0
 11
-29.72710031629894
 21
-0.9524726712378557
 31
0.0
  0
LINE
  5
F100C4
330
261
100
AcDbEntity
  8
Geo
100
AcDbLine
 10
-29.72710031629894
 20
-0.9524726712378557
 30
0.0
 11
-29.62710031629895
 21
-0.9954550238963362
 31
0.0
  0
LINE
  5
F100C6
330
261
100
AcDbEntity
  8
Geo
100
AcDbLine
 10
-29.62710031629895
 20
-0.9954550238963362
 30
0.0
 11
-29.52710031629896
 21
-1.042773387513656
 31
0.0
  0
LINE
  5
F100C8
330
261
100
AcDbEntity
  8
Geo
100
AcDbLine
 10
-29.52710031629896
 20
-1.042773387513656
 30
0.0
 11
-29.42710031629895
 21
-1.094337609997215
 31
0.0
  0
LINE
  5
F100CA
330
261
100
AcDbEntity
  8
Geo
100
AcDbLine
 10
-29.42710031629895
 20
-1.094337609997215
 30
0.0
 11
-29.32710031629895
 21
-1.150049449941205
 31
0.0
  0
LINE
  5
F100CC
330
261
100
AcDbEntity
  8
Geo
100
AcDbLine
 10
-29.32710031629895
 20
-1.150049449941205
 30
0.0
 11
-29.22710031629895
 21
-1.209802763798585
 31
0.0
  0
LINE
  5
F100CE
330
261
100
AcDbEntity
  8
Geo
100
AcDbLine
 10
-29.22710031629895
 20
-1.209802763798585
 30
0.0
 11
-29.12710031629895
 21
-1.273483708108325
 31
0.0
  0
LINE
  5
F100D0
330
261
100
AcDbEntity
  8
Geo
100
AcDbLine
 10
-29.12710031629895
 20
-1.273483708108325
 30
0.0
 11
-29.02710031629896
 21
-1.340970956392656
 31
0.0
  0
LINE
  5
F100D2
330
261
100
AcDbEntity
  8
Geo
100
AcDbLine
 10
-29.02710031629896
 20
-1.340970956392656
 30
0.0
 11
-28.92710031629895
 21
-1.412135930311336
 31
0.0
  0
LINE
  5
F100D4
330
261
100
AcDbEntity
  8
Geo
100
AcDbLine
 10
-28.92710031629895
 20
-1.412135930311336
 30
0.0
 11
-28.82710031629896
 21
-1.486843044632116
 31
0.0
  0
LINE
  5
F100D6
330
261
100
AcDbEntity
  8
Geo
100
AcDbLine
 10
-28.82710031629896
 20
-1.486843044632116
 30
0.0
 11
-28.72710031629895
 21
-1.564949965551065
 31
0.0
  0
LINE
  5
F100D8
330
261
100
AcDbEntity
  8
Geo
100
AcDbLine
 10
-28.72710031629895
 20
-1.564949965551065
 30
0.0
 11
-28.62710031629895
 21
-1.646307881870336
 31
0.0
  0
LINE
  5
F100DA
330
261
100
AcDbEntity
  8
Geo
100
AcDbLine
 10
-28.62710031629895
 20
-1.646307881870336
 30
0.0
 11
-28.52710031629896
 21
-1.730761788516935
 31
0.0
  0
LINE
  5
F100DC
330
261
100
AcDbEntity
  8
Geo
100
AcDbLine
 10
-28.52710031629896
 20
-1.730761788516935
 30
0.0
 11
-28.42710031629895
 21
-1.818150781862056
 31
0.0
  0
LINE
  5
F100DE
330
261
100
AcDbEntity
  8
Geo
100
AcDbLine
 10
-28.42710031629895
 20
-1.818150781862056
 30
0.0
 11
-28.32710031629896
 21
-1.908308366278656
 31
0.0
  0
LINE
  5
F100E0
330
261
100
AcDbEntity
  8
Geo
100
AcDbLine
 10
-28.32710031629896
 20
-1.908308366278656
 30
0.0
 11
-28.22710031629894
 21
-2.001062771352866
 31
0.0
  0
LINE
  5
F100E2
330
261
100
AcDbEntity
  8
Geo
100
AcDbLine
 10
-28.22710031629894
 20
-2.001062771352866
 30
0.0
 11
-28.12710031629895
 21
-2.096237279145205
 31
0.0
  0
LINE
  5
F100E4
330
261
100
AcDbEntity
  8
Geo
100
AcDbLine
 10
-28.12710031629895
 20
-2.096237279145205
 30
0.0
 11
-28.02710031629896
 21
-2.193650560877926
 31
0.0
  0
LINE
  5
F100E6
330
261
100
AcDbEntity
  8
Geo
100
AcDbLine
 10
-28.02710031629896
 20
-2.193650560877926
 30
0.0
 11
-27.92710031629895
 21
-2.293117022406875
 31
0.0
  0
LINE
  5
F100E8
330
261
100
AcDbEntity
  8
Geo
100
AcDbLine
 10
-27.92710031629895
 20
-2.293117022406875
 30
0.0
 11
-27.82710031629895
 21
-2.394447157820025
 31
0.0
  0
LINE
  5
F100EA
330
261
100
AcDbEntity
  8
Geo
100
AcDbLine
 10
-27.82710031629895
 20
-2.394447157820025
 30
0.0
 11
-27.72710031629895
 21
-2.497447910488725
 31
0.0
  0
LINE
  5
F100EC
330
261
100
AcDbEntity
  8
Geo
100
AcDbLine
 10
-27.72710031629895
 20
-2.497447910488725
 30
0.0
 11
-27.62710031629895
 21
-2.601923040883866
 31
0.0
  0
LINE
  5
F100EE
330
261
100
AcDbEntity
  8
Geo
100
AcDbLine
 10
-27.62710031629895
 20
-2.601923040883866
 30
0.0
 11
-27.52710031629896
 21
-2.707673500456166
 31
0.0
  0
LINE
  5
F100F0
330
261
100
AcDbEntity
  8
Geo
100
AcDbLine
 10
-27.52710031629896
 20
-2.707673500456166
 30
0.0
 11
-27.42710031629895
 21
-2.814497810868306
 31
0.0
  0
LINE
  5
F100F2
330
261
100
AcDbEntity
  8
Geo
100
AcDbLine
 10
-27.42710031629895
 20
-2.814497810868306
 30
0.0
 11
-27.32710031629896
 21
-2.922192447856345
 31
0.0
  0
LINE
  5
F100F4
330
261
100
AcDbEntity
  8
Geo
100
AcDbLine
 10
-27.32710031629896
 20
-2.922192447856345
 30
0.0
 11
-27.22710031629894
 21
-3.030552228989036
 31
0.0
  0
LINE
  5
F100F6
330
261
100
AcDbEntity
  8
Geo
100
AcDbLine
 10
-27.22710031629894
 20
-3.030552228989036
 30
0.0
 11
-27.12710031629895
 21
-3.139370704586435
 31
0.0
  0
LINE
  5
F100F8
330
261
100
AcDbEntity
  8
Geo
100
AcDbLine
 10
-27.12710031629895
 20
-3.139370704586435
 30
0.0
 11
-27.02710031629896
 21
-3.248440551052765
 31
0.0
  0
LINE
  5
F100FA
330
261
100
AcDbEntity
  8
Geo
100
AcDbLine
 10
-27.02710031629896
 20
-3.248440551052765
 30
0.0
 11
-26.92710031629895
 21
-3.357553965874385
 31
0.0
  0
LINE
  5
F100FC
330
261
100
AcDbEntity
  8
Geo
100
AcDbLine
 10
-26.92710031629895
 20
-3.357553965874385
 30
0.0
 11
-26.82710031629895
 21
-3.466503063530165
 31
0.0
  0
LINE
  5
F100FE
330
261
100
AcDbEntity
  8
Geo
100
AcDbLine
 10
-26.82710031629895
 20
-3.466503063530165
 30
0.0
 11
-26.72710031629895
 21
-3.575080271560025
 31
0.0
  0
LINE
  5
F10100
330
261
100
AcDbEntity
  8
Geo
100
AcDbLine
 10
-26.72710031629895
 20
-3.575080271560025
 30
0.0
 11
-26.62710031629895
 21
-3.683078726037025
 31
0.0
  0
LINE
  5
F10102
330
261
100
AcDbEntity
  8
Geo
100
AcDbLine
 10
-26.62710031629895
 20
-3.683078726037025
 30
0.0
 11
-26.52710031629896
 21
-3.790292665689475
 31
0.0
  0
LINE
  5
F10104
330
261
100
AcDbEntity
  8
Geo
100
AcDbLine
 10
-26.52710031629896
 20
-3.790292665689475
 30
0.0
 11
-26.42710031629895
 21
-3.896517823922375
 31
0.0
  0
LINE
  5
F10106
330
261
100
AcDbEntity
  8
Geo
100
AcDbLine
 10
-26.42710031629895
 20
-3.896517823922375
 30
0.0
 11
-26.32710031629895
 21
-4.001551817991015
 31
0.0
  0
LINE
  5
F10108
330
261
100
AcDbEntity
  8
Geo
100
AcDbLine
 10
-26.32710031629895
 20
-4.001551817991015
 30
0.0
 11
-26.22710031629895
 21
-4.105194534585495
 31
0.0
  0
LINE
  5
F1010A
330
261
100
AcDbEntity
  8
Geo
100
AcDbLine
 10
-26.22710031629895
 20
-4.105194534585495
 30
0.0
 11
-26.12710031629895
 21
-4.207248511091495
 31
0.0
  0
LINE
  5
F1010C
330
261
100
AcDbEntity
  8
Geo
100
AcDbLine
 10
-26.12710031629895
 20
-4.207248511091495
 30
0.0
 11
-26.02710031629896
 21
-4.307519311800775
 31
0.0
  0
LINE
  5
F1010E
330
261
100
AcDbEntity
  8
Geo
100
AcDbLine
 10
-26.02710031629896
 20
-4.307519311800775
 30
0.0
 11
-25.92710031629895
 21
-4.405815898354805
 31
0.0
  0
LINE
  5
F10110
330
261
100
AcDbEntity
  8
Geo
100
AcDbLine
 10
-25.92710031629895
 20
-4.405815898354805
 30
0.0
 11
-25.82710031629896
 21
-4.501950993715736
 31
0.0
  0
LINE
  5
F10112
330
261
100
AcDbEntity
  8
Geo
100
AcDbLine
 10
-25.82710031629896
 20
-4.501950993715736
 30
0.0
 11
-25.72710031629894
 21
-4.595741438971055
 31
0.0
  0
LINE
  5
F10114
330
261
100
AcDbEntity
  8
Geo
100
AcDbLine
 10
-25.72710031629894
 20
-4.595741438971055
 30
0.0
 11
-25.62710031629895
 21
-4.687008542292446
 31
0.0
  0
LINE
  5
F10116
330
261
100
AcDbEntity
  8
Geo
100
AcDbLine
 10
-25.62710031629895
 20
-4.687008542292446
 30
0.0
 11
-25.52710031629896
 21
-4.775578419383766
 31
0.0
  0
LINE
  5
F10118
330
261
100
AcDbEntity
  8
Geo
100
AcDbLine
 10
-25.52710031629896
 20
-4.775578419383766
 30
0.0
 11
-25.42710031629895
 21
-4.861282324769635
 31
0.0
  0
LINE
  5
F1011A
330
261
100
AcDbEntity
  8
Geo
100
AcDbLine
 10
-25.42710031629895
 20
-4.861282324769635
 30
0.0
 11
-25.32710031629895
 21
-4.943956973293396
 31
0.0
  0
LINE
  5
F1011C
330
261
100
AcDbEntity
  8
Geo
100
AcDbLine
 10
-25.32710031629895
 20
-4.943956973293396
 30
0.0
 11
-25.22710031629895
 21
-5.023444851211925
 31
0.0
  0
LINE
  5
F1011E
330
261
100
AcDbEntity
  8
Geo
100
AcDbLine
 10
-25.22710031629895
 20
-5.023444851211925
 30
0.0
 11
-25.12710031629895
 21
-5.099594516294666
 31
0.0
  0
LINE
  5
F10120
330
261
100
AcDbEntity
  8
Geo
100
AcDbLine
 10
-25.12710031629895
 20
-5.099594516294666
 30
0.0
 11
-25.02710031629896
 21
-5.172260886355026
 31
0.0
  0
LINE
  5
F10122
330
261
100
AcDbEntity
  8
Geo
100
AcDbLine
 10
-25.02710031629896
 20
-5.172260886355026
 30
0.0
 11
-24.92710031629895
 21
-5.241305515664465
 31
0.0
  0
LINE
  5
F10124
330
261
100
AcDbEntity
  8
Geo
100
AcDbLine
 10
-24.92710031629895
 20
-5.241305515664465
 30
0.0
 11
-24.82710031629896
 21
-5.306596858722645
 31
0.0
  0
LINE
  5
F10126
330
261
100
AcDbEntity
  8
Geo
100
AcDbLine
 10
-24.82710031629896
 20
-5.306596858722645
 30
0.0
 11
-24.72710031629894
 21
-5.368010520881165
 31
0.0
  0
LINE
  5
F10128
330
261
100
AcDbEntity
  8
Geo
100
AcDbLine
 10
-24.72710031629894
 20
-5.368010520881165
 30
0.0
 11
-24.62710031629895
 21
-5.425429495343135
 31
0.0
  0
LINE
  5
F1012A
330
261
100
AcDbEntity
  8
Geo
100
AcDbLine
 10
-24.62710031629895
 20
-5.425429495343135
 30
0.0
 11
-24.52710031629896
 21
-5.478744386087486
 31
0.0
  0
LINE
  5
F1012C
330
261
100
AcDbEntity
  8
Geo
100
AcDbLine
 10
-24.52710031629896
 20
-5.478744386087486
 30
0.0
 11
-24.42710031629895
 21
-5.527853616292855
 31
0.0
  0
LINE
  5
F1012E
330
261
100
AcDbEntity
  8
Geo
100
AcDbLine
 10
-24.42710031629895
 20
-5.527853616292855
 30
0.0
 11
-24.32710031629895
 21
-5.572663621864196
 31
0.0
  0
LINE
  5
F10130
330
261
100
AcDbEntity
  8
Geo
100
AcDbLine
 10
-24.32710031629895
 20
-5.572663621864196
 30
0.0
 11
-24.22710031629895
 21
-5.613089029693416
 31
0.0
  0
LINE
  5
F10132
330
261
100
AcDbEntity
  8
Geo
100
AcDbLine
 10
-24.22710031629895
 20
-5.613089029693416
 30
0.0
 11
-24.12710031629895
 21
-5.649052820314225
 31
0.0
  0
LINE
  5
F10134
330
261
100
AcDbEntity
  8
Geo
100
AcDbLine
 10
-24.12710031629895
 20
-5.649052820314225
 30
0.0
 11
-24.02710031629896
 21
-5.680486474641545
 31
0.0
  0
LINE
  5
F10136
330
261
100
AcDbEntity
  8
Geo
100
AcDbLine
 10
-24.02710031629896
 20
-5.680486474641545
 30
0.0
 11
-23.92710031629895
 21
-5.707330104515666
 31
0.0
  0
LINE
  5
F10138
330
261
100
AcDbEntity
  8
Geo
100
AcDbLine
 10
-23.92710031629895
 20
-5.707330104515666
 30
0.0
 11
-23.82710031629895
 21
-5.729532566802715
 31
0.0
  0
LINE
  5
F1013A
330
261
100
AcDbEntity
  8
Geo
100
AcDbLine
 10
-23.82710031629895
 20
-5.729532566802715
 30
0.0
 11
-23.72710031629894
 21
-5.747051560833675
 31
0.0
  0
LINE
  5
F1013C
330
261
100
AcDbEntity
  8
Geo
100
AcDbLine
 10
-23.72710031629894
 20
-5.747051560833675
 30
0.0
 11
-23.62710031629895
 21
-5.759853708996735
 31
0.0
  0
LINE
  5
F1013E
330
261
100
AcDbEntity
  8
Geo
100
AcDbLine
 10
-23.62710031629895
 20
-5.759853708996735
 30
0.0
 11
-23.52710031629896
 21
-5.767914620329105
 31
0.0
  0
LINE
  5
F10140
330
261
100
AcDbEntity
  8
Geo
100
AcDbLine
 10
-23.52710031629896
 20
-5.767914620329105
 30
0.0
 11
-23.42710031629895
 21
-5.771218936987246
 31
0.0
  0
LINE
  5
F10142
330
261
100
AcDbEntity
  8
Geo
100
AcDbLine
 10
-16.62710031629895
 20
-0.9727494497367743
 30
0.0
 11
-16.52710031629895
 21
-0.9713875795068558
 31
0.0
  0
LINE
  5
F10144
330
261
100
AcDbEntity
  8
Geo
100
AcDbLine
 10
-16.52710031629895
 20
-0.9713875795068558
 30
0.0
 11
-16.42710031629895
 21
-0.974304381548686
 31
0.0
  0
LINE
  5
F10146
330
261
100
AcDbEntity
  8
Geo
100
AcDbLine
 10
-16.42710031629895
 20
-0.974304381548686
 30
0.0
 11
-16.32710031629895
 21
-0.9812143473773264
 31
0.0
  0
LINE
  5
F10148
330
261
100
AcDbEntity
  8
Geo
100
AcDbLine
 10
-16.32710031629895
 20
-0.9812143473773264
 30
0.0
 11
-16.22710031629894
 21
-0.991832034914525
 31
0.0
  0
LINE
  5
F1014A
330
261
100
AcDbEntity
  8
Geo
100
AcDbLine
 10
-16.22710031629894
 20
-0.991832034914525
 30
0.0
 11
-16.12710031629895
 21
-1.005873589480425
 31
0.0
  0
LINE
  5
F1014C
330
261
100
AcDbEntity
  8
Geo
100
AcDbLine
 10
-16.12710031629895
 20
-1.005873589480425
 30
0.0
 11
-16.02710031629895
 21
-1.023058111184766
 31
0.0
  0
LINE
  5
F1014E
330
261
100
AcDbEntity
  8
Geo
100
AcDbLine
 10
-16.02710031629895
 20
-1.023058111184766
 30
0.0
 11
-15.92710031629894
 21
-1.043108873546425
 31
0.0
  0
LINE
  5
F10150
330
261
100
AcDbEntity
  8
Geo
100
AcDbLine
 10
-15.92710031629894
 20
-1.043108873546425
 30
0.0
 11
-15.82710031629895
 21
-1.065754398965325
 31
0.0
  0
LINE
  5
F10152
330
261
100
AcDbEntity
  8
Geo
100
AcDbLine
 10
-15.82710031629895
 20
-1.065754398965325
 30
0.0
 11
-15.72710031629894
 21
-1.090729397323256
 31
0.0
  0
LINE
  5
F10154
330
261
100
AcDbEntity
  8
Geo
100
AcDbLine
 10
-15.72710031629894
 20
-1.090729397323256
 30
0.0
 11
-15.62710031629895
 21
-1.117775574506965
 31
0.0
  0
LINE
  5
F10156
330
261
100
AcDbEntity
  8
Geo
100
AcDbLine
 10
-15.62710031629895
 20
-1.117775574506965
 30
0.0
 11
-15.52710031629895
 21
-1.146642318041695
 31
0.0
  0
LINE
  5
F10158
330
261
100
AcDbEntity
  8
Geo
100
AcDbLine
 10
-15.52710031629895
 20
-1.146642318041695
 30
0.0
 11
-15.42710031629894
 21
-1.177087267306025
 31
0.0
  0
LINE
  5
F1015A
330
261
100
AcDbEntity
  8
Geo
100
AcDbLine
 10
-15.42710031629894
 20
-1.177087267306025
 30
0.0
 11
-15.32710031629895
 21
-1.208876775980056
 31
0.0
  0
LINE
  5
F1015C
330
261
100
AcDbEntity
  8
Geo
100
AcDbLine
 10
-32.32710031629896
 20
-1.571821331478525
 30
0.0
 11
-32.22710031629894
 21
-1.579727784356825
 31
0.0
  0
LINE
  5
F1015E
330
261
100
AcDbEntity
  8
Geo
100
AcDbLine
 10
-32.22710031629894
 20
-1.579727784356825
 30
0.0
 11
-32.12710031629895
 21
-1.661669038230025
 31
0.0
  0
LINE
  5
F10160
330
261
100
AcDbEntity
  8
Geo
100
AcDbLine
 10
-32.12710031629895
 20
-1.661669038230025
 30
0.0
 11
-32.02710031629896
 21
-1.746677015983325
 31
0.0
  0
LINE
  5
F10162
330
261
100
AcDbEntity
  8
Geo
100
AcDbLine
 10
-32.02710031629896
 20
-1.746677015983325
 30
0.0
 11
-31.92710031629895
 21
-1.834589758358266
 31
0.0
  0
LINE
  5
F10164
330
261
100
AcDbEntity
  8
Geo
100
AcDbLine
 10
-31.92710031629895
 20
-1.834589758358266
 30
0.0
 11
-31.82710031629895
 21
-1.925239771868395
 31
0.0
  0
LINE
  5
F10166
330
261
100
AcDbEntity
  8
Geo
100
AcDbLine
 10
-31.82710031629895
 20
-1.925239771868395
 30
0.0
 11
-31.72710031629895
 21
-2.018454347912076
 31
0.0
  0
LINE
  5
F10168
330
261
100
AcDbEntity
  8
Geo
100
AcDbLine
 10
-31.72710031629895
 20
-2.018454347912076
 30
0.0
 11
-31.62710031629895
 21
-2.114055891820956
 31
0.0
  0
LINE
  5
F1016A
330
261
100
AcDbEntity
  8
Geo
100
AcDbLine
 10
-31.62710031629895
 20
-2.114055891820956
 30
0.0
 11
-31.52710031629896
 21
-2.211862261217666
 31
0.0
  0
LINE
  5
F1016C
330
261
100
AcDbEntity
  8
Geo
100
AcDbLine
 10
-31.52710031629896
 20
-2.211862261217666
 30
0.0
 11
-31.42710031629895
 21
-2.311687113037946
 31
0.0
  0
LINE
  5
F1016E
330
261
100
AcDbEntity
  8
Geo
100
AcDbLine
 10
-31.42710031629895
 20
-2.311687113037946
 30
0.0
 11
-31.32710031629895
 21
-2.413340258555916
 31
0.0
  0
LINE
  5
F10170
330
261
100
AcDbEntity
  8
Geo
100
AcDbLine
 10
-31.32710031629895
 20
-2.413340258555916
 30
0.0
 11
-31.22710031629895
 21
-2.516628025736245
 31
0.0
  0
LINE
  5
F10172
330
261
100
AcDbEntity
  8
Geo
100
AcDbLine
 10
-31.22710031629895
 20
-2.516628025736245
 30
0.0
 11
-31.12710031629895
 21
-2.621353628222816
 31
0.0
  0
LINE
  5
F10174
330
261
100
AcDbEntity
  8
Geo
100
AcDbLine
 10
-31.12710031629895
 20
-2.621353628222816
 30
0.0
 11
-31.02710031629896
 21
-2.727317540260855
 31
0.0
  0
LINE
  5
F10176
330
261
100
AcDbEntity
  8
Geo
100
AcDbLine
 10
-31.02710031629896
 20
-2.727317540260855
 30
0.0
 11
-30.92710031629895
 21
-2.834317876838235
 31
0.0
  0
LINE
  5
F10178
330
261
100
AcDbEntity
  8
Geo
100
AcDbLine
 10
-30.92710031629895
 20
-2.834317876838235
 30
0.0
 11
-30.82710031629896
 21
-2.942150778321685
 31
0.0
  0
LINE
  5
F1017A
330
261
100
AcDbEntity
  8
Geo
100
AcDbLine
 10
-30.82710031629896
 20
-2.942150778321685
 30
0.0
 11
-30.72710031629894
 21
-3.050610798855125
 31
0.0
  0
LINE
  5
F1017C
330
261
100
AcDbEntity
  8
Geo
100
AcDbLine
 10
-30.72710031629894
 20
-3.050610798855125
 30
0.0
 11
-30.62710031629895
 21
-3.159491297780055
 31
0.0
  0
LINE
  5
F1017E
330
261
100
AcDbEntity
  8
Geo
100
AcDbLine
 10
-30.62710031629895
 20
-3.159491297780055
 30
0.0
 11
-30.52710031629896
 21
-3.268584833332345
 31
0.0
  0
LINE
  5
F10180
330
261
100
AcDbEntity
  8
Geo
100
AcDbLine
 10
-30.52710031629896
 20
-3.268584833332345
 30
0.0
 11
-30.42710031629895
 21
-3.377683557865346
 31
0.0
  0
LINE
  5
F10182
330
261
100
AcDbEntity
  8
Geo
100
AcDbLine
 10
-30.42710031629895
 20
-3.377683557865346
 30
0.0
 11
-30.32710031629895
 21
-3.486579613846215
 31
0.0
  0
LINE
  5
F10184
330
261
100
AcDbEntity
  8
Geo
100
AcDbLine
 10
-30.32710031629895
 20
-3.486579613846215
 30
0.0
 11
-30.22710031629895
 21
-3.595065529871165
 31
0.0
  0
LINE
  5
F10186
330
261
100
AcDbEntity
  8
Geo
100
AcDbLine
 10
-30.22710031629895
 20
-3.595065529871165
 30
0.0
 11
-30.12710031629895
 21
-3.702934615944985
 31
0.0
  0
LINE
  5
F10188
330
261
100
AcDbEntity
  8
Geo
100
AcDbLine
 10
-30.12710031629895
 20
-3.702934615944985
 30
0.0
 11
-30.02710031629896
 21
-3.809981357271815
 31
0.0
  0
LINE
  5
F1018A
330
261
100
AcDbEntity
  8
Geo
100
AcDbLine
 10
-30.02710031629896
 20
-3.809981357271815
 30
0.0
 11
-29.92710031629895
 21
-3.916001805806935
 31
0.0
  0
LINE
  5
F1018C
330
261
100
AcDbEntity
  8
Geo
100
AcDbLine
 10
-29.92710031629895
 20
-3.916001805806935
 30
0.0
 11
-29.82710031629896
 21
-4.020793968823515
 31
0.0
  0
LINE
  5
F1018E
330
261
100
AcDbEntity
  8
Geo
100
AcDbLine
 10
-29.82710031629896
 20
-4.020793968823515
 30
0.0
 11
-29.72710031629894
 21
-4.124158193754055
 31
0.0
  0
LINE
  5
F10190
330
261
100
AcDbEntity
  8
Geo
100
AcDbLine
 10
-29.72710031629894
 20
-4.124158193754055
 30
0.0
 11
-29.62710031629895
 21
-4.225897548573276
 31
0.0
  0
LINE
  5
F10192
330
261
100
AcDbEntity
  8
Geo
100
AcDbLine
 10
-29.62710031629895
 20
-4.225897548573276
 30
0.0
 11
-29.52710031629896
 21
-4.325818196997805
 31
0.0
  0
LINE
  5
F10194
330
261
100
AcDbEntity
  8
Geo
100
AcDbLine
 10
-29.52710031629896
 20
-4.325818196997805
 30
0.0
 11
-29.42710031629895
 21
-4.423729767787735
 31
0.0
  0
LINE
  5
F10196
330
261
100
AcDbEntity
  8
Geo
100
AcDbLine
 10
-29.42710031629895
 20
-4.423729767787735
 30
0.0
 11
-29.32710031629895
 21
-4.519445717446565
 31
0.0
  0
LINE
  5
F10198
330
261
100
AcDbEntity
  8
Geo
100
AcDbLine
 10
-29.32710031629895
 20
-4.519445717446565
 30
0.0
 11
-29.22710031629895
 21
-4.612783685628316
 31
0.0
  0
LINE
  5
F1019A
330
261
100
AcDbEntity
  8
Geo
100
AcDbLine
 10
-29.22710031629895
 20
-4.612783685628316
 30
0.0
 11
-29.12710031629895
 21
-4.703565842574986
 31
0.0
  0
LINE
  5
F1019C
330
261
100
AcDbEntity
  8
Geo
100
AcDbLine
 10
-29.12710031629895
 20
-4.703565842574986
 30
0.0
 11
-29.02710031629896
 21
-4.791619227921995
 31
0.0
  0
LINE
  5
F1019E
330
261
100
AcDbEntity
  8
Geo
100
AcDbLine
 10
-29.02710031629896
 20
-4.791619227921995
 30
0.0
 11
-28.92710031629895
 21
-4.876776080226566
 31
0.0
  0
LINE
  5
F101A0
330
261
100
AcDbEntity
  8
Geo
100
AcDbLine
 10
-28.92710031629895
 20
-4.876776080226566
 30
0.0
 11
-28.82710031629896
 21
-4.958874156590765
 31
0.0
  0
LINE
  5
F101A2
330
261
100
AcDbEntity
  8
Geo
100
AcDbLine
 10
-28.82710031629896
 20
-4.958874156590765
 30
0.0
 11
-28.72710031629895
 21
-5.037757041770776
 31
0.0
  0
LINE
  5
F101A4
330
261
100
AcDbEntity
  8
Geo
100
AcDbLine
 10
-28.72710031629895
 20
-5.037757041770776
 30
0.0
 11
-28.62710031629895
 21
-5.113274446182836
 31
0.0
  0
LINE
  5
F101A6
330
261
100
AcDbEntity
  8
Geo
100
AcDbLine
 10
-28.62710031629895
 20
-5.113274446182836
 30
0.0
 11
-28.52710031629896
 21
-5.185282492238705
 31
0.0
  0
LINE
  5
F101A8
330
261
100
AcDbEntity
  8
Geo
100
AcDbLine
 10
-28.52710031629896
 20
-5.185282492238705
 30
0.0
 11
-28.42710031629895
 21
-5.253643988464696
 31
0.0
  0
LINE
  5
F101AA
330
261
100
AcDbEntity
  8
Geo
100
AcDbLine
 10
-28.42710031629895
 20
-5.253643988464696
 30
0.0
 11
-28.32710031629896
 21
-5.318228690882145
 31
0.0
  0
LINE
  5
F101AC
330
261
100
AcDbEntity
  8
Geo
100
AcDbLine
 10
-28.32710031629896
 20
-5.318228690882145
 30
0.0
 11
-28.22710031629894
 21
-5.378913551151525
 31
0.0
  0
LINE
  5
F101AE
330
261
100
AcDbEntity
  8
Geo
100
AcDbLine
 10
-28.22710031629894
 20
-5.378913551151525
 30
0.0
 11
-28.12710031629895
 21
-5.435582951006965
 31
0.0
  0
LINE
  5
F101B0
330
261
100
AcDbEntity
  8
Geo
100
AcDbLine
 10
-28.12710031629895
 20
-5.435582951006965
 30
0.0
 11
-28.02710031629896
 21
-5.488128922535105
 31
0.0
  0
LINE
  5
F101B2
330
261
100
AcDbEntity
  8
Geo
100
AcDbLine
 10
-28.02710031629896
 20
-5.488128922535105
 30
0.0
 11
-27.92710031629895
 21
-5.536451353878075
 31
0.0
  0
LINE
  5
F101B4
330
261
100
AcDbEntity
  8
Geo
100
AcDbLine
 10
-27.92710031629895
 20
-5.536451353878075
 30
0.0
 11
-27.82710031629895
 21
-5.580458179969115
 31
0.0
  0
LINE
  5
F101B6
330
261
100
AcDbEntity
  8
Geo
100
AcDbLine
 10
-27.82710031629895
 20
-5.580458179969115
 30
0.0
 11
-27.72710031629895
 21
-5.620065557937106
 31
0.0
  0
LINE
  5
F101B8
330
261
100
AcDbEntity
  8
Geo
100
AcDbLine
 10
-27.72710031629895
 20
-5.620065557937106
 30
0.0
 11
-27.62710031629895
 21
-5.655198026846065
 31
0.0
  0
LINE
  5
F101BA
330
261
100
AcDbEntity
  8
Geo
100
AcDbLine
 10
-27.62710031629895
 20
-5.655198026846065
 30
0.0
 11
-27.52710031629896
 21
-5.685788651465175
 31
0.0
  0
LINE
  5
F101BC
330
261
100
AcDbEntity
  8
Geo
100
AcDbLine
 10
-27.52710031629896
 20
-5.685788651465175
 30
0.0
 11
-27.42710031629895
 21
-5.711779149795385
 31
0.0
  0
LINE
  5
F101BE
330
261
100
AcDbEntity
  8
Geo
100
AcDbLine
 10
-27.42710031629895
 20
-5.711779149795385
 30
0.0
 11
-27.32710031629896
 21
-5.733120004109675
 31
0.0
  0
LINE
  5
F101C0
330
261
100
AcDbEntity
  8
Geo
100
AcDbLine
 10
-27.32710031629896
 20
-5.733120004109675
 30
0.0
 11
-27.22710031629894
 21
-5.749770555295416
 31
0.0
  0
LINE
  5
F101C2
330
261
100
AcDbEntity
  8
Geo
100
AcDbLine
 10
-27.22710031629894
 20
-5.749770555295416
 30
0.0
 11
-27.12710031629895
 21
-5.761699080319145
 31
0.0
  0
LINE
  5
F101C4
330
261
100
AcDbEntity
  8
Geo
100
AcDbLine
 10
-27.12710031629895
 20
-5.761699080319145
 30
0.0
 11
-27.02710031629896
 21
-5.768882852666015
 31
0.0
  0
LINE
  5
F101C6
330
261
100
AcDbEntity
  8
Geo
100
AcDbLine
 10
-27.02710031629896
 20
-5.768882852666015
 30
0.0
 11
-26.92710031629895
 21
-5.771308185638956
 31
0.0
  0
LINE
  5
F101C8
330
261
100
AcDbEntity
  8
Geo
100
AcDbLine
 10
-19.82710031629895
 20
-0.7735848080695958
 30
0.0
 11
-19.72710031629894
 21
-0.7713095737791056
 31
0.0
  0
LINE
  5
F101CA
330
261
100
AcDbEntity
  8
Geo
100
AcDbLine
 10
-19.72710031629894
 20
-0.7713095737791056
 30
0.0
 11
-19.62710031629895
 21
-0.7737973977888056
 31
0.0
  0
LINE
  5
F101CC
330
261
100
AcDbEntity
  8
Geo
100
AcDbLine
 10
-19.62710031629895
 20
-0.7737973977888056
 30
0.0
 11
-19.52710031629895
 21
-0.7810435402361354
 31
0.0
  0
LINE
  5
F101CE
330
261
100
AcDbEntity
  8
Geo
100
AcDbLine
 10
-19.52710031629895
 20
-0.7810435402361354
 30
0.0
 11
-19.42710031629895
 21
-0.7930341955949754
 31
0.0
  0
LINE
  5
F101D0
330
261
100
AcDbEntity
  8
Geo
100
AcDbLine
 10
-19.42710031629895
 20
-0.7930341955949754
 30
0.0
 11
-19.32710031629895
 21
-0.8097465189782653
 31
0.0
  0
LINE
  5
F101D2
330
261
100
AcDbEntity
  8
Geo
100
AcDbLine
 10
-19.32710031629895
 20
-0.8097465189782653
 30
0.0
 11
-19.22710031629894
 21
-0.8311486696626566
 31
0.0
  0
LINE
  5
F101D4
330
261
100
AcDbEntity
  8
Geo
100
AcDbLine
 10
-19.22710031629894
 20
-0.8311486696626566
 30
0.0
 11
-19.12710031629895
 21
-0.8571998717522149
 31
0.0
  0
LINE
  5
F101D6
330
261
100
AcDbEntity
  8
Geo
100
AcDbLine
 10
-19.12710031629895
 20
-0.8571998717522149
 30
0.0
 11
-19.02710031629895
 21
-0.8878504918656062
 31
0.0
  0
LINE
  5
F101D8
330
261
100
AcDbEntity
  8
Geo
100
AcDbLine
 10
-19.02710031629895
 20
-0.8878504918656062
 30
0.0
 11
-18.92710031629895
 21
-0.9230421336989564
 31
0.0
  0
LINE
  5
F101DA
330
261
100
AcDbEntity
  8
Geo
100
AcDbLine
 10
-18.92710031629895
 20
-0.9230421336989564
 30
0.0
 11
-18.82710031629895
 21
-0.9627077492837052
 31
0.0
  0
LINE
  5
F101DC
330
261
100
AcDbEntity
  8
Geo
100
AcDbLine
 10
-18.82710031629895
 20
-0.9627077492837052
 30
0.0
 11
-18.72710031629894
 21
-1.006771766728175
 31
0.0
  0
LINE
  5
F101DE
330
261
100
AcDbEntity
  8
Geo
100
AcDbLine
 10
-18.72710031629894
 20
-1.006771766728175
 30
0.0
 11
-18.62710031629895
 21
-1.055150234198926
 31
0.0
  0
LINE
  5
F101E0
330
261
100
AcDbEntity
  8
Geo
100
AcDbLine
 10
-18.62710031629895
 20
-1.055150234198926
 30
0.0
 11
-18.52710031629895
 21
-1.107750979867756
 31
0.0
  0
LINE
  5
F101E2
330
261
100
AcDbEntity
  8
Geo
100
AcDbLine
 10
-18.52710031629895
 20
-1.107750979867756
 30
0.0
 11
-18.42710031629895
 21
-1.164473787519826
 31
0.0
  0
LINE
  5
F101E4
330
261
100
AcDbEntity
  8
Geo
100
AcDbLine
 10
-18.42710031629895
 20
-1.164473787519826
 30
0.0
 11
-18.32710031629895
 21
-1.225210587487915
 31
0.0
  0
LINE
  5
F101E6
330
261
100
AcDbEntity
  8
Geo
100
AcDbLine
 10
-18.32710031629895
 20
-1.225210587487915
 30
0.0
 11
-18.32710031629895
 21
-1.225210587487935
 31
0.0
  0
LINE
  5
F101E8
330
261
100
AcDbEntity
  8
Geo
100
AcDbLine
 10
-18.32710031629895
 20
-1.225210587487935
 30
0.0
 11
-18.32710031629895
 21
-1.388898411460796
 31
0.0
  0
LINE
  5
F101EA
330
261
100
AcDbEntity
  8
Geo
100
AcDbLine
 10
-18.32710031629895
 20
-1.388898411460796
 30
0.0
 11
-18.32710031629895
 21
-1.225210587487935
 31
0.0
  0
LINE
  5
F101EC
330
261
100
AcDbEntity
  8
Geo
100
AcDbLine
 10
-18.32710031629895
 20
-1.225210587487935
 30
0.0
 11
-18.32710031629895
 21
-1.225210587487935
 31
0.0
  0
LINE
  5
F101EE
330
261
100
AcDbEntity
  8
Geo
100
AcDbLine
 10
-18.32710031629895
 20
-1.225210587487935
 30
0.0
 11
-18.22710031629894
 21
-1.380149484293895
 31
0.0
  0
LINE
  5
F101F0
330
261
100
AcDbEntity
  8
Geo
100
AcDbLine
 10
-18.22710031629894
 20
-1.380149484293895
 30
0.0
 11
-18.12710031629895
 21
-1.371621218679656
 31
0.0
  0
LINE
  5
F101F2
330
261
100
AcDbEntity
  8
Geo
100
AcDbLine
 10
-18.12710031629895
 20
-1.371621218679656
 30
0.0
 11
-18.02710031629895
 21
-1.363310047349944
 31
0.0
  0
LINE
  5
F101F4
330
261
100
AcDbEntity
  8
Geo
100
AcDbLine
 10
-18.02710031629895
 20
-1.363310047349944
 30
0.0
 11
-17.92710031629894
 21
-1.355212428616785
 31
0.0
  0
LINE
  5
F101F6
330
261
100
AcDbEntity
  8
Geo
100
AcDbLine
 10
-17.92710031629894
 20
-1.355212428616785
 30
0.0
 11
-17.82710031629895
 21
-1.347324848287435
 31
0.0
  0
LINE
  5
F101F8
330
261
100
AcDbEntity
  8
Geo
100
AcDbLine
 10
-17.82710031629895
 20
-1.347324848287435
 30
0.0
 11
-17.72710031629894
 21
-1.339643821521065
 31
0.0
  0
LINE
  5
F101FA
330
261
100
AcDbEntity
  8
Geo
100
AcDbLine
 10
-17.72710031629894
 20
-1.339643821521065
 30
0.0
 11
-17.62710031629895
 21
-1.332165894628285
 31
0.0
  0
LINE
  5
F101FC
330
261
100
AcDbEntity
  8
Geo
100
AcDbLine
 10
-17.62710031629895
 20
-1.332165894628285
 30
0.0
 11
-17.52710031629895
 21
-1.324887646814445
 31
0.0
  0
LINE
  5
F101FE
330
261
100
AcDbEntity
  8
Geo
100
AcDbLine
 10
-17.52710031629895
 20
-1.324887646814445
 30
0.0
 11
-17.42710031629895
 21
-1.317805691867935
 31
0.0
  0
LINE
  5
F10200
330
261
100
AcDbEntity
  8
Geo
100
AcDbLine
 10
-17.42710031629895
 20
-1.317805691867935
 30
0.0
 11
-17.32710031629895
 21
-1.310916679794465
 31
0.0
  0
LINE
  5
F10202
330
261
100
AcDbEntity
  8
Geo
100
AcDbLine
 10
-17.32710031629895
 20
-1.310916679794465
 30
0.0
 11
-17.22710031629894
 21
-1.304217298398506
 31
0.0
  0
LINE
  5
F10204
330
261
100
AcDbEntity
  8
Geo
100
AcDbLine
 10
-17.22710031629894
 20
-1.304217298398506
 30
0.0
 11
-17.12710031629895
 21
-1.297704274812866
 31
0.0
  0
LINE
  5
F10206
330
261
100
AcDbEntity
  8
Geo
100
AcDbLine
 10
-17.12710031629895
 20
-1.297704274812866
 30
0.0
 11
-17.02710031629895
 21
-1.291374376977666
 31
0.0
  0
LINE
  5
F10208
330
261
100
AcDbEntity
  8
Geo
100
AcDbLine
 10
-17.02710031629895
 20
-1.291374376977666
 30
0.0
 11
-16.92710031629895
 21
-1.285224415069635
 31
0.0
  0
LINE
  5
F1020A
330
261
100
AcDbEntity
  8
Geo
100
AcDbLine
 10
-16.92710031629895
 20
-1.285224415069635
 30
0.0
 11
-16.82710031629895
 21
-1.279251242882955
 31
0.0
  0
LINE
  5
F1020C
330
261
100
AcDbEntity
  8
Geo
100
AcDbLine
 10
-16.82710031629895
 20
-1.279251242882955
 30
0.0
 11
-16.72710031629894
 21
-1.273451759162585
 31
0.0
  0
LINE
  5
F1020E
330
261
100
AcDbEntity
  8
Geo
100
AcDbLine
 10
-16.72710031629894
 20
-1.273451759162585
 30
0.0
 11
-16.62710031629895
 21
-1.267822908891314
 31
0.0
  0
LINE
  5
F10210
330
261
100
AcDbEntity
  8
Geo
100
AcDbLine
 10
-16.62710031629895
 20
-1.267822908891314
 30
0.0
 11
-16.52710031629895
 21
-1.262361684531496
 31
0.0
  0
LINE
  5
F10212
330
261
100
AcDbEntity
  8
Geo
100
AcDbLine
 10
-16.52710031629895
 20
-1.262361684531496
 30
0.0
 11
-16.42710031629895
 21
-1.257065127222505
 31
0.0
  0
LINE
  5
F10214
330
261
100
AcDbEntity
  8
Geo
100
AcDbLine
 10
-16.42710031629895
 20
-1.257065127222505
 30
0.0
 11
-16.32710031629895
 21
-1.251930327935165
 31
0.0
  0
LINE
  5
F10216
330
261
100
AcDbEntity
  8
Geo
100
AcDbLine
 10
-16.32710031629895
 20
-1.251930327935165
 30
0.0
 11
-16.22710031629894
 21
-1.246954428583886
 31
0.0
  0
LINE
  5
F10218
330
261
100
AcDbEntity
  8
Geo
100
AcDbLine
 10
-16.22710031629894
 20
-1.246954428583886
 30
0.0
 11
-16.12710031629895
 21
-1.242134623097805
 31
0.0
  0
LINE
  5
F1021A
330
261
100
AcDbEntity
  8
Geo
100
AcDbLine
 10
-16.12710031629895
 20
-1.242134623097805
 30
0.0
 11
-16.02710031629895
 21
-1.237468158451815
 31
0.0
  0
LINE
  5
F1021C
330
261
100
AcDbEntity
  8
Geo
100
AcDbLine
 10
-16.02710031629895
 20
-1.237468158451815
 30
0.0
 11
-15.92710031629894
 21
-1.232952335658585
 31
0.0
  0
LINE
  5
F1021E
330
261
100
AcDbEntity
  8
Geo
100
AcDbLine
 10
-15.92710031629894
 20
-1.232952335658585
 30
0.0
 11
-15.82710031629895
 21
-1.228584510722416
 31
0.0
  0
LINE
  5
F10220
330
261
100
AcDbEntity
  8
Geo
100
AcDbLine
 10
-15.82710031629895
 20
-1.228584510722416
 30
0.0
 11
-15.72710031629894
 21
-1.224362095556056
 31
0.0
  0
LINE
  5
F10222
330
261
100
AcDbEntity
  8
Geo
100
AcDbLine
 10
-15.72710031629894
 20
-1.224362095556056
 30
0.0
 11
-15.62710031629895
 21
-1.220282558861366
 31
0.0
  0
LINE
  5
F10224
330
261
100
AcDbEntity
  8
Geo
100
AcDbLine
 10
-15.62710031629895
 20
-1.220282558861366
 30
0.0
 11
-15.52710031629895
 21
-1.216343426974916
 31
0.0
  0
LINE
  5
F10226
330
261
100
AcDbEntity
  8
Geo
100
AcDbLine
 10
-15.52710031629895
 20
-1.216343426974916
 30
0.0
 11
-15.42710031629894
 21
-1.212542284679085
 31
0.0
  0
LINE
  5
F10228
330
261
100
AcDbEntity
  8
Geo
100
AcDbLine
 10
-15.42710031629894
 20
-1.212542284679085
 30
0.0
 11
-15.32710031629895
 21
-1.208876775980056
 31
0.0
  0
LINE
  5
F1022A
330
261
100
AcDbEntity
  8
Geo
100
AcDbLine
 10
-32.32710031629896
 20
-2.728205733877025
 30
0.0
 11
-32.22710031629894
 21
-2.803408942171076
 31
0.0
  0
LINE
  5
F1022C
330
261
100
AcDbEntity
  8
Geo
100
AcDbLine
 10
-32.22710031629894
 20
-2.803408942171076
 30
0.0
 11
-32.12710031629895
 21
-2.901989966983515
 31
0.0
  0
LINE
  5
F1022E
330
261
100
AcDbEntity
  8
Geo
100
AcDbLine
 10
-32.12710031629895
 20
-2.901989966983515
 30
0.0
 11
-32.02710031629896
 21
-3.001161822484506
 31
0.0
  0
LINE
  5
F10230
330
261
100
AcDbEntity
  8
Geo
100
AcDbLine
 10
-32.02710031629896
 20
-3.001161822484506
 30
0.0
 11
-31.92710031629895
 21
-3.100765854860756
 31
0.0
  0
LINE
  5
F10232
330
261
100
AcDbEntity
  8
Geo
100
AcDbLine
 10
-31.92710031629895
 20
-3.100765854860756
 30
0.0
 11
-31.82710031629895
 21
-3.200642718908206
 31
0.0
  0
LINE
  5
F10234
330
261
100
AcDbEntity
  8
Geo
100
AcDbLine
 10
-31.82710031629895
 20
-3.200642718908206
 30
0.0
 11
-31.72710031629895
 21
-3.300632632950295
 31
0.0
  0
LINE
  5
F10236
330
261
100
AcDbEntity
  8
Geo
100
AcDbLine
 10
-31.72710031629895
 20
-3.300632632950295
 30
0.0
 11
-31.62710031629895
 21
-3.400575634454615
 31
0.0
  0
LINE
  5
F10238
330
261
100
AcDbEntity
  8
Geo
100
AcDbLine
 10
-31.62710031629895
 20
-3.400575634454615
 30
0.0
 11
-31.52710031629896
 21
-3.500311835938785
 31
0.0
  0
LINE
  5
F1023A
330
261
100
AcDbEntity
  8
Geo
100
AcDbLine
 10
-31.52710031629896
 20
-3.500311835938785
 30
0.0
 11
-31.42710031629895
 21
-3.599681680756354
 31
0.0
  0
LINE
  5
F1023C
330
261
100
AcDbEntity
  8
Geo
100
AcDbLine
 10
-31.42710031629895
 20
-3.599681680756354
 30
0.0
 11
-31.32710031629895
 21
-3.698526198353385
 31
0.0
  0
LINE
  5
F1023E
330
261
100
AcDbEntity
  8
Geo
100
AcDbLine
 10
-31.32710031629895
 20
-3.698526198353385
 30
0.0
 11
-31.22710031629895
 21
-3.796687258587425
 31
0.0
  0
LINE
  5
F10240
330
261
100
AcDbEntity
  8
Geo
100
AcDbLine
 10
-31.22710031629895
 20
-3.796687258587425
 30
0.0
 11
-31.12710031629895
 21
-3.894007824702015
 31
0.0
  0
LINE
  5
F10242
330
261
100
AcDbEntity
  8
Geo
100
AcDbLine
 10
-31.12710031629895
 20
-3.894007824702015
 30
0.0
 11
-31.02710031629896
 21
-3.990332204551975
 31
0.0
  0
LINE
  5
F10244
330
261
100
AcDbEntity
  8
Geo
100
AcDbLine
 10
-31.02710031629896
 20
-3.990332204551975
 30
0.0
 11
-30.92710031629895
 21
-4.085506299677666
 31
0.0
  0
LINE
  5
F10246
330
261
100
AcDbEntity
  8
Geo
100
AcDbLine
 10
-30.92710031629895
 20
-4.085506299677666
 30
0.0
 11
-30.82710031629896
 21
-4.179377851829595
 31
0.0
  0
LINE
  5
F10248
330
261
100
AcDbEntity
  8
Geo
100
AcDbLine
 10
-30.82710031629896
 20
-4.179377851829595
 30
0.0
 11
-30.72710031629894
 21
-4.271796686549196
 31
0.0
  0
LINE
  5
F1024A
330
261
100
AcDbEntity
  8
Geo
100
AcDbLine
 10
-30.72710031629894
 20
-4.271796686549196
 30
0.0
 11
-30.62710031629895
 21
-4.362614953415866
 31
0.0
  0
LINE
  5
F1024C
330
261
100
AcDbEntity
  8
Geo
100
AcDbLine
 10
-30.62710031629895
 20
-4.362614953415866
 30
0.0
 11
-30.52710031629896
 21
-4.451687362576166
 31
0.0
  0
LINE
  5
F1024E
330
261
100
AcDbEntity
  8
Geo
100
AcDbLine
 10
-30.52710031629896
 20
-4.451687362576166
 30
0.0
 11
-30.42710031629895
 21
-4.538871417176535
 31
0.0
  0
LINE
  5
F10250
330
261
100
AcDbEntity
  8
Geo
100
AcDbLine
 10
-30.42710031629895
 20
-4.538871417176535
 30
0.0
 11
-30.32710031629895
 21
-4.624027641327885
 31
0.0
  0
LINE
  5
F10252
330
261
100
AcDbEntity
  8
Geo
100
AcDbLine
 10
-30.32710031629895
 20
-4.624027641327885
 30
0.0
 11
-30.22710031629895
 21
-4.707019803237265
 31
0.0
  0
LINE
  5
F10254
330
261
100
AcDbEntity
  8
Geo
100
AcDbLine
 10
-30.22710031629895
 20
-4.707019803237265
 30
0.0
 11
-30.12710031629895
 21
-4.787715133149685
 31
0.0
  0
LINE
  5
F10256
330
261
100
AcDbEntity
  8
Geo
100
AcDbLine
 10
-30.12710031629895
 20
-4.787715133149685
 30
0.0
 11
-30.02710031629896
 21
-4.865984535751335
 31
0.0
  0
LINE
  5
F10258
330
261
100
AcDbEntity
  8
Geo
100
AcDbLine
 10
-30.02710031629896
 20
-4.865984535751335
 30
0.0
 11
-29.92710031629895
 21
-4.941702796694656
 31
0.0
  0
LINE
  5
F1025A
330
261
100
AcDbEntity
  8
Geo
100
AcDbLine
 10
-29.92710031629895
 20
-4.941702796694656
 30
0.0
 11
-29.82710031629896
 21
-5.014748782914515
 31
0.0
  0
LINE
  5
F1025C
330
261
100
AcDbEntity
  8
Geo
100
AcDbLine
 10
-29.82710031629896
 20
-5.014748782914515
 30
0.0
 11
-29.72710031629894
 21
-5.085005636415266
 31
0.0
  0
LINE
  5
F1025E
330
261
100
AcDbEntity
  8
Geo
100
AcDbLine
 10
-29.72710031629894
 20
-5.085005636415266
 30
0.0
 11
-29.62710031629895
 21
-5.152360961218635
 31
0.0
  0
LINE
  5
F10260
330
261
100
AcDbEntity
  8
Geo
100
AcDbLine
 10
-29.62710031629895
 20
-5.152360961218635
 30
0.0
 11
-29.52710031629896
 21
-5.216707003173295
 31
0.0
  0
LINE
  5
F10262
330
261
100
AcDbEntity
  8
Geo
100
AcDbLine
 10
-29.52710031629896
 20
-5.216707003173295
 30
0.0
 11
-29.42710031629895
 21
-5.277940822338566
 31
0.0
  0
LINE
  5
F10264
330
261
100
AcDbEntity
  8
Geo
100
AcDbLine
 10
-29.42710031629895
 20
-5.277940822338566
 30
0.0
 11
-29.32710031629895
 21
-5.335964457666296
 31
0.0
  0
LINE
  5
F10266
330
261
100
AcDbEntity
  8
Geo
100
AcDbLine
 10
-29.32710031629895
 20
-5.335964457666296
 30
0.0
 11
-29.22710031629895
 21
-5.390685083717645
 31
0.0
  0
LINE
  5
F10268
330
261
100
AcDbEntity
  8
Geo
100
AcDbLine
 10
-29.22710031629895
 20
-5.390685083717645
 30
0.0
 11
-29.12710031629895
 21
-5.442015159164095
 31
0.0
  0
LINE
  5
F1026A
330
261
100
AcDbEntity
  8
Geo
100
AcDbLine
 10
-29.12710031629895
 20
-5.442015159164095
 30
0.0
 11
-29.02710031629896
 21
-5.489872566834716
 31
0.0
  0
LINE
  5
F1026C
330
261
100
AcDbEntity
  8
Geo
100
AcDbLine
 10
-29.02710031629896
 20
-5.489872566834716
 30
0.0
 11
-28.92710031629895
 21
-5.534180745086285
 31
0.0
  0
LINE
  5
F1026E
330
261
100
AcDbEntity
  8
Geo
100
AcDbLine
 10
-28.92710031629895
 20
-5.534180745086285
 30
0.0
 11
-28.82710031629896
 21
-5.574868810285526
 31
0.0
  0
LINE
  5
F10270
330
261
100
AcDbEntity
  8
Geo
100
AcDbLine
 10
-28.82710031629896
 20
-5.574868810285526
 30
0.0
 11
-28.72710031629895
 21
-5.611871670207755
 31
0.0
  0
LINE
  5
F10272
330
261
100
AcDbEntity
  8
Geo
100
AcDbLine
 10
-28.72710031629895
 20
-5.611871670207755
 30
0.0
 11
-28.62710031629895
 21
-5.645130128170615
 31
0.0
  0
LINE
  5
F10274
330
261
100
AcDbEntity
  8
Geo
100
AcDbLine
 10
-28.62710031629895
 20
-5.645130128170615
 30
0.0
 11
-28.52710031629896
 21
-5.674590977736155
 31
0.0
  0
LINE
  5
F10276
330
261
100
AcDbEntity
  8
Geo
100
AcDbLine
 10
-28.52710031629896
 20
-5.674590977736155
 30
0.0
 11
-28.42710031629895
 21
-5.700207087829696
 31
0.0
  0
LINE
  5
F10278
330
261
100
AcDbEntity
  8
Geo
100
AcDbLine
 10
-28.42710031629895
 20
-5.700207087829696
 30
0.0
 11
-28.32710031629896
 21
-5.721937478139565
 31
0.0
  0
LINE
  5
F1027A
330
261
100
AcDbEntity
  8
Geo
100
AcDbLine
 10
-28.32710031629896
 20
-5.721937478139565
 30
0.0
 11
-28.22710031629894
 21
-5.739747384676835
 31
0.0
  0
LINE
  5
F1027C
330
261
100
AcDbEntity
  8
Geo
100
AcDbLine
 10
-28.22710031629894
 20
-5.739747384676835
 30
0.0
 11
-28.12710031629895
 21
-5.753608315390305
 31
0.0
  0
LINE
  5
F1027E
330
261
100
AcDbEntity
  8
Geo
100
AcDbLine
 10
-28.12710031629895
 20
-5.753608315390305
 30
0.0
 11
-28.02710031629896
 21
-5.763498095747655
 31
0.0
  0
LINE
  5
F10280
330
261
100
AcDbEntity
  8
Geo
100
AcDbLine
 10
-28.02710031629896
 20
-5.763498095747655
 30
0.0
 11
-27.92710031629895
 21
-5.769400904210035
 31
0.0
  0
LINE
  5
F10282
330
261
100
AcDbEntity
  8
Geo
100
AcDbLine
 10
-20.02710031629896
 20
-0.7718418617012058
 30
0.0
 11
-19.92710031629895
 21
-0.7717759647918854
 31
0.0
  0
LINE
  5
F10284
330
261
100
AcDbEntity
  8
Geo
100
AcDbLine
 10
-19.92710031629895
 20
-0.7717759647918854
 30
0.0
 11
-19.82710031629895
 21
-0.7757087865532153
 31
0.0
  0
LINE
  5
F10286
330
261
100
AcDbEntity
  8
Geo
100
AcDbLine
 10
-19.82710031629895
 20
-0.7757087865532153
 30
0.0
 11
-19.72710031629894
 21
-0.7836340353092952
 31
0.0
  0
LINE
  5
F10288
330
261
100
AcDbEntity
  8
Geo
100
AcDbLine
 10
-19.72710031629894
 20
-0.7836340353092952
 30
0.0
 11
-19.62710031629895
 21
-0.7955390323527754
 31
0.0
  0
LINE
  5
F1028A
330
261
100
AcDbEntity
  8
Geo
100
AcDbLine
 10
-19.62710031629895
 20
-0.7955390323527754
 30
0.0
 11
-19.52710031629895
 21
-0.8114047322279454
 31
0.0
  0
LINE
  5
F1028C
330
261
100
AcDbEntity
  8
Geo
100
AcDbLine
 10
-19.52710031629895
 20
-0.8114047322279454
 30
0.0
 11
-19.42710031629895
 21
-0.831205753199546
 31
0.0
  0
LINE
  5
F1028E
330
261
100
AcDbEntity
  8
Geo
100
AcDbLine
 10
-19.42710031629895
 20
-0.831205753199546
 30
0.0
 11
-19.32710031629895
 21
-0.8549104178580053
 31
0.0
  0
LINE
  5
F10290
330
261
100
AcDbEntity
  8
Geo
100
AcDbLine
 10
-19.32710031629895
 20
-0.8549104178580053
 30
0.0
 11
-19.22710031629894
 21
-0.8824808037965761
 31
0.0
  0
LINE
  5
F10292
330
261
100
AcDbEntity
  8
Geo
100
AcDbLine
 10
-19.22710031629894
 20
-0.8824808037965761
 30
0.0
 11
-19.12710031629895
 21
-0.9138728042791353
 31
0.0
  0
LINE
  5
F10294
330
261
100
AcDbEntity
  8
Geo
100
AcDbLine
 10
-19.12710031629895
 20
-0.9138728042791353
 30
0.0
 11
-19.02710031629895
 21
-0.9490361988015161
 31
0.0
  0
LINE
  5
F10296
330
261
100
AcDbEntity
  8
Geo
100
AcDbLine
 10
-19.02710031629895
 20
-0.9490361988015161
 30
0.0
 11
-18.92710031629895
 21
-0.9879147334336266
 31
0.0
  0
LINE
  5
F10298
330
261
100
AcDbEntity
  8
Geo
100
AcDbLine
 10
-18.92710031629895
 20
-0.9879147334336266
 30
0.0
 11
-18.82710031629895
 21
-1.030446210813666
 31
0.0
  0
LINE
  5
F1029A
330
261
100
AcDbEntity
  8
Geo
100
AcDbLine
 10
-18.82710031629895
 20
-1.030446210813666
 30
0.0
 11
-18.72710031629894
 21
-1.076562589650735
 31
0.0
  0
LINE
  5
F1029C
330
261
100
AcDbEntity
  8
Geo
100
AcDbLine
 10
-18.72710031629894
 20
-1.076562589650735
 30
0.0
 11
-18.62710031629895
 21
-1.126190093576335
 31
0.0
  0
LINE
  5
F1029E
330
261
100
AcDbEntity
  8
Geo
100
AcDbLine
 10
-18.62710031629895
 20
-1.126190093576335
 30
0.0
 11
-18.52710031629895
 21
-1.179249329170826
 31
0.0
  0
LINE
  5
F102A0
330
261
100
AcDbEntity
  8
Geo
100
AcDbLine
 10
-18.52710031629895
 20
-1.179249329170826
 30
0.0
 11
-18.42710031629895
 21
-1.235655412975956
 31
0.0
  0
LINE
  5
F102A2
330
261
100
AcDbEntity
  8
Geo
100
AcDbLine
 10
-18.42710031629895
 20
-1.235655412975956
 30
0.0
 11
-18.32710031629895
 21
-1.295318107290276
 31
0.0
  0
LINE
  5
F102A4
330
261
100
AcDbEntity
  8
Geo
100
AcDbLine
 10
-18.32710031629895
 20
-1.295318107290276
 30
0.0
 11
-18.32710031629895
 21
-1.295318107290315
 31
0.0
  0
LINE
  5
F102A6
330
261
100
AcDbEntity
  8
Geo
100
AcDbLine
 10
-18.32710031629895
 20
-1.295318107290315
 30
0.0
 11
-18.32710031629895
 21
-1.453397329678985
 31
0.0
  0
LINE
  5
F102A8
330
261
100
AcDbEntity
  8
Geo
100
AcDbLine
 10
-18.32710031629895
 20
-1.453397329678985
 30
0.0
 11
-18.32710031629895
 21
-1.295318107290315
 31
0.0
  0
LINE
  5
F102AA
330
261
100
AcDbEntity
  8
Geo
100
AcDbLine
 10
-18.32710031629895
 20
-1.295318107290315
 30
0.0
 11
-18.32710031629895
 21
-1.295318107290315
 31
0.0
  0
LINE
  5
F102AC
330
261
100
AcDbEntity
  8
Geo
100
AcDbLine
 10
-18.32710031629895
 20
-1.295318107290315
 30
0.0
 11
-18.22710031629894
 21
-1.533577747232775
 31
0.0
  0
LINE
  5
F102AE
330
261
100
AcDbEntity
  8
Geo
100
AcDbLine
 10
-18.22710031629894
 20
-1.533577747232775
 30
0.0
 11
-18.12710031629895
 21
-1.618027940797385
 31
0.0
  0
LINE
  5
F102B0
330
261
100
AcDbEntity
  8
Geo
100
AcDbLine
 10
-18.12710031629895
 20
-1.618027940797385
 30
0.0
 11
-18.02710031629895
 21
-1.706328498070256
 31
0.0
  0
LINE
  5
F102B2
330
261
100
AcDbEntity
  8
Geo
100
AcDbLine
 10
-18.02710031629895
 20
-1.706328498070256
 30
0.0
 11
-17.92710031629894
 21
-1.798064955085105
 31
0.0
  0
LINE
  5
F102B4
330
261
100
AcDbEntity
  8
Geo
100
AcDbLine
 10
-17.92710031629894
 20
-1.798064955085105
 30
0.0
 11
-17.82710031629895
 21
-1.892829569952086
 31
0.0
  0
LINE
  5
F102B6
330
261
100
AcDbEntity
  8
Geo
100
AcDbLine
 10
-17.82710031629895
 20
-1.892829569952086
 30
0.0
 11
-17.72710031629894
 21
-1.990222936523536
 31
0.0
  0
LINE
  5
F102B8
330
261
100
AcDbEntity
  8
Geo
100
AcDbLine
 10
-17.72710031629894
 20
-1.990222936523536
 30
0.0
 11
-17.62710031629895
 21
-2.089855439812246
 31
0.0
  0
LINE
  5
F102BA
330
261
100
AcDbEntity
  8
Geo
100
AcDbLine
 10
-17.62710031629895
 20
-2.089855439812246
 30
0.0
 11
-17.52710031629895
 21
-2.191348555969395
 31
0.0
  0
LINE
  5
F102BC
330
261
100
AcDbEntity
  8
Geo
100
AcDbLine
 10
-17.52710031629895
 20
-2.191348555969395
 30
0.0
 11
-17.42710031629895
 21
-2.294336000498805
 31
0.0
  0
LINE
  5
F102BE
330
261
100
AcDbEntity
  8
Geo
100
AcDbLine
 10
-17.42710031629895
 20
-2.294336000498805
 30
0.0
 11
-17.32710031629895
 21
-2.398464729147986
 31
0.0
  0
LINE
  5
F102C0
330
261
100
AcDbEntity
  8
Geo
100
AcDbLine
 10
-17.32710031629895
 20
-2.398464729147986
 30
0.0
 11
-17.22710031629894
 21
-2.503395796575365
 31
0.0
  0
LINE
  5
F102C2
330
261
100
AcDbEntity
  8
Geo
100
AcDbLine
 10
-17.22710031629894
 20
-2.503395796575365
 30
0.0
 11
-17.12710031629895
 21
-2.608805078455005
 31
0.0
  0
LINE
  5
F102C4
330
261
100
AcDbEntity
  8
Geo
100
AcDbLine
 10
-17.12710031629895
 20
-2.608805078455005
 30
0.0
 11
-17.02710031629895
 21
-2.714383863146515
 31
0.0
  0
LINE
  5
F102C6
330
261
100
AcDbEntity
  8
Geo
100
AcDbLine
 10
-17.02710031629895
 20
-2.714383863146515
 30
0.0
 11
-16.92710031629895
 21
-2.819839319436255
 31
0.0
  0
LINE
  5
F102C8
330
261
100
AcDbEntity
  8
Geo
100
AcDbLine
 10
-16.92710031629895
 20
-2.819839319436255
 30
0.0
 11
-16.82710031629895
 21
-2.924894847150275
 31
0.0
  0
LINE
  5
F102CA
330
261
100
AcDbEntity
  8
Geo
100
AcDbLine
 10
-16.82710031629895
 20
-2.924894847150275
 30
0.0
 11
-16.72710031629894
 21
-3.029290317656305
 31
0.0
  0
LINE
  5
F102CC
330
261
100
AcDbEntity
  8
Geo
100
AcDbLine
 10
-16.72710031629894
 20
-3.029290317656305
 30
0.0
 11
-16.62710031629895
 21
-3.132782211416444
 31
0.0
  0
LINE
  5
F102CE
330
261
100
AcDbEntity
  8
Geo
100
AcDbLine
 10
-16.62710031629895
 20
-3.132782211416444
 30
0.0
 11
-16.52710031629895
 21
-3.235143659830555
 31
0.0
  0
LINE
  5
F102D0
330
261
100
AcDbEntity
  8
Geo
100
AcDbLine
 10
-16.52710031629895
 20
-3.235143659830555
 30
0.0
 11
-16.42710031629895
 21
-3.336164398627865
 31
0.0
  0
LINE
  5
F102D2
330
261
100
AcDbEntity
  8
Geo
100
AcDbLine
 10
-16.42710031629895
 20
-3.336164398627865
 30
0.0
 11
-16.32710031629895
 21
-3.435650640027156
 31
0.0
  0
LINE
  5
F102D4
330
261
100
AcDbEntity
  8
Geo
100
AcDbLine
 10
-16.32710031629895
 20
-3.435650640027156
 30
0.0
 11
-16.22710031629894
 21
-3.533424870799326
 31
0.0
  0
LINE
  5
F102D6
330
261
100
AcDbEntity
  8
Geo
100
AcDbLine
 10
-16.22710031629894
 20
-3.533424870799326
 30
0.0
 11
-16.12710031629895
 21
-3.629325583236005
 31
0.0
  0
LINE
  5
F102D8
330
261
100
AcDbEntity
  8
Geo
100
AcDbLine
 10
-16.12710031629895
 20
-3.629325583236005
 30
0.0
 11
-16.02710031629895
 21
-3.723206945859105
 31
0.0
  0
LINE
  5
F102DA
330
261
100
AcDbEntity
  8
Geo
100
AcDbLine
 10
-16.02710031629895
 20
-3.723206945859105
 30
0.0
 11
-15.92710031629894
 21
-3.814938420504176
 31
0.0
  0
LINE
  5
F102DC
330
261
100
AcDbEntity
  8
Geo
100
AcDbLine
 10
-15.92710031629894
 20
-3.814938420504176
 30
0.0
 11
-15.82710031629895
 21
-3.904404332179515
 31
0.0
  0
LINE
  5
F102DE
330
261
100
AcDbEntity
  8
Geo
100
AcDbLine
 10
-15.82710031629895
 20
-3.904404332179515
 30
0.0
 11
-15.72710031629894
 21
-3.991503397848515
 31
0.0
  0
LINE
  5
F102E0
330
261
100
AcDbEntity
  8
Geo
100
AcDbLine
 10
-15.72710031629894
 20
-3.991503397848515
 30
0.0
 11
-15.62710031629895
 21
-4.076148220008085
 31
0.0
  0
LINE
  5
F102E2
330
261
100
AcDbEntity
  8
Geo
100
AcDbLine
 10
-15.62710031629895
 20
-4.076148220008085
 30
0.0
 11
-15.52710031629895
 21
-4.158264750645975
 31
0.0
  0
LINE
  5
F102E4
330
261
100
AcDbEntity
  8
Geo
100
AcDbLine
 10
-15.52710031629895
 20
-4.158264750645975
 30
0.0
 11
-15.42710031629894
 21
-4.237791730857805
 31
0.0
  0
LINE
  5
F102E6
330
261
100
AcDbEntity
  8
Geo
100
AcDbLine
 10
-15.42710031629894
 20
-4.237791730857805
 30
0.0
 11
-15.32710031629895
 21
-4.314680111094006
 31
0.0
  0
LINE
  5
F102E8
330
261
100
AcDbEntity
  8
Geo
100
AcDbLine
 10
-32.32710031629896
 20
-5.588672683950376
 30
0.0
 11
-32.22710031629894
 21
-5.709306623571345
 31
0.0
  0
LINE
  5
F102EA
330
261
100
AcDbEntity
  8
Geo
100
AcDbLine
 10
-32.22710031629894
 20
-5.709306623571345
 30
0.0
 11
-32.12710031629895
 21
-5.729483440392526
 31
0.0
  0
LINE
  5
F102EC
330
261
100
AcDbEntity
  8
Geo
100
AcDbLine
 10
-32.12710031629895
 20
-5.729483440392526
 30
0.0
 11
-32.02710031629896
 21
-5.745727701511215
 31
0.0
  0
LINE
  5
F102EE
330
261
100
AcDbEntity
  8
Geo
100
AcDbLine
 10
-32.02710031629896
 20
-5.745727701511215
 30
0.0
 11
-31.92710031629895
 21
-5.758013419574916
 31
0.0
  0
LINE
  5
F102F0
330
261
100
AcDbEntity
  8
Geo
100
AcDbLine
 10
-31.92710031629895
 20
-5.758013419574916
 30
0.0
 11
-31.82710031629895
 21
-5.766320940055505
 31
0.0
  0
LINE
  5
F102F2
330
261
100
AcDbEntity
  8
Geo
100
AcDbLine
 10
-31.82710031629895
 20
-5.766320940055505
 30
0.0
 11
-31.72710031629895
 21
-5.770636972692384
 31
0.0
  0
LINE
  5
F102F4
330
261
100
AcDbEntity
  8
Geo
100
AcDbLine
 10
-23.82710031629895
 20
-0.7713368195310366
 30
0.0
 11
-23.72710031629894
 21
-0.7728597319817459
 31
0.0
  0
LINE
  5
F102F6
330
261
100
AcDbEntity
  8
Geo
100
AcDbLine
 10
-23.72710031629894
 20
-0.7728597319817459
 30
0.0
 11
-23.62710031629895
 21
-0.7783796293067749
 31
0.0
  0
LINE
  5
F102F8
330
261
100
AcDbEntity
  8
Geo
100
AcDbLine
 10
-23.62710031629895
 20
-0.7783796293067749
 30
0.0
 11
-23.52710031629896
 21
-0.7878876808479163
 31
0.0
  0
LINE
  5
F102FA
330
261
100
AcDbEntity
  8
Geo
100
AcDbLine
 10
-23.52710031629896
 20
-0.7878876808479163
 30
0.0
 11
-23.42710031629895
 21
-0.8013686757509752
 31
0.0
  0
LINE
  5
F102FC
330
261
100
AcDbEntity
  8
Geo
100
AcDbLine
 10
-23.42710031629895
 20
-0.8013686757509752
 30
0.0
 11
-23.32710031629895
 21
-0.8188010472998854
 31
0.0
  0
LINE
  5
F102FE
330
261
100
AcDbEntity
  8
Geo
100
AcDbLine
 10
-23.32710031629895
 20
-0.8188010472998854
 30
0.0
 11
-23.22710031629894
 21
-0.8401569074189065
 31
0.0
  0
LINE
  5
F10300
330
261
100
AcDbEntity
  8
Geo
100
AcDbLine
 10
-23.22710031629894
 20
-0.8401569074189065
 30
0.0
 11
-23.12710031629895
 21
-0.8654020912874953
 31
0.0
  0
LINE
  5
F10302
330
261
100
AcDbEntity
  8
Geo
100
AcDbLine
 10
-23.12710031629895
 20
-0.8654020912874953
 30
0.0
 11
-23.02710031629896
 21
-0.8944962119968362
 31
0.0
  0
LINE
  5
F10304
330
261
100
AcDbEntity
  8
Geo
100
AcDbLine
 10
-23.02710031629896
 20
-0.8944962119968362
 30
0.0
 11
-22.92710031629895
 21
-0.9273927251601863
 31
0.0
  0
LINE
  5
F10306
330
261
100
AcDbEntity
  8
Geo
100
AcDbLine
 10
-22.92710031629895
 20
-0.9273927251601863
 30
0.0
 11
-22.82710031629895
 21
-0.9640390033740553
 31
0.0
  0
LINE
  5
F10308
330
261
100
AcDbEntity
  8
Geo
100
AcDbLine
 10
-22.82710031629895
 20
-0.9640390033740553
 30
0.0
 11
-22.72710031629895
 21
-1.004376420410735
 31
0.0
  0
LINE
  5
F1030A
330
261
100
AcDbEntity
  8
Geo
100
AcDbLine
 10
-22.72710031629895
 20
-1.004376420410735
 30
0.0
 11
-22.62710031629895
 21
-1.048340445007846
 31
0.0
  0
LINE
  5
F1030C
330
261
100
AcDbEntity
  8
Geo
100
AcDbLine
 10
-22.62710031629895
 20
-1.048340445007846
 30
0.0
 11
-22.52710031629896
 21
-1.095860744104505
 31
0.0
  0
LINE
  5
F1030E
330
261
100
AcDbEntity
  8
Geo
100
AcDbLine
 10
-22.52710031629896
 20
-1.095860744104505
 30
0.0
 11
-22.42710031629895
 21
-1.146861295359306
 31
0.0
  0
LINE
  5
F10310
330
261
100
AcDbEntity
  8
Geo
100
AcDbLine
 10
-22.42710031629895
 20
-1.146861295359306
 30
0.0
 11
-22.32710031629896
 21
-1.201260508769734
 31
0.0
  0
LINE
  5
F10312
330
261
100
AcDbEntity
  8
Geo
100
AcDbLine
 10
-22.32710031629896
 20
-1.201260508769734
 30
0.0
 11
-22.22710031629894
 21
-1.258971357198926
 31
0.0
  0
LINE
  5
F10314
330
261
100
AcDbEntity
  8
Geo
100
AcDbLine
 10
-22.22710031629894
 20
-1.258971357198926
 30
0.0
 11
-22.12710031629895
 21
-1.319901515600355
 31
0.0
  0
LINE
  5
F10316
330
261
100
AcDbEntity
  8
Geo
100
AcDbLine
 10
-22.12710031629895
 20
-1.319901515600355
 30
0.0
 11
-22.02710031629896
 21
-1.383953508718355
 31
0.0
  0
LINE
  5
F10318
330
261
100
AcDbEntity
  8
Geo
100
AcDbLine
 10
-22.02710031629896
 20
-1.383953508718355
 30
0.0
 11
-21.92710031629895
 21
-1.451024867027575
 31
0.0
  0
LINE
  5
F1031A
330
261
100
AcDbEntity
  8
Geo
100
AcDbLine
 10
-21.92710031629895
 20
-1.451024867027575
 30
0.0
 11
-21.82710031629895
 21
-1.521008290662575
 31
0.0
  0
LINE
  5
F1031C
330
261
100
AcDbEntity
  8
Geo
100
AcDbLine
 10
-21.82710031629895
 20
-1.521008290662575
 30
0.0
 11
-21.72710031629895
 21
-1.593791821074495
 31
0.0
  0
LINE
  5
F1031E
330
261
100
AcDbEntity
  8
Geo
100
AcDbLine
 10
-21.72710031629895
 20
-1.593791821074495
 30
0.0
 11
-21.62710031629895
 21
-1.669259020141025
 31
0.0
  0
LINE
  5
F10320
330
261
100
AcDbEntity
  8
Geo
100
AcDbLine
 10
-21.62710031629895
 20
-1.669259020141025
 30
0.0
 11
-21.52710031629895
 21
-1.747289156442475
 31
0.0
  0
LINE
  5
F10322
330
261
100
AcDbEntity
  8
Geo
100
AcDbLine
 10
-21.52710031629895
 20
-1.747289156442475
 30
0.0
 11
-21.42710031629895
 21
-1.827757398406275
 31
0.0
  0
LINE
  5
F10324
330
261
100
AcDbEntity
  8
Geo
100
AcDbLine
 10
-21.42710031629895
 20
-1.827757398406275
 30
0.0
 11
-21.32710031629895
 21
-1.910535014010956
 31
0.0
  0
LINE
  5
F10326
330
261
100
AcDbEntity
  8
Geo
100
AcDbLine
 10
-21.32710031629895
 20
-1.910535014010956
 30
0.0
 11
-21.22710031629894
 21
-1.995489576729805
 31
0.0
  0
LINE
  5
F10328
330
261
100
AcDbEntity
  8
Geo
100
AcDbLine
 10
-21.22710031629894
 20
-1.995489576729805
 30
0.0
 11
-21.12710031629895
 21
-2.082485177385176
 31
0.0
  0
LINE
  5
F1032A
330
261
100
AcDbEntity
  8
Geo
100
AcDbLine
 10
-21.12710031629895
 20
-2.082485177385176
 30
0.0
 11
-21.02710031629896
 21
-2.171382641574065
 31
0.0
  0
LINE
  5
F1032C
330
261
100
AcDbEntity
  8
Geo
100
AcDbLine
 10
-21.02710031629896
 20
-2.171382641574065
 30
0.0
 11
-20.92710031629895
 21
-2.262039752317565
 31
0.0
  0
LINE
  5
F1032E
330
261
100
AcDbEntity
  8
Geo
100
AcDbLine
 10
-20.92710031629895
 20
-2.262039752317565
 30
0.0
 11
-20.82710031629895
 21
-2.354311477577645
 31
0.0
  0
LINE
  5
F10330
330
261
100
AcDbEntity
  8
Geo
100
AcDbLine
 10
-20.82710031629895
 20
-2.354311477577645
 30
0.0
 11
-20.72710031629894
 21
-2.448050202277456
 31
0.0
  0
LINE
  5
F10332
330
261
100
AcDbEntity
  8
Geo
100
AcDbLine
 10
-20.72710031629894
 20
-2.448050202277456
 30
0.0
 11
-20.62710031629895
 21
-2.543105964454015
 31
0.0
  0
LINE
  5
F10334
330
261
100
AcDbEntity
  8
Geo
100
AcDbLine
 10
-20.62710031629895
 20
-2.543105964454015
 30
0.0
 11
-20.52710031629896
 21
-2.639326695165315
 31
0.0
  0
LINE
  5
F10336
330
261
100
AcDbEntity
  8
Geo
100
AcDbLine
 10
-20.52710031629896
 20
-2.639326695165315
 30
0.0
 11
-20.42710031629895
 21
-2.736558461768235
 31
0.0
  0
LINE
  5
F10338
330
261
100
AcDbEntity
  8
Geo
100
AcDbLine
 10
-20.42710031629895
 20
-2.736558461768235
 30
0.0
 11
-20.32710031629895
 21
-2.834645714177844
 31
0.0
  0
LINE
  5
F1033A
330
261
100
AcDbEntity
  8
Geo
100
AcDbLine
 10
-20.32710031629895
 20
-2.834645714177844
 30
0.0
 11
-20.22710031629895
 21
-2.933431533714484
 31
0.0
  0
LINE
  5
F1033C
330
261
100
AcDbEntity
  8
Geo
100
AcDbLine
 10
-20.22710031629895
 20
-2.933431533714484
 30
0.0
 11
-20.12710031629895
 21
-3.032757884140065
 31
0.0
  0
LINE
  5
F1033E
330
261
100
AcDbEntity
  8
Geo
100
AcDbLine
 10
-20.12710031629895
 20
-3.032757884140065
 30
0.0
 11
-20.02710031629896
 21
-3.132465864482395
 31
0.0
  0
LINE
  5
F10340
330
261
100
AcDbEntity
  8
Geo
100
AcDbLine
 10
-20.02710031629896
 20
-3.132465864482395
 30
0.0
 11
-19.92710031629895
 21
-3.232395963242845
 31
0.0
  0
LINE
  5
F10342
330
261
100
AcDbEntity
  8
Geo
100
AcDbLine
 10
-19.92710031629895
 20
-3.232395963242845
 30
0.0
 11
-19.82710031629895
 21
-3.332388313580656
 31
0.0
  0
LINE
  5
F10344
330
261
100
AcDbEntity
  8
Geo
100
AcDbLine
 10
-19.82710031629895
 20
-3.332388313580656
 30
0.0
 11
-19.72710031629894
 21
-3.432282949065875
 31
0.0
  0
LINE
  5
F10346
330
261
100
AcDbEntity
  8
Geo
100
AcDbLine
 10
-19.72710031629894
 20
-3.432282949065875
 30
0.0
 11
-19.62710031629895
 21
-3.531920059591425
 31
0.0
  0
LINE
  5
F10348
330
261
100
AcDbEntity
  8
Geo
100
AcDbLine
 10
-19.62710031629895
 20
-3.531920059591425
 30
0.0
 11
-19.52710031629895
 21
-3.631140247035265
 31
0.0
  0
LINE
  5
F1034A
330
261
100
AcDbEntity
  8
Geo
100
AcDbLine
 10
-19.52710031629895
 20
-3.631140247035265
 30
0.0
 11
-19.42710031629895
 21
-3.729784780263326
 31
0.0
  0
LINE
  5
F1034C
330
261
100
AcDbEntity
  8
Geo
100
AcDbLine
 10
-19.42710031629895
 20
-3.729784780263326
 30
0.0
 11
-19.32710031629895
 21
-3.827695849065475
 31
0.0
  0
LINE
  5
F1034E
330
261
100
AcDbEntity
  8
Geo
100
AcDbLine
 10
-19.32710031629895
 20
-3.827695849065475
 30
0.0
 11
-19.22710031629894
 21
-3.924716816618225
 31
0.0
  0
LINE
  5
F10350
330
261
100
AcDbEntity
  8
Geo
100
AcDbLine
 10
-19.22710031629894
 20
-3.924716816618225
 30
0.0
 11
-19.12710031629895
 21
-4.020692470070195
 31
0.0
  0
LINE
  5
F10352
330
261
100
AcDbEntity
  8
Geo
100
AcDbLine
 10
-19.12710031629895
 20
-4.020692470070195
 30
0.0
 11
-19.02710031629895
 21
-4.115469268849555
 31
0.0
  0
LINE
  5
F10354
330
261
100
AcDbEntity
  8
Geo
100
AcDbLine
 10
-19.02710031629895
 20
-4.115469268849555
 30
0.0
 11
-18.92710031629895
 21
-4.208895590296255
 31
0.0
  0
LINE
  5
F10356
330
261
100
AcDbEntity
  8
Geo
100
AcDbLine
 10
-18.92710031629895
 20
-4.208895590296255
 30
0.0
 11
-18.82710031629895
 21
-4.300821972225855
 31
0.0
  0
LINE
  5
F10358
330
261
100
AcDbEntity
  8
Geo
100
AcDbLine
 10
-18.82710031629895
 20
-4.300821972225855
 30
0.0
 11
-18.72710031629894
 21
-4.391101352037175
 31
0.0
  0
LINE
  5
F1035A
330
261
100
AcDbEntity
  8
Geo
100
AcDbLine
 10
-18.72710031629894
 20
-4.391101352037175
 30
0.0
 11
-18.62710031629895
 21
-4.479589301981105
 31
0.0
  0
LINE
  5
F1035C
330
261
100
AcDbEntity
  8
Geo
100
AcDbLine
 10
-18.62710031629895
 20
-4.479589301981105
 30
0.0
 11
-18.52710031629895
 21
-4.566144260214146
 31
0.0
  0
LINE
  5
F1035E
330
261
100
AcDbEntity
  8
Geo
100
AcDbLine
 10
-18.52710031629895
 20
-4.566144260214146
 30
0.0
 11
-18.42710031629895
 21
-4.650627757267205
 31
0.0
  0
LINE
  5
F10360
330
261
100
AcDbEntity
  8
Geo
100
AcDbLine
 10
-18.42710031629895
 20
-4.650627757267205
 30
0.0
 11
-18.32710031629895
 21
-4.732904637567185
 31
0.0
  0
LINE
  5
F10362
330
261
100
AcDbEntity
  8
Geo
100
AcDbLine
 10
-18.32710031629895
 20
-4.732904637567185
 30
0.0
 11
-18.32710031629895
 21
-4.732904637567225
 31
0.0
  0
LINE
  5
F10364
330
261
100
AcDbEntity
  8
Geo
100
AcDbLine
 10
-18.32710031629895
 20
-4.732904637567225
 30
0.0
 11
-18.32710031629895
 21
-4.615976937533735
 31
0.0
  0
LINE
  5
F10366
330
261
100
AcDbEntity
  8
Geo
100
AcDbLine
 10
-18.32710031629895
 20
-4.615976937533735
 30
0.0
 11
-18.32710031629895
 21
-4.732904637567225
 31
0.0
  0
LINE
  5
F10368
330
261
100
AcDbEntity
  8
Geo
100
AcDbLine
 10
-18.32710031629895
 20
-4.732904637567225
 30
0.0
 11
-18.32710031629895
 21
-4.732904637567225
 31
0.0
  0
LINE
  5
F1036A
330
261
100
AcDbEntity
  8
Geo
100
AcDbLine
 10
-18.32710031629895
 20
-4.732904637567225
 30
0.0
 11
-18.22710031629894
 21
-4.604551867306286
 31
0.0
  0
LINE
  5
F1036C
330
261
100
AcDbEntity
  8
Geo
100
AcDbLine
 10
-18.22710031629894
 20
-4.604551867306286
 30
0.0
 11
-18.12710031629895
 21
-4.593205517536856
 31
0.0
  0
LINE
  5
F1036E
330
261
100
AcDbEntity
  8
Geo
100
AcDbLine
 10
-18.12710031629895
 20
-4.593205517536856
 30
0.0
 11
-18.02710031629895
 21
-4.581939944774434
 31
0.0
  0
LINE
  5
F10370
330
261
100
AcDbEntity
  8
Geo
100
AcDbLine
 10
-18.02710031629895
 20
-4.581939944774434
 30
0.0
 11
-17.92710031629894
 21
-4.570757160994075
 31
0.0
  0
LINE
  5
F10372
330
261
100
AcDbEntity
  8
Geo
100
AcDbLine
 10
-17.92710031629894
 20
-4.570757160994075
 30
0.0
 11
-17.82710031629895
 21
-4.559659134178325
 31
0.0
  0
LINE
  5
F10374
330
261
100
AcDbEntity
  8
Geo
100
AcDbLine
 10
-17.82710031629895
 20
-4.559659134178325
 30
0.0
 11
-17.72710031629894
 21
-4.548647788901956
 31
0.0
  0
LINE
  5
F10376
330
261
100
AcDbEntity
  8
Geo
100
AcDbLine
 10
-17.72710031629894
 20
-4.548647788901956
 30
0.0
 11
-17.62710031629895
 21
-4.537725006918945
 31
0.0
  0
LINE
  5
F10378
330
261
100
AcDbEntity
  8
Geo
100
AcDbLine
 10
-17.62710031629895
 20
-4.537725006918945
 30
0.0
 11
-17.52710031629895
 21
-4.526892627751886
 31
0.0
  0
LINE
  5
F1037A
330
261
100
AcDbEntity
  8
Geo
100
AcDbLine
 10
-17.52710031629895
 20
-4.526892627751886
 30
0.0
 11
-17.42710031629895
 21
-4.516152449283005
 31
0.0
  0
LINE
  5
F1037C
330
261
100
AcDbEntity
  8
Geo
100
AcDbLine
 10
-17.42710031629895
 20
-4.516152449283005
 30
0.0
 11
-17.32710031629895
 21
-4.505506228346606
 31
0.0
  0
LINE
  5
F1037E
330
261
100
AcDbEntity
  8
Geo
100
AcDbLine
 10
-17.32710031629895
 20
-4.505506228346606
 30
0.0
 11
-17.22710031629894
 21
-4.494955681322455
 31
0.0
  0
LINE
  5
F10380
330
261
100
AcDbEntity
  8
Geo
100
AcDbLine
 10
-17.22710031629894
 20
-4.494955681322455
 30
0.0
 11
-17.12710031629895
 21
-4.484502484729645
 31
0.0
  0
LINE
  5
F10382
330
261
100
AcDbEntity
  8
Geo
100
AcDbLine
 10
-17.12710031629895
 20
-4.484502484729645
 30
0.0
 11
-17.02710031629895
 21
-4.474148275820866
 31
0.0
  0
LINE
  5
F10384
330
261
100
AcDbEntity
  8
Geo
100
AcDbLine
 10
-17.02710031629895
 20
-4.474148275820866
 30
0.0
 11
-16.92710031629895
 21
-4.463894653176286
 31
0.0
  0
LINE
  5
F10386
330
261
100
AcDbEntity
  8
Geo
100
AcDbLine
 10
-16.92710031629895
 20
-4.463894653176286
 30
0.0
 11
-16.82710031629895
 21
-4.453743177296946
 31
0.0
  0
LINE
  5
F10388
330
261
100
AcDbEntity
  8
Geo
100
AcDbLine
 10
-16.82710031629895
 20
-4.453743177296946
 30
0.0
 11
-16.72710031629894
 21
-4.443695371197475
 31
0.0
  0
LINE
  5
F1038A
330
261
100
AcDbEntity
  8
Geo
100
AcDbLine
 10
-16.72710031629894
 20
-4.443695371197475
 30
0.0
 11
-16.62710031629895
 21
-4.433752720997276
 31
0.0
  0
LINE
  5
F1038C
330
261
100
AcDbEntity
  8
Geo
100
AcDbLine
 10
-16.62710031629895
 20
-4.433752720997276
 30
0.0
 11
-16.52710031629895
 21
-4.423916676510396
 31
0.0
  0
LINE
  5
F1038E
330
261
100
AcDbEntity
  8
Geo
100
AcDbLine
 10
-16.52710031629895
 20
-4.423916676510396
 30
0.0
 11
-16.42710031629895
 21
-4.414188651833495
 31
0.0
  0
LINE
  5
F10390
330
261
100
AcDbEntity
  8
Geo
100
AcDbLine
 10
-16.42710031629895
 20
-4.414188651833495
 30
0.0
 11
-16.32710031629895
 21
-4.404570025931555
 31
0.0
  0
LINE
  5
F10392
330
261
100
AcDbEntity
  8
Geo
100
AcDbLine
 10
-16.32710031629895
 20
-4.404570025931555
 30
0.0
 11
-16.22710031629894
 21
-4.395062143221155
 31
0.0
  0
LINE
  5
F10394
330
261
100
AcDbEntity
  8
Geo
100
AcDbLine
 10
-16.22710031629894
 20
-4.395062143221155
 30
0.0
 11
-16.12710031629895
 21
-4.385666314150985
 31
0.0
  0
LINE
  5
F10396
330
261
100
AcDbEntity
  8
Geo
100
AcDbLine
 10
-16.12710031629895
 20
-4.385666314150985
 30
0.0
 11
-16.02710031629895
 21
-4.376383815779275
 31
0.0
  0
LINE
  5
F10398
330
261
100
AcDbEntity
  8
Geo
100
AcDbLine
 10
-16.02710031629895
 20
-4.376383815779275
 30
0.0
 11
-15.92710031629894
 21
-4.367215892347845
 31
0.0
  0
LINE
  5
F1039A
330
261
100
AcDbEntity
  8
Geo
100
AcDbLine
 10
-15.92710031629894
 20
-4.367215892347845
 30
0.0
 11
-15.82710031629895
 21
-4.358163755852615
 31
0.0
  0
LINE
  5
F1039C
330
261
100
AcDbEntity
  8
Geo
100
AcDbLine
 10
-15.82710031629895
 20
-4.358163755852615
 30
0.0
 11
-15.72710031629894
 21
-4.349228586610115
 31
0.0
  0
LINE
  5
F1039E
330
261
100
AcDbEntity
  8
Geo
100
AcDbLine
 10
-15.72710031629894
 20
-4.349228586610115
 30
0.0
 11
-15.62710031629895
 21
-4.340411533820035
 31
0.0
  0
LINE
  5
F103A0
330
261
100
AcDbEntity
  8
Geo
100
AcDbLine
 10
-15.62710031629895
 20
-4.340411533820035
 30
0.0
 11
-15.52710031629895
 21
-4.331713716123195
 31
0.0
  0
LINE
  5
F103A2
330
261
100
AcDbEntity
  8
Geo
100
AcDbLine
 10
-15.52710031629895
 20
-4.331713716123195
 30
0.0
 11
-15.42710031629894
 21
-4.323136222155005
 31
0.0
  0
LINE
  5
F103A4
330
261
100
AcDbEntity
  8
Geo
100
AcDbLine
 10
-15.42710031629894
 20
-4.323136222155005
 30
0.0
 11
-15.32710031629895
 21
-4.314680111094006
 31
0.0
  0
LINE
  5
F103A6
330
261
100
AcDbEntity
  8
Geo
100
AcDbLine
 10
-24.62710031629895
 20
-0.7721217804159162
 30
0.0
 11
-24.52710031629896
 21
-0.7714636060517153
 31
0.0
  0
LINE
  5
F103A8
330
261
100
AcDbEntity
  8
Geo
100
AcDbLine
 10
-24.52710031629896
 20
-0.7714636060517153
 30
0.0
 11
-24.42710031629895
 21
-0.7741634984612054
 31
0.0
  0
LINE
  5
F103AA
330
261
100
AcDbEntity
  8
Geo
100
AcDbLine
 10
-24.42710031629895
 20
-0.7741634984612054
 30
0.0
 11
-24.32710031629895
 21
-0.7802178308515764
 31
0.0
  0
LINE
  5
F103AC
330
261
100
AcDbEntity
  8
Geo
100
AcDbLine
 10
-24.32710031629895
 20
-0.7802178308515764
 30
0.0
 11
-24.22710031629895
 21
-0.7896184703769152
 31
0.0
  0
LINE
  5
F103AE
330
261
100
AcDbEntity
  8
Geo
100
AcDbLine
 10
-24.22710031629895
 20
-0.7896184703769152
 30
0.0
 11
-24.12710031629895
 21
-0.8023527890631161
 31
0.0
  0
LINE
  5
F103B0
330
261
100
AcDbEntity
  8
Geo
100
AcDbLine
 10
-24.12710031629895
 20
-0.8023527890631161
 30
0.0
 11
-24.02710031629896
 21
-0.8184036807710652
 31
0.0
  0
LINE
  5
F103B2
330
261
100
AcDbEntity
  8
Geo
100
AcDbLine
 10
-24.02710031629896
 20
-0.8184036807710652
 30
0.0
 11
-23.92710031629895
 21
-0.8377495841756665
 31
0.0
  0
LINE
  5
F103B4
330
261
100
AcDbEntity
  8
Geo
100
AcDbLine
 10
-23.92710031629895
 20
-0.8377495841756665
 30
0.0
 11
-23.82710031629895
 21
-0.8603645117291947
 31
0.0
  0
LINE
  5
F103B6
330
261
100
AcDbEntity
  8
Geo
100
AcDbLine
 10
-23.82710031629895
 20
-0.8603645117291947
 30
0.0
 11
-23.72710031629894
 21
-0.8862180845708262
 31
0.0
  0
LINE
  5
F103B8
330
261
100
AcDbEntity
  8
Geo
100
AcDbLine
 10
-23.72710031629894
 20
-0.8862180845708262
 30
0.0
 11
-23.62710031629895
 21
-0.9152755733347053
 31
0.0
  0
LINE
  5
F103BA
330
261
100
AcDbEntity
  8
Geo
100
AcDbLine
 10
-23.62710031629895
 20
-0.9152755733347053
 30
0.0
 11
-23.52710031629896
 21
-0.9474979448023148
 31
0.0
  0
LINE
  5
F103BC
330
261
100
AcDbEntity
  8
Geo
100
AcDbLine
 10
-23.52710031629896
 20
-0.9474979448023148
 30
0.0
 11
-23.42710031629895
 21
-0.9828419143362552
 31
0.0
  0
LINE
  5
F103BE
330
261
100
AcDbEntity
  8
Geo
100
AcDbLine
 10
-23.42710031629895
 20
-0.9828419143362552
 30
0.0
 11
-23.32710031629895
 21
-1.021260004024825
 31
0.0
  0
LINE
  5
F103C0
330
261
100
AcDbEntity
  8
Geo
100
AcDbLine
 10
-23.32710031629895
 20
-1.021260004024825
 30
0.0
 11
-23.22710031629894
 21
-1.062700606459645
 31
0.0
  0
LINE
  5
F103C2
330
261
100
AcDbEntity
  8
Geo
100
AcDbLine
 10
-23.22710031629894
 20
-1.062700606459645
 30
0.0
 11
-23.12710031629895
 21
-1.107108054060406
 31
0.0
  0
LINE
  5
F103C4
330
261
100
AcDbEntity
  8
Geo
100
AcDbLine
 10
-23.12710031629895
 20
-1.107108054060406
 30
0.0
 11
-23.02710031629896
 21
-1.154422693853694
 31
0.0
  0
LINE
  5
F103C6
330
261
100
AcDbEntity
  8
Geo
100
AcDbLine
 10
-23.02710031629896
 20
-1.154422693853694
 30
0.0
 11
-22.92710031629895
 21
-1.204580967605394
 31
0.0
  0
LINE
  5
F103C8
330
261
100
AcDbEntity
  8
Geo
100
AcDbLine
 10
-22.92710031629895
 20
-1.204580967605394
 30
0.0
 11
-22.82710031629895
 21
-1.257515497199185
 31
0.0
  0
LINE
  5
F103CA
330
261
100
AcDbEntity
  8
Geo
100
AcDbLine
 10
-22.82710031629895
 20
-1.257515497199185
 30
0.0
 11
-22.72710031629895
 21
-1.313155175146156
 31
0.0
  0
LINE
  5
F103CC
330
261
100
AcDbEntity
  8
Geo
100
AcDbLine
 10
-22.72710031629895
 20
-1.313155175146156
 30
0.0
 11
-22.62710031629895
 21
-1.371425260104275
 31
0.0
  0
LINE
  5
F103CE
330
261
100
AcDbEntity
  8
Geo
100
AcDbLine
 10
-22.62710031629895
 20
-1.371425260104275
 30
0.0
 11
-22.52710031629896
 21
-1.432247477279186
 31
0.0
  0
LINE
  5
F103D0
330
261
100
AcDbEntity
  8
Geo
100
AcDbLine
 10
-22.52710031629896
 20
-1.432247477279186
 30
0.0
 11
-22.42710031629895
 21
-1.495540123571475
 31
0.0
  0
LINE
  5
F103D2
330
261
100
AcDbEntity
  8
Geo
100
AcDbLine
 10
-22.42710031629895
 20
-1.495540123571475
 30
0.0
 11
-22.32710031629896
 21
-1.561218177329375
 31
0.0
  0
LINE
  5
F103D4
330
261
100
AcDbEntity
  8
Geo
100
AcDbLine
 10
-22.32710031629896
 20
-1.561218177329375
 30
0.0
 11
-22.22710031629894
 21
-1.629193412559095
 31
0.0
  0
LINE
  5
F103D6
330
261
100
AcDbEntity
  8
Geo
100
AcDbLine
 10
-22.22710031629894
 20
-1.629193412559095
 30
0.0
 11
-22.12710031629895
 21
-1.699374517439775
 31
0.0
  0
LINE
  5
F103D8
330
261
100
AcDbEntity
  8
Geo
100
AcDbLine
 10
-22.12710031629895
 20
-1.699374517439775
 30
0.0
 11
-22.02710031629896
 21
-1.771667216983525
 31
0.0
  0
LINE
  5
F103DA
330
261
100
AcDbEntity
  8
Geo
100
AcDbLine
 10
-22.02710031629896
 20
-1.771667216983525
 30
0.0
 11
-21.92710031629895
 21
-1.845974399676014
 31
0.0
  0
LINE
  5
F103DC
330
261
100
AcDbEntity
  8
Geo
100
AcDbLine
 10
-21.92710031629895
 20
-1.845974399676014
 30
0.0
 11
-21.82710031629895
 21
-1.922196247927304
 31
0.0
  0
LINE
  5
F103DE
330
261
100
AcDbEntity
  8
Geo
100
AcDbLine
 10
-21.82710031629895
 20
-1.922196247927304
 30
0.0
 11
-21.72710031629895
 21
-2.000230372157855
 31
0.0
  0
LINE
  5
F103E0
330
261
100
AcDbEntity
  8
Geo
100
AcDbLine
 10
-21.72710031629895
 20
-2.000230372157855
 30
0.0
 11
-21.62710031629895
 21
-2.079971948339496
 31
0.0
  0
LINE
  5
F103E2
330
261
100
AcDbEntity
  8
Geo
100
AcDbLine
 10
-21.62710031629895
 20
-2.079971948339496
 30
0.0
 11
-21.52710031629895
 21
-2.161313858806565
 31
0.0
  0
LINE
  5
F103E4
330
261
100
AcDbEntity
  8
Geo
100
AcDbLine
 10
-21.52710031629895
 20
-2.161313858806565
 30
0.0
 11
-21.42710031629895
 21
-2.244146836148176
 31
0.0
  0
LINE
  5
F103E6
330
261
100
AcDbEntity
  8
Geo
100
AcDbLine
 10
-21.42710031629895
 20
-2.244146836148176
 30
0.0
 11
-21.32710031629895
 21
-2.328359609988216
 31
0.0
  0
LINE
  5
F103E8
330
261
100
AcDbEntity
  8
Geo
100
AcDbLine
 10
-21.32710031629895
 20
-2.328359609988216
 30
0.0
 11
-21.22710031629894
 21
-2.413839056456025
 31
0.0
  0
LINE
  5
F103EA
330
261
100
AcDbEntity
  8
Geo
100
AcDbLine
 10
-21.22710031629894
 20
-2.413839056456025
 30
0.0
 11
-21.12710031629895
 21
-2.500470350146756
 31
0.0
  0
LINE
  5
F103EC
330
261
100
AcDbEntity
  8
Geo
100
AcDbLine
 10
-21.12710031629895
 20
-2.500470350146756
 30
0.0
 11
-21.02710031629896
 21
-2.588137118367546
 31
0.0
  0
LINE
  5
F103EE
330
261
100
AcDbEntity
  8
Geo
100
AcDbLine
 10
-21.02710031629896
 20
-2.588137118367546
 30
0.0
 11
-20.92710031629895
 21
-2.676721597462135
 31
0.0
  0
LINE
  5
F103F0
330
261
100
AcDbEntity
  8
Geo
100
AcDbLine
 10
-20.92710031629895
 20
-2.676721597462135
 30
0.0
 11
-20.82710031629895
 21
-2.766104791003956
 31
0.0
  0
LINE
  5
F103F2
330
261
100
AcDbEntity
  8
Geo
100
AcDbLine
 10
-20.82710031629895
 20
-2.766104791003956
 30
0.0
 11
-20.72710031629894
 21
-2.856166629645266
 31
0.0
  0
LINE
  5
F103F4
330
261
100
AcDbEntity
  8
Geo
100
AcDbLine
 10
-20.72710031629894
 20
-2.856166629645266
 30
0.0
 11
-20.62710031629895
 21
-2.946786132407484
 31
0.0
  0
LINE
  5
F103F6
330
261
100
AcDbEntity
  8
Geo
100
AcDbLine
 10
-20.62710031629895
 20
-2.946786132407484
 30
0.0
 11
-20.52710031629896
 21
-3.037841569196156
 31
0.0
  0
LINE
  5
F103F8
330
261
100
AcDbEntity
  8
Geo
100
AcDbLine
 10
-20.52710031629896
 20
-3.037841569196156
 30
0.0
 11
-20.42710031629895
 21
-3.129210624322275
 31
0.0
  0
LINE
  5
F103FA
330
261
100
AcDbEntity
  8
Geo
100
AcDbLine
 10
-20.42710031629895
 20
-3.129210624322275
 30
0.0
 11
-20.32710031629895
 21
-3.220770560810136
 31
0.0
  0
LINE
  5
F103FC
330
261
100
AcDbEntity
  8
Geo
100
AcDbLine
 10
-20.32710031629895
 20
-3.220770560810136
 30
0.0
 11
-20.22710031629895
 21
-3.312398385271175
 31
0.0
  0
LINE
  5
F103FE
330
261
100
AcDbEntity
  8
Geo
100
AcDbLine
 10
-20.22710031629895
 20
-3.312398385271175
 30
0.0
 11
-20.12710031629895
 21
-3.403971013122225
 31
0.0
  0
LINE
  5
F10400
330
261
100
AcDbEntity
  8
Geo
100
AcDbLine
 10
-20.12710031629895
 20
-3.403971013122225
 30
0.0
 11
-20.02710031629896
 21
-3.495365433926275
 31
0.0
  0
LINE
  5
F10402
330
261
100
AcDbEntity
  8
Geo
100
AcDbLine
 10
-20.02710031629896
 20
-3.495365433926275
 30
0.0
 11
-19.92710031629895
 21
-3.586458876633645
 31
0.0
  0
LINE
  5
F10404
330
261
100
AcDbEntity
  8
Geo
100
AcDbLine
 10
-19.92710031629895
 20
-3.586458876633645
 30
0.0
 11
-19.82710031629895
 21
-3.677128974501595
 31
0.0
  0
LINE
  5
F10406
330
261
100
AcDbEntity
  8
Geo
100
AcDbLine
 10
-19.82710031629895
 20
-3.677128974501595
 30
0.0
 11
-19.72710031629894
 21
-3.767253929470775
 31
0.0
  0
LINE
  5
F10408
330
261
100
AcDbEntity
  8
Geo
100
AcDbLine
 10
-19.72710031629894
 20
-3.767253929470775
 30
0.0
 11
-19.62710031629895
 21
-3.856712675777785
 31
0.0
  0
LINE
  5
F1040A
330
261
100
AcDbEntity
  8
Geo
100
AcDbLine
 10
-19.62710031629895
 20
-3.856712675777785
 30
0.0
 11
-19.52710031629895
 21
-3.945385042584085
 31
0.0
  0
LINE
  5
F1040C
330
261
100
AcDbEntity
  8
Geo
100
AcDbLine
 10
-19.52710031629895
 20
-3.945385042584085
 30
0.0
 11
-19.42710031629895
 21
-4.033151915402665
 31
0.0
  0
LINE
  5
F1040E
330
261
100
AcDbEntity
  8
Geo
100
AcDbLine
 10
-19.42710031629895
 20
-4.033151915402665
 30
0.0
 11
-19.32710031629895
 21
-4.119895396105735
 31
0.0
  0
LINE
  5
F10410
330
261
100
AcDbEntity
  8
Geo
100
AcDbLine
 10
-19.32710031629895
 20
-4.119895396105735
 30
0.0
 11
-19.22710031629894
 21
-4.205498961298495
 31
0.0
  0
LINE
  5
F10412
330
261
100
AcDbEntity
  8
Geo
100
AcDbLine
 10
-19.22710031629894
 20
-4.205498961298495
 30
0.0
 11
-19.12710031629895
 21
-4.289847618846165
 31
0.0
  0
LINE
  5
F10414
330
261
100
AcDbEntity
  8
Geo
100
AcDbLine
 10
-19.12710031629895
 20
-4.289847618846165
 30
0.0
 11
-19.02710031629895
 21
-4.372828062344096
 31
0.0
  0
LINE
  5
F10416
330
261
100
AcDbEntity
  8
Geo
100
AcDbLine
 10
-19.02710031629895
 20
-4.372828062344096
 30
0.0
 11
-18.92710031629895
 21
-4.454328823323425
 31
0.0
  0
LINE
  5
F10418
330
261
100
AcDbEntity
  8
Geo
100
AcDbLine
 10
-18.92710031629895
 20
-4.454328823323425
 30
0.0
 11
-18.82710031629895
 21
-4.534240420987766
 31
0.0
  0
LINE
  5
F1041A
330
261
100
AcDbEntity
  8
Geo
100
AcDbLine
 10
-18.82710031629895
 20
-4.534240420987766
 30
0.0
 11
-18.72710031629894
 21
-4.612455509279875
 31
0.0
  0
LINE
  5
F1041C
330
261
100
AcDbEntity
  8
Geo
100
AcDbLine
 10
-18.72710031629894
 20
-4.612455509279875
 30
0.0
 11
-18.62710031629895
 21
-4.688869021080725
 31
0.0
  0
LINE
  5
F1041E
330
261
100
AcDbEntity
  8
Geo
100
AcDbLine
 10
-18.62710031629895
 20
-4.688869021080725
 30
0.0
 11
-18.52710031629895
 21
-4.763378309347196
 31
0.0
  0
LINE
  5
F10420
330
261
100
AcDbEntity
  8
Geo
100
AcDbLine
 10
-18.52710031629895
 20
-4.763378309347196
 30
0.0
 11
-18.42710031629895
 21
-4.835883284998875
 31
0.0
  0
LINE
  5
F10422
330
261
100
AcDbEntity
  8
Geo
100
AcDbLine
 10
-18.42710031629895
 20
-4.835883284998875
 30
0.0
 11
-18.32710031629895
 21
-4.906286551368805
 31
0.0
  0
LINE
  5
F10424
330
261
100
AcDbEntity
  8
Geo
100
AcDbLine
 10
-18.32710031629895
 20
-4.906286551368805
 30
0.0
 11
-18.32710031629895
 21
-4.906286551368825
 31
0.0
  0
LINE
  5
F10426
330
261
100
AcDbEntity
  8
Geo
100
AcDbLine
 10
-18.32710031629895
 20
-4.906286551368825
 30
0.0
 11
-18.32710031629895
 21
-4.775488298231225
 31
0.0
  0
LINE
  5
F10428
330
261
100
AcDbEntity
  8
Geo
100
AcDbLine
 10
-18.32710031629895
 20
-4.775488298231225
 30
0.0
 11
-18.32710031629895
 21
-4.906286551368825
 31
0.0
  0
LINE
  5
F1042A
330
261
100
AcDbEntity
  8
Geo
100
AcDbLine
 10
-18.32710031629895
 20
-4.906286551368825
 30
0.0
 11
-18.32710031629895
 21
-4.906286551368825
 31
0.0
  0
LINE
  5
F1042C
330
261
100
AcDbEntity
  8
Geo
100
AcDbLine
 10
-18.32710031629895
 20
-4.906286551368825
 30
0.0
 11
-18.22710031629894
 21
-4.861422403179146
 31
0.0
  0
LINE
  5
F1042E
330
261
100
AcDbEntity
  8
Geo
100
AcDbLine
 10
-18.22710031629894
 20
-4.861422403179146
 30
0.0
 11
-18.12710031629895
 21
-4.942816843949746
 31
0.0
  0
LINE
  5
F10430
330
261
100
AcDbEntity
  8
Geo
100
AcDbLine
 10
-18.12710031629895
 20
-4.942816843949746
 30
0.0
 11
-18.02710031629895
 21
-5.019541580789415
 31
0.0
  0
LINE
  5
F10432
330
261
100
AcDbEntity
  8
Geo
100
AcDbLine
 10
-18.02710031629895
 20
-5.019541580789415
 30
0.0
 11
-17.92710031629894
 21
-5.091483853706075
 31
0.0
  0
LINE
  5
F10434
330
261
100
AcDbEntity
  8
Geo
100
AcDbLine
 10
-17.92710031629894
 20
-5.091483853706075
 30
0.0
 11
-17.82710031629895
 21
-5.158547901063656
 31
0.0
  0
LINE
  5
F10436
330
261
100
AcDbEntity
  8
Geo
100
AcDbLine
 10
-17.82710031629895
 20
-5.158547901063656
 30
0.0
 11
-17.72710031629894
 21
-5.220654628534605
 31
0.0
  0
LINE
  5
F10438
330
261
100
AcDbEntity
  8
Geo
100
AcDbLine
 10
-17.72710031629894
 20
-5.220654628534605
 30
0.0
 11
-17.62710031629895
 21
-5.277741232248246
 31
0.0
  0
LINE
  5
F1043A
330
261
100
AcDbEntity
  8
Geo
100
AcDbLine
 10
-17.62710031629895
 20
-5.277741232248246
 30
0.0
 11
-17.52710031629895
 21
-5.329760779959795
 31
0.0
  0
LINE
  5
F1043C
330
261
100
AcDbEntity
  8
Geo
100
AcDbLine
 10
-17.52710031629895
 20
-5.329760779959795
 30
0.0
 11
-17.42710031629895
 21
-5.376681754036756
 31
0.0
  0
LINE
  5
F1043E
330
261
100
AcDbEntity
  8
Geo
100
AcDbLine
 10
-17.42710031629895
 20
-5.376681754036756
 30
0.0
 11
-17.32710031629895
 21
-5.418487560011915
 31
0.0
  0
LINE
  5
F10440
330
261
100
AcDbEntity
  8
Geo
100
AcDbLine
 10
-17.32710031629895
 20
-5.418487560011915
 30
0.0
 11
-17.22710031629894
 21
-5.455176004392735
 31
0.0
  0
LINE
  5
F10442
330
261
100
AcDbEntity
  8
Geo
100
AcDbLine
 10
-17.22710031629894
 20
-5.455176004392735
 30
0.0
 11
-17.12710031629895
 21
-5.486758745341434
 31
0.0
  0
LINE
  5
F10444
330
261
100
AcDbEntity
  8
Geo
100
AcDbLine
 10
-17.12710031629895
 20
-5.486758745341434
 30
0.0
 11
-17.02710031629895
 21
-5.513260719753896
 31
0.0
  0
LINE
  5
F10446
330
261
100
AcDbEntity
  8
Geo
100
AcDbLine
 10
-17.02710031629895
 20
-5.513260719753896
 30
0.0
 11
-16.92710031629895
 21
-5.534719550166966
 31
0.0
  0
LINE
  5
F10448
330
261
100
AcDbEntity
  8
Geo
100
AcDbLine
 10
-16.92710031629895
 20
-5.534719550166966
 30
0.0
 11
-16.82710031629895
 21
-5.551184934816365
 31
0.0
  0
LINE
  5
F1044A
330
261
100
AcDbEntity
  8
Geo
100
AcDbLine
 10
-16.82710031629895
 20
-5.551184934816365
 30
0.0
 11
-16.72710031629894
 21
-5.562718024050106
 31
0.0
  0
LINE
  5
F1044C
330
261
100
AcDbEntity
  8
Geo
100
AcDbLine
 10
-16.72710031629894
 20
-5.562718024050106
 30
0.0
 11
-16.62710031629895
 21
-5.569390786178695
 31
0.0
  0
LINE
  5
F1044E
330
261
100
AcDbEntity
  8
Geo
100
AcDbLine
 10
-28.82710031629896
 20
-0.7723636581085245
 30
0.0
 11
-28.72710031629895
 21
-0.771380526323056
 31
0.0
  0
LINE
  5
F10450
330
261
100
AcDbEntity
  8
Geo
100
AcDbLine
 10
-28.72710031629895
 20
-0.771380526323056
 30
0.0
 11
-28.62710031629895
 21
-0.773755572913105
 31
0.0
  0
LINE
  5
F10452
330
261
100
AcDbEntity
  8
Geo
100
AcDbLine
 10
-28.62710031629895
 20
-0.773755572913105
 30
0.0
 11
-28.52710031629896
 21
-0.7794856074545758
 31
0.0
  0
LINE
  5
F10454
330
261
100
AcDbEntity
  8
Geo
100
AcDbLine
 10
-28.52710031629896
 20
-0.7794856074545758
 30
0.0
 11
-28.42710031629895
 21
-0.788562932734096
 31
0.0
  0
LINE
  5
F10456
330
261
100
AcDbEntity
  8
Geo
100
AcDbLine
 10
-28.42710031629895
 20
-0.788562932734096
 30
0.0
 11
-28.32710031629896
 21
-0.8009753550888447
 31
0.0
  0
LINE
  5
F10458
330
261
100
AcDbEntity
  8
Geo
100
AcDbLine
 10
-28.32710031629896
 20
-0.8009753550888447
 30
0.0
 11
-28.22710031629894
 21
-0.8167062007863661
 31
0.0
  0
LINE
  5
F1045A
330
261
100
AcDbEntity
  8
Geo
100
AcDbLine
 10
-28.22710031629894
 20
-0.8167062007863661
 30
0.0
 11
-28.12710031629895
 21
-0.8357343384225366
 31
0.0
  0
LINE
  5
F1045C
330
261
100
AcDbEntity
  8
Geo
100
AcDbLine
 10
-28.12710031629895
 20
-0.8357343384225366
 30
0.0
 11
-28.02710031629896
 21
-0.8580342073076661
 31
0.0
  0
LINE
  5
F1045E
330
261
100
AcDbEntity
  8
Geo
100
AcDbLine
 10
-28.02710031629896
 20
-0.8580342073076661
 30
0.0
 11
-27.92710031629895
 21
-0.8835758518023757
 31
0.0
  0
LINE
  5
F10460
330
261
100
AcDbEntity
  8
Geo
100
AcDbLine
 10
-27.92710031629895
 20
-0.8835758518023757
 30
0.0
 11
-27.82710031629895
 21
-0.9123249615573261
 31
0.0
  0
LINE
  5
F10462
330
261
100
AcDbEntity
  8
Geo
100
AcDbLine
 10
-27.82710031629895
 20
-0.9123249615573261
 30
0.0
 11
-27.72710031629895
 21
-0.9442429176026569
 31
0.0
  0
LINE
  5
F10464
330
261
100
AcDbEntity
  8
Geo
100
AcDbLine
 10
-27.72710031629895
 20
-0.9442429176026569
 30
0.0
 11
-27.62710031629895
 21
-0.979286844225256
 31
0.0
  0
LINE
  5
F10466
330
261
100
AcDbEntity
  8
Geo
100
AcDbLine
 10
-27.62710031629895
 20
-0.979286844225256
 30
0.0
 11
-27.52710031629896
 21
-1.017409666564115
 31
0.0
  0
LINE
  5
F10468
330
261
100
AcDbEntity
  8
Geo
100
AcDbLine
 10
-27.52710031629896
 20
-1.017409666564115
 30
0.0
 11
-27.42710031629895
 21
-1.058560173846475
 31
0.0
  0
LINE
  5
F1046A
330
261
100
AcDbEntity
  8
Geo
100
AcDbLine
 10
-27.42710031629895
 20
-1.058560173846475
 30
0.0
 11
-27.32710031629896
 21
-1.102683088179795
 31
0.0
  0
LINE
  5
F1046C
330
261
100
AcDbEntity
  8
Geo
100
AcDbLine
 10
-27.32710031629896
 20
-1.102683088179795
 30
0.0
 11
-27.22710031629894
 21
-1.149719138807036
 31
0.0
  0
LINE
  5
F1046E
330
261
100
AcDbEntity
  8
Geo
100
AcDbLine
 10
-27.22710031629894
 20
-1.149719138807036
 30
0.0
 11
-27.12710031629895
 21
-1.199605141725755
 31
0.0
  0
LINE
  5
F10470
330
261
100
AcDbEntity
  8
Geo
100
AcDbLine
 10
-27.12710031629895
 20
-1.199605141725755
 30
0.0
 11
-27.02710031629896
 21
-1.252274084563776
 31
0.0
  0
LINE
  5
F10472
330
261
100
AcDbEntity
  8
Geo
100
AcDbLine
 10
-27.02710031629896
 20
-1.252274084563776
 30
0.0
 11
-26.92710031629895
 21
-1.307655216597585
 31
0.0
  0
LINE
  5
F10474
330
261
100
AcDbEntity
  8
Geo
100
AcDbLine
 10
-26.92710031629895
 20
-1.307655216597585
 30
0.0
 11
-26.82710031629895
 21
-1.365674143792465
 31
0.0
  0
LINE
  5
F10476
330
261
100
AcDbEntity
  8
Geo
100
AcDbLine
 10
-26.82710031629895
 20
-1.365674143792465
 30
0.0
 11
-26.72710031629895
 21
-1.426252928736835
 31
0.0
  0
LINE
  5
F10478
330
261
100
AcDbEntity
  8
Geo
100
AcDbLine
 10
-26.72710031629895
 20
-1.426252928736835
 30
0.0
 11
-26.62710031629895
 21
-1.489310195336275
 31
0.0
  0
LINE
  5
F1047A
330
261
100
AcDbEntity
  8
Geo
100
AcDbLine
 10
-26.62710031629895
 20
-1.489310195336275
 30
0.0
 11
-26.52710031629896
 21
-1.554761238126926
 31
0.0
  0
LINE
  5
F1047C
330
261
100
AcDbEntity
  8
Geo
100
AcDbLine
 10
-26.52710031629896
 20
-1.554761238126926
 30
0.0
 11
-26.42710031629895
 21
-1.622518136061096
 31
0.0
  0
LINE
  5
F1047E
330
261
100
AcDbEntity
  8
Geo
100
AcDbLine
 10
-26.42710031629895
 20
-1.622518136061096
 30
0.0
 11
-26.32710031629895
 21
-1.692489870612675
 31
0.0
  0
LINE
  5
F10480
330
261
100
AcDbEntity
  8
Geo
100
AcDbLine
 10
-26.32710031629895
 20
-1.692489870612675
 30
0.0
 11
-26.22710031629895
 21
-1.764582448043006
 31
0.0
  0
LINE
  5
F10482
330
261
100
AcDbEntity
  8
Geo
100
AcDbLine
 10
-26.22710031629895
 20
-1.764582448043006
 30
0.0
 11
-26.12710031629895
 21
-1.838699025663845
 31
0.0
  0
LINE
  5
F10484
330
261
100
AcDbEntity
  8
Geo
100
AcDbLine
 10
-26.12710031629895
 20
-1.838699025663845
 30
0.0
 11
-26.02710031629896
 21
-1.914740041926965
 31
0.0
  0
LINE
  5
F10486
330
261
100
AcDbEntity
  8
Geo
100
AcDbLine
 10
-26.02710031629896
 20
-1.914740041926965
 30
0.0
 11
-25.92710031629895
 21
-1.992603350166275
 31
0.0
  0
LINE
  5
F10488
330
261
100
AcDbEntity
  8
Geo
100
AcDbLine
 10
-25.92710031629895
 20
-1.992603350166275
 30
0.0
 11
-25.82710031629896
 21
-2.072184355812445
 31
0.0
  0
LINE
  5
F1048A
330
261
100
AcDbEntity
  8
Geo
100
AcDbLine
 10
-25.82710031629896
 20
-2.072184355812445
 30
0.0
 11
-25.72710031629894
 21
-2.153376156895805
 31
0.0
  0
LINE
  5
F1048C
330
261
100
AcDbEntity
  8
Geo
100
AcDbLine
 10
-25.72710031629894
 20
-2.153376156895805
 30
0.0
 11
-25.62710031629895
 21
-2.236069687648975
 31
0.0
  0
LINE
  5
F1048E
330
261
100
AcDbEntity
  8
Geo
100
AcDbLine
 10
-25.62710031629895
 20
-2.236069687648975
 30
0.0
 11
-25.52710031629896
 21
-2.320153865015835
 31
0.0
  0
LINE
  5
F10490
330
261
100
AcDbEntity
  8
Geo
100
AcDbLine
 10
-25.52710031629896
 20
-2.320153865015835
 30
0.0
 11
-25.42710031629895
 21
-2.405515737870655
 31
0.0
  0
LINE
  5
F10492
330
261
100
AcDbEntity
  8
Geo
100
AcDbLine
 10
-25.42710031629895
 20
-2.405515737870655
 30
0.0
 11
-25.32710031629895
 21
-2.492040638746425
 31
0.0
  0
LINE
  5
F10494
330
261
100
AcDbEntity
  8
Geo
100
AcDbLine
 10
-25.32710031629895
 20
-2.492040638746425
 30
0.0
 11
-25.22710031629895
 21
-2.579612337868826
 31
0.0
  0
LINE
  5
F10496
330
261
100
AcDbEntity
  8
Geo
100
AcDbLine
 10
-25.22710031629895
 20
-2.579612337868826
 30
0.0
 11
-25.12710031629895
 21
-2.668113199288866
 31
0.0
  0
LINE
  5
F10498
330
261
100
AcDbEntity
  8
Geo
100
AcDbLine
 10
-25.12710031629895
 20
-2.668113199288866
 30
0.0
 11
-25.02710031629896
 21
-2.757424338904466
 31
0.0
  0
LINE
  5
F1049A
330
261
100
AcDbEntity
  8
Geo
100
AcDbLine
 10
-25.02710031629896
 20
-2.757424338904466
 30
0.0
 11
-24.92710031629895
 21
-2.847425784158636
 31
0.0
  0
LINE
  5
F1049C
330
261
100
AcDbEntity
  8
Geo
100
AcDbLine
 10
-24.92710031629895
 20
-2.847425784158636
 30
0.0
 11
-24.82710031629896
 21
-2.937996635199835
 31
0.0
  0
LINE
  5
F1049E
330
261
100
AcDbEntity
  8
Geo
100
AcDbLine
 10
-24.82710031629896
 20
-2.937996635199835
 30
0.0
 11
-24.72710031629894
 21
-3.029015227287985
 31
0.0
  0
LINE
  5
F104A0
330
261
100
AcDbEntity
  8
Geo
100
AcDbLine
 10
-24.72710031629894
 20
-3.029015227287985
 30
0.0
 11
-24.62710031629895
 21
-3.120359294227916
 31
0.0
  0
LINE
  5
F104A2
330
261
100
AcDbEntity
  8
Geo
100
AcDbLine
 10
-24.62710031629895
 20
-3.120359294227916
 30
0.0
 11
-24.52710031629896
 21
-3.211906132610815
 31
0.0
  0
LINE
  5
F104A4
330
261
100
AcDbEntity
  8
Geo
100
AcDbLine
 10
-24.52710031629896
 20
-3.211906132610815
 30
0.0
 11
-24.42710031629895
 21
-3.303532766642925
 31
0.0
  0
LINE
  5
F104A6
330
261
100
AcDbEntity
  8
Geo
100
AcDbLine
 10
-24.42710031629895
 20
-3.303532766642925
 30
0.0
 11
-24.32710031629895
 21
-3.395116113340205
 31
0.0
  0
LINE
  5
F104A8
330
261
100
AcDbEntity
  8
Geo
100
AcDbLine
 10
-24.32710031629895
 20
-3.395116113340205
 30
0.0
 11
-24.22710031629895
 21
-3.486533147866905
 31
0.0
  0
LINE
  5
F104AA
330
261
100
AcDbEntity
  8
Geo
100
AcDbLine
 10
-24.22710031629895
 20
-3.486533147866905
 30
0.0
 11
-24.12710031629895
 21
-3.577661068796116
 31
0.0
  0
LINE
  5
F104AC
330
261
100
AcDbEntity
  8
Geo
100
AcDbLine
 10
-24.12710031629895
 20
-3.577661068796116
 30
0.0
 11
-24.02710031629896
 21
-3.668377463070125
 31
0.0
  0
LINE
  5
F104AE
330
261
100
AcDbEntity
  8
Geo
100
AcDbLine
 10
-24.02710031629896
 20
-3.668377463070125
 30
0.0
 11
-23.92710031629895
 21
-3.758560470439165
 31
0.0
  0
LINE
  5
F104B0
330
261
100
AcDbEntity
  8
Geo
100
AcDbLine
 10
-23.92710031629895
 20
-3.758560470439165
 30
0.0
 11
-23.82710031629895
 21
-3.848088947157475
 31
0.0
  0
LINE
  5
F104B2
330
261
100
AcDbEntity
  8
Geo
100
AcDbLine
 10
-23.82710031629895
 20
-3.848088947157475
 30
0.0
 11
-23.72710031629894
 21
-3.936842628716935
 31
0.0
  0
LINE
  5
F104B4
330
261
100
AcDbEntity
  8
Geo
100
AcDbLine
 10
-23.72710031629894
 20
-3.936842628716935
 30
0.0
 11
-23.62710031629895
 21
-4.024702291399595
 31
0.0
  0
LINE
  5
F104B6
330
261
100
AcDbEntity
  8
Geo
100
AcDbLine
 10
-23.62710031629895
 20
-4.024702291399595
 30
0.0
 11
-23.52710031629896
 21
-4.111549912432126
 31
0.0
  0
LINE
  5
F104B8
330
261
100
AcDbEntity
  8
Geo
100
AcDbLine
 10
-23.52710031629896
 20
-4.111549912432126
 30
0.0
 11
-23.42710031629895
 21
-4.197268828526955
 31
0.0
  0
LINE
  5
F104BA
330
261
100
AcDbEntity
  8
Geo
100
AcDbLine
 10
-23.42710031629895
 20
-4.197268828526955
 30
0.0
 11
-23.32710031629895
 21
-4.281743892597265
 31
0.0
  0
LINE
  5
F104BC
330
261
100
AcDbEntity
  8
Geo
100
AcDbLine
 10
-23.32710031629895
 20
-4.281743892597265
 30
0.0
 11
-23.22710031629894
 21
-4.364861628435265
 31
0.0
  0
LINE
  5
F104BE
330
261
100
AcDbEntity
  8
Geo
100
AcDbLine
 10
-23.22710031629894
 20
-4.364861628435265
 30
0.0
 11
-23.12710031629895
 21
-4.446510383145895
 31
0.0
  0
LINE
  5
F104C0
330
261
100
AcDbEntity
  8
Geo
100
AcDbLine
 10
-23.12710031629895
 20
-4.446510383145895
 30
0.0
 11
-23.02710031629896
 21
-4.526580477131275
 31
0.0
  0
LINE
  5
F104C2
330
261
100
AcDbEntity
  8
Geo
100
AcDbLine
 10
-23.02710031629896
 20
-4.526580477131275
 30
0.0
 11
-22.92710031629895
 21
-4.604964351424476
 31
0.0
  0
LINE
  5
F104C4
330
261
100
AcDbEntity
  8
Geo
100
AcDbLine
 10
-22.92710031629895
 20
-4.604964351424476
 30
0.0
 11
-22.82710031629895
 21
-4.681556712174515
 31
0.0
  0
LINE
  5
F104C6
330
261
100
AcDbEntity
  8
Geo
100
AcDbLine
 10
-22.82710031629895
 20
-4.681556712174515
 30
0.0
 11
-22.72710031629895
 21
-4.756254672088655
 31
0.0
  0
LINE
  5
F104C8
330
261
100
AcDbEntity
  8
Geo
100
AcDbLine
 10
-22.72710031629895
 20
-4.756254672088655
 30
0.0
 11
-22.62710031629895
 21
-4.828957888642005
 31
0.0
  0
LINE
  5
F104CA
330
261
100
AcDbEntity
  8
Geo
100
AcDbLine
 10
-22.62710031629895
 20
-4.828957888642005
 30
0.0
 11
-22.52710031629896
 21
-4.899568698868534
 31
0.0
  0
LINE
  5
F104CC
330
261
100
AcDbEntity
  8
Geo
100
AcDbLine
 10
-22.52710031629896
 20
-4.899568698868534
 30
0.0
 11
-22.42710031629895
 21
-4.967992250552845
 31
0.0
  0
LINE
  5
F104CE
330
261
100
AcDbEntity
  8
Geo
100
AcDbLine
 10
-22.42710031629895
 20
-4.967992250552845
 30
0.0
 11
-22.32710031629896
 21
-5.034136629646066
 31
0.0
  0
LINE
  5
F104D0
330
261
100
AcDbEntity
  8
Geo
100
AcDbLine
 10
-22.32710031629896
 20
-5.034136629646066
 30
0.0
 11
-22.22710031629894
 21
-5.097912983734826
 31
0.0
  0
LINE
  5
F104D2
330
261
100
AcDbEntity
  8
Geo
100
AcDbLine
 10
-22.22710031629894
 20
-5.097912983734826
 30
0.0
 11
-22.12710031629895
 21
-5.159235641397796
 31
0.0
  0
LINE
  5
F104D4
330
261
100
AcDbEntity
  8
Geo
100
AcDbLine
 10
-22.12710031629895
 20
-5.159235641397796
 30
0.0
 11
-22.02710031629896
 21
-5.218022227288815
 31
0.0
  0
LINE
  5
F104D6
330
261
100
AcDbEntity
  8
Geo
100
AcDbLine
 10
-22.02710031629896
 20
-5.218022227288815
 30
0.0
 11
-21.92710031629895
 21
-5.274193772792585
 31
0.0
  0
LINE
  5
F104D8
330
261
100
AcDbEntity
  8
Geo
100
AcDbLine
 10
-21.92710031629895
 20
-5.274193772792585
 30
0.0
 11
-21.82710031629895
 21
-5.327674822104006
 31
0.0
  0
LINE
  5
F104DA
330
261
100
AcDbEntity
  8
Geo
100
AcDbLine
 10
-21.82710031629895
 20
-5.327674822104006
 30
0.0
 11
-21.72710031629895
 21
-5.378393533588715
 31
0.0
  0
LINE
  5
F104DC
330
261
100
AcDbEntity
  8
Geo
100
AcDbLine
 10
-21.72710031629895
 20
-5.378393533588715
 30
0.0
 11
-21.62710031629895
 21
-5.426281776288705
 31
0.0
  0
LINE
  5
F104DE
330
261
100
AcDbEntity
  8
Geo
100
AcDbLine
 10
-21.62710031629895
 20
-5.426281776288705
 30
0.0
 11
-21.52710031629895
 21
-5.471275221443276
 31
0.0
  0
LINE
  5
F104E0
330
261
100
AcDbEntity
  8
Geo
100
AcDbLine
 10
-21.52710031629895
 20
-5.471275221443276
 30
0.0
 11
-21.42710031629895
 21
-5.513313428902575
 31
0.0
  0
LINE
  5
F104E2
330
261
100
AcDbEntity
  8
Geo
100
AcDbLine
 10
-21.42710031629895
 20
-5.513313428902575
 30
0.0
 11
-21.32710031629895
 21
-5.552339928317435
 31
0.0
  0
LINE
  5
F104E4
330
261
100
AcDbEntity
  8
Geo
100
AcDbLine
 10
-21.32710031629895
 20
-5.552339928317435
 30
0.0
 11
-21.22710031629894
 21
-5.588302294996515
 31
0.0
  0
LINE
  5
F104E6
330
261
100
AcDbEntity
  8
Geo
100
AcDbLine
 10
-21.22710031629894
 20
-5.588302294996515
 30
0.0
 11
-21.12710031629895
 21
-5.621152220328996
 31
0.0
  0
LINE
  5
F104E8
330
261
100
AcDbEntity
  8
Geo
100
AcDbLine
 10
-21.12710031629895
 20
-5.621152220328996
 30
0.0
 11
-21.02710031629896
 21
-5.650845576678005
 31
0.0
  0
LINE
  5
F104EA
330
261
100
AcDbEntity
  8
Geo
100
AcDbLine
 10
-21.02710031629896
 20
-5.650845576678005
 30
0.0
 11
-20.92710031629895
 21
-5.677342476657685
 31
0.0
  0
LINE
  5
F104EC
330
261
100
AcDbEntity
  8
Geo
100
AcDbLine
 10
-20.92710031629895
 20
-5.677342476657685
 30
0.0
 11
-20.82710031629895
 21
-5.700607326714355
 31
0.0
  0
LINE
  5
F104EE
330
261
100
AcDbEntity
  8
Geo
100
AcDbLine
 10
-20.82710031629895
 20
-5.700607326714355
 30
0.0
 11
-20.72710031629894
 21
-5.720608874939635
 31
0.0
  0
LINE
  5
F104F0
330
261
100
AcDbEntity
  8
Geo
100
AcDbLine
 10
-20.72710031629894
 20
-5.720608874939635
 30
0.0
 11
-20.62710031629895
 21
-5.737320253051585
 31
0.0
  0
LINE
  5
F104F2
330
261
100
AcDbEntity
  8
Geo
100
AcDbLine
 10
-20.62710031629895
 20
-5.737320253051585
 30
0.0
 11
-20.52710031629896
 21
-5.750719012486955
 31
0.0
  0
LINE
  5
F104F4
330
261
100
AcDbEntity
  8
Geo
100
AcDbLine
 10
-20.52710031629896
 20
-5.750719012486955
 30
0.0
 11
-20.42710031629895
 21
-5.760787154556745
 31
0.0
  0
LINE
  5
F104F6
330
261
100
AcDbEntity
  8
Geo
100
AcDbLine
 10
-20.42710031629895
 20
-5.760787154556745
 30
0.0
 11
-20.32710031629895
 21
-5.767511154623855
 31
0.0
  0
LINE
  5
F104F8
330
261
100
AcDbEntity
  8
Geo
100
AcDbLine
 10
-20.32710031629895
 20
-5.767511154623855
 30
0.0
 11
-20.22710031629895
 21
-5.770881980271005
 31
0.0
  0
LINE
  5
F104FA
330
261
100
AcDbEntity
  8
Geo
100
AcDbLine
 10
-32.32710031629896
 20
-1.630251362553555
 30
0.0
 11
-32.22710031629894
 21
-1.643018343549045
 31
0.0
  0
LINE
  5
F104FC
330
261
100
AcDbEntity
  8
Geo
100
AcDbLine
 10
-32.32710031629896
 20
-2.023049306832565
 30
0.0
 11
-32.22710031629894
 21
-2.064333701394246
 31
0.0
  0
LINE
  5
F104FE
330
261
100
AcDbEntity
  8
Geo
100
AcDbLine
 10
-32.32710031629896
 20
-5.606776105726096
 30
0.0
 11
-32.22710031629894
 21
-5.724903271737264
 31
0.0
  0
LINE
  5
F10500
330
261
100
AcDbEntity
  8
Geo
100
AcDbLine
 10
-32.22710031629894
 20
-1.643018343549045
 30
0.0
 11
-32.12710031629895
 21
-1.727264958204766
 31
0.0
  0
LINE
  5
F10502
330
261
100
AcDbEntity
  8
Geo
100
AcDbLine
 10
-32.22710031629894
 20
-2.064333701394246
 30
0.0
 11
-32.12710031629895
 21
-2.159928448378635
 31
0.0
  0
LINE
  5
F10504
330
261
100
AcDbEntity
  8
Geo
100
AcDbLine
 10
-32.22710031629894
 20
-5.724903271737264
 30
0.0
 11
-32.12710031629895
 21
-5.741794054398045
 31
0.0
  0
LINE
  5
F10506
330
261
100
AcDbEntity
  8
Geo
100
AcDbLine
 10
-32.12710031629895
 20
-1.727264958204766
 30
0.0
 11
-32.02710031629896
 21
-1.814453321804825
 31
0.0
  0
LINE
  5
F10508
330
261
100
AcDbEntity
  8
Geo
100
AcDbLine
 10
-32.12710031629895
 20
-2.159928448378635
 30
0.0
 11
-32.02710031629896
 21
-2.257640623344876
 31
0.0
  0
LINE
  5
F1050A
330
261
100
AcDbEntity
  8
Geo
100
AcDbLine
 10
-32.12710031629895
 20
-5.741794054398045
 30
0.0
 11
-32.02710031629896
 21
-5.754732587000026
 31
0.0
  0
LINE
  5
F1050C
330
261
100
AcDbEntity
  8
Geo
100
AcDbLine
 10
-32.02710031629896
 20
-1.814453321804825
 30
0.0
 11
-31.92710031629895
 21
-1.904417320966826
 31
0.0
  0
LINE
  5
F1050E
330
261
100
AcDbEntity
  8
Geo
100
AcDbLine
 10
-32.02710031629896
 20
-2.257640623344876
 30
0.0
 11
-31.92710031629895
 21
-2.357284062690206
 31
0.0
  0
LINE
  5
F10510
330
261
100
AcDbEntity
  8
Geo
100
AcDbLine
 10
-32.02710031629896
 20
-5.754732587000026
 30
0.0
 11
-31.92710031629895
 21
-5.763698170651175
 31
0.0
  0
LINE
  5
F10512
330
261
100
AcDbEntity
  8
Geo
100
AcDbLine
 10
-31.92710031629895
 20
-1.904417320966826
 30
0.0
 11
-31.82710031629895
 21
-1.996985554100235
 31
0.0
  0
LINE
  5
F10514
330
261
100
AcDbEntity
  8
Geo
100
AcDbLine
 10
-31.92710031629895
 20
-2.357284062690206
 30
0.0
 11
-31.82710031629895
 21
-2.458668923320185
 31
0.0
  0
LINE
  5
F10516
330
261
100
AcDbEntity
  8
Geo
100
AcDbLine
 10
-31.92710031629895
 20
-5.763698170651175
 30
0.0
 11
-31.82710031629895
 21
-5.768676462330176
 31
0.0
  0
LINE
  5
F10518
330
261
100
AcDbEntity
  8
Geo
100
AcDbLine
 10
-31.82710031629895
 20
-1.996985554100235
 30
0.0
 11
-31.72710031629895
 21
-2.091981657964866
 31
0.0
  0
LINE
  5
F1051A
330
261
100
AcDbEntity
  8
Geo
100
AcDbLine
 10
-31.82710031629895
 20
-2.458668923320185
 30
0.0
 11
-31.72710031629895
 21
-2.561602044342355
 31
0.0
  0
LINE
  5
F1051C
330
261
100
AcDbEntity
  8
Geo
100
AcDbLine
 10
-31.72710031629895
 20
-2.091981657964866
 30
0.0
 11
-31.62710031629895
 21
-2.189224643682407
 31
0.0
  0
LINE
  5
F1051E
330
261
100
AcDbEntity
  8
Geo
100
AcDbLine
 10
-31.72710031629895
 20
-2.561602044342355
 30
0.0
 11
-31.62710031629895
 21
-2.665887315081045
 31
0.0
  0
LINE
  5
F10520
330
261
100
AcDbEntity
  8
Geo
100
AcDbLine
 10
-31.62710031629895
 20
-2.189224643682407
 30
0.0
 11
-31.52710031629896
 21
-2.288529241560846
 31
0.0
  0
LINE
  5
F10522
330
261
100
AcDbEntity
  8
Geo
100
AcDbLine
 10
-31.62710031629895
 20
-2.665887315081045
 30
0.0
 11
-31.52710031629896
 21
-2.771326048712205
 31
0.0
  0
LINE
  5
F10524
330
261
100
AcDbEntity
  8
Geo
100
AcDbLine
 10
-31.52710031629896
 20
-2.288529241560846
 30
0.0
 11
-31.42710031629895
 21
-2.389706254074685
 31
0.0
  0
LINE
  5
F10526
330
261
100
AcDbEntity
  8
Geo
100
AcDbLine
 10
-31.52710031629896
 20
-2.771326048712205
 30
0.0
 11
-31.42710031629895
 21
-2.877717360806326
 31
0.0
  0
LINE
  5
F10528
330
261
100
AcDbEntity
  8
Geo
100
AcDbLine
 10
-31.42710031629895
 20
-2.389706254074685
 30
0.0
 11
-31.32710031629895
 21
-2.492562916328745
 31
0.0
  0
LINE
  5
F1052A
330
261
100
AcDbEntity
  8
Geo
100
AcDbLine
 10
-31.42710031629895
 20
-2.877717360806326
 30
0.0
 11
-31.32710031629895
 21
-2.984858552058335
 31
0.0
  0
LINE
  5
F1052C
330
261
100
AcDbEntity
  8
Geo
100
AcDbLine
 10
-31.32710031629895
 20
-2.492562916328745
 30
0.0
 11
-31.22710031629895
 21
-2.596903263318445
 31
0.0
  0
LINE
  5
F1052E
330
261
100
AcDbEntity
  8
Geo
100
AcDbLine
 10
-31.32710031629895
 20
-2.984858552058335
 30
0.0
 11
-31.22710031629895
 21
-3.092545494475245
 31
0.0
  0
LINE
  5
F10530
330
261
100
AcDbEntity
  8
Geo
100
AcDbLine
 10
-31.22710031629895
 20
-2.596903263318445
 30
0.0
 11
-31.12710031629895
 21
-2.702528503287136
 31
0.0
  0
LINE
  5
F10532
330
261
100
AcDbEntity
  8
Geo
100
AcDbLine
 10
-31.22710031629895
 20
-3.092545494475245
 30
0.0
 11
-31.12710031629895
 21
-3.200573020285695
 31
0.0
  0
LINE
  5
F10534
330
261
100
AcDbEntity
  8
Geo
100
AcDbLine
 10
-31.12710031629895
 20
-2.702528503287136
 30
0.0
 11
-31.02710031629896
 21
-2.809237396468906
 31
0.0
  0
LINE
  5
F10536
330
261
100
AcDbEntity
  8
Geo
100
AcDbLine
 10
-31.12710031629895
 20
-3.200573020285695
 30
0.0
 11
-31.02710031629896
 21
-3.308735312830605
 31
0.0
  0
LINE
  5
F10538
330
261
100
AcDbEntity
  8
Geo
100
AcDbLine
 10
-31.02710031629896
 20
-2.809237396468906
 30
0.0
 11
-30.92710031629895
 21
-2.916826638495505
 31
0.0
  0
LINE
  5
F1053A
330
261
100
AcDbEntity
  8
Geo
100
AcDbLine
 10
-31.02710031629896
 20
-3.308735312830605
 30
0.0
 11
-30.92710031629895
 21
-3.416826298690075
 31
0.0
  0
LINE
  5
F1053C
330
261
100
AcDbEntity
  8
Geo
100
AcDbLine
 10
-30.92710031629895
 20
-2.916826638495505
 30
0.0
 11
-30.82710031629896
 21
-3.025091247736756
 31
0.0
  0
LINE
  5
F1053E
330
261
100
AcDbEntity
  8
Geo
100
AcDbLine
 10
-30.92710031629895
 20
-3.416826298690075
 30
0.0
 11
-30.82710031629896
 21
-3.524640040299385
 31
0.0
  0
LINE
  5
F10540
330
261
100
AcDbEntity
  8
Geo
100
AcDbLine
 10
-30.82710031629896
 20
-3.025091247736756
 30
0.0
 11
-30.72710031629894
 21
-3.133824955836465
 31
0.0
  0
LINE
  5
F10542
330
261
100
AcDbEntity
  8
Geo
100
AcDbLine
 10
-30.82710031629896
 20
-3.524640040299385
 30
0.0
 11
-30.72710031629894
 21
-3.631971128306314
 31
0.0
  0
LINE
  5
F10544
330
261
100
AcDbEntity
  8
Geo
100
AcDbLine
 10
-30.72710031629894
 20
-3.133824955836465
 30
0.0
 11
-30.62710031629895
 21
-3.242820600699976
 31
0.0
  0
LINE
  5
F10546
330
261
100
AcDbEntity
  8
Geo
100
AcDbLine
 10
-30.72710031629894
 20
-3.631971128306314
 30
0.0
 11
-30.62710031629895
 21
-3.738615072921945
 31
0.0
  0
LINE
  5
F10548
330
261
100
AcDbEntity
  8
Geo
100
AcDbLine
 10
-30.62710031629895
 20
-3.242820600699976
 30
0.0
 11
-30.52710031629896
 21
-3.351870521184325
 31
0.0
  0
LINE
  5
F1054A
330
261
100
AcDbEntity
  8
Geo
100
AcDbLine
 10
-30.62710031629895
 20
-3.738615072921945
 30
0.0
 11
-30.52710031629896
 21
-3.844368693519616
 31
0.0
  0
LINE
  5
F1054C
330
261
100
AcDbEntity
  8
Geo
100
AcDbLine
 10
-30.52710031629896
 20
-3.351870521184325
 30
0.0
 11
-30.42710031629895
 21
-3.460766952739335
 31
0.0
  0
LINE
  5
F1054E
330
261
100
AcDbEntity
  8
Geo
100
AcDbLine
 10
-30.52710031629896
 20
-3.844368693519616
 30
0.0
 11
-30.42710031629895
 21
-3.949030505739545
 31
0.0
  0
LINE
  5
F10550
330
261
100
AcDbEntity
  8
Geo
100
AcDbLine
 10
-30.42710031629895
 20
-3.460766952739335
 30
0.0
 11
-30.32710031629895
 21
-3.569302423245666
 31
0.0
  0
LINE
  5
F10552
330
261
100
AcDbEntity
  8
Geo
100
AcDbLine
 10
-30.42710031629895
 20
-3.949030505739545
 30
0.0
 11
-30.32710031629895
 21
-4.052401105361725
 31
0.0
  0
LINE
  5
F10554
330
261
100
AcDbEntity
  8
Geo
100
AcDbLine
 10
-30.32710031629895
 20
-3.569302423245666
 30
0.0
 11
-30.22710031629895
 21
-3.677270148295706
 31
0.0
  0
LINE
  5
F10556
330
261
100
AcDbEntity
  8
Geo
100
AcDbLine
 10
-30.32710031629895
 20
-4.052401105361725
 30
0.0
 11
-30.22710031629895
 21
-4.154283548215675
 31
0.0
  0
LINE
  5
F10558
330
261
100
AcDbEntity
  8
Geo
100
AcDbLine
 10
-30.22710031629895
 20
-3.677270148295706
 30
0.0
 11
-30.12710031629895
 21
-3.784464425164215
 31
0.0
  0
LINE
  5
F1055A
330
261
100
AcDbEntity
  8
Geo
100
AcDbLine
 10
-30.22710031629895
 20
-4.154283548215675
 30
0.0
 11
-30.12710031629895
 21
-4.254483725403205
 31
0.0
  0
LINE
  5
F1055C
330
261
100
AcDbEntity
  8
Geo
100
AcDbLine
 10
-30.12710031629895
 20
-3.784464425164215
 30
0.0
 11
-30.02710031629896
 21
-3.890681024718205
 31
0.0
  0
LINE
  5
F1055E
330
261
100
AcDbEntity
  8
Geo
100
AcDbLine
 10
-30.12710031629895
 20
-4.254483725403205
 30
0.0
 11
-30.02710031629896
 21
-4.352810733119466
 31
0.0
  0
LINE
  5
F10560
330
261
100
AcDbEntity
  8
Geo
100
AcDbLine
 10
-30.02710031629896
 20
-3.890681024718205
 30
0.0
 11
-29.92710031629895
 21
-3.995717580519175
 31
0.0
  0
LINE
  5
F10562
330
261
100
AcDbEntity
  8
Geo
100
AcDbLine
 10
-30.02710031629896
 20
-4.352810733119466
 30
0.0
 11
-29.92710031629895
 21
-4.449077236367435
 31
0.0
  0
LINE
  5
F10564
330
261
100
AcDbEntity
  8
Geo
100
AcDbLine
 10
-29.92710031629895
 20
-3.995717580519175
 30
0.0
 11
-29.82710031629896
 21
-4.099373974376556
 31
0.0
  0
LINE
  5
F10566
330
261
100
AcDbEntity
  8
Geo
100
AcDbLine
 10
-29.92710031629895
 20
-4.449077236367435
 30
0.0
 11
-29.82710031629896
 21
-4.543099825873126
 31
0.0
  0
LINE
  5
F10568
330
261
100
AcDbEntity
  8
Geo
100
AcDbLine
 10
-29.82710031629896
 20
-4.099373974376556
 30
0.0
 11
-29.72710031629894
 21
-4.201452717617756
 31
0.0
  0
LINE
  5
F1056A
330
261
100
AcDbEntity
  8
Geo
100
AcDbLine
 10
-29.82710031629896
 20
-4.543099825873126
 30
0.0
 11
-29.72710031629894
 21
-4.634699367521385
 31
0.0
  0
LINE
  5
F1056C
330
261
100
AcDbEntity
  8
Geo
100
AcDbLine
 10
-29.72710031629894
 20
-4.201452717617756
 30
0.0
 11
-29.62710031629895
 21
-4.301759327348345
 31
0.0
  0
LINE
  5
F1056E
330
261
100
AcDbEntity
  8
Geo
100
AcDbLine
 10
-29.72710031629894
 20
-4.634699367521385
 30
0.0
 11
-29.62710031629895
 21
-4.723701343646505
 31
0.0
  0
LINE
  5
F10570
330
261
100
AcDbEntity
  8
Geo
100
AcDbLine
 10
-29.62710031629895
 20
-4.301759327348345
 30
0.0
 11
-29.52710031629896
 21
-4.400102696985626
 31
0.0
  0
LINE
  5
F10572
330
261
100
AcDbEntity
  8
Geo
100
AcDbLine
 10
-29.62710031629895
 20
-4.723701343646505
 30
0.0
 11
-29.52710031629896
 21
-4.809936185527565
 31
0.0
  0
LINE
  5
F10574
330
261
100
AcDbEntity
  8
Geo
100
AcDbLine
 10
-29.52710031629896
 20
-4.400102696985626
 30
0.0
 11
-29.42710031629895
 21
-4.496295460359455
 31
0.0
  0
LINE
  5
F10576
330
261
100
AcDbEntity
  8
Geo
100
AcDbLine
 10
-29.52710031629896
 20
-4.809936185527565
 30
0.0
 11
-29.42710031629895
 21
-4.893239596454825
 31
0.0
  0
LINE
  5
F10578
330
261
100
AcDbEntity
  8
Geo
100
AcDbLine
 10
-29.42710031629895
 20
-4.496295460359455
 30
0.0
 11
-29.32710031629895
 21
-4.590154348686805
 31
0.0
  0
LINE
  5
F1057A
330
261
100
AcDbEntity
  8
Geo
100
AcDbLine
 10
-29.42710031629895
 20
-4.893239596454825
 30
0.0
 11
-29.32710031629895
 21
-4.973452864751806
 31
0.0
  0
LINE
  5
F1057C
330
261
100
AcDbEntity
  8
Geo
100
AcDbLine
 10
-29.32710031629895
 20
-4.590154348686805
 30
0.0
 11
-29.22710031629895
 21
-4.681500539739985
 31
0.0
  0
LINE
  5
F1057E
330
261
100
AcDbEntity
  8
Geo
100
AcDbLine
 10
-29.32710031629895
 20
-4.973452864751806
 30
0.0
 11
-29.22710031629895
 21
-5.050423166156605
 31
0.0
  0
LINE
  5
F10580
330
261
100
AcDbEntity
  8
Geo
100
AcDbLine
 10
-29.32710031629895
 20
-0.7938505440165767
 30
0.0
 11
-29.22710031629895
 21
-0.7975241859553153
 31
0.0
  0
LINE
  5
F10582
330
261
100
AcDbEntity
  8
Geo
100
AcDbLine
 10
-29.22710031629895
 20
-4.681500539739985
 30
0.0
 11
-29.12710031629895
 21
-4.770159998542995
 31
0.0
  0
LINE
  5
F10584
330
261
100
AcDbEntity
  8
Geo
100
AcDbLine
 10
-29.22710031629895
 20
-5.050423166156605
 30
0.0
 11
-29.12710031629895
 21
-5.124003854986486
 31
0.0
  0
LINE
  5
F10586
330
261
100
AcDbEntity
  8
Geo
100
AcDbLine
 10
-29.22710031629895
 20
-0.7975241859553153
 30
0.0
 11
-29.12710031629895
 21
-0.8045208872271949
 31
0.0
  0
LINE
  5
F10588
330
261
100
AcDbEntity
  8
Geo
100
AcDbLine
 10
-29.12710031629895
 20
-4.770159998542995
 30
0.0
 11
-29.02710031629896
 21
-4.855963808947205
 31
0.0
  0
LINE
  5
F1058A
330
261
100
AcDbEntity
  8
Geo
100
AcDbLine
 10
-29.12710031629895
 20
-5.124003854986486
 30
0.0
 11
-29.02710031629896
 21
-5.194054743530575
 31
0.0
  0
LINE
  5
F1058C
330
261
100
AcDbEntity
  8
Geo
100
AcDbLine
 10
-29.12710031629895
 20
-0.8045208872271949
 30
0.0
 11
-29.02710031629896
 21
-0.8148312490926761
 31
0.0
  0
LINE
  5
F1058E
330
261
100
AcDbEntity
  8
Geo
100
AcDbLine
 10
-29.02710031629896
 20
-4.855963808947205
 30
0.0
 11
-28.92710031629895
 21
-4.938748495454465
 31
0.0
  0
LINE
  5
F10590
330
261
100
AcDbEntity
  8
Geo
100
AcDbLine
 10
-29.02710031629896
 20
-5.194054743530575
 30
0.0
 11
-28.92710031629895
 21
-5.260442369139125
 31
0.0
  0
LINE
  5
F10592
330
261
100
AcDbEntity
  8
Geo
100
AcDbLine
 10
-29.02710031629896
 20
-0.8148312490926761
 30
0.0
 11
-28.92710031629895
 21
-0.8284414215383861
 31
0.0
  0
LINE
  5
F10594
330
261
100
AcDbEntity
  8
Geo
100
AcDbLine
 10
-28.92710031629895
 20
-4.938748495454465
 30
0.0
 11
-28.82710031629896
 21
-5.018356334674654
 31
0.0
  0
LINE
  5
F10596
330
261
100
AcDbEntity
  8
Geo
100
AcDbLine
 10
-28.92710031629895
 20
-5.260442369139125
 30
0.0
 11
-28.82710031629896
 21
-5.323040248499615
 31
0.0
  0
LINE
  5
F10598
330
261
100
AcDbEntity
  8
Geo
100
AcDbLine
 10
-28.92710031629895
 20
-0.8284414215383861
 30
0.0
 11
-28.82710031629896
 21
-0.8453331218820556
 31
0.0
  0
LINE
  5
F1059A
330
261
100
AcDbEntity
  8
Geo
100
AcDbLine
 10
-28.82710031629896
 20
-5.018356334674654
 30
0.0
 11
-28.72710031629895
 21
-5.094635655824035
 31
0.0
  0
LINE
  5
F1059C
330
261
100
AcDbEntity
  8
Geo
100
AcDbLine
 10
-28.82710031629896
 20
-5.323040248499615
 30
0.0
 11
-28.72710031629895
 21
-5.381729118615895
 31
0.0
  0
LINE
  5
F1059E
330
261
100
AcDbEntity
  8
Geo
100
AcDbLine
 10
-28.82710031629896
 20
-0.7728511681875468
 30
0.0
 11
-28.72710031629895
 21
-0.7749214100807054
 31
0.0
  0
LINE
  5
F105A0
330
261
100
AcDbEntity
  8
Geo
100
AcDbLine
 10
-28.82710031629896
 20
-0.8453331218820556
 30
0.0
 11
-28.72710031629895
 21
-0.8654836593317751
 31
0.0
  0
LINE
  5
F105A2
330
261
100
AcDbEntity
  8
Geo
100
AcDbLine
 10
-28.72710031629895
 20
-5.094635655824035
 30
0.0
 11
-28.62710031629895
 21
-5.167441129692114
 31
0.0
  0
LINE
  5
F105A4
330
261
100
AcDbEntity
  8
Geo
100
AcDbLine
 10
-28.72710031629895
 20
-5.381729118615895
 30
0.0
 11
-28.62710031629895
 21
-5.436397164030886
 31
0.0
  0
LINE
  5
F105A6
330
261
100
AcDbEntity
  8
Geo
100
AcDbLine
 10
-28.72710031629895
 20
-0.7749214100807054
 30
0.0
 11
-28.62710031629895
 21
-0.7803450738443863
 31
0.0
  0
LINE
  5
F105A8
330
261
100
AcDbEntity
  8
Geo
100
AcDbLine
 10
-28.72710031629895
 20
-0.8654836593317751
 30
0.0
 11
-28.62710031629895
 21
-0.888865965466846
 31
0.0
  0
LINE
  5
F105AA
330
261
100
AcDbEntity
  8
Geo
100
AcDbLine
 10
-28.62710031629895
 20
-5.167441129692114
 30
0.0
 11
-28.52710031629896
 21
-5.236634045526445
 31
0.0
  0
LINE
  5
F105AC
330
261
100
AcDbEntity
  8
Geo
100
AcDbLine
 10
-28.62710031629895
 20
-5.436397164030886
 30
0.0
 11
-28.52710031629896
 21
-5.486940229860205
 31
0.0
  0
LINE
  5
F105AE
330
261
100
AcDbEntity
  8
Geo
100
AcDbLine
 10
-28.62710031629895
 20
-0.7803450738443863
 30
0.0
 11
-28.52710031629896
 21
-0.7891148738162564
 31
0.0
  0
LINE
  5
F105B0
330
261
100
AcDbEntity
  8
Geo
100
AcDbLine
 10
-28.62710031629895
 20
-0.888865965466846
 30
0.0
 11
-28.52710031629896
 21
-0.9154486305989752
 31
0.0
  0
LINE
  5
F105B2
330
261
100
AcDbEntity
  8
Geo
100
AcDbLine
 10
-28.52710031629896
 20
-5.236634045526445
 30
0.0
 11
-28.42710031629895
 21
-5.302082575307576
 31
0.0
  0
LINE
  5
F105B4
330
261
100
AcDbEntity
  8
Geo
100
AcDbLine
 10
-28.52710031629896
 20
-5.486940229860205
 30
0.0
 11
-28.42710031629895
 21
-5.533262020230434
 31
0.0
  0
LINE
  5
F105B6
330
261
100
AcDbEntity
  8
Geo
100
AcDbLine
 10
-28.52710031629896
 20
-0.7891148738162564
 30
0.0
 11
-28.42710031629895
 21
-0.8012190294353267
 31
0.0
  0
LINE
  5
F105B8
330
261
100
AcDbEntity
  8
Geo
100
AcDbLine
 10
-28.52710031629896
 20
-0.9154486305989752
 30
0.0
 11
-28.42710031629895
 21
-0.9451959459652865
 31
0.0
  0
LINE
  5
F105BA
330
261
100
AcDbEntity
  8
Geo
100
AcDbLine
 10
-28.42710031629895
 20
-5.302082575307576
 30
0.0
 11
-28.32710031629896
 21
-5.363662024911145
 31
0.0
  0
LINE
  5
F105BC
330
261
100
AcDbEntity
  8
Geo
100
AcDbLine
 10
-28.42710031629895
 20
-5.533262020230434
 30
0.0
 11
-28.32710031629896
 21
-5.575274281744445
 31
0.0
  0
LINE
  5
F105BE
330
261
100
AcDbEntity
  8
Geo
100
AcDbLine
 10
-28.42710031629895
 20
-0.8012190294353267
 30
0.0
 11
-28.32710031629896
 21
-0.816641281066925
 31
0.0
  0
LINE
  5
F105C0
330
261
100
AcDbEntity
  8
Geo
100
AcDbLine
 10
-28.42710031629895
 20
-0.9451959459652865
 30
0.0
 11
-28.32710031629896
 21
-0.9780679516962154
 31
0.0
  0
LINE
  5
F105C2
330
261
100
AcDbEntity
  8
Geo
100
AcDbLine
 10
-28.32710031629896
 20
-5.363662024911145
 30
0.0
 11
-28.22710031629894
 21
-5.421255071678055
 31
0.0
  0
LINE
  5
F105C4
330
261
100
AcDbEntity
  8
Geo
100
AcDbLine
 10
-28.32710031629896
 20
-5.575274281744445
 30
0.0
 11
-28.22710031629894
 21
-5.612896971623896
 31
0.0
  0
LINE
  5
F105C6
330
261
100
AcDbEntity
  8
Geo
100
AcDbLine
 10
-28.32710031629896
 20
-0.816641281066925
 30
0.0
 11
-28.22710031629894
 21
-0.8353609118445062
 31
0.0
  0
LINE
  5
F105C8
330
261
100
AcDbEntity
  8
Geo
100
AcDbLine
 10
-28.32710031629896
 20
-0.9780679516962154
 30
0.0
 11
-28.22710031629894
 21
-1.014020490494086
 31
0.0
  0
LINE
  5
F105CA
330
261
100
AcDbEntity
  8
Geo
100
AcDbLine
 10
-28.22710031629894
 20
-5.421255071678055
 30
0.0
 11
-28.12710031629895
 21
-5.474751987940425
 31
0.0
  0
LINE
  5
F105CC
330
261
100
AcDbEntity
  8
Geo
100
AcDbLine
 10
-28.22710031629894
 20
-5.612896971623896
 30
0.0
 11
-28.12710031629895
 21
-5.646058410208605
 31
0.0
  0
LINE
  5
F105CE
330
261
100
AcDbEntity
  8
Geo
100
AcDbLine
 10
-28.22710031629894
 20
-0.8353609118445062
 30
0.0
 11
-28.12710031629895
 21
-0.8573527754987466
 31
0.0
  0
LINE
  5
F105D0
330
261
100
AcDbEntity
  8
Geo
100
AcDbLine
 10
-28.22710031629894
 20
-1.014020490494086
 30
0.0
 11
-28.12710031629895
 21
-1.053005266949915
 31
0.0
  0
LINE
  5
F105D2
330
261
100
AcDbEntity
  8
Geo
100
AcDbLine
 10
-28.12710031629895
 20
-5.474751987940425
 30
0.0
 11
-28.02710031629896
 21
-5.524050850077466
 31
0.0
  0
LINE
  5
F105D4
330
261
100
AcDbEntity
  8
Geo
100
AcDbLine
 10
-28.12710031629895
 20
-5.646058410208605
 30
0.0
 11
-28.02710031629896
 21
-5.674695417522505
 31
0.0
  0
LINE
  5
F105D6
330
261
100
AcDbEntity
  8
Geo
100
AcDbLine
 10
-28.12710031629895
 20
-0.8573527754987466
 30
0.0
 11
-28.02710031629896
 21
-0.8825873301367961
 31
0.0
  0
LINE
  5
F105D8
330
261
100
AcDbEntity
  8
Geo
100
AcDbLine
 10
-28.12710031629895
 20
-1.053005266949915
 30
0.0
 11
-28.02710031629896
 21
-1.094969912419325
 31
0.0
  0
LINE
  5
F105DA
330
261
100
AcDbEntity
  8
Geo
100
AcDbLine
 10
-28.02710031629896
 20
-5.524050850077466
 30
0.0
 11
-27.92710031629895
 21
-5.569057732702815
 31
0.0
  0
LINE
  5
F105DC
330
261
100
AcDbEntity
  8
Geo
100
AcDbLine
 10
-28.02710031629896
 20
-5.674695417522505
 30
0.0
 11
-27.92710031629895
 21
-5.698753433645525
 31
0.0
  0
LINE
  5
F105DE
330
261
100
AcDbEntity
  8
Geo
100
AcDbLine
 10
-28.02710031629896
 20
-0.8825873301367961
 30
0.0
 11
-27.92710031629895
 21
-0.9110306779262344
 31
0.0
  0
LINE
  5
F105E0
330
261
100
AcDbEntity
  8
Geo
100
AcDbLine
 10
-28.02710031629896
 20
-1.094969912419325
 30
0.0
 11
-27.92710031629895
 21
-1.139858055369645
 31
0.0
  0
LINE
  5
F105E2
330
261
100
AcDbEntity
  8
Geo
100
AcDbLine
 10
-27.92710031629895
 20
-5.569057732702815
 30
0.0
 11
-27.82710031629895
 21
-5.609686887613396
 31
0.0
  0
LINE
  5
F105E4
330
261
100
AcDbEntity
  8
Geo
100
AcDbLine
 10
-27.92710031629895
 20
-5.698753433645525
 30
0.0
 11
-27.82710031629895
 21
-5.718186622662566
 31
0.0
  0
LINE
  5
F105E6
330
261
100
AcDbEntity
  8
Geo
100
AcDbLine
 10
-27.92710031629895
 20
-0.9110306779262344
 30
0.0
 11
-27.82710031629895
 21
-0.9426446106303556
 31
0.0
  0
LINE
  5
F105E8
330
261
100
AcDbEntity
  8
Geo
100
AcDbLine
 10
-27.92710031629895
 20
-1.139858055369645
 30
0.0
 11
-27.82710031629895
 21
-1.187609397104565
 31
0.0
  0
LINE
  5
F105EA
330
261
100
AcDbEntity
  8
Geo
100
AcDbLine
 10
-27.82710031629895
 20
-5.609686887613396
 30
0.0
 11
-27.72710031629895
 21
-5.645860907159095
 31
0.0
  0
LINE
  5
F105EC
330
261
100
AcDbEntity
  8
Geo
100
AcDbLine
 10
-27.82710031629895
 20
-5.718186622662566
 30
0.0
 11
-27.72710031629895
 21
-5.732957959991155
 31
0.0
  0
LINE
  5
F105EE
330
261
100
AcDbEntity
  8
Geo
100
AcDbLine
 10
-27.82710031629895
 20
-0.9426446106303556
 30
0.0
 11
-27.72710031629895
 21
-0.9773866609336563
 31
0.0
  0
LINE
  5
F105F0
330
261
100
AcDbEntity
  8
Geo
100
AcDbLine
 10
-27.82710031629895
 20
-1.187609397104565
 30
0.0
 11
-27.72710031629895
 21
-1.238159792763815
 31
0.0
  0
LINE
  5
F105F2
330
261
100
AcDbEntity
  8
Geo
100
AcDbLine
 10
-27.72710031629895
 20
-5.645860907159095
 30
0.0
 11
-27.62710031629895
 21
-5.677510871721555
 31
0.0
  0
LINE
  5
F105F4
330
261
100
AcDbEntity
  8
Geo
100
AcDbLine
 10
-27.72710031629895
 20
-5.732957959991155
 30
0.0
 11
-27.62710031629895
 21
-5.743039302921566
 31
0.0
  0
LINE
  5
F105F6
330
261
100
AcDbEntity
  8
Geo
100
AcDbLine
 10
-27.72710031629895
 20
-0.9773866609336563
 30
0.0
 11
-27.62710031629895
 21
-1.015210159488655
 31
0.0
  0
LINE
  5
F105F8
330
261
100
AcDbEntity
  8
Geo
100
AcDbLine
 10
-27.72710031629895
 20
-1.238159792763815
 30
0.0
 11
-27.62710031629895
 21
-1.291441337489765
 31
0.0
  0
LINE
  5
F105FA
330
261
100
AcDbEntity
  8
Geo
100
AcDbLine
 10
-27.62710031629895
 20
-5.677510871721555
 30
0.0
 11
-27.52710031629896
 21
-5.704576481021595
 31
0.0
  0
LINE
  5
F105FC
330
261
100
AcDbEntity
  8
Geo
100
AcDbLine
 10
-27.62710031629895
 20
-5.743039302921566
 30
0.0
 11
-27.52710031629896
 21
-5.748411444235076
 31
0.0
  0
LINE
  5
F105FE
330
261
100
AcDbEntity
  8
Geo
100
AcDbLine
 10
-27.62710031629895
 20
-1.015210159488655
 30
0.0
 11
-27.52710031629896
 21
-1.056064297607246
 31
0.0
  0
LINE
  5
F10600
330
261
100
AcDbEntity
  8
Geo
100
AcDbLine
 10
-27.62710031629895
 20
-1.291441337489765
 30
0.0
 11
-27.52710031629896
 21
-1.347382457644566
 31
0.0
  0
LINE
  5
F10602
330
261
100
AcDbEntity
  8
Geo
100
AcDbLine
 10
-27.52710031629896
 20
-5.704576481021595
 30
0.0
 11
-27.42710031629895
 21
-5.727006169004735
 31
0.0
  0
LINE
  5
F10604
330
261
100
AcDbEntity
  8
Geo
100
AcDbLine
 10
-27.52710031629896
 20
-1.056064297607246
 30
0.0
 11
-27.42710031629895
 21
-1.099894195512586
 31
0.0
  0
LINE
  5
F10606
330
261
100
AcDbEntity
  8
Geo
100
AcDbLine
 10
-27.52710031629896
 20
-1.347382457644566
 30
0.0
 11
-27.42710031629895
 21
-1.405908006955826
 31
0.0
  0
LINE
  5
F10608
330
261
100
AcDbEntity
  8
Geo
100
AcDbLine
 10
-27.42710031629895
 20
-5.727006169004735
 30
0.0
 11
-27.32710031629896
 21
-5.744757202086095
 31
0.0
  0
LINE
  5
F1060A
330
261
100
AcDbEntity
  8
Geo
100
AcDbLine
 10
-27.42710031629895
 20
-1.099894195512586
 30
0.0
 11
-27.32710031629896
 21
-1.146640976059565
 31
0.0
  0
LINE
  5
F1060C
330
261
100
AcDbEntity
  8
Geo
100
AcDbLine
 10
-27.42710031629895
 20
-1.405908006955826
 30
0.0
 11
-27.32710031629896
 21
-1.466939367461314
 31
0.0
  0
LINE
  5
F1060E
330
261
100
AcDbEntity
  8
Geo
100
AcDbLine
 10
-27.32710031629896
 20
-5.744757202086095
 30
0.0
 11
-27.22710031629894
 21
-5.757795760567406
 31
0.0
  0
LINE
  5
F10610
330
261
100
AcDbEntity
  8
Geo
100
AcDbLine
 10
-27.32710031629896
 20
-1.146640976059565
 30
0.0
 11
-27.22710031629894
 21
-1.196241843825184
 31
0.0
  0
LINE
  5
F10612
330
261
100
AcDbEntity
  8
Geo
100
AcDbLine
 10
-27.32710031629896
 20
-1.466939367461314
 30
0.0
 11
-27.22710031629894
 21
-1.530394555117305
 31
0.0
  0
LINE
  5
F10614
330
261
100
AcDbEntity
  8
Geo
100
AcDbLine
 10
-27.22710031629894
 20
-5.757795760567406
 30
0.0
 11
-27.12710031629895
 21
-5.766097003071225
 31
0.0
  0
LINE
  5
F10616
330
261
100
AcDbEntity
  8
Geo
100
AcDbLine
 10
-27.22710031629894
 20
-1.196241843825184
 30
0.0
 11
-27.12710031629895
 21
-1.248630169462176
 31
0.0
  0
LINE
  5
F10618
330
261
100
AcDbEntity
  8
Geo
100
AcDbLine
 10
-27.22710031629894
 20
-1.530394555117305
 30
0.0
 11
-27.12710031629895
 21
-1.596188329928525
 31
0.0
  0
LINE
  5
F1061A
330
261
100
AcDbEntity
  8
Geo
100
AcDbLine
 10
-27.12710031629895
 20
-5.766097003071225
 30
0.0
 11
-27.02710031629896
 21
-5.769645113869225
 31
0.0
  0
LINE
  5
F1061C
330
261
100
AcDbEntity
  8
Geo
100
AcDbLine
 10
-27.12710031629895
 20
-1.248630169462176
 30
0.0
 11
-27.02710031629896
 21
-1.303735579202944
 31
0.0
  0
LINE
  5
F1061E
330
261
100
AcDbEntity
  8
Geo
100
AcDbLine
 10
-27.12710031629895
 20
-1.596188329928525
 30
0.0
 11
-27.02710031629896
 21
-1.664232310451975
 31
0.0
  0
LINE
  5
F10620
330
261
100
AcDbEntity
  8
Geo
100
AcDbLine
 10
-27.02710031629896
 20
-1.303735579202944
 30
0.0
 11
-26.92710031629895
 21
-1.361484049393366
 31
0.0
  0
LINE
  5
F10622
330
261
100
AcDbEntity
  8
Geo
100
AcDbLine
 10
-27.02710031629896
 20
-1.664232310451975
 30
0.0
 11
-26.92710031629895
 21
-1.734435092520506
 31
0.0
  0
LINE
  5
F10624
330
261
100
AcDbEntity
  8
Geo
100
AcDbLine
 10
-26.92710031629895
 20
-1.361484049393366
 30
0.0
 11
-26.82710031629895
 21
-1.421798005929446
 31
0.0
  0
LINE
  5
F10626
330
261
100
AcDbEntity
  8
Geo
100
AcDbLine
 10
-26.92710031629895
 20
-1.734435092520506
 30
0.0
 11
-26.82710031629895
 21
-1.806702372027065
 31
0.0
  0
LINE
  5
F10628
330
261
100
AcDbEntity
  8
Geo
100
AcDbLine
 10
-26.82710031629895
 20
-1.421798005929446
 30
0.0
 11
-26.72710031629895
 21
-1.484596428463436
 31
0.0
  0
LINE
  5
F1062A
330
261
100
AcDbEntity
  8
Geo
100
AcDbLine
 10
-26.82710031629895
 20
-1.806702372027065
 30
0.0
 11
-26.72710031629895
 21
-1.880937071604295
 31
0.0
  0
LINE
  5
F1062C
330
261
100
AcDbEntity
  8
Geo
100
AcDbLine
 10
-26.72710031629895
 20
-1.484596428463436
 30
0.0
 11
-26.62710031629895
 21
-1.549794959239336
 31
0.0
  0
LINE
  5
F1062E
330
261
100
AcDbEntity
  8
Geo
100
AcDbLine
 10
-26.72710031629895
 20
-1.880937071604295
 30
0.0
 11
-26.62710031629895
 21
-1.957039471029575
 31
0.0
  0
LINE
  5
F10630
330
261
100
AcDbEntity
  8
Geo
100
AcDbLine
 10
-26.62710031629895
 20
-1.549794959239336
 30
0.0
 11
-26.52710031629896
 21
-1.617306016411435
 31
0.0
  0
LINE
  5
F10632
330
261
100
AcDbEntity
  8
Geo
100
AcDbLine
 10
-26.62710031629895
 20
-1.957039471029575
 30
0.0
 11
-26.52710031629896
 21
-2.034907341180175
 31
0.0
  0
LINE
  5
F10634
330
261
100
AcDbEntity
  8
Geo
100
AcDbLine
 10
-26.52710031629896
 20
-1.617306016411435
 30
0.0
 11
-26.42710031629895
 21
-1.687038911693956
 31
0.0
  0
LINE
  5
F10636
330
261
100
AcDbEntity
  8
Geo
100
AcDbLine
 10
-26.52710031629896
 20
-2.034907341180175
 30
0.0
 11
-26.42710031629895
 21
-2.114436081358715
 31
0.0
  0
LINE
  5
F10638
330
261
100
AcDbEntity
  8
Geo
100
AcDbLine
 10
-26.42710031629895
 20
-1.687038911693956
 30
0.0
 11
-26.32710031629895
 21
-1.758899972183486
 31
0.0
  0
LINE
  5
F1063A
330
261
100
AcDbEntity
  8
Geo
100
AcDbLine
 10
-26.42710031629895
 20
-2.114436081358715
 30
0.0
 11
-26.32710031629895
 21
-2.195518859804286
 31
0.0
  0
LINE
  5
F1063C
330
261
100
AcDbEntity
  8
Geo
100
AcDbLine
 10
-26.32710031629895
 20
-1.758899972183486
 30
0.0
 11
-26.22710031629895
 21
-1.832792666190795
 31
0.0
  0
LINE
  5
F1063E
330
261
100
AcDbEntity
  8
Geo
100
AcDbLine
 10
-26.32710031629895
 20
-2.195518859804286
 30
0.0
 11
-26.22710031629895
 21
-2.278046757200666
 31
0.0
  0
LINE
  5
F10640
330
261
100
AcDbEntity
  8
Geo
100
AcDbLine
 10
-26.22710031629895
 20
-1.832792666190795
 30
0.0
 11
-26.12710031629895
 21
-1.908617732912786
 31
0.0
  0
LINE
  5
F10642
330
261
100
AcDbEntity
  8
Geo
100
AcDbLine
 10
-26.22710031629895
 20
-2.278046757200666
 30
0.0
 11
-26.12710031629895
 21
-2.361908912988725
 31
0.0
  0
LINE
  5
F10644
330
261
100
AcDbEntity
  8
Geo
100
AcDbLine
 10
-26.12710031629895
 20
-1.908617732912786
 30
0.0
 11
-26.02710031629896
 21
-1.986273315770586
 31
0.0
  0
LINE
  5
F10646
330
261
100
AcDbEntity
  8
Geo
100
AcDbLine
 10
-26.12710031629895
 20
-2.361908912988725
 30
0.0
 11
-26.02710031629896
 21
-2.446992674286565
 31
0.0
  0
LINE
  5
F10648
330
261
100
AcDbEntity
  8
Geo
100
AcDbLine
 10
-26.02710031629896
 20
-1.986273315770586
 30
0.0
 11
-25.92710031629895
 21
-2.065655099234445
 31
0.0
  0
LINE
  5
F1064A
330
261
100
AcDbEntity
  8
Geo
100
AcDbLine
 10
-26.02710031629896
 20
-2.446992674286565
 30
0.0
 11
-25.92710031629895
 21
-2.533183747217234
 31
0.0
  0
LINE
  5
F1064C
330
261
100
AcDbEntity
  8
Geo
100
AcDbLine
 10
-25.92710031629895
 20
-2.065655099234445
 30
0.0
 11
-25.82710031629896
 21
-2.146656448951906
 31
0.0
  0
LINE
  5
F1064E
330
261
100
AcDbEntity
  8
Geo
100
AcDbLine
 10
-25.92710031629895
 20
-2.533183747217234
 30
0.0
 11
-25.82710031629896
 21
-2.620366350440876
 31
0.0
  0
LINE
  5
F10650
330
261
100
AcDbEntity
  8
Geo
100
AcDbLine
 10
-25.82710031629896
 20
-2.146656448951906
 30
0.0
 11
-25.72710031629894
 21
-2.229168554990795
 31
0.0
  0
LINE
  5
F10652
330
261
100
AcDbEntity
  8
Geo
100
AcDbLine
 10
-25.82710031629896
 20
-2.620366350440876
 30
0.0
 11
-25.72710031629894
 21
-2.708423370684956
 31
0.0
  0
LINE
  5
F10654
330
261
100
AcDbEntity
  8
Geo
100
AcDbLine
 10
-25.72710031629894
 20
-2.229168554990795
 30
0.0
 11
-25.62710031629895
 21
-2.313080578004666
 31
0.0
  0
LINE
  5
F10656
330
261
100
AcDbEntity
  8
Geo
100
AcDbLine
 10
-25.72710031629894
 20
-2.708423370684956
 30
0.0
 11
-25.62710031629895
 21
-2.797236520063725
 31
0.0
  0
LINE
  5
F10658
330
261
100
AcDbEntity
  8
Geo
100
AcDbLine
 10
-25.62710031629895
 20
-2.313080578004666
 30
0.0
 11
-25.52710031629896
 21
-2.398279798124465
 31
0.0
  0
LINE
  5
F1065A
330
261
100
AcDbEntity
  8
Geo
100
AcDbLine
 10
-25.62710031629895
 20
-2.797236520063725
 30
0.0
 11
-25.52710031629896
 21
-2.886686494975514
 31
0.0
  0
LINE
  5
F1065C
330
261
100
AcDbEntity
  8
Geo
100
AcDbLine
 10
-25.52710031629896
 20
-2.398279798124465
 30
0.0
 11
-25.42710031629895
 21
-2.484651766376245
 31
0.0
  0
LINE
  5
F1065E
330
261
100
AcDbEntity
  8
Geo
100
AcDbLine
 10
-25.52710031629896
 20
-2.886686494975514
 30
0.0
 11
-25.42710031629895
 21
-2.976653136364485
 31
0.0
  0
LINE
  5
F10660
330
261
100
AcDbEntity
  8
Geo
100
AcDbLine
 10
-25.42710031629895
 20
-2.484651766376245
 30
0.0
 11
-25.32710031629895
 21
-2.572080458421625
 31
0.0
  0
LINE
  5
F10662
330
261
100
AcDbEntity
  8
Geo
100
AcDbLine
 10
-25.42710031629895
 20
-2.976653136364485
 30
0.0
 11
-25.32710031629895
 21
-3.067015591131485
 31
0.0
  0
LINE
  5
F10664
330
261
100
AcDbEntity
  8
Geo
100
AcDbLine
 10
-25.32710031629895
 20
-2.572080458421625
 30
0.0
 11
-25.22710031629895
 21
-2.660448430414485
 31
0.0
  0
LINE
  5
F10666
330
261
100
AcDbEntity
  8
Geo
100
AcDbLine
 10
-25.32710031629895
 20
-3.067015591131485
 30
0.0
 11
-25.22710031629895
 21
-3.157652474477245
 31
0.0
  0
LINE
  5
F10668
330
261
100
AcDbEntity
  8
Geo
100
AcDbLine
 10
-25.22710031629895
 20
-2.660448430414485
 30
0.0
 11
-25.12710031629895
 21
-2.749636976764435
 31
0.0
  0
LINE
  5
F1066A
330
261
100
AcDbEntity
  8
Geo
100
AcDbLine
 10
-25.22710031629895
 20
-3.157652474477245
 30
0.0
 11
-25.12710031629895
 21
-3.248442032959815
 31
0.0
  0
LINE
  5
F1066C
330
261
100
AcDbEntity
  8
Geo
100
AcDbLine
 10
-25.12710031629895
 20
-2.749636976764435
 30
0.0
 11
-25.02710031629896
 21
-2.839526289595265
 31
0.0
  0
LINE
  5
F1066E
330
261
100
AcDbEntity
  8
Geo
100
AcDbLine
 10
-25.12710031629895
 20
-3.248442032959815
 30
0.0
 11
-25.02710031629896
 21
-3.339262308047206
 31
0.0
  0
LINE
  5
F10670
330
261
100
AcDbEntity
  8
Geo
100
AcDbLine
 10
-25.02710031629896
 20
-2.839526289595265
 30
0.0
 11
-24.92710031629895
 21
-2.929995619684046
 31
0.0
  0
LINE
  5
F10672
330
261
100
AcDbEntity
  8
Geo
100
AcDbLine
 10
-25.02710031629896
 20
-3.339262308047206
 30
0.0
 11
-24.92710031629895
 21
-3.429991299945475
 31
0.0
  0
LINE
  5
F10674
330
261
100
AcDbEntity
  8
Geo
100
AcDbLine
 10
-24.92710031629895
 20
-2.929995619684046
 30
0.0
 11
-24.82710031629896
 21
-3.020923438664835
 31
0.0
  0
LINE
  5
F10676
330
261
100
AcDbEntity
  8
Geo
100
AcDbLine
 10
-24.92710031629895
 20
-3.429991299945475
 30
0.0
 11
-24.82710031629896
 21
-3.520507131482336
 31
0.0
  0
LINE
  5
F10678
330
261
100
AcDbEntity
  8
Geo
100
AcDbLine
 10
-24.82710031629896
 20
-3.020923438664835
 30
0.0
 11
-24.72710031629894
 21
-3.112187602278885
 31
0.0
  0
LINE
  5
F1067A
330
261
100
AcDbEntity
  8
Geo
100
AcDbLine
 10
-24.82710031629896
 20
-3.520507131482336
 30
0.0
 11
-24.72710031629894
 21
-3.610688211825955
 31
0.0
  0
LINE
  5
F1067C
330
261
100
AcDbEntity
  8
Geo
100
AcDbLine
 10
-24.72710031629894
 20
-3.112187602278885
 30
0.0
 11
-24.62710031629895
 21
-3.203665514452345
 31
0.0
  0
LINE
  5
F1067E
330
261
100
AcDbEntity
  8
Geo
100
AcDbLine
 10
-24.72710031629894
 20
-3.610688211825955
 30
0.0
 11
-24.62710031629895
 21
-3.700413399819176
 31
0.0
  0
LINE
  5
F10680
330
261
100
AcDbEntity
  8
Geo
100
AcDbLine
 10
-24.62710031629895
 20
-3.203665514452345
 30
0.0
 11
-24.52710031629896
 21
-3.295234291980715
 31
0.0
  0
LINE
  5
F10682
330
261
100
AcDbEntity
  8
Geo
100
AcDbLine
 10
-24.62710031629895
 20
-3.700413399819176
 30
0.0
 11
-24.52710031629896
 21
-3.789562166709625
 31
0.0
  0
LINE
  5
F10684
330
261
100
AcDbEntity
  8
Geo
100
AcDbLine
 10
-24.52710031629896
 20
-3.295234291980715
 30
0.0
 11
-24.42710031629895
 21
-3.386770929599175
 31
0.0
  0
LINE
  5
F10686
330
261
100
AcDbEntity
  8
Geo
100
AcDbLine
 10
-24.52710031629896
 20
-3.789562166709625
 30
0.0
 11
-24.42710031629895
 21
-3.878014758057235
 31
0.0
  0
LINE
  5
F10688
330
261
100
AcDbEntity
  8
Geo
100
AcDbLine
 10
-24.42710031629895
 20
-3.386770929599175
 30
0.0
 11
-24.32710031629895
 21
-3.478152465216775
 31
0.0
  0
LINE
  5
F1068A
330
261
100
AcDbEntity
  8
Geo
100
AcDbLine
 10
-24.42710031629895
 20
-3.878014758057235
 30
0.0
 11
-24.32710031629895
 21
-3.965652354601605
 31
0.0
  0
LINE
  5
F1068C
330
261
100
AcDbEntity
  8
Geo
100
AcDbLine
 10
-24.32710031629895
 20
-0.7943354483826957
 30
0.0
 11
-24.22710031629895
 21
-0.7992580706307058
 31
0.0
  0
LINE
  5
F1068E
330
261
100
AcDbEntity
  8
Geo
100
AcDbLine
 10
-24.32710031629895
 20
-3.478152465216775
 30
0.0
 11
-24.22710031629895
 21
-3.569256145092635
 31
0.0
  0
LINE
  5
F10690
330
261
100
AcDbEntity
  8
Geo
100
AcDbLine
 10
-24.32710031629895
 20
-3.965652354601605
 30
0.0
 11
-24.22710031629895
 21
-4.052357231873075
 31
0.0
  0
LINE
  5
F10692
330
261
100
AcDbEntity
  8
Geo
100
AcDbLine
 10
-24.22710031629895
 20
-0.7992580706307058
 30
0.0
 11
-24.12710031629895
 21
-0.8081354460425362
 31
0.0
  0
LINE
  5
F10694
330
261
100
AcDbEntity
  8
Geo
100
AcDbLine
 10
-24.22710031629895
 20
-3.569256145092635
 30
0.0
 11
-24.12710031629895
 21
-3.659959588732305
 31
0.0
  0
LINE
  5
F10696
330
261
100
AcDbEntity
  8
Geo
100
AcDbLine
 10
-24.22710031629895
 20
-4.052357231873075
 30
0.0
 11
-24.12710031629895
 21
-4.138012918333205
 31
0.0
  0
LINE
  5
F10698
330
261
100
AcDbEntity
  8
Geo
100
AcDbLine
 10
-24.12710031629895
 20
-0.8081354460425362
 30
0.0
 11
-24.02710031629896
 21
-0.8209533727112567
 31
0.0
  0
LINE
  5
F1069A
330
261
100
AcDbEntity
  8
Geo
100
AcDbLine
 10
-24.12710031629895
 20
-3.659959588732305
 30
0.0
 11
-24.02710031629896
 21
-3.750140953282715
 31
0.0
  0
LINE
  5
F1069C
330
261
100
AcDbEntity
  8
Geo
100
AcDbLine
 10
-24.12710031629895
 20
-4.138012918333205
 30
0.0
 11
-24.02710031629896
 21
-4.222504351832196
 31
0.0
  0
LINE
  5
F1069E
330
261
100
AcDbEntity
  8
Geo
100
AcDbLine
 10
-24.02710031629896
 20
-0.8209533727112567
 30
0.0
 11
-23.92710031629895
 21
-0.8376913446885652
 31
0.0
  0
LINE
  5
F106A0
330
261
100
AcDbEntity
  8
Geo
100
AcDbLine
 10
-24.02710031629896
 20
-3.750140953282715
 30
0.0
 11
-23.92710031629895
 21
-3.839679097204935
 31
0.0
  0
LINE
  5
F106A2
330
261
100
AcDbEntity
  8
Geo
100
AcDbLine
 10
-24.02710031629896
 20
-4.222504351832196
 30
0.0
 11
-23.92710031629895
 21
-4.305718034173046
 31
0.0
  0
LINE
  5
F106A4
330
261
100
AcDbEntity
  8
Geo
100
AcDbLine
 10
-23.92710031629895
 20
-0.8376913446885652
 30
0.0
 11
-23.82710031629895
 21
-0.8583225847898754
 31
0.0
  0
LINE
  5
F106A6
330
261
100
AcDbEntity
  8
Geo
100
AcDbLine
 10
-23.92710031629895
 20
-3.839679097204935
 30
0.0
 11
-23.82710031629895
 21
-3.928453743004796
 31
0.0
  0
LINE
  5
F106A8
330
261
100
AcDbEntity
  8
Geo
100
AcDbLine
 10
-23.92710031629895
 20
-4.305718034173046
 30
0.0
 11
-23.82710031629895
 21
-4.387542183574756
 31
0.0
  0
LINE
  5
F106AA
330
261
100
AcDbEntity
  8
Geo
100
AcDbLine
 10
-23.82710031629895
 20
-0.7738478821854962
 30
0.0
 11
-23.72710031629894
 21
-0.7786997173248551
 31
0.0
  0
LINE
  5
F106AC
330
261
100
AcDbEntity
  8
Geo
100
AcDbLine
 10
-23.82710031629895
 20
-0.8583225847898754
 30
0.0
 11
-23.72710031629894
 21
-0.8828140874320862
 31
0.0
  0
LINE
  5
F106AE
330
261
100
AcDbEntity
  8
Geo
100
AcDbLine
 10
-23.82710031629895
 20
-3.928453743004796
 30
0.0
 11
-23.72710031629894
 21
-4.016345638802865
 31
0.0
  0
LINE
  5
F106B0
330
261
100
AcDbEntity
  8
Geo
100
AcDbLine
 10
-23.82710031629895
 20
-4.387542183574756
 30
0.0
 11
-23.72710031629894
 21
-4.467866884830015
 31
0.0
  0
LINE
  5
F106B2
330
261
100
AcDbEntity
  8
Geo
100
AcDbLine
 10
-23.72710031629894
 20
-0.7786997173248551
 30
0.0
 11
-23.62710031629895
 21
-0.7875391946077653
 31
0.0
  0
LINE
  5
F106B4
330
261
100
AcDbEntity
  8
Geo
100
AcDbLine
 10
-23.72710031629894
 20
-0.8828140874320862
 30
0.0
 11
-23.62710031629895
 21
-0.9111266714355652
 31
0.0
  0
LINE
  5
F106B6
330
261
100
AcDbEntity
  8
Geo
100
AcDbLine
 10
-23.72710031629894
 20
-4.016345638802865
 30
0.0
 11
-23.62710031629895
 21
-4.103236718526735
 31
0.0
  0
LINE
  5
F106B8
330
261
100
AcDbEntity
  8
Geo
100
AcDbLine
 10
-23.72710031629894
 20
-4.467866884830015
 30
0.0
 11
-23.62710031629895
 21
-4.546584236955365
 31
0.0
  0
LINE
  5
F106BA
330
261
100
AcDbEntity
  8
Geo
100
AcDbLine
 10
-23.62710031629895
 20
-0.7875391946077653
 30
0.0
 11
-23.52710031629896
 21
-0.8003521727562459
 31
0.0
  0
LINE
  5
F106BC
330
261
100
AcDbEntity
  8
Geo
100
AcDbLine
 10
-23.62710031629895
 20
-0.9111266714355652
 30
0.0
 11
-23.52710031629896
 21
-0.9432150427056162
 31
0.0
  0
LINE
  5
F106BE
330
261
100
AcDbEntity
  8
Geo
100
AcDbLine
 10
-23.62710031629895
 20
-4.103236718526735
 30
0.0
 11
-23.52710031629896
 21
-4.189010260510346
 31
0.0
  0
LINE
  5
F106C0
330
261
100
AcDbEntity
  8
Geo
100
AcDbLine
 10
-23.62710031629895
 20
-4.546584236955365
 30
0.0
 11
-23.52710031629896
 21
-4.623588498135685
 31
0.0
  0
LINE
  5
F106C2
330
261
100
AcDbEntity
  8
Geo
100
AcDbLine
 10
-23.52710031629896
 20
-0.8003521727562459
 30
0.0
 11
-23.42710031629895
 21
-0.8171181537385461
 31
0.0
  0
LINE
  5
F106C4
330
261
100
AcDbEntity
  8
Geo
100
AcDbLine
 10
-23.52710031629896
 20
-0.9432150427056162
 30
0.0
 11
-23.42710031629895
 21
-0.9790278666933458
 31
0.0
  0
LINE
  5
F106C6
330
261
100
AcDbEntity
  8
Geo
100
AcDbLine
 10
-23.52710031629896
 20
-4.189010260510346
 30
0.0
 11
-23.42710031629895
 21
-4.273551044287366
 31
0.0
  0
LINE
  5
F106C8
330
261
100
AcDbEntity
  8
Geo
100
AcDbLine
 10
-23.52710031629896
 20
-4.623588498135685
 30
0.0
 11
-23.42710031629895
 21
-4.698776227768205
 31
0.0
  0
LINE
  5
F106CA
330
261
100
AcDbEntity
  8
Geo
100
AcDbLine
 10
-23.42710031629895
 20
-0.8171181537385461
 30
0.0
 11
-23.32710031629895
 21
-0.8378103155616347
 31
0.0
  0
LINE
  5
F106CC
330
261
100
AcDbEntity
  8
Geo
100
AcDbLine
 10
-23.42710031629895
 20
-0.9790278666933458
 30
0.0
 11
-23.32710031629895
 21
-1.018507850520045
 31
0.0
  0
LINE
  5
F106CE
330
261
100
AcDbEntity
  8
Geo
100
AcDbLine
 10
-23.42710031629895
 20
-4.273551044287366
 30
0.0
 11
-23.32710031629895
 21
-4.356745505368075
 31
0.0
  0
LINE
  5
F106D0
330
261
100
AcDbEntity
  8
Geo
100
AcDbLine
 10
-23.42710031629895
 20
-4.698776227768205
 30
0.0
 11
-23.32710031629895
 21
-4.772046425415435
 31
0.0
  0
LINE
  5
F106D2
330
261
100
AcDbEntity
  8
Geo
100
AcDbLine
 10
-23.32710031629895
 20
-0.8378103155616347
 30
0.0
 11
-23.22710031629894
 21
-0.8623955551806945
 31
0.0
  0
LINE
  5
F106D4
330
261
100
AcDbEntity
  8
Geo
100
AcDbLine
 10
-23.32710031629895
 20
-1.018507850520045
 30
0.0
 11
-23.22710031629894
 21
-1.061591834633545
 31
0.0
  0
LINE
  5
F106D6
330
261
100
AcDbEntity
  8
Geo
100
AcDbLine
 10
-23.32710031629895
 20
-4.356745505368075
 30
0.0
 11
-23.22710031629894
 21
-4.438481887791565
 31
0.0
  0
LINE
  5
F106D8
330
261
100
AcDbEntity
  8
Geo
100
AcDbLine
 10
-23.32710031629895
 20
-4.772046425415435
 30
0.0
 11
-23.22710031629894
 21
-4.843300666479905
 31
0.0
  0
LINE
  5
F106DA
330
261
100
AcDbEntity
  8
Geo
100
AcDbLine
 10
-23.22710031629894
 20
-0.8623955551806945
 30
0.0
 11
-23.12710031629895
 21
-0.8908345414569156
 31
0.0
  0
LINE
  5
F106DC
330
261
100
AcDbEntity
  8
Geo
100
AcDbLine
 10
-23.22710031629894
 20
-1.061591834633545
 30
0.0
 11
-23.12710031629895
 21
-1.108210893849996
 31
0.0
  0
LINE
  5
F106DE
330
261
100
AcDbEntity
  8
Geo
100
AcDbLine
 10
-23.22710031629894
 20
-4.438481887791565
 30
0.0
 11
-23.12710031629895
 21
-4.518650394248835
 31
0.0
  0
LINE
  5
F106E0
330
261
100
AcDbEntity
  8
Geo
100
AcDbLine
 10
-23.22710031629894
 20
-4.843300666479905
 30
0.0
 11
-23.12710031629895
 21
-4.912443234419075
 31
0.0
  0
LINE
  5
F106E2
330
261
100
AcDbEntity
  8
Geo
100
AcDbLine
 10
-23.12710031629895
 20
-0.8908345414569156
 30
0.0
 11
-23.02710031629896
 21
-0.9230817780788953
 31
0.0
  0
LINE
  5
F106E4
330
261
100
AcDbEntity
  8
Geo
100
AcDbLine
 10
-23.12710031629895
 20
-1.108210893849996
 30
0.0
 11
-23.02710031629896
 21
-1.158290447619535
 31
0.0
  0
LINE
  5
F106E6
330
261
100
AcDbEntity
  8
Geo
100
AcDbLine
 10
-23.12710031629895
 20
-4.518650394248835
 30
0.0
 11
-23.02710031629896
 21
-4.597143333574445
 31
0.0
  0
LINE
  5
F106E8
330
261
100
AcDbEntity
  8
Geo
100
AcDbLine
 10
-23.12710031629895
 20
-4.912443234419075
 30
0.0
 11
-23.02710031629896
 21
-4.979381249322225
 31
0.0
  0
LINE
  5
F106EA
330
261
100
AcDbEntity
  8
Geo
100
AcDbLine
 10
-23.02710031629896
 20
-0.9230817780788953
 30
0.0
 11
-22.92710031629895
 21
-0.9590856763471053
 31
0.0
  0
LINE
  5
F106EC
330
261
100
AcDbEntity
  8
Geo
100
AcDbLine
 10
-23.02710031629896
 20
-1.158290447619535
 30
0.0
 11
-22.92710031629895
 21
-1.211750379339215
 31
0.0
  0
LINE
  5
F106EE
330
261
100
AcDbEntity
  8
Geo
100
AcDbLine
 10
-23.02710031629896
 20
-4.597143333574445
 30
0.0
 11
-22.92710031629895
 21
-4.673855265409255
 31
0.0
  0
LINE
  5
F106F0
330
261
100
AcDbEntity
  8
Geo
100
AcDbLine
 10
-23.02710031629896
 20
-4.979381249322225
 30
0.0
 11
-22.92710031629895
 21
-5.044024792677035
 31
0.0
  0
LINE
  5
F106F2
330
261
100
AcDbEntity
  8
Geo
100
AcDbLine
 10
-22.92710031629895
 20
-0.9590856763471053
 30
0.0
 11
-22.82710031629895
 21
-0.998788637704715
 31
0.0
  0
LINE
  5
F106F4
330
261
100
AcDbEntity
  8
Geo
100
AcDbLine
 10
-22.92710031629895
 20
-1.211750379339215
 30
0.0
 11
-22.82710031629895
 21
-1.268505164522444
 31
0.0
  0
LINE
  5
F106F6
330
261
100
AcDbEntity
  8
Geo
100
AcDbLine
 10
-22.92710031629895
 20
-4.673855265409255
 30
0.0
 11
-22.82710031629895
 21
-4.748683141839505
 31
0.0
  0
LINE
  5
F106F8
330
261
100
AcDbEntity
  8
Geo
100
AcDbLine
 10
-22.92710031629895
 20
-5.044024792677035
 30
0.0
 11
-22.82710031629895
 21
-5.106287028158035
 31
0.0
  0
LINE
  5
F106FA
330
261
100
AcDbEntity
  8
Geo
100
AcDbLine
 10
-22.82710031629895
 20
-0.998788637704715
 30
0.0
 11
-22.72710031629895
 21
-1.042127145883076
 31
0.0
  0
LINE
  5
F106FC
330
261
100
AcDbEntity
  8
Geo
100
AcDbLine
 10
-22.82710031629895
 20
-1.268505164522444
 30
0.0
 11
-22.72710031629895
 21
-1.328464007619966
 31
0.0
  0
LINE
  5
F106FE
330
261
100
AcDbEntity
  8
Geo
100
AcDbLine
 10
-22.82710031629895
 20
-4.748683141839505
 30
0.0
 11
-22.72710031629895
 21
-4.821526445822085
 31
0.0
  0
LINE
  5
F10700
330
261
100
AcDbEntity
  8
Geo
100
AcDbLine
 10
-22.82710031629895
 20
-5.106287028158035
 30
0.0
 11
-22.72710031629895
 21
-5.166084318274685
 31
0.0
  0
LINE
  5
F10702
330
261
100
AcDbEntity
  8
Geo
100
AcDbLine
 10
-22.72710031629895
 20
-1.042127145883076
 30
0.0
 11
-22.62710031629895
 21
-1.089031868514176
 31
0.0
  0
LINE
  5
F10704
330
261
100
AcDbEntity
  8
Geo
100
AcDbLine
 10
-22.72710031629895
 20
-1.328464007619966
 30
0.0
 11
-22.62710031629895
 21
-1.391530987273375
 31
0.0
  0
LINE
  5
F10706
330
261
100
AcDbEntity
  8
Geo
100
AcDbLine
 10
-22.72710031629895
 20
-4.821526445822085
 30
0.0
 11
-22.62710031629895
 21
-4.892287326210155
 31
0.0
  0
LINE
  5
F10708
330
261
100
AcDbEntity
  8
Geo
100
AcDbLine
 10
-22.72710031629895
 20
-5.166084318274685
 30
0.0
 11
-22.62710031629895
 21
-5.223336336722475
 31
0.0
  0
LINE
  5
F1070A
330
261
100
AcDbEntity
  8
Geo
100
AcDbLine
 10
-22.62710031629895
 20
-1.089031868514176
 30
0.0
 11
-22.52710031629896
 21
-1.139427768047575
 31
0.0
  0
LINE
  5
F1070C
330
261
100
AcDbEntity
  8
Geo
100
AcDbLine
 10
-22.62710031629895
 20
-1.391530987273375
 30
0.0
 11
-22.52710031629896
 21
-1.457605209768795
 31
0.0
  0
LINE
  5
F1070E
330
261
100
AcDbEntity
  8
Geo
100
AcDbLine
 10
-22.62710031629895
 20
-4.892287326210155
 30
0.0
 11
-22.52710031629896
 21
-4.960870729197525
 31
0.0
  0
LINE
  5
F10710
330
261
100
AcDbEntity
  8
Geo
100
AcDbLine
 10
-22.62710031629895
 20
-5.223336336722475
 30
0.0
 11
-22.52710031629896
 21
-5.277966176286074
 31
0.0
  0
LINE
  5
F10712
330
261
100
AcDbEntity
  8
Geo
100
AcDbLine
 10
-22.52710031629896
 20
-1.139427768047575
 30
0.0
 11
-22.42710031629895
 21
-1.193234221794605
 31
0.0
  0
LINE
  5
F10714
330
261
100
AcDbEntity
  8
Geo
100
AcDbLine
 10
-22.52710031629896
 20
-1.457605209768795
 30
0.0
 11
-22.42710031629895
 21
-1.526580970445315
 31
0.0
  0
LINE
  5
F10716
330
261
100
AcDbEntity
  8
Geo
100
AcDbLine
 10
-22.52710031629896
 20
-4.960870729197525
 30
0.0
 11
-22.42710031629895
 21
-5.027184526005425
 31
0.0
  0
LINE
  5
F10718
330
261
100
AcDbEntity
  8
Geo
100
AcDbLine
 10
-22.52710031629896
 20
-5.277966176286074
 30
0.0
 11
-22.42710031629895
 21
-5.329900452149545
 31
0.0
  0
LINE
  5
F1071A
330
261
100
AcDbEntity
  8
Geo
100
AcDbLine
 10
-22.42710031629895
 20
-1.193234221794605
 30
0.0
 11
-22.32710031629896
 21
-1.250365150907355
 31
0.0
  0
LINE
  5
F1071C
330
261
100
AcDbEntity
  8
Geo
100
AcDbLine
 10
-22.42710031629895
 20
-1.526580970445315
 30
0.0
 11
-22.32710031629896
 21
-1.598347922799885
 31
0.0
  0
LINE
  5
F1071E
330
261
100
AcDbEntity
  8
Geo
100
AcDbLine
 10
-22.42710031629895
 20
-5.027184526005425
 30
0.0
 11
-22.32710031629896
 21
-5.091139636640035
 31
0.0
  0
LINE
  5
F10720
330
261
100
AcDbEntity
  8
Geo
100
AcDbLine
 10
-22.42710031629895
 20
-5.329900452149545
 30
0.0
 11
-22.32710031629896
 21
-5.379069400474975
 31
0.0
  0
LINE
  5
F10722
330
261
100
AcDbEntity
  8
Geo
100
AcDbLine
 10
-22.32710031629896
 20
-1.250365150907355
 30
0.0
 11
-22.22710031629894
 21
-1.310729158086535
 31
0.0
  0
LINE
  5
F10724
330
261
100
AcDbEntity
  8
Geo
100
AcDbLine
 10
-22.32710031629896
 20
-1.598347922799885
 30
0.0
 11
-22.22710031629894
 21
-1.672791255018225
 31
0.0
  0
LINE
  5
F10726
330
261
100
AcDbEntity
  8
Geo
100
AcDbLine
 10
-22.32710031629896
 20
-5.091139636640035
 30
0.0
 11
-22.22710031629894
 21
-5.152650149554475
 31
0.0
  0
LINE
  5
F10728
330
261
100
AcDbEntity
  8
Geo
100
AcDbLine
 10
-22.32710031629896
 20
-5.379069400474975
 30
0.0
 11
-22.22710031629894
 21
-5.425406972116855
 31
0.0
  0
LINE
  5
F1072A
330
261
100
AcDbEntity
  8
Geo
100
AcDbLine
 10
-22.22710031629894
 20
-1.310729158086535
 30
0.0
 11
-22.12710031629895
 21
-1.374229673797616
 31
0.0
  0
LINE
  5
F1072C
330
261
100
AcDbEntity
  8
Geo
100
AcDbLine
 10
-22.22710031629894
 20
-1.672791255018225
 30
0.0
 11
-22.12710031629895
 21
-1.749791873649176
 31
0.0
  0
LINE
  5
F1072E
330
261
100
AcDbEntity
  8
Geo
100
AcDbLine
 10
-22.22710031629894
 20
-5.152650149554475
 30
0.0
 11
-22.12710031629895
 21
-5.211633437054775
 31
0.0
  0
LINE
  5
F10730
330
261
100
AcDbEntity
  8
Geo
100
AcDbLine
 10
-22.22710031629894
 20
-5.425406972116855
 30
0.0
 11
-22.12710031629895
 21
-5.468850921346625
 31
0.0
  0
LINE
  5
F10732
330
261
100
AcDbEntity
  8
Geo
100
AcDbLine
 10
-22.12710031629895
 20
-1.374229673797616
 30
0.0
 11
-22.02710031629896
 21
-1.440765110761515
 31
0.0
  0
LINE
  5
F10734
330
261
100
AcDbEntity
  8
Geo
100
AcDbLine
 10
-22.12710031629895
 20
-1.749791873649176
 30
0.0
 11
-22.02710031629896
 21
-1.829226594128836
 31
0.0
  0
LINE
  5
F10736
330
261
100
AcDbEntity
  8
Geo
100
AcDbLine
 10
-22.12710031629895
 20
-5.211633437054775
 30
0.0
 11
-22.02710031629896
 21
-5.268010266294336
 31
0.0
  0
LINE
  5
F10738
330
261
100
AcDbEntity
  8
Geo
100
AcDbLine
 10
-22.12710031629895
 20
-5.468850921346625
 30
0.0
 11
-22.02710031629896
 21
-5.509342889467946
 31
0.0
  0
LINE
  5
F1073A
330
261
100
AcDbEntity
  8
Geo
100
AcDbLine
 10
-22.02710031629896
 20
-1.440765110761515
 30
0.0
 11
-21.92710031629895
 21
-1.510229026472554
 31
0.0
  0
LINE
  5
F1073C
330
261
100
AcDbEntity
  8
Geo
100
AcDbLine
 10
-22.02710031629896
 20
-1.829226594128836
 30
0.0
 11
-21.92710031629895
 21
-1.910968337849626
 31
0.0
  0
LINE
  5
F1073E
330
261
100
AcDbEntity
  8
Geo
100
AcDbLine
 10
-22.02710031629896
 20
-5.268010266294336
 30
0.0
 11
-21.92710031629895
 21
-5.321704905708345
 31
0.0
  0
LINE
  5
F10740
330
261
100
AcDbEntity
  8
Geo
100
AcDbLine
 10
-22.02710031629896
 20
-5.509342889467946
 30
0.0
 11
-21.92710031629895
 21
-5.546828483210585
 31
0.0
  0
LINE
  5
F10742
330
261
100
AcDbEntity
  8
Geo
100
AcDbLine
 10
-21.92710031629895
 20
-1.510229026472554
 30
0.0
 11
-21.82710031629895
 21
-1.582510293483775
 31
0.0
  0
LINE
  5
F10744
330
261
100
AcDbEntity
  8
Geo
100
AcDbLine
 10
-21.92710031629895
 20
-1.910968337849626
 30
0.0
 11
-21.82710031629895
 21
-1.994886335458906
 31
0.0
  0
LINE
  5
F10746
330
261
100
AcDbEntity
  8
Geo
100
AcDbLine
 10
-21.92710031629895
 20
-5.321704905708345
 30
0.0
 11
-21.82710031629895
 21
-5.372645226744715
 31
0.0
  0
LINE
  5
F10748
330
261
100
AcDbEntity
  8
Geo
100
AcDbLine
 10
-21.92710031629895
 20
-5.546828483210585
 30
0.0
 11
-21.82710031629895
 21
-5.581257347797405
 31
0.0
  0
LINE
  5
F1074A
330
261
100
AcDbEntity
  8
Geo
100
AcDbLine
 10
-21.82710031629895
 20
-1.582510293483775
 30
0.0
 11
-21.72710031629895
 21
-1.657493277187166
 31
0.0
  0
LINE
  5
F1074C
330
261
100
AcDbEntity
  8
Geo
100
AcDbLine
 10
-21.82710031629895
 20
-1.994886335458906
 30
0.0
 11
-21.72710031629895
 21
-2.080846336062015
 31
0.0
  0
LINE
  5
F1074E
330
261
100
AcDbEntity
  8
Geo
100
AcDbLine
 10
-21.82710031629895
 20
-5.372645226744715
 30
0.0
 11
-21.72710031629895
 21
-5.420762800755075
 31
0.0
  0
LINE
  5
F10750
330
261
100
AcDbEntity
  8
Geo
100
AcDbLine
 10
-21.82710031629895
 20
-5.581257347797405
 30
0.0
 11
-21.72710031629895
 21
-5.612583234586465
 31
0.0
  0
LINE
  5
F10752
330
261
100
AcDbEntity
  8
Geo
100
AcDbLine
 10
-21.72710031629895
 20
-1.657493277187166
 30
0.0
 11
-21.62710031629895
 21
-1.735058020804285
 31
0.0
  0
LINE
  5
F10754
330
261
100
AcDbEntity
  8
Geo
100
AcDbLine
 10
-21.72710031629895
 20
-2.080846336062015
 30
0.0
 11
-21.62710031629895
 21
-2.168710821995194
 31
0.0
  0
LINE
  5
F10756
330
261
100
AcDbEntity
  8
Geo
100
AcDbLine
 10
-21.72710031629895
 20
-5.420762800755075
 30
0.0
 11
-21.62710031629895
 21
-5.465992990915676
 31
0.0
  0
LINE
  5
F10758
330
261
100
AcDbEntity
  8
Geo
100
AcDbLine
 10
-21.72710031629895
 20
-5.612583234586465
 30
0.0
 11
-21.62710031629895
 21
-5.640764063197216
 31
0.0
  0
LINE
  5
F1075A
330
261
100
AcDbEntity
  8
Geo
100
AcDbLine
 10
-21.62710031629895
 20
-1.735058020804285
 30
0.0
 11
-21.52710031629895
 21
-1.815080437291645
 31
0.0
  0
LINE
  5
F1075C
330
261
100
AcDbEntity
  8
Geo
100
AcDbLine
 10
-21.62710031629895
 20
-2.168710821995194
 30
0.0
 11
-21.52710031629895
 21
-2.258339228824326
 31
0.0
  0
LINE
  5
F1075E
330
261
100
AcDbEntity
  8
Geo
100
AcDbLine
 10
-21.62710031629895
 20
-5.465992990915676
 30
0.0
 11
-21.52710031629895
 21
-5.508275039054695
 31
0.0
  0
LINE
  5
F10760
330
261
100
AcDbEntity
  8
Geo
100
AcDbLine
 10
-21.62710031629895
 20
-5.640764063197216
 30
0.0
 11
-21.52710031629895
 21
-5.665761978037665
 31
0.0
  0
LINE
  5
F10762
330
261
100
AcDbEntity
  8
Geo
100
AcDbLine
 10
-21.52710031629895
 20
-1.815080437291645
 30
0.0
 11
-21.42710031629895
 21
-1.897432507853355
 31
0.0
  0
LINE
  5
F10764
330
261
100
AcDbEntity
  8
Geo
100
AcDbLine
 10
-21.52710031629895
 20
-2.258339228824326
 30
0.0
 11
-21.42710031629895
 21
-2.349588170218234
 31
0.0
  0
LINE
  5
F10766
330
261
100
AcDbEntity
  8
Geo
100
AcDbLine
 10
-21.52710031629895
 20
-5.508275039054695
 30
0.0
 11
-21.42710031629895
 21
-5.547552147269264
 31
0.0
  0
LINE
  5
F10768
330
261
100
AcDbEntity
  8
Geo
100
AcDbLine
 10
-21.52710031629895
 20
-5.665761978037665
 30
0.0
 11
-21.42710031629895
 21
-5.687543399155975
 31
0.0
  0
LINE
  5
F1076A
330
261
100
AcDbEntity
  8
Geo
100
AcDbLine
 10
-21.42710031629895
 20
-1.897432507853355
 30
0.0
 11
-21.32710031629895
 21
-1.981982486744075
 31
0.0
  0
LINE
  5
F1076C
330
261
100
AcDbEntity
  8
Geo
100
AcDbLine
 10
-21.42710031629895
 20
-2.349588170218234
 30
0.0
 11
-21.32710031629895
 21
-2.442311667336076
 31
0.0
  0
LINE
  5
F1076E
330
261
100
AcDbEntity
  8
Geo
100
AcDbLine
 10
-21.42710031629895
 20
-5.547552147269264
 30
0.0
 11
-21.32710031629895
 21
-5.583771554222775
 31
0.0
  0
LINE
  5
F10770
330
261
100
AcDbEntity
  8
Geo
100
AcDbLine
 10
-21.42710031629895
 20
-5.687543399155975
 30
0.0
 11
-21.32710031629895
 21
-5.706079067348925
 31
0.0
  0
LINE
  5
F10772
330
261
100
AcDbEntity
  8
Geo
100
AcDbLine
 10
-21.32710031629895
 20
-1.981982486744075
 30
0.0
 11
-21.22710031629894
 21
-2.068595112033895
 31
0.0
  0
LINE
  5
F10774
330
261
100
AcDbEntity
  8
Geo
100
AcDbLine
 10
-21.32710031629895
 20
-2.442311667336076
 30
0.0
 11
-21.22710031629894
 21
-2.536361382362395
 31
0.0
  0
LINE
  5
F10776
330
261
100
AcDbEntity
  8
Geo
100
AcDbLine
 10
-21.32710031629895
 20
-5.583771554222775
 30
0.0
 11
-21.22710031629894
 21
-5.616884606019605
 31
0.0
  0
LINE
  5
F10778
330
261
100
AcDbEntity
  8
Geo
100
AcDbLine
 10
-21.32710031629895
 20
-5.706079067348925
 30
0.0
 11
-21.22710031629894
 21
-5.721344083465995
 31
0.0
  0
LINE
  5
F1077A
330
261
100
AcDbEntity
  8
Geo
100
AcDbLine
 10
-21.22710031629894
 20
-2.068595112033895
 30
0.0
 11
-21.12710031629895
 21
-2.157131821998755
 31
0.0
  0
LINE
  5
F1077C
330
261
100
AcDbEntity
  8
Geo
100
AcDbLine
 10
-21.22710031629894
 20
-2.536361382362395
 30
0.0
 11
-21.12710031629895
 21
-2.631586855816054
 31
0.0
  0
LINE
  5
F1077E
330
261
100
AcDbEntity
  8
Geo
100
AcDbLine
 10
-21.22710031629894
 20
-5.616884606019605
 30
0.0
 11
-21.12710031629895
 21
-5.646846821562405
 31
0.0
  0
LINE
  5
F10780
330
261
100
AcDbEntity
  8
Geo
100
AcDbLine
 10
-21.22710031629894
 20
-5.721344083465995
 30
0.0
 11
-21.12710031629895
 21
-5.733317941856656
 31
0.0
  0
LINE
  5
F10782
330
261
100
AcDbEntity
  8
Geo
100
AcDbLine
 10
-21.12710031629895
 20
-2.157131821998755
 30
0.0
 11
-21.02710031629896
 21
-2.247450976789536
 31
0.0
  0
LINE
  5
F10784
330
261
100
AcDbEntity
  8
Geo
100
AcDbLine
 10
-21.12710031629895
 20
-2.631586855816054
 30
0.0
 11
-21.02710031629896
 21
-2.727835747253195
 31
0.0
  0
LINE
  5
F10786
330
261
100
AcDbEntity
  8
Geo
100
AcDbLine
 10
-21.12710031629895
 20
-5.646846821562405
 30
0.0
 11
-21.02710031629896
 21
-5.673617952304055
 31
0.0
  0
LINE
  5
F10788
330
261
100
AcDbEntity
  8
Geo
100
AcDbLine
 10
-21.12710031629895
 20
-5.733317941856656
 30
0.0
 11
-21.02710031629896
 21
-5.741984557915856
 31
0.0
  0
LINE
  5
F1078A
330
261
100
AcDbEntity
  8
Geo
100
AcDbLine
 10
-21.02710031629896
 20
-2.247450976789536
 30
0.0
 11
-20.92710031629895
 21
-2.339408085025626
 31
0.0
  0
LINE
  5
F1078C
330
261
100
AcDbEntity
  8
Geo
100
AcDbLine
 10
-21.02710031629896
 20
-2.727835747253195
 30
0.0
 11
-20.92710031629895
 21
-2.824954078979525
 31
0.0
  0
LINE
  5
F1078E
330
261
100
AcDbEntity
  8
Geo
100
AcDbLine
 10
-21.02710031629896
 20
-5.673617952304055
 30
0.0
 11
-20.92710031629895
 21
-5.697162036313905
 31
0.0
  0
LINE
  5
F10790
330
261
100
AcDbEntity
  8
Geo
100
AcDbLine
 10
-21.02710031629896
 20
-5.741984557915856
 30
0.0
 11
-20.92710031629895
 21
-5.747332289690605
 31
0.0
  0
LINE
  5
F10792
330
261
100
AcDbEntity
  8
Geo
100
AcDbLine
 10
-20.92710031629895
 20
-2.339408085025626
 30
0.0
 11
-20.82710031629895
 21
-2.432856034950326
 31
0.0
  0
LINE
  5
F10794
330
261
100
AcDbEntity
  8
Geo
100
AcDbLine
 10
-20.92710031629895
 20
-2.824954078979525
 30
0.0
 11
-20.82710031629895
 21
-2.922786482381756
 31
0.0
  0
LINE
  5
F10796
330
261
100
AcDbEntity
  8
Geo
100
AcDbLine
 10
-20.92710031629895
 20
-5.697162036313905
 30
0.0
 11
-20.82710031629895
 21
-5.717447446585835
 31
0.0
  0
LINE
  5
F10798
330
261
100
AcDbEntity
  8
Geo
100
AcDbLine
 10
-20.92710031629895
 20
-5.747332289690605
 30
0.0
 11
-20.82710031629895
 21
-5.749353953518735
 31
0.0
  0
LINE
  5
F1079A
330
261
100
AcDbEntity
  8
Geo
100
AcDbLine
 10
-20.82710031629895
 20
-2.432856034950326
 30
0.0
 11
-20.72710031629894
 21
-2.527645329778235
 31
0.0
  0
LINE
  5
F1079C
330
261
100
AcDbEntity
  8
Geo
100
AcDbLine
 10
-20.82710031629895
 20
-2.922786482381756
 30
0.0
 11
-20.72710031629894
 21
-3.021176446484225
 31
0.0
  0
LINE
  5
F1079E
330
261
100
AcDbEntity
  8
Geo
100
AcDbLine
 10
-20.82710031629895
 20
-5.717447446585835
 30
0.0
 11
-20.72710031629894
 21
-5.734446933523095
 31
0.0
  0
LINE
  5
F107A0
330
261
100
AcDbEntity
  8
Geo
100
AcDbLine
 10
-20.72710031629894
 20
-2.527645329778235
 30
0.0
 11
-20.62710031629895
 21
-2.623624326858286
 31
0.0
  0
LINE
  5
F107A2
330
261
100
AcDbEntity
  8
Geo
100
AcDbLine
 10
-20.72710031629894
 20
-3.021176446484225
 30
0.0
 11
-20.62710031629895
 21
-3.119966568333135
 31
0.0
  0
LINE
  5
F107A4
330
261
100
AcDbEntity
  8
Geo
100
AcDbLine
 10
-20.72710031629894
 20
-5.734446933523095
 30
0.0
 11
-20.62710031629895
 21
-5.748137661542955
 31
0.0
  0
LINE
  5
F107A6
330
261
100
AcDbEntity
  8
Geo
100
AcDbLine
 10
-20.62710031629895
 20
-2.623624326858286
 30
0.0
 11
-20.52710031629896
 21
-2.720639480269576
 31
0.0
  0
LINE
  5
F107A8
330
261
100
AcDbEntity
  8
Geo
100
AcDbLine
 10
-20.62710031629895
 20
-3.119966568333135
 30
0.0
 11
-20.52710031629896
 21
-3.218998804807605
 31
0.0
  0
LINE
  5
F107AA
330
261
100
AcDbEntity
  8
Geo
100
AcDbLine
 10
-20.62710031629895
 20
-5.748137661542955
 30
0.0
 11
-20.52710031629896
 21
-5.758501239752045
 31
0.0
  0
LINE
  5
F107AC
330
261
100
AcDbEntity
  8
Geo
100
AcDbLine
 10
-20.52710031629896
 20
-2.720639480269576
 30
0.0
 11
-20.42710031629895
 21
-2.818535586462095
 31
0.0
  0
LINE
  5
F107AE
330
261
100
AcDbEntity
  8
Geo
100
AcDbLine
 10
-20.52710031629896
 20
-3.218998804807605
 30
0.0
 11
-20.42710031629895
 21
-3.318114725455045
 31
0.0
  0
LINE
  5
F107B0
330
261
100
AcDbEntity
  8
Geo
100
AcDbLine
 10
-20.52710031629896
 20
-5.758501239752045
 30
0.0
 11
-20.42710031629895
 21
-5.765523746650956
 31
0.0
  0
LINE
  5
F107B2
330
261
100
AcDbEntity
  8
Geo
100
AcDbLine
 10
-20.42710031629895
 20
-2.818535586462095
 30
0.0
 11
-20.32710031629895
 21
-2.917156032549335
 31
0.0
  0
LINE
  5
F107B4
330
261
100
AcDbEntity
  8
Geo
100
AcDbLine
 10
-20.42710031629895
 20
-3.318114725455045
 30
0.0
 11
-20.32710031629895
 21
-3.417155765946025
 31
0.0
  0
LINE
  5
F107B6
330
261
100
AcDbEntity
  8
Geo
100
AcDbLine
 10
-20.42710031629895
 20
-5.765523746650956
 30
0.0
 11
-20.32710031629895
 21
-5.769195748835146
 31
0.0
  0
LINE
  5
F107B8
330
261
100
AcDbEntity
  8
Geo
100
AcDbLine
 10
-20.32710031629895
 20
-2.917156032549335
 30
0.0
 11
-20.22710031629895
 21
-3.016343046855466
 31
0.0
  0
LINE
  5
F107BA
330
261
100
AcDbEntity
  8
Geo
100
AcDbLine
 10
-20.32710031629895
 20
-3.417155765946025
 30
0.0
 11
-20.22710031629895
 21
-3.515963481743366
 31
0.0
  0
LINE
  5
F107BC
330
261
100
AcDbEntity
  8
Geo
100
AcDbLine
 10
-20.22710031629895
 20
-0.7936088087236666
 30
0.0
 11
-20.12710031629895
 21
-0.7978254915139962
 31
0.0
  0
LINE
  5
F107BE
330
261
100
AcDbEntity
  8
Geo
100
AcDbLine
 10
-20.22710031629895
 20
-3.016343046855466
 30
0.0
 11
-20.12710031629895
 21
-3.115937951316356
 31
0.0
  0
LINE
  5
F107C0
330
261
100
AcDbEntity
  8
Geo
100
AcDbLine
 10
-20.22710031629895
 20
-3.515963481743366
 30
0.0
 11
-20.12710031629895
 21
-3.614379801579666
 31
0.0
  0
LINE
  5
F107C2
330
261
100
AcDbEntity
  8
Geo
100
AcDbLine
 10
-20.12710031629895
 20
-0.7978254915139962
 30
0.0
 11
-20.02710031629896
 21
-0.8067547138357253
 31
0.0
  0
LINE
  5
F107C4
330
261
100
AcDbEntity
  8
Geo
100
AcDbLine
 10
-20.12710031629895
 20
-3.115937951316356
 30
0.0
 11
-20.02710031629896
 21
-3.215781415330656
 31
0.0
  0
LINE
  5
F107C6
330
261
100
AcDbEntity
  8
Geo
100
AcDbLine
 10
-20.12710031629895
 20
-3.614379801579666
 30
0.0
 11
-20.02710031629896
 21
-3.712247280337525
 31
0.0
  0
LINE
  5
F107C8
330
261
100
AcDbEntity
  8
Geo
100
AcDbLine
 10
-20.02710031629896
 20
-0.8067547138357253
 30
0.0
 11
-19.92710031629895
 21
-0.8203794635181855
 31
0.0
  0
LINE
  5
F107CA
330
261
100
AcDbEntity
  8
Geo
100
AcDbLine
 10
-20.02710031629896
 20
-3.215781415330656
 30
0.0
 11
-19.92710031629895
 21
-3.315713710654735
 31
0.0
  0
LINE
  5
F107CC
330
261
100
AcDbEntity
  8
Geo
100
AcDbLine
 10
-20.02710031629896
 20
-3.712247280337525
 30
0.0
 11
-19.92710031629895
 21
-3.809409350928246
 31
0.0
  0
LINE
  5
F107CE
330
261
100
AcDbEntity
  8
Geo
100
AcDbLine
 10
-19.92710031629895
 20
-0.8203794635181855
 30
0.0
 11
-19.82710031629895
 21
-0.8386737823582253
 31
0.0
  0
LINE
  5
F107D0
330
261
100
AcDbEntity
  8
Geo
100
AcDbLine
 10
-19.92710031629895
 20
-3.315713710654735
 30
0.0
 11
-19.82710031629895
 21
-3.415574966933845
 31
0.0
  0
LINE
  5
F107D2
330
261
100
AcDbEntity
  8
Geo
100
AcDbLine
 10
-19.92710031629895
 20
-3.809409350928246
 30
0.0
 11
-19.82710031629895
 21
-3.905710574765666
 31
0.0
  0
LINE
  5
F107D4
330
261
100
AcDbEntity
  8
Geo
100
AcDbLine
 10
-19.82710031629895
 20
-0.8386737823582253
 30
0.0
 11
-19.72710031629894
 21
-0.8616028155765054
 31
0.0
  0
LINE
  5
F107D6
330
261
100
AcDbEntity
  8
Geo
100
AcDbLine
 10
-19.82710031629895
 20
-3.415574966933845
 30
0.0
 11
-19.72710031629894
 21
-3.515205427460525
 31
0.0
  0
LINE
  5
F107D8
330
261
100
AcDbEntity
  8
Geo
100
AcDbLine
 10
-19.82710031629895
 20
-3.905710574765666
 30
0.0
 11
-19.72710031629894
 21
-4.000996890434816
 31
0.0
  0
LINE
  5
F107DA
330
261
100
AcDbEntity
  8
Geo
100
AcDbLine
 10
-19.72710031629894
 20
-0.774299007857846
 30
0.0
 11
-19.62710031629895
 21
-0.7804181832610962
 31
0.0
  0
LINE
  5
F107DC
330
261
100
AcDbEntity
  8
Geo
100
AcDbLine
 10
-19.72710031629894
 20
-0.8616028155765054
 30
0.0
 11
-19.62710031629895
 21
-0.8891228782232349
 31
0.0
  0
LINE
  5
F107DE
330
261
100
AcDbEntity
  8
Geo
100
AcDbLine
 10
-19.72710031629894
 20
-3.515205427460525
 30
0.0
 11
-19.62710031629895
 21
-3.614445704751295
 31
0.0
  0
LINE
  5
F107E0
330
261
100
AcDbEntity
  8
Geo
100
AcDbLine
 10
-19.72710031629894
 20
-4.000996890434816
 30
0.0
 11
-19.62710031629895
 21
-4.095115860157275
 31
0.0
  0
LINE
  5
F107E2
330
261
100
AcDbEntity
  8
Geo
100
AcDbLine
 10
-19.62710031629895
 20
-0.7804181832610962
 30
0.0
 11
-19.52710031629895
 21
-0.7912830630211048
 31
0.0
  0
LINE
  5
F107E4
330
261
100
AcDbEntity
  8
Geo
100
AcDbLine
 10
-19.62710031629895
 20
-0.8891228782232349
 30
0.0
 11
-19.52710031629895
 21
-0.9211815384086756
 31
0.0
  0
LINE
  5
F107E6
330
261
100
AcDbEntity
  8
Geo
100
AcDbLine
 10
-19.62710031629895
 20
-3.614445704751295
 30
0.0
 11
-19.52710031629895
 21
-3.713137035532626
 31
0.0
  0
LINE
  5
F107E8
330
261
100
AcDbEntity
  8
Geo
100
AcDbLine
 10
-19.62710031629895
 20
-4.095115860157275
 30
0.0
 11
-19.52710031629895
 21
-4.187916913659155
 31
0.0
  0
LINE
  5
F107EA
330
261
100
AcDbEntity
  8
Geo
100
AcDbLine
 10
-19.52710031629895
 20
-0.7912830630211048
 30
0.0
 11
-19.42710031629895
 21
-0.806872947105786
 31
0.0
  0
LINE
  5
F107EC
330
261
100
AcDbEntity
  8
Geo
100
AcDbLine
 10
-19.52710031629895
 20
-0.9211815384086756
 30
0.0
 11
-19.42710031629895
 21
-0.9577177171967656
 31
0.0
  0
LINE
  5
F107EE
330
261
100
AcDbEntity
  8
Geo
100
AcDbLine
 10
-19.52710031629895
 20
-3.713137035532626
 30
0.0
 11
-19.42710031629895
 21
-3.811121534728305
 31
0.0
  0
LINE
  5
F107F0
330
261
100
AcDbEntity
  8
Geo
100
AcDbLine
 10
-19.52710031629895
 20
-4.187916913659155
 30
0.0
 11
-19.42710031629895
 21
-4.279251589051336
 31
0.0
  0
LINE
  5
F107F2
330
261
100
AcDbEntity
  8
Geo
100
AcDbLine
 10
-19.42710031629895
 20
-0.806872947105786
 30
0.0
 11
-19.32710031629895
 21
-0.8271581332902968
 31
0.0
  0
LINE
  5
F107F4
330
261
100
AcDbEntity
  8
Geo
100
AcDbLine
 10
-19.42710031629895
 20
-0.9577177171967656
 30
0.0
 11
-19.32710031629895
 21
-0.9986618049745761
 31
0.0
  0
LINE
  5
F107F6
330
261
100
AcDbEntity
  8
Geo
100
AcDbLine
 10
-19.42710031629895
 20
-3.811121534728305
 30
0.0
 11
-19.32710031629895
 21
-3.908242448041836
 31
0.0
  0
LINE
  5
F107F8
330
261
100
AcDbEntity
  8
Geo
100
AcDbLine
 10
-19.42710031629895
 20
-4.279251589051336
 30
0.0
 11
-19.32710031629895
 21
-4.368973770336886
 31
0.0
  0
LINE
  5
F107FA
330
261
100
AcDbEntity
  8
Geo
100
AcDbLine
 10
-19.32710031629895
 20
-0.8271581332902968
 30
0.0
 11
-19.22710031629894
 21
-0.8520999737465366
 31
0.0
  0
LINE
  5
F107FC
330
261
100
AcDbEntity
  8
Geo
100
AcDbLine
 10
-19.32710031629895
 20
-0.9986618049745761
 30
0.0
 11
-19.22710031629894
 21
-1.043935794074235
 31
0.0
  0
LINE
  5
F107FE
330
261
100
AcDbEntity
  8
Geo
100
AcDbLine
 10
-19.32710031629895
 20
-3.908242448041836
 30
0.0
 11
-19.22710031629894
 21
-4.004344402729965
 31
0.0
  0
LINE
  5
F10800
330
261
100
AcDbEntity
  8
Geo
100
AcDbLine
 10
-19.32710031629895
 20
-4.368973770336886
 30
0.0
 11
-19.22710031629894
 21
-4.456939921165465
 31
0.0
  0
LINE
  5
F10802
330
261
100
AcDbEntity
  8
Geo
100
AcDbLine
 10
-19.22710031629894
 20
-0.8520999737465366
 30
0.0
 11
-19.12710031629895
 21
-0.8816509486758548
 31
0.0
  0
LINE
  5
F10804
330
261
100
AcDbEntity
  8
Geo
100
AcDbLine
 10
-19.22710031629894
 20
-1.043935794074235
 30
0.0
 11
-19.12710031629895
 21
-1.093453427394985
 31
0.0
  0
LINE
  5
F10806
330
261
100
AcDbEntity
  8
Geo
100
AcDbLine
 10
-19.22710031629894
 20
-4.004344402729965
 30
0.0
 11
-19.12710031629895
 21
-4.099273656165845
 31
0.0
  0
LINE
  5
F10808
330
261
100
AcDbEntity
  8
Geo
100
AcDbLine
 10
-19.22710031629894
 20
-4.456939921165465
 30
0.0
 11
-19.12710031629895
 21
-4.543009314460856
 31
0.0
  0
LINE
  5
F1080A
330
261
100
AcDbEntity
  8
Geo
100
AcDbLine
 10
-19.12710031629895
 20
-0.8816509486758548
 30
0.0
 11
-19.02710031629895
 21
-0.9157547568449659
 31
0.0
  0
LINE
  5
F1080C
330
261
100
AcDbEntity
  8
Geo
100
AcDbLine
 10
-19.12710031629895
 20
-1.093453427394985
 30
0.0
 11
-19.02710031629895
 21
-1.147120362742305
 31
0.0
  0
LINE
  5
F1080E
330
261
100
AcDbEntity
  8
Geo
100
AcDbLine
 10
-19.12710031629895
 20
-4.099273656165845
 30
0.0
 11
-19.02710031629895
 21
-4.192878341794475
 31
0.0
  0
LINE
  5
F10810
330
261
100
AcDbEntity
  8
Geo
100
AcDbLine
 10
-19.12710031629895
 20
-4.543009314460856
 30
0.0
 11
-19.02710031629895
 21
-4.627044257554285
 31
0.0
  0
LINE
  5
F10812
330
261
100
AcDbEntity
  8
Geo
100
AcDbLine
 10
-19.02710031629895
 20
-0.9157547568449659
 30
0.0
 11
-18.92710031629895
 21
-0.9543464228524065
 31
0.0
  0
LINE
  5
F10814
330
261
100
AcDbEntity
  8
Geo
100
AcDbLine
 10
-19.02710031629895
 20
-1.147120362742305
 30
0.0
 11
-18.92710031629895
 21
-1.204834352570886
 31
0.0
  0
LINE
  5
F10816
330
261
100
AcDbEntity
  8
Geo
100
AcDbLine
 10
-19.02710031629895
 20
-4.192878341794475
 30
0.0
 11
-18.92710031629895
 21
-4.285008712086756
 31
0.0
  0
LINE
  5
F10818
330
261
100
AcDbEntity
  8
Geo
100
AcDbLine
 10
-19.02710031629895
 20
-4.627044257554285
 30
0.0
 11
-18.92710031629895
 21
-4.708910312463284
 31
0.0
  0
LINE
  5
F1081A
330
261
100
AcDbEntity
  8
Geo
100
AcDbLine
 10
-18.92710031629895
 20
-0.9543464228524065
 30
0.0
 11
-18.82710031629895
 21
-0.9973524209212349
 31
0.0
  0
LINE
  5
F1081C
330
261
100
AcDbEntity
  8
Geo
100
AcDbLine
 10
-18.92710031629895
 20
-1.204834352570886
 30
0.0
 11
-18.82710031629895
 21
-1.266485438789246
 31
0.0
  0
LINE
  5
F1081E
330
261
100
AcDbEntity
  8
Geo
100
AcDbLine
 10
-18.92710031629895
 20
-4.285008712086756
 30
0.0
 11
-18.82710031629895
 21
-4.375517378103696
 31
0.0
  0
LINE
  5
F10820
330
261
100
AcDbEntity
  8
Geo
100
AcDbLine
 10
-18.92710031629895
 20
-4.708910312463284
 30
0.0
 11
-18.82710031629895
 21
-4.788476510963835
 31
0.0
  0
LINE
  5
F10822
330
261
100
AcDbEntity
  8
Geo
100
AcDbLine
 10
-18.82710031629895
 20
-0.9973524209212349
 30
0.0
 11
-18.72710031629894
 21
-1.044690814982136
 31
0.0
  0
LINE
  5
F10824
330
261
100
AcDbEntity
  8
Geo
100
AcDbLine
 10
-18.82710031629895
 20
-1.266485438789246
 30
0.0
 11
-18.72710031629894
 21
-1.331956162254445
 31
0.0
  0
LINE
  5
F10826
330
261
100
AcDbEntity
  8
Geo
100
AcDbLine
 10
-18.82710031629895
 20
-4.375517378103696
 30
0.0
 11
-18.72710031629894
 21
-4.464259545287106
 31
0.0
  0
LINE
  5
F10828
330
261
100
AcDbEntity
  8
Geo
100
AcDbLine
 10
-18.82710031629895
 20
-4.788476510963835
 30
0.0
 11
-18.72710031629894
 21
-4.865615564111555
 31
0.0
  0
LINE
  5
F1082A
330
261
100
AcDbEntity
  8
Geo
100
AcDbLine
 10
-18.72710031629894
 20
-1.044690814982136
 30
0.0
 11
-18.62710031629895
 21
-1.096271414780015
 31
0.0
  0
LINE
  5
F1082C
330
261
100
AcDbEntity
  8
Geo
100
AcDbLine
 10
-18.72710031629894
 20
-1.331956162254445
 30
0.0
 11
-18.62710031629895
 21
-1.401121786558155
 31
0.0
  0
LINE
  5
F1082E
330
261
100
AcDbEntity
  8
Geo
100
AcDbLine
 10
-18.72710031629894
 20
-4.464259545287106
 30
0.0
 11
-18.62710031629895
 21
-4.551093245100185
 31
0.0
  0
LINE
  5
F10830
330
261
100
AcDbEntity
  8
Geo
100
AcDbLine
 10
-18.72710031629894
 20
-4.865615564111555
 30
0.0
 11
-18.62710031629895
 21
-4.940204065876866
 31
0.0
  0
LINE
  5
F10832
330
261
100
AcDbEntity
  8
Geo
100
AcDbLine
 10
-18.62710031629895
 20
-1.096271414780015
 30
0.0
 11
-18.52710031629895
 21
-1.151995947706595
 31
0.0
  0
LINE
  5
F10834
330
261
100
AcDbEntity
  8
Geo
100
AcDbLine
 10
-18.62710031629895
 20
-1.401121786558155
 30
0.0
 11
-18.52710031629895
 21
-1.473850535677456
 31
0.0
  0
LINE
  5
F10836
330
261
100
AcDbEntity
  8
Geo
100
AcDbLine
 10
-18.62710031629895
 20
-4.551093245100185
 30
0.0
 11
-18.52710031629895
 21
-4.635879562146746
 31
0.0
  0
LINE
  5
F10838
330
261
100
AcDbEntity
  8
Geo
100
AcDbLine
 10
-18.62710031629895
 20
-4.940204065876866
 30
0.0
 11
-18.52710031629895
 21
-5.012122690568285
 31
0.0
  0
LINE
  5
F1083A
330
261
100
AcDbEntity
  8
Geo
100
AcDbLine
 10
-18.52710031629895
 20
-1.151995947706595
 30
0.0
 11
-18.42710031629895
 21
-1.211758246031876
 31
0.0
  0
LINE
  5
F1083C
330
261
100
AcDbEntity
  8
Geo
100
AcDbLine
 10
-18.52710031629895
 20
-1.473850535677456
 30
0.0
 11
-18.42710031629895
 21
-1.550003845037725
 31
0.0
  0
LINE
  5
F1083E
330
261
100
AcDbEntity
  8
Geo
100
AcDbLine
 10
-18.52710031629895
 20
-4.635879562146746
 30
0.0
 11
-18.42710031629895
 21
-4.718482856406305
 31
0.0
  0
LINE
  5
F10840
330
261
100
AcDbEntity
  8
Geo
100
AcDbLine
 10
-18.52710031629895
 20
-5.012122690568285
 30
0.0
 11
-18.42710031629895
 21
-5.081256383728165
 31
0.0
  0
LINE
  5
F10842
330
261
100
AcDbEntity
  8
Geo
100
AcDbLine
 10
-18.42710031629895
 20
-1.211758246031876
 30
0.0
 11
-18.32710031629895
 21
-1.275444449177385
 31
0.0
  0
LINE
  5
F10844
330
261
100
AcDbEntity
  8
Geo
100
AcDbLine
 10
-18.42710031629895
 20
-1.550003845037725
 30
0.0
 11
-18.32710031629895
 21
-1.629436625509176
 31
0.0
  0
LINE
  5
F10846
330
261
100
AcDbEntity
  8
Geo
100
AcDbLine
 10
-18.42710031629895
 20
-4.718482856406305
 30
0.0
 11
-18.32710031629895
 21
-4.798770980229136
 31
0.0
  0
LINE
  5
F10848
330
261
100
AcDbEntity
  8
Geo
100
AcDbLine
 10
-18.42710031629895
 20
-5.081256383728165
 30
0.0
 11
-18.32710031629895
 21
-5.147494546195146
 31
0.0
  0
LINE
  5
F1084A
330
261
100
AcDbEntity
  8
Geo
100
AcDbLine
 10
-18.32710031629895
 20
-1.275444449177385
 30
0.0
 11
-18.32710031629895
 21
-1.225210587487915
 31
0.0
  0
LINE
  5
F1084C
330
261
100
AcDbEntity
  8
Geo
100
AcDbLine
 10
-18.32710031629895
 20
-1.629436625509176
 30
0.0
 11
-18.32710031629895
 21
-1.225210587487915
 31
0.0
  0
LINE
  5
F1084E
330
261
100
AcDbEntity
  8
Geo
100
AcDbLine
 10
-18.32710031629895
 20
-1.629436625509176
 30
0.0
 11
-18.32710031629895
 21
-1.295318107290276
 31
0.0
  0
LINE
  5
F10850
330
261
100
AcDbEntity
  8
Geo
100
AcDbLine
 10
-18.32710031629895
 20
-4.798770980229136
 30
0.0
 11
-18.32710031629895
 21
-4.732904637567185
 31
0.0
  0
LINE
  5
F10852
330
261
100
AcDbEntity
  8
Geo
100
AcDbLine
 10
-18.32710031629895
 20
-5.147494546195146
 30
0.0
 11
-18.32710031629895
 21
-4.732904637567185
 31
0.0
  0
LINE
  5
F10854
330
261
100
AcDbEntity
  8
Geo
100
AcDbLine
 10
-18.32710031629895
 20
-5.147494546195146
 30
0.0
 11
-18.32710031629895
 21
-4.906286551368805
 31
0.0
  0
LINE
  5
F10856
330
261
100
AcDbEntity
  8
Geo
100
AcDbLine
 10
-32.32710031629896
 20
-3.271308387148786
 30
0.0
 11
-32.32710031629896
 21
-3.271308387148786
 31
0.0
  0
LINE
  5
F10858
330
261
100
AcDbEntity
  8
Geo
100
AcDbLine
 10
-32.32710031629896
 20
-3.271308387148786
 30
0.0
 11
-32.32710031629896
 21
-3.271308387148786
 31
0.0
  0
LINE
  5
F1085A
330
261
100
AcDbEntity
  8
Geo
100
AcDbLine
 10
24.67289968370105
 20
-0.7713083871487863
 30
0.0
 11
24.67289968370105
 21
-3.271308387148786
 31
0.0
  0
LINE
  5
F1085C
330
261
100
AcDbEntity
  8
Geo
100
AcDbLine
 10
-32.32710031629896
 20
-3.271308387148786
 30
0.0
 11
-32.32710031629896
 21
-5.671308387148785
 31
0.0
  0
LINE
  5
F1085E
330
261
100
AcDbEntity
  8
Geo
100
AcDbLine
 10
-32.32710031629896
 20
-5.671308387148785
 30
0.0
 11
-32.22710031629894
 21
-5.771308387148785
 31
0.0
  0
LINE
  5
F10860
330
261
100
AcDbEntity
  8
Geo
100
AcDbLine
 10
-32.22710031629894
 20
-5.771308387148785
 30
0.0
 11
-18.32710031629895
 21
-5.771308387148785
 31
0.0
  0
LINE
  5
F10862
330
261
100
AcDbEntity
  8
Geo
100
AcDbLine
 10
-18.32710031629895
 20
-5.771308387148785
 30
0.0
 11
-18.32710031629895
 21
-5.571308387148786
 31
0.0
  0
LINE
  5
F10864
330
261
100
AcDbEntity
  8
Geo
100
AcDbLine
 10
-18.32710031629895
 20
-5.571308387148786
 30
0.0
 11
-13.32710031629895
 21
-5.571308387148786
 31
0.0
  0
LINE
  5
F10866
330
261
100
AcDbEntity
  8
Geo
100
AcDbLine
 10
-13.32710031629895
 20
-5.571308387148786
 30
0.0
 11
-11.32710031629895
 21
-6.271308387148785
 31
0.0
  0
LINE
  5
F10868
330
261
100
AcDbEntity
  8
Geo
100
AcDbLine
 10
-11.32710031629895
 20
-6.271308387148785
 30
0.0
 11
24.17289968370104
 21
-6.271308387148785
 31
0.0
  0
LINE
  5
F1086A
330
261
100
AcDbEntity
  8
Geo
100
AcDbLine
 10
24.17289968370104
 20
-6.271308387148785
 30
0.0
 11
24.67289968370105
 21
-5.771308387148785
 31
0.0
  0
LINE
  5
F1086C
330
261
100
AcDbEntity
  8
Geo
100
AcDbLine
 10
-32.32710031629896
 20
-0.8713083871487867
 30
0.0
 11
-32.32710031629896
 21
-5.671308387148785
 31
0.0
  0
LINE
  5
F1086E
330
261
100
AcDbEntity
  8
Geo
100
AcDbLine
 10
-32.22710031629894
 20
-0.7713083871487863
 30
0.0
 11
-32.22710031629894
 21
-5.771308387148785
 31
0.0
  0
LINE
  5
F10870
330
261
100
AcDbEntity
  8
Geo
100
AcDbLine
 10
-18.32710031629895
 20
-0.7713083871487863
 30
0.0
 11
-18.32710031629895
 21
-5.771308387148785
 31
0.0
  0
LINE
  5
F10872
330
261
100
AcDbEntity
  8
Geo
100
AcDbLine
 10
-18.32710031629895
 20
-0.9713083871487961
 30
0.0
 11
-18.32710031629895
 21
-5.571308387148786
 31
0.0
  0
LINE
  5
F10874
330
261
100
AcDbEntity
  8
Geo
100
AcDbLine
 10
-13.32710031629895
 20
-0.9713083871487961
 30
0.0
 11
-13.32710031629895
 21
-5.571308387148786
 31
0.0
  0
LINE
  5
F10876
330
261
100
AcDbEntity
  8
Geo
100
AcDbLine
 10
-11.32710031629895
 20
-0.2713083871487871
 30
0.0
 11
-11.32710031629895
 21
-6.271308387148785
 31
0.0
  0
LINE
  5
F10878
330
261
100
AcDbEntity
  8
Geo
100
AcDbLine
 10
24.17289968370104
 20
-0.2713083871487871
 30
0.0
 11
24.17289968370104
 21
-6.271308387148785
 31
0.0
  0
LINE
  5
F1087A
330
261
100
AcDbEntity
  8
Geo
100
AcDbLine
 10
24.67289968370105
 20
-0.7713083871487863
 30
0.0
 11
24.67289968370105
 21
-5.771308387148785
 31
0.0
  0
LWPOLYLINE
  5
F10908
330
261
100
AcDbEntity
  8
Rahmen
100
AcDbPolyline
 90
        4
 70
     1
 43
0.0
 10
-134.650259067358
 20
99.8316062176166
 10
143.354922279793
 20
99.8316062176166
 10
143.354922279793
 20
-100.103626943005
 10
-134.650259067358
 20
-100.103626943005
  0
LWPOLYLINE
  5
F1090C
330
261
100
AcDbEntity
  8
Rahmen
100
AcDbPolyline
 90
        4
 70
     1
 43
0.0
 10
103.367875647668
 20
-97.11139896373062
 10
143.354922279793
 20
-97.11139896373062
 10
143.354922279793
 20
-100.103626943005
 10
103.367875647668
 20
-100.103626943005
  0
TEXT
  5
F1090E
330
261
100
AcDbEntity
  8
Text
100
AcDbText
 10
104.455958549223
 20
-98.11139896373061
 30
0.0
 40
0.75
  1
Ers. durch:
100
AcDbText
  0
LWPOLYLINE
  5
F10912
330
261
100
AcDbEntity
  8
Rahmen
100
AcDbPolyline
 90
        4
 70
     1
 43
0.0
 10
63.380829015544
 20
-97.11139896373062
 10
103.367875647668
 20
-97.11139896373062
 10
103.367875647668
 20
-100.103626943005
 10
63.380829015544
 20
-100.103626943005
  0
TEXT
  5
F10914
330
261
100
AcDbEntity
  8
Text
100
AcDbText
 10
64.46891191709839
 20
-98.11139896373061
 30
0.0
 40
0.75
  1
Ers. für:
100
AcDbText
  0
TEXT
  5
F10916
330
261
100
AcDbEntity
  8
Text
100
AcDbText
 10
91.39896373056991
 20
-99.4715025906736
 30
0.0
 40
0.75
  1

100
AcDbText
  0
LWPOLYLINE
  5
F10918
330
261
100
AcDbEntity
  8
Rahmen
100
AcDbPolyline
 90
        4
 70
     1
 43
0.0
 10
130.025906735751
 20
-94.119170984456
 10
143.354922279793
 20
-94.119170984456
 10
143.354922279793
 20
-97.11139896373062
 10
130.025906735751
 20
-97.11139896373062
  0
TEXT
  5
F1091A
330
261
100
AcDbEntity
  8
Text
100
AcDbText
 10
131.113989637306
 20
-95.119170984456
 30
0.0
 40
0.75
  1
Blätter
100
AcDbText
  0
TEXT
  5
F1091C
330
261
100
AcDbEntity
  8
Text
100
AcDbText
 10
141.178756476684
 20
-96.479274611399
 30
0.0
 40
0.75
  1

100
AcDbText
  0
LWPOLYLINE
  5
F1091E
330
261
100
AcDbEntity
  8
Rahmen
100
AcDbPolyline
 90
        4
 70
     1
 43
0.0
 10
130.025906735751
 20
-91.12694300518128
 10
143.354922279793
 20
-91.12694300518128
 10
143.354922279793
 20
-94.119170984456
 10
130.025906735751
 20
-94.119170984456
  0
TEXT
  5
F10920
330
261
100
AcDbEntity
  8
Text
100
AcDbText
 10
131.113989637306
 20
-92.12694300518128
 30
0.0
 40
0.75
  1
Blatt
100
AcDbText
  0
TEXT
  5
F10922
330
261
100
AcDbEntity
  8
Text
100
AcDbText
 10
141.178756476684
 20
-93.48704663212428
 30
0.0
 40
0.75
  1

100
AcDbText
  0
LWPOLYLINE
  5
F10924
330
261
100
AcDbEntity
  8
Rahmen
100
AcDbPolyline
 90
        4
 70
     1
 43
0.0
 10
63.380829015544
 20
-91.12694300518128
 10
130.025906735751
 20
-91.12694300518128
 10
130.025906735751
 20
-97.11139896373062
 10
63.380829015544
 20
-97.11139896373062
  0
TEXT
  5
F10926
330
261
100
AcDbEntity
  8
Text
100
AcDbText
 10
64.46891191709839
 20
-92.12694300518128
 30
0.0
 40
0.75
  1
Datum:
100
AcDbText
  0
TEXT
  5
F10928
330
261
100
AcDbEntity
  8
Text
100
AcDbText
 10
91.67098445595859
 20
-95.119170984456
 30
0.0
 40
0.75
  1
10.12.2014
100
AcDbText
  0
LWPOLYLINE
  5
F1092A
330
261
100
AcDbEntity
  8
Rahmen
100
AcDbPolyline
 90
        4
 70
     1
 43
0.0
 10
63.380829015544
 20
-85.14248704663208
 10
143.354922279793
 20
-85.14248704663208
 10
143.354922279793
 20
-91.12694300518128
 10
63.380829015544
 20
-91.12694300518128
  0
TEXT
  5
F1092C
330
261
100
AcDbEntity
  8
Text
100
AcDbText
 10
-208.09585492228
 20
103.0
 30
0.0
 40
1.5
  1

100
AcDbText
  0
TEXT
  5
F1092E
330
261
100
AcDbEntity
  8
Text
100
AcDbText
 10
91.67098445595859
 20
-89.01986183074269
 30
0.0
 40
2.5
  1
5000-050
100
AcDbText
  0
LWPOLYLINE
  5
F10930
330
261
100
AcDbEntity
  8
Rahmen
100
AcDbPolyline
 90
        4
 70
     1
 43
0.0
 10
103.367875647668
 20
-79.1580310880829
 10
143.354922279793
 20
-79.1580310880829
 10
143.354922279793
 20
-85.14248704663208
 10
103.367875647668
 20
-85.14248704663208
  0
TEXT
  5
F10932
330
261
100
AcDbEntity
  8
Text
100
AcDbText
 10
104.455958549223
 20
-80.1580310880829
 30
0.0
 40
0.75
  1
Zu bearb. Material:
100
AcDbText
  0
TEXT
  5
F10934
330
261
100
AcDbEntity
  8
Text
100
AcDbText
 10
123.225388601036
 20
-84.5103626943005
 30
0.0
 40
0.75
  1

100
AcDbText
  0
LWPOLYLINE
  5
F10936
330
261
100
AcDbEntity
  8
Rahmen
100
AcDbPolyline
 90
        4
 70
     1
 43
0.0
 10
63.380829015544
 20
-79.1580310880829
 10
103.367875647668
 20
-79.1580310880829
 10
103.367875647668
 20
-85.14248704663208
 10
63.380829015544
 20
-85.14248704663208
  0
TEXT
  5
F10938
330
261
100
AcDbEntity
  8
Text
100
AcDbText
 10
64.46891191709839
 20
-80.1580310880829
 30
0.0
 40
0.75
  1
Werkstoff:
100
AcDbText
  0
LWPOLYLINE
  5
F1093C
330
261
100
AcDbEntity
  8
Rahmen
100
AcDbPolyline
 90
        4
 70
     1
 43
0.0
 10
103.367875647668
 20
-76.16580310880831
 10
143.354922279793
 20
-76.16580310880831
 10
143.354922279793
 20
-79.1580310880829
 10
103.367875647668
 20
-79.1580310880829
  0
TEXT
  5
F1093E
330
261
100
AcDbEntity
  8
Text
100
AcDbText
 10
-208.09585492228
 20
103.0
 30
0.0
 40
1.5
  1

100
AcDbText
  0
LWPOLYLINE
  5
F10942
330
261
100
AcDbEntity
  8
Rahmen
100
AcDbPolyline
 90
        4
 70
     1
 43
0.0
 10
63.380829015544
 20
-76.16580310880831
 10
103.367875647668
 20
-76.16580310880831
 10
103.367875647668
 20
-79.1580310880829
 10
63.380829015544
 20
-79.1580310880829
  0
TEXT
  5
F10944
330
261
100
AcDbEntity
  8
Text
100
AcDbText
 10
64.46891191709839
 20
-77.1658031088083
 30
0.0
 40
0.75
  1
Maßstab:
100
AcDbText
  0
TEXT
  5
F10946
330
261
100
AcDbEntity
  8
Text
100
AcDbText
 10
89.49481865284978
 20
-77.1658031088083
 30
0.0
 40
0.75
  1
1 : 1
100
AcDbText
  0
VIEWPORT
  5
294
102
{ACAD_XDICTIONARY
360
F10B19
102
}
330
25D
100
AcDbEntity
 67
     1
  8
0
 60
     1
100
AcDbViewport
 10
0.0
 20
0.0
 30
0.0
 40
10.0
 41
10.0
 68
    -1
 69
     1
 12
0.0
 22
0.0
 13
0.0
 23
0.0
 14
1.0
 24
1.0
 15
0.0
 25
0.0
 16
0.0
 26
0.0
 36
1.0
 17
0.0
 27
0.0
 37
0.0
 42
0.0
 43
0.0
 44
0.0
 45
10.0
 50
0.0
 51
0.0000000000007958
 72
   100
 90
    32800
  1

281
     0
 71
     0
 74
     0
110
0.0
120
0.0
130
0.0
111
1.0
121
0.0
131
0.0
112
0.0
122
1.0
132
0.0
 79
     0
146
0.0
1001
VD_INVISIBLE_NOT_FOR_READ
1000
VD_INVISIBLE_NOT_FOR_READ
1001
GENIUS_GENSCREG_15
1000
PF
1040
1.0
1000
DF
1040
1.0
1000
MIN
1011
-5.0
1021
-5.0
1031
0.0
1000
MAX
1011
5.0
1021
5.0
1031
0.0
1000
FLAGS
1070
     4
1001
GENIUS_GENOBJ-N-SDF_13
1002
{
1000
OWNER
1000
GEN
1002
}
1001
GENIUS_GENODEF_13
1002
{
1000
HIER
1070
     0
1002
}
1002
{
1000
MANEDIT
1070
     0
1002
}
1002
{
1000
NOSEL
1070
     0
1002
}
1002
{
1000
BEHIND
1070
     0
1002
}
1002
{
1000
OTHER
1070
     0
1002
}
1002
{
1000
REACTOR
1002
}
  0
VIEWPORT
  5
295
102
{ACAD_XDICTIONARY
360
F10B1B
102
}
330
25D
100
AcDbEntity
 67
     1
  8
0
 60
     1
100
AcDbViewport
 10
0.0
 20
0.0
 30
0.0
 40
10.0
 41
10.0
 68
     0
 69
     2
 12
0.0
 22
0.0
 13
0.0
 23
0.0
 14
1.0
 24
1.0
 15
0.0
 25
0.0
 16
0.0
 26
0.0
 36
1.0
 17
0.0
 27
0.0
 37
0.0
 42
0.0
 43
0.0
 44
0.0
 45
10.0
 50
0.0
 51
0.0000000000007958
 72
   100
 90
   163872
  1

281
     0
 71
     0
 74
     0
110
0.0
120
0.0
130
0.0
111
1.0
121
0.0
131
0.0
112
0.0
122
1.0
132
0.0
 79
     0
146
0.0
1001
VD_INVISIBLE_NOT_FOR_READ
1000
VD_INVISIBLE_NOT_FOR_READ
1001
GENIUS_GENSCREG_15
1000
PF
1040
1.0
1000
DF
1040
1.0
1000
MIN
1011
-5.0
1021
-5.0
1031
0.0
1000
MAX
1011
5.0
1021
5.0
1031
0.0
1000
FLAGS
1070
     4
1001
GENIUS_GENODEF_13
1002
{
1000
HIER
1070
     0
1002
}
1002
{
1000
MANEDIT
1070
     0
1002
}
1002
{
1000
NOSEL
1070
     0
1002
}
1002
{
1000
BEHIND
1070
     0
1002
}
1002
{
1000
OTHER
1070
     0
1002
}
1002
{
1000
REACTOR
1002
}
1001
GENIUS_GENOBJ-N-SDF_13
1002
{
1000
OWNER
1000
GEN
1002
}
  0
ENDSEC
  0
SECTION
  2
OBJECTS
  0
DICTIONARY
  5
13
330
0
100
AcDbDictionary
281
     1
  3
ACAD_COLOR
350
FA7
  3
ACAD_GROUP
350
14
  3
ACAD_LAYOUT
350
FCF
  3
ACAD_MATERIAL
350
F7A
  3
ACAD_MLEADERSTYLE
350
FCD
  3
ACAD_MLINESTYLE
350
16
  3
ACAD_PLOTSETTINGS
350
17
  3
ACAD_PLOTSTYLENAME
350
18
  3
ACAD_SCALELIST
350
FAB
  3
ACAD_TABLESTYLE
350
FA8
  3
ACAD_VISUALSTYLE
350
F93
  3
ACDB_RECOMPOSE_DATA
350
F10B17
  3
AcDbVariableDictionary
350
F10B0E
  3
AcmDictionary
350
F1099D
  3
AMG
350
F10951
  3
AMGSNAPSETTINGS
350
F109DE
  3
DWGPROPS
350
F10B18
  0
DICTIONARY
  5
F10B04
330
252
100
AcDbDictionary
280
     1
281
     1
  3
ADSK_XREC_LAYER_RECONCILED
360
F10B05
  0
DICTIONARY
  5
F10B06
330
23F
100
AcDbDictionary
280
     1
281
     1
  3
ADSK_XREC_LAYER_RECONCILED
360
F10B07
  0
DICTIONARY
  5
F10B08
330
240
100
AcDbDictionary
280
     1
281
     1
  3
ADSK_XREC_LAYER_RECONCILED
360
F10B09
  0
DICTIONARY
  5
F10B0A
330
241
100
AcDbDictionary
280
     1
281
     1
  3
ADSK_XREC_LAYER_RECONCILED
360
F10B0B
  0
DICTIONARY
  5
F10B0C
330
57E
100
AcDbDictionary
280
     1
281
     1
  3
ADSK_XREC_LAYER_RECONCILED
360
F10B0D
  0
DICTIONARY
  5
F10B1D
330
296
100
AcDbDictionary
280
     1
281
     1
  3
ACAD_XREC_ROUNDTRIP
360
F10B1E
  0
DICTIONARY
  5
F10B1F
330
297
100
AcDbDictionary
280
     1
281
     1
  3
ACAD_XREC_ROUNDTRIP
360
F10B20
  0
DICTIONARY
  5
F10005
330
F1003A
100
AcDbDictionary
280
     1
281
     1
  3
ACAD_MTEXT_2008_RT
360
F10006
  3
ACAD_MTEXT_RT
360
F10B4C
  0
DICTIONARY
  5
F10028
330
F10058
100
AcDbDictionary
280
     1
281
     1
  3
ACAD_MTEXT_2008_RT
360
F10029
  3
ACAD_MTEXT_RT
360
F10B4D
  0
DICTIONARY
  5
F10014
330
F10076
100
AcDbDictionary
280
     1
281
     1
  3
ACAD_MTEXT_2008_RT
360
F10015
  3
ACAD_MTEXT_RT
360
F10B4E
  0
DICTIONARY
  5
F10B19
330
294
100
AcDbDictionary
280
     1
281
     1
  3
ACAD_XREC_ROUNDTRIP
360
F10B1A
  0
DICTIONARY
  5
F10B1B
330
295
100
AcDbDictionary
280
     1
281
     1
  3
ACAD_XREC_ROUNDTRIP
360
F10B1C
  0
DICTIONARY
  5
FA7
102
{ACAD_REACTORS
330
13
102
}
330
13
100
AcDbDictionary
281
     1
  0
DICTIONARY
  5
14
330
13
100
AcDbDictionary
281
     1
  0
DICTIONARY
  5
FCF
102
{ACAD_REACTORS
330
13
102
}
330
13
100
AcDbDictionary
281
     1
  3
Layout1
350
FD1
  3
Model
350
FD0
  0
DICTIONARY
  5
F7A
102
{ACAD_REACTORS
330
13
102
}
330
13
100
AcDbDictionary
281
     1
  3
ByBlock
350
F83
  3
ByLayer
350
F7B
  3
Global
350
F8B
  0
DICTIONARY
  5
FCD
102
{ACAD_REACTORS
330
13
102
}
330
13
100
AcDbDictionary
281
     1
  3
Standard
350
FCE
  0
DICTIONARY
  5
16
330
13
100
AcDbDictionary
281
     1
  3
Standard
350
FAA
  0
DICTIONARY
  5
17
102
{ACAD_REACTORS
330
13
102
}
330
13
100
AcDbDictionary
281
     1
  0
ACDBDICTIONARYWDFLT
  5
18
102
{ACAD_REACTORS
330
13
102
}
330
13
100
AcDbDictionary
281
     1
  3
Normal
350
19
100
AcDbDictionaryWithDefault
340
19
  0
DICTIONARY
  5
FAB
102
{ACAD_REACTORS
330
13
102
}
330
13
100
AcDbDictionary
281
     1
  3
A0
350
FAC
  3
A1
350
FAD
  3
A2
350
FAE
  3
A3
350
FAF
  3
A4
350
FB0
  3
A5
350
FB1
  3
A6
350
FB2
  3
A7
350
FB3
  3
A8
350
FB4
  3
A9
350
FB5
  3
B0
350
FB6
  3
B1
350
FB7
  3
B2
350
FB8
  3
B3
350
FB9
  3
B4
350
FBA
  3
B5
350
FBB
  3
B6
350
FBC
  3
B7
350
FBD
  3
B8
350
FBE
  3
B9
350
FBF
  3
C0
350
FC0
  3
C1
350
FC1
  3
C2
350
FC2
  3
C3
350
FC3
  3
C4
350
FC4
  3
C5
350
FC5
  3
C6
350
FC6
  3
C7
350
FC7
  3
C8
350
FC8
  3
C9
350
FC9
  3
D0
350
FCA
  3
D1
350
FCB
  3
D2
350
FCC
  0
DICTIONARY
  5
FA8
102
{ACAD_REACTORS
330
13
102
}
330
13
100
AcDbDictionary
281
     1
  3
Standard
350
FA9
  0
DICTIONARY
  5
F93
102
{ACAD_REACTORS
330
13
102
}
330
13
100
AcDbDictionary
281
     1
  3
2dWireframe
350
F99
  3
3D Hidden
350
F9B
  3
3dWireframe
350
F9A
  3
Basic
350
F98
  3
Brighten
350
F9F
  3
ColorChange
350
FA3
  3
Conceptual
350
F9C
  3
Dim
350
F9E
  3
EdgeColorOff
350
FA6
  3
Facepattern
350
FA2
  3
Flat
350
F94
  3
FlatWithEdges
350
F95
  3
Gouraud
350
F96
  3
GouraudWithEdges
350
F97
  3
Hidden
350
F10949
  3
JitterOff
350
FA4
  3
Linepattern
350
FA1
  3
OverhangOff
350
FA5
  3
Realistic
350
F9D
  3
Shaded
350
F1094E
  3
Shaded with edges
350
F1094D
  3
Shades of Gray
350
F1094A
  3
Sketchy
350
F1094B
  3
Thicken
350
FA0
  3
Wireframe
350
F10948
  3
X-Ray
350
F1094C
  0
XRECORD
  5
F10B17
102
{ACAD_REACTORS
330
13
102
}
330
13
100
AcDbXrecord
280
     1
 90
        1
330
FA9
  0
DICTIONARY
  5
F10B0E
102
{ACAD_REACTORS
330
13
102
}
330
13
100
AcDbDictionary
281
     1
  3
CANNOSCALE
350
F10B11
  3
CMLEADERSTYLE
350
F10B10
  3
CTABLESTYLE
350
F10B0F
  3
DIMASSOC
350
F10B14
  3
INDEXCTL
350
F10B13
  3
SORTENTS
350
F10B12
  3
XCLIPFRAME
350
F10B15
  0
DICTIONARY
  5
F1099D
102
{ACAD_REACTORS
330
13
102
}
330
13
100
AcDbDictionary
281
     1
  3
AcmStdDictionary
350
F109A8
  0
DICTIONARY
  5
F10951
102
{ACAD_REACTORS
330
13
102
}
330
13
100
AcDbDictionary
281
     1
  0
DICTIONARY
  5
F109DE
102
{ACAD_REACTORS
330
13
102
}
330
13
100
AcDbDictionary
281
     1
  0
XRECORD
  5
F10B18
102
{ACAD_REACTORS
330
13
102
}
330
13
100
AcDbXrecord
280
     1
  1
DWGPROPS COOKIE
  2

  3

  4

  6

  7

  8
Steigner
  9

300
=
301
=
302
=
303
=
304
=
305
=
306
=
307
=
308
=
309
=
 40
0.001631099537037
 41
2457002.639735162
 42
2457002.641365348
  1

 90
        0
  0
XRECORD
  5
F10B05
102
{ACAD_REACTORS
330
F10B04
102
}
330
F10B04
100
AcDbXrecord
280
     1
290
     1
  0
XRECORD
  5
F10B07
102
{ACAD_REACTORS
330
F10B06
102
}
330
F10B06
100
AcDbXrecord
280
     1
290
     1
  0
XRECORD
  5
F10B09
102
{ACAD_REACTORS
330
F10B08
102
}
330
F10B08
100
AcDbXrecord
280
     1
290
     1
  0
XRECORD
  5
F10B0B
102
{ACAD_REACTORS
330
F10B0A
102
}
330
F10B0A
100
AcDbXrecord
280
     1
290
     1
  0
XRECORD
  5
F10B0D
102
{ACAD_REACTORS
330
F10B0C
102
}
330
F10B0C
100
AcDbXrecord
280
     1
290
     1
  0
XRECORD
  5
F10B1E
102
{ACAD_REACTORS
330
F10B1D
102
}
330
F10B1D
100
AcDbXrecord
280
     1
102
SHADEPLOT
 70
     0
  0
XRECORD
  5
F10B20
102
{ACAD_REACTORS
330
F10B1F
102
}
330
F10B1F
100
AcDbXrecord
280
     1
102
SHADEPLOT
 70
     0
  0
XRECORD
  5
F10006
102
{ACAD_REACTORS
330
F10005
102
}
330
F10005
100
AcDbXrecord
280
     1
 40
48458.0
  1
\A1;0.1 x 45°
  0
XRECORD
  5
F10B4C
102
{ACAD_REACTORS
330
F10005
102
}
330
F10005
100
AcDbXrecord
280
     1
 40
11043.0
  1
\A1;0.1 x 45°
  0
XRECORD
  5
F10029
102
{ACAD_REACTORS
330
F10028
102
}
330
F10028
100
AcDbXrecord
280
     1
 40
48458.0
  1
\A1;6.3 Länge 2.Kern
  0
XRECORD
  5
F10B4D
102
{ACAD_REACTORS
330
F10028
102
}
330
F10028
100
AcDbXrecord
280
     1
 40
26186.0
  1
\A1;6.3 Länge 2.Kern
  0
XRECORD
  5
F10015
102
{ACAD_REACTORS
330
F10014
102
}
330
F10014
100
AcDbXrecord
280
     1
 40
48458.0
  1
\A1;30°{\H1.25000000000000;\S +5.000^  --5.000;}
  0
XRECORD
  5
F10B4E
102
{ACAD_REACTORS
330
F10014
102
}
330
F10014
100
AcDbXrecord
280
     1
 40
80044.0
  1
\A1;30°{\H1.25000000000000;\S +5.000^  --5.000;}
  0
XRECORD
  5
F10B1A
102
{ACAD_REACTORS
330
F10B19
102
}
330
F10B19
100
AcDbXrecord
280
     1
102
SHADEPLOT
 70
     0
  0
XRECORD
  5
F10B1C
102
{ACAD_REACTORS
330
F10B1B
102
}
330
F10B1B
100
AcDbXrecord
280
     1
102
SHADEPLOT
 70
     0
  0
LAYOUT
  5
FD1
102
{ACAD_XDICTIONARY
360
F10B4A
102
}
102
{ACAD_REACTORS
330
FCF
102
}
330
FCF
100
AcDbPlotSettings
  1

  2
Microsoft XPS Document Writer
  4

  6

 40
0.0
 41
0.0
 42
0.0
 43
0.0
 44
0.0
 45
0.0
 46
0.0
 47
0.0
 48
0.0
 49
0.0
140
0.0
141
0.0
142
1.0
143
1.0
 70
   688
 72
     0
 73
     0
 74
     5
  7

 75
    16
147
1.0
148
0.0
149
0.0
100
AcDbLayout
  1
Layout1
 70
     1
 71
     1
 10
0.0
 20
0.0
 11
12.0
 21
9.0
 12
0.0
 22
0.0
 32
0.0
 14
1.000000000000000E+20
 24
1.000000000000000E+20
 34
1.000000000000000E+20
 15
-1.000000000000000E+20
 25
-1.000000000000000E+20
 35
-1.000000000000000E+20
146
0.0
 13
0.0
 23
0.0
 33
0.0
 16
1.0
 26
0.0
 36
0.0
 17
0.0
 27
1.0
 37
0.0
 76
     0
330
25D
  0
LAYOUT
  5
FD0
102
{ACAD_XDICTIONARY
360
F10B48
102
}
102
{ACAD_REACTORS
330
FCF
102
}
330
FCF
100
AcDbPlotSettings
  1

  2
Microsoft XPS Document Writer
  4

  6

 40
0.0
 41
0.0
 42
0.0
 43
0.0
 44
0.0
 45
0.0
 46
0.0
 47
0.0
 48
0.0
 49
0.0
140
0.0
141
0.0
142
1.0
143
1.0
 70
  1712
 72
     0
 73
     0
 74
     0
  7

 75
     0
147
1.0
148
0.0
149
0.0
100
AcDbLayout
  1
Model
 70
     1
 71
     0
 10
0.0
 20
0.0
 11
12.0
 21
9.0
 12
0.0
 22
0.0
 32
0.0
 14
0.0
 24
0.0
 34
0.0
 15
0.0
 25
0.0
 35
0.0
146
0.0
 13
0.0
 23
0.0
 33
0.0
 16
1.0
 26
0.0
 36
0.0
 17
0.0
 27
1.0
 37
0.0
 76
     0
330
261
331
26B
  0
MATERIAL
  5
F83
102
{ACAD_XDICTIONARY
360
F84
102
}
102
{ACAD_REACTORS
330
F7A
102
}
330
F7A
100
AcDbMaterial
  1
ByBlock
 72
     0
 43
0.0208333333333333
 43
0.0
 43
0.0
 43
0.0
 43
0.0
 43
0.0208333333333333
 43
0.0
 43
0.0
 43
0.0
 43
0.0
 43
1.0
 43
0.0
 43
0.0
 43
0.0
 43
0.0
 43
1.0
 77
     0
 47
0.0208333333333333
 47
0.0
 47
0.0
 47
0.0
 47
0.0
 47
0.0208333333333333
 47
0.0
 47
0.0
 47
0.0
 47
0.0
 47
1.0
 47
0.0
 47
0.0
 47
0.0
 47
0.0
 47
1.0
171
     0
 49
0.0208333333333333
 49
0.0
 49
0.0
 49
0.0
 49
0.0
 49
0.0208333333333333
 49
0.0
 49
0.0
 49
0.0
 49
0.0
 49
1.0
 49
0.0
 49
0.0
 49
0.0
 49
0.0
 49
1.0
175
     0
142
0.0208333333333333
142
0.0
142
0.0
142
0.0
142
0.0
142
0.0208333333333333
142
0.0
142
0.0
142
0.0
142
0.0
142
1.0
142
0.0
142
0.0
142
0.0
142
0.0
142
1.0
179
     0
144
0.0208333333333333
144
0.0
144
0.0
144
0.0
144
0.0
144
0.0208333333333333
144
0.0
144
0.0
144
0.0
144
0.0
144
1.0
144
0.0
144
0.0
144
0.0
144
0.0
144
1.0
147
0.0208333333333333
147
0.0
147
0.0
147
0.0
147
0.0
147
0.0208333333333333
147
0.0
147
0.0
147
0.0
147
0.0
147
1.0
147
0.0
147
0.0
147
0.0
147
0.0
147
1.0
  0
MATERIAL
  5
F7B
102
{ACAD_XDICTIONARY
360
F7C
102
}
102
{ACAD_REACTORS
330
F7A
102
}
330
F7A
100
AcDbMaterial
  1
ByLayer
 72
     0
 43
0.0208333333333333
 43
0.0
 43
0.0
 43
0.0
 43
0.0
 43
0.0208333333333333
 43
0.0
 43
0.0
 43
0.0
 43
0.0
 43
1.0
 43
0.0
 43
0.0
 43
0.0
 43
0.0
 43
1.0
 77
     0
 47
0.0208333333333333
 47
0.0
 47
0.0
 47
0.0
 47
0.0
 47
0.0208333333333333
 47
0.0
 47
0.0
 47
0.0
 47
0.0
 47
1.0
 47
0.0
 47
0.0
 47
0.0
 47
0.0
 47
1.0
171
     0
 49
0.0208333333333333
 49
0.0
 49
0.0
 49
0.0
 49
0.0
 49
0.0208333333333333
 49
0.0
 49
0.0
 49
0.0
 49
0.0
 49
1.0
 49
0.0
 49
0.0
 49
0.0
 49
0.0
 49
1.0
175
     0
142
0.0208333333333333
142
0.0
142
0.0
142
0.0
142
0.0
142
0.0208333333333333
142
0.0
142
0.0
142
0.0
142
0.0
142
1.0
142
0.0
142
0.0
142
0.0
142
0.0
142
1.0
179
     0
144
0.0208333333333333
144
0.0
144
0.0
144
0.0
144
0.0
144
0.0208333333333333
144
0.0
144
0.0
144
0.0
144
0.0
144
1.0
144
0.0
144
0.0
144
0.0
144
0.0
144
1.0
147
0.0208333333333333
147
0.0
147
0.0
147
0.0
147
0.0
147
0.0208333333333333
147
0.0
147
0.0
147
0.0
147
0.0
147
1.0
147
0.0
147
0.0
147
0.0
147
0.0
147
1.0
  0
MATERIAL
  5
F8B
102
{ACAD_XDICTIONARY
360
F8C
102
}
102
{ACAD_REACTORS
330
F7A
102
}
330
F7A
100
AcDbMaterial
  1
Global
 72
     0
 43
0.0208333333333333
 43
0.0
 43
0.0
 43
0.0
 43
0.0
 43
0.0208333333333333
 43
0.0
 43
0.0
 43
0.0
 43
0.0
 43
1.0
 43
0.0
 43
0.0
 43
0.0
 43
0.0
 43
1.0
 77
     0
 47
0.0208333333333333
 47
0.0
 47
0.0
 47
0.0
 47
0.0
 47
0.0208333333333333
 47
0.0
 47
0.0
 47
0.0
 47
0.0
 47
1.0
 47
0.0
 47
0.0
 47
0.0
 47
0.0
 47
1.0
171
     0
 49
0.0208333333333333
 49
0.0
 49
0.0
 49
0.0
 49
0.0
 49
0.0208333333333333
 49
0.0
 49
0.0
 49
0.0
 49
0.0
 49
1.0
 49
0.0
 49
0.0
 49
0.0
 49
0.0
 49
1.0
175
     0
142
0.0208333333333333
142
0.0
142
0.0
142
0.0
142
0.0
142
0.0208333333333333
142
0.0
142
0.0
142
0.0
142
0.0
142
1.0
142
0.0
142
0.0
142
0.0
142
0.0
142
1.0
179
     0
144
0.0208333333333333
144
0.0
144
0.0
144
0.0
144
0.0
144
0.0208333333333333
144
0.0
144
0.0
144
0.0
144
0.0
144
1.0
144
0.0
144
0.0
144
0.0
144
0.0
144
1.0
147
0.0208333333333333
147
0.0
147
0.0
147
0.0
147
0.0
147
0.0208333333333333
147
0.0
147
0.0
147
0.0
147
0.0
147
1.0
147
0.0
147
0.0
147
0.0
147
0.0
147
1.0
  0
MLEADERSTYLE
  5
FCE
102
{ACAD_REACTORS
330
FCD
102
}
330
FCD
100
AcDbMLeaderStyle
170
     2
171
     1
172
     0
 90
        2
 40
0.0
 41
0.0
173
     1
 91
-1056964608
340
256
 92
       -2
290
     1
 42
0.09
291
     1
 43
0.36
  3
Standard
 44
0.18
300

342
253
174
     1
178
     6
175
     1
176
     0
 93
-1056964608
 45
0.18
292
     0
297
     0
 46
0.18
 94
-1056964608
 47
1.0
 49
1.0
140
1.0
293
     1
141
0.0
294
     1
177
     0
142
1.0
295
     0
296
     0
143
0.125
1001
ACAD_MLEADERVER
1070
     2
  0
MLINESTYLE
  5
FAA
102
{ACAD_REACTORS
330
16
102
}
330
16
100
AcDbMlineStyle
  2
STANDARD
 70
     0
  3

 62
   256
 51
90.0
 52
90.0
 71
     2
 49
0.5
 62
   256
  6
BYLAYER
 49
-0.5
 62
   256
  6
BYLAYER
  0
ACDBPLACEHOLDER
  5
19
102
{ACAD_REACTORS
330
18
102
}
330
18
  0
SCALE
  5
FAC
102
{ACAD_REACTORS
330
FAB
102
}
330
FAB
100
AcDbScale
 70
     0
300
1:1
140
1.0
141
1.0
290
     1
  0
SCALE
  5
FAD
102
{ACAD_REACTORS
330
FAB
102
}
330
FAB
100
AcDbScale
 70
     0
300
1:2
140
1.0
141
2.0
290
     0
  0
SCALE
  5
FAE
102
{ACAD_REACTORS
330
FAB
102
}
330
FAB
100
AcDbScale
 70
     0
300
1:4
140
1.0
141
4.0
290
     0
  0
SCALE
  5
FAF
102
{ACAD_REACTORS
330
FAB
102
}
330
FAB
100
AcDbScale
 70
     0
300
1:5
140
1.0
141
5.0
290
     0
  0
SCALE
  5
FB0
102
{ACAD_REACTORS
330
FAB
102
}
330
FAB
100
AcDbScale
 70
     0
300
1:8
140
1.0
141
8.0
290
     0
  0
SCALE
  5
FB1
102
{ACAD_REACTORS
330
FAB
102
}
330
FAB
100
AcDbScale
 70
     0
300
1:10
140
1.0
141
10.0
290
     0
  0
SCALE
  5
FB2
102
{ACAD_REACTORS
330
FAB
102
}
330
FAB
100
AcDbScale
 70
     0
300
1:16
140
1.0
141
16.0
290
     0
  0
SCALE
  5
FB3
102
{ACAD_REACTORS
330
FAB
102
}
330
FAB
100
AcDbScale
 70
     0
300
1:20
140
1.0
141
20.0
290
     0
  0
SCALE
  5
FB4
102
{ACAD_REACTORS
330
FAB
102
}
330
FAB
100
AcDbScale
 70
     0
300
1:30
140
1.0
141
30.0
290
     0
  0
SCALE
  5
FB5
102
{ACAD_REACTORS
330
FAB
102
}
330
FAB
100
AcDbScale
 70
     0
300
1:40
140
1.0
141
40.0
290
     0
  0
SCALE
  5
FB6
102
{ACAD_REACTORS
330
FAB
102
}
330
FAB
100
AcDbScale
 70
     0
300
1:50
140
1.0
141
50.0
290
     0
  0
SCALE
  5
FB7
102
{ACAD_REACTORS
330
FAB
102
}
330
FAB
100
AcDbScale
 70
     0
300
1:100
140
1.0
141
100.0
290
     0
  0
SCALE
  5
FB8
102
{ACAD_REACTORS
330
FAB
102
}
330
FAB
100
AcDbScale
 70
     0
300
2:1
140
2.0
141
1.0
290
     0
  0
SCALE
  5
FB9
102
{ACAD_REACTORS
330
FAB
102
}
330
FAB
100
AcDbScale
 70
     0
300
4:1
140
4.0
141
1.0
290
     0
  0
SCALE
  5
FBA
102
{ACAD_REACTORS
330
FAB
102
}
330
FAB
100
AcDbScale
 70
     0
300
8:1
140
8.0
141
1.0
290
     0
  0
SCALE
  5
FBB
102
{ACAD_REACTORS
330
FAB
102
}
330
FAB
100
AcDbScale
 70
     0
300
10:1
140
10.0
141
1.0
290
     0
  0
SCALE
  5
FBC
102
{ACAD_REACTORS
330
FAB
102
}
330
FAB
100
AcDbScale
 70
     0
300
100:1
140
100.0
141
1.0
290
     0
  0
SCALE
  5
FBD
102
{ACAD_REACTORS
330
FAB
102
}
330
FAB
100
AcDbScale
 70
     0
300
1/128" = 1'-0"
140
0.0078125
141
12.0
290
     0
  0
SCALE
  5
FBE
102
{ACAD_REACTORS
330
FAB
102
}
330
FAB
100
AcDbScale
 70
     0
300
1/64" = 1'-0"
140
0.015625
141
12.0
290
     0
  0
SCALE
  5
FBF
102
{ACAD_REACTORS
330
FAB
102
}
330
FAB
100
AcDbScale
 70
     0
300
1/32" = 1'-0"
140
0.03125
141
12.0
290
     0
  0
SCALE
  5
FC0
102
{ACAD_REACTORS
330
FAB
102
}
330
FAB
100
AcDbScale
 70
     0
300
1/16" = 1'-0"
140
0.0625
141
12.0
290
     0
  0
SCALE
  5
FC1
102
{ACAD_REACTORS
330
FAB
102
}
330
FAB
100
AcDbScale
 70
     0
300
3/32" = 1'-0"
140
0.09375
141
12.0
290
     0
  0
SCALE
  5
FC2
102
{ACAD_REACTORS
330
FAB
102
}
330
FAB
100
AcDbScale
 70
     0
300
1/8" = 1'-0"
140
0.125
141
12.0
290
     0
  0
SCALE
  5
FC3
102
{ACAD_REACTORS
330
FAB
102
}
330
FAB
100
AcDbScale
 70
     0
300
3/16" = 1'-0"
140
0.1875
141
12.0
290
     0
  0
SCALE
  5
FC4
102
{ACAD_REACTORS
330
FAB
102
}
330
FAB
100
AcDbScale
 70
     0
300
1/4" = 1'-0"
140
0.25
141
12.0
290
     0
  0
SCALE
  5
FC5
102
{ACAD_REACTORS
330
FAB
102
}
330
FAB
100
AcDbScale
 70
     0
300
3/8" = 1'-0"
140
0.375
141
12.0
290
     0
  0
SCALE
  5
FC6
102
{ACAD_REACTORS
330
FAB
102
}
330
FAB
100
AcDbScale
 70
     0
300
1/2" = 1'-0"
140
0.5
141
12.0
290
     0
  0
SCALE
  5
FC7
102
{ACAD_REACTORS
330
FAB
102
}
330
FAB
100
AcDbScale
 70
     0
300
3/4" = 1'-0"
140
0.75
141
12.0
290
     0
  0
SCALE
  5
FC8
102
{ACAD_REACTORS
330
FAB
102
}
330
FAB
100
AcDbScale
 70
     0
300
1" = 1'-0"
140
1.0
141
12.0
290
     0
  0
SCALE
  5
FC9
102
{ACAD_REACTORS
330
FAB
102
}
330
FAB
100
AcDbScale
 70
     0
300
1-1/2" = 1'-0"
140
1.5
141
12.0
290
     0
  0
SCALE
  5
FCA
102
{ACAD_REACTORS
330
FAB
102
}
330
FAB
100
AcDbScale
 70
     0
300
3" = 1'-0"
140
3.0
141
12.0
290
     0
  0
SCALE
  5
FCB
102
{ACAD_REACTORS
330
FAB
102
}
330
FAB
100
AcDbScale
 70
     0
300
6" = 1'-0"
140
6.0
141
12.0
290
     0
  0
SCALE
  5
FCC
102
{ACAD_REACTORS
330
FAB
102
}
330
FAB
100
AcDbScale
 70
     0
300
1'-0" = 1'-0"
140
12.0
141
12.0
290
     0
  0
TABLESTYLE
  5
FA9
102
{ACAD_XDICTIONARY
360
FF8
102
}
102
{ACAD_REACTORS
330
FA8
102
}
330
FA8
100
AcDbTableStyle
  3
Standard
 70
     0
 71
     0
 40
0.06
 41
0.06
280
     0
281
     0
  7
Standard
140
0.18
170
     2
 62
     0
 63
     7
283
     0
274
    -2
284
     1
 64
     0
275
    -2
285
     1
 65
     0
276
    -2
286
     1
 66
     0
277
    -2
287
     1
 67
     0
278
    -2
288
     1
 68
     0
279
    -2
289
     1
 69
     0
  7
Standard
140
0.25
170
     5
 62
     0
 63
     7
283
     0
274
    -2
284
     1
 64
     0
275
    -2
285
     1
 65
     0
276
    -2
286
     1
 66
     0
277
    -2
287
     1
 67
     0
278
    -2
288
     1
 68
     0
279
    -2
289
     1
 69
     0
  7
Standard
140
0.18
170
     5
 62
     0
 63
     7
283
     0
274
    -2
284
     1
 64
     0
275
    -2
285
     1
 65
     0
276
    -2
286
     1
 66
     0
277
    -2
287
     1
 67
     0
278
    -2
288
     1
 68
     0
279
    -2
289
     1
 69
     0
  0
VISUALSTYLE
  5
F99
102
{ACAD_XDICTIONARY
360
F10B2B
102
}
102
{ACAD_REACTORS
330
F93
102
}
330
F93
100
AcDbVisualStyle
  2

 70
     4
 71
     0
 72
     2
 73
     0
 90
        0
 40
-0.6
 41
-30.0
 62
     5
 63
     7
 74
     1
 91
        4
 64
     7
 65
   257
 75
     1
175
     1
 42
1.0
 92
        0
 66
   257
 43
1.0
 76
     1
 77
     6
 78
     2
 67
     7
 79
     5
170
     0
171
     0
290
     0
174
     0
 93
        1
 44
0.0
173
     0
291
     0
 45
0.0
1001
ACAD
1000
AcDbSavedByObjectVersion
1070
     0
  0
VISUALSTYLE
  5
F9B
102
{ACAD_XDICTIONARY
360
F10B2F
102
}
102
{ACAD_REACTORS
330
F93
102
}
330
F93
100
AcDbVisualStyle
  2

 70
     6
 71
     1
 72
     2
 73
     2
 90
        0
 40
-0.6
 41
-30.0
 62
     5
 63
     7
 74
     2
 91
        2
 64
     7
 65
   257
 75
     2
175
     1
 42
179.0
 92
        0
 66
   257
 43
1.0
 76
     1
 77
     6
 78
     2
 67
     7
 79
     3
170
     0
171
     0
290
     0
174
     0
 93
        1
 44
0.0
173
     0
291
     0
 45
0.0
1001
ACAD
1000
AcDbSavedByObjectVersion
1070
     0
  0
VISUALSTYLE
  5
F9A
102
{ACAD_XDICTIONARY
360
F10B2D
102
}
102
{ACAD_REACTORS
330
F93
102
}
330
F93
100
AcDbVisualStyle
  2

 70
     5
 71
     0
 72
     2
 73
     0
 90
        0
 40
-0.6
 41
-30.0
 62
     5
 63
     7
 74
     1
 91
        4
 64
     7
 65
   257
 75
     1
175
     1
 42
1.0
 92
        0
 66
   257
 43
1.0
 76
     1
 77
     6
 78
     2
 67
     7
 79
     5
170
     0
171
     0
290
     0
174
     0
 93
        1
 44
0.0
173
     0
291
     0
 45
0.0
1001
ACAD
1000
AcDbSavedByObjectVersion
1070
     0
  0
VISUALSTYLE
  5
F98
102
{ACAD_XDICTIONARY
360
F10B29
102
}
102
{ACAD_REACTORS
330
F93
102
}
330
F93
100
AcDbVisualStyle
  2

 70
     7
 71
     1
 72
     0
 73
     1
 90
        0
 40
-0.6
 41
-30.0
 62
     5
 63
     7
 74
     0
 91
        4
 64
     7
 65
   257
 75
     1
175
     1
 42
1.0
 92
        8
 66
     7
 43
1.0
 76
     1
 77
     6
 78
     2
 67
     7
 79
     5
170
     0
171
     0
290
     0
174
     0
 93
        1
 44
0.0
173
     0
291
     1
 45
0.0
1001
ACAD
1000
AcDbSavedByObjectVersion
1070
     0
  0
VISUALSTYLE
  5
F9F
102
{ACAD_XDICTIONARY
360
F10B37
102
}
102
{ACAD_REACTORS
330
F93
102
}
330
F93
100
AcDbVisualStyle
  2

 70
    12
 71
     2
 72
     2
 73
     0
 90
        0
 40
-0.6
 41
-30.0
 62
     5
 63
     7
 74
     1
 91
        4
 64
     7
 65
   257
 75
     1
175
     1
 42
1.0
 92
        8
 66
     7
 43
1.0
 76
     1
 77
     6
 78
     2
 67
     7
 79
     5
170
     0
171
     0
290
     0
174
     0
 93
        1
 44
50.0
173
     0
291
     1
 45
0.0
1001
ACAD
1000
AcDbSavedByObjectVersion
1070
     0
  0
VISUALSTYLE
  5
FA3
102
{ACAD_XDICTIONARY
360
F10B3F
102
}
102
{ACAD_REACTORS
330
F93
102
}
330
F93
100
AcDbVisualStyle
  2

 70
    16
 71
     2
 72
     2
 73
     3
 90
        0
 40
-0.6
 41
-30.0
 62
     5
 63
     8
 74
     1
 91
        4
 64
     7
 65
   257
 75
     1
175
     1
 42
1.0
 92
        8
 66
     8
 43
1.0
 76
     1
 77
     6
 78
     2
 67
     7
 79
     5
170
     0
171
     0
290
     0
174
     0
 93
        1
 44
0.0
173
     0
291
     1
 45
0.0
1001
ACAD
1000
AcDbSavedByObjectVersion
1070
     0
  0
VISUALSTYLE
  5
F9C
102
{ACAD_XDICTIONARY
360
F10B31
102
}
102
{ACAD_REACTORS
330
F93
102
}
330
F93
100
AcDbVisualStyle
  2

 70
     9
 71
     3
 72
     2
 73
     0
 90
        0
 40
-0.6
 41
-30.0
 62
     5
 63
     7
 74
     2
 91
        2
 64
     7
 65
   257
 75
     1
175
     1
 42
179.0
 92
        8
 66
     7
 43
1.0
 76
     1
 77
     6
 78
     2
 67
     7
 79
     3
170
     0
171
     0
290
     0
174
     0
 93
        1
 44
0.0
173
     0
291
     0
 45
0.0
1001
ACAD
1000
AcDbSavedByObjectVersion
1070
     0
  0
VISUALSTYLE
  5
F9E
102
{ACAD_XDICTIONARY
360
F10B35
102
}
102
{ACAD_REACTORS
330
F93
102
}
330
F93
100
AcDbVisualStyle
  2

 70
    11
 71
     2
 72
     2
 73
     0
 90
        0
 40
-0.6
 41
-30.0
 62
     5
 63
     7
 74
     1
 91
        4
 64
     7
 65
   257
 75
     1
175
     1
 42
1.0
 92
        8
 66
     7
 43
1.0
 76
     1
 77
     6
 78
     2
 67
     7
 79
     5
170
     0
171
     0
290
     0
174
     0
 93
        1
 44
-50.0
173
     0
291
     1
 45
0.0
1001
ACAD
1000
AcDbSavedByObjectVersion
1070
     0
  0
VISUALSTYLE
  5
FA6
102
{ACAD_XDICTIONARY
360
F10B45
102
}
102
{ACAD_REACTORS
330
F93
102
}
330
F93
100
AcDbVisualStyle
  2

 70
    22
 71
     2
 72
     2
 73
     0
 90
        0
 40
-0.6
 41
-30.0
 62
     5
 63
     7
 74
     1
 91
        4
 64
     7
 65
   257
 75
     1
175
     1
 42
1.0
 92
        8
 66
     7
 43
1.0
 76
     1
 77
     6
 78
     2
 67
     7
 79
     5
170
     0
171
     0
290
     0
174
     0
 93
        1
 44
0.0
173
     0
291
     1
 45
0.0
1001
ACAD
1000
AcDbSavedByObjectVersion
1070
     0
  0
VISUALSTYLE
  5
FA2
102
{ACAD_XDICTIONARY
360
F10B3D
102
}
102
{ACAD_REACTORS
330
F93
102
}
330
F93
100
AcDbVisualStyle
  2

 70
    15
 71
     2
 72
     2
 73
     0
 90
        0
 40
-0.6
 41
-30.0
 62
     5
 63
     7
 74
     1
 91
        4
 64
     7
 65
   257
 75
     1
175
     1
 42
1.0
 92
        8
 66
     7
 43
1.0
 76
     1
 77
     6
 78
     2
 67
     7
 79
     5
170
     0
171
     0
290
     0
174
     0
 93
        1
 44
0.0
173
     0
291
     1
 45
0.0
1001
ACAD
1000
AcDbSavedByObjectVersion
1070
     0
  0
VISUALSTYLE
  5
F94
102
{ACAD_XDICTIONARY
360
F10B21
102
}
102
{ACAD_REACTORS
330
F93
102
}
330
F93
100
AcDbVisualStyle
  2

 70
     0
 71
     2
 72
     1
 73
     1
 90
        2
 40
-0.6
 41
30.0
 62
     5
 63
     7
 74
     0
 91
        4
 64
     7
 65
   257
 75
     1
175
     1
 42
1.0
 92
        8
 66
     7
 43
1.0
 76
     1
 77
     6
 78
     2
 67
     7
 79
     5
170
     0
171
     0
290
     0
174
     0
 93
       13
 44
0.0
173
     0
291
     1
 45
0.0
1001
ACAD
1000
AcDbSavedByObjectVersion
1070
     0
  0
VISUALSTYLE
  5
F95
102
{ACAD_XDICTIONARY
360
F10B23
102
}
102
{ACAD_REACTORS
330
F93
102
}
330
F93
100
AcDbVisualStyle
  2

 70
     1
 71
     2
 72
     1
 73
     1
 90
        2
 40
-0.6
 41
30.0
 62
     5
 63
     7
 74
     1
 91
        4
 64
     7
 65
   257
 75
     1
175
     1
 42
1.0
 92
        0
 66
   257
 43
1.0
 76
     1
 77
     6
 78
     2
 67
     7
 79
     5
170
     0
171
     0
290
     0
174
     0
 93
       13
 44
0.0
173
     0
291
     1
 45
0.0
1001
ACAD
1000
AcDbSavedByObjectVersion
1070
     0
  0
VISUALSTYLE
  5
F96
102
{ACAD_XDICTIONARY
360
F10B25
102
}
102
{ACAD_REACTORS
330
F93
102
}
330
F93
100
AcDbVisualStyle
  2

 70
     2
 71
     2
 72
     2
 73
     1
 90
        2
 40
-0.6
 41
30.0
 62
     5
 63
     7
 74
     0
 91
        4
 64
     7
 65
   257
 75
     1
175
     1
 42
1.0
 92
        0
 66
     7
 43
1.0
 76
     1
 77
     6
 78
     2
 67
     7
 79
     5
170
     0
171
     0
290
     0
174
     0
 93
       13
 44
0.0
173
     0
291
     1
 45
0.0
1001
ACAD
1000
AcDbSavedByObjectVersion
1070
     0
  0
VISUALSTYLE
  5
F97
102
{ACAD_XDICTIONARY
360
F10B27
102
}
102
{ACAD_REACTORS
330
F93
102
}
330
F93
100
AcDbVisualStyle
  2

 70
     3
 71
     2
 72
     2
 73
     1
 90
        2
 40
-0.6
 41
30.0
 62
     5
 63
     7
 74
     1
 91
        4
 64
     7
 65
   257
 75
     1
175
     1
 42
1.0
 92
        0
 66
   257
 43
1.0
 76
     1
 77
     6
 78
     2
 67
     7
 79
     5
170
     0
171
     0
290
     0
174
     0
 93
       13
 44
0.0
173
     0
291
     1
 45
0.0
1001
ACAD
1000
AcDbSavedByObjectVersion
1070
     0
  0
VISUALSTYLE
  5
F10949
102
{ACAD_XDICTIONARY
360
F10B51
102
}
102
{ACAD_REACTORS
330
F93
102
}
330
F93
100
AcDbVisualStyle
  2
Hidden
 70
     6
 71
     1
 72
     2
 73
     2
 90
        0
 40
-0.6
 41
-30.0
 62
     5
 63
     7
 74
     2
 91
        2
 64
     7
 65
   257
 75
     2
175
     1
 42
40.0
 92
        0
 66
   257
 43
1.0
 76
     1
 77
     6
 78
     2
 67
     7
 79
     3
170
     0
171
     0
290
     0
174
     0
 93
        1
 44
0.0
173
     0
291
     0
 45
0.0
1001
ACAD
1000
AcDbSavedByObjectVersion
1070
     0
  0
VISUALSTYLE
  5
FA4
102
{ACAD_XDICTIONARY
360
F10B41
102
}
102
{ACAD_REACTORS
330
F93
102
}
330
F93
100
AcDbVisualStyle
  2

 70
    20
 71
     2
 72
     2
 73
     0
 90
        0
 40
-0.6
 41
-30.0
 62
     5
 63
     7
 74
     1
 91
        4
 64
     7
 65
   257
 75
     1
175
     1
 42
1.0
 92
       10
 66
     7
 43
1.0
 76
     1
 77
     6
 78
     2
 67
     7
 79
     5
170
     0
171
     0
290
     0
174
     0
 93
        1
 44
0.0
173
     0
291
     1
 45
0.0
1001
ACAD
1000
AcDbSavedByObjectVersion
1070
     0
  0
VISUALSTYLE
  5
FA1
102
{ACAD_XDICTIONARY
360
F10B3B
102
}
102
{ACAD_REACTORS
330
F93
102
}
330
F93
100
AcDbVisualStyle
  2

 70
    14
 71
     2
 72
     2
 73
     0
 90
        0
 40
-0.6
 41
-30.0
 62
     5
 63
     7
 74
     1
 91
        4
 64
     7
 65
   257
 75
     7
175
     7
 42
1.0
 92
        8
 66
     7
 43
1.0
 76
     1
 77
     6
 78
     2
 67
     7
 79
     5
170
     0
171
     0
290
     0
174
     0
 93
        1
 44
0.0
173
     0
291
     1
 45
0.0
1001
ACAD
1000
AcDbSavedByObjectVersion
1070
     0
  0
VISUALSTYLE
  5
FA5
102
{ACAD_XDICTIONARY
360
F10B43
102
}
102
{ACAD_REACTORS
330
F93
102
}
330
F93
100
AcDbVisualStyle
  2

 70
    21
 71
     2
 72
     2
 73
     0
 90
        0
 40
-0.6
 41
-30.0
 62
     5
 63
     7
 74
     1
 91
        4
 64
     7
 65
   257
 75
     1
175
     1
 42
1.0
 92
        9
 66
     7
 43
1.0
 76
     1
 77
     6
 78
     2
 67
     7
 79
     5
170
     0
171
     0
290
     0
174
     0
 93
        1
 44
0.0
173
     0
291
     1
 45
0.0
1001
ACAD
1000
AcDbSavedByObjectVersion
1070
     0
  0
VISUALSTYLE
  5
F9D
102
{ACAD_XDICTIONARY
360
F10B33
102
}
102
{ACAD_REACTORS
330
F93
102
}
330
F93
100
AcDbVisualStyle
  2

 70
     8
 71
     2
 72
     2
 73
     0
 90
        0
 40
-0.6
 41
-30.0
 62
     5
 63
     7
 74
     1
 91
        0
 64
     7
 65
   257
 75
     1
175
     1
 42
1.0
 92
        8
 66
     8
 43
1.0
 76
     1
 77
     6
 78
     2
 67
     7
 79
     5
170
     0
171
     0
290
     0
174
     0
 93
       13
 44
0.0
173
     0
291
     0
 45
0.0
1001
ACAD
1000
AcDbSavedByObjectVersion
1070
     0
  0
VISUALSTYLE
  5
F1094E
102
{ACAD_XDICTIONARY
360
F10B5B
102
}
102
{ACAD_REACTORS
330
F93
102
}
330
F93
100
AcDbVisualStyle
  2
Shaded
 70
    27
 71
     2
 72
     2
 73
     1
 90
        2
 40
-0.6
 41
30.0
 62
     5
 63
     7
 74
     0
 91
        4
 64
     7
 65
   257
 75
     1
175
     1
 42
1.0
 92
        8
 66
   257
 43
1.0
 76
     1
 77
     6
 78
     2
 67
     8
 79
     3
170
     0
171
     0
290
     0
174
     0
 93
        5
 44
0.0
173
     0
291
     0
 45
0.0
1001
ACAD
1000
AcDbSavedByObjectVersion
1070
     0
  0
VISUALSTYLE
  5
F1094D
102
{ACAD_XDICTIONARY
360
F10B59
102
}
102
{ACAD_REACTORS
330
F93
102
}
330
F93
100
AcDbVisualStyle
  2
Shaded with edges
 70
    26
 71
     2
 72
     2
 73
     1
 90
        2
 40
-0.6
 41
30.0
 62
     5
 63
     7
 74
     1
 91
       10
 64
     7
 65
   257
 75
     2
175
     1
 42
1.0
 92
        8
 66
   257
 43
1.0
 76
     1
 77
     6
 78
     2
 67
     7
 79
     3
170
     0
171
     0
290
     0
174
     0
 93
        5
 44
0.0
173
     0
291
     0
 45
0.0
1001
ACAD
1000
AcDbSavedByObjectVersion
1070
     0
  0
VISUALSTYLE
  5
F1094A
102
{ACAD_XDICTIONARY
360
F10B53
102
}
102
{ACAD_REACTORS
330
F93
102
}
330
F93
100
AcDbVisualStyle
  2
Shades of Gray
 70
    23
 71
     2
 72
     2
 73
     3
 90
        0
 40
-0.6
 41
-30.0
 62
     5
 63
     7
 74
     2
 91
        2
 64
     7
 65
     7
 75
     1
175
     1
 42
40.0
 92
        8
 66
     7
 43
1.0
 76
     1
 77
     6
 78
     2
 67
     7
 79
     3
170
     0
171
     0
290
     0
174
     0
 93
        1
 44
0.0
173
     0
291
     0
 45
0.0
1001
ACAD
1000
AcDbSavedByObjectVersion
1070
     0
  0
VISUALSTYLE
  5
F1094B
102
{ACAD_XDICTIONARY
360
F10B55
102
}
102
{ACAD_REACTORS
330
F93
102
}
330
F93
100
AcDbVisualStyle
  2
Sketchy
 70
    24
 71
     1
 72
     2
 73
     2
 90
        0
 40
-0.6
 41
-30.0
 62
     5
 63
     7
 74
     2
 91
        2
 64
     7
 65
     7
 75
     1
175
     1
 42
40.0
 92
       11
 66
     7
 43
1.0
 76
     1
 77
     6
 78
     2
 67
     7
 79
     6
170
     0
171
     0
290
     0
174
     0
 93
        1
 44
0.0
173
     0
291
     0
 45
0.0
1001
ACAD
1000
AcDbSavedByObjectVersion
1070
     0
  0
VISUALSTYLE
  5
FA0
102
{ACAD_XDICTIONARY
360
F10B39
102
}
102
{ACAD_REACTORS
330
F93
102
}
330
F93
100
AcDbVisualStyle
  2

 70
    13
 71
     2
 72
     2
 73
     0
 90
        0
 40
-0.6
 41
-30.0
 62
     5
 63
     7
 74
     1
 91
        4
 64
     7
 65
   257
 75
     1
175
     1
 42
1.0
 92
       12
 66
     7
 43
1.0
 76
     1
 77
     6
 78
     2
 67
     7
 79
     5
170
     0
171
     0
290
     0
174
     0
 93
        1
 44
0.0
173
     0
291
     1
 45
0.0
1001
ACAD
1000
AcDbSavedByObjectVersion
1070
     0
  0
VISUALSTYLE
  5
F10948
102
{ACAD_XDICTIONARY
360
F10B4F
102
}
102
{ACAD_REACTORS
330
F93
102
}
330
F93
100
AcDbVisualStyle
  2
Wireframe
 70
     5
 71
     0
 72
     2
 73
     0
 90
        0
 40
-0.6
 41
-30.0
 62
     5
 63
     7
 74
     1
 91
        4
 64
     7
 65
   257
 75
     1
175
     1
 42
1.0
 92
        0
 66
   257
 43
1.0
 76
     1
 77
     6
 78
     2
 67
     7
 79
     3
170
     0
171
     0
290
     0
174
     0
 93
        1
 44
0.0
173
     0
291
     0
 45
0.0
1001
ACAD
1000
AcDbSavedByObjectVersion
1070
     0
  0
VISUALSTYLE
  5
F1094C
102
{ACAD_XDICTIONARY
360
F10B57
102
}
102
{ACAD_REACTORS
330
F93
102
}
330
F93
100
AcDbVisualStyle
  2
X-Ray
 70
    25
 71
     2
 72
     2
 73
     1
 90
        1
 40
0.5
 41
-30.0
 62
     5
 63
     7
 74
     1
 91
        0
 64
     7
 65
   257
 75
     1
175
     1
 42
1.0
 92
        8
 66
     7
 43
1.0
 76
     1
 77
     6
 78
     2
 67
     7
 79
     3
170
     0
171
     0
290
     0
174
     0
 93
       13
 44
0.0
173
     0
291
     0
 45
0.0
1001
ACAD
1000
AcDbSavedByObjectVersion
1070
     0
  0
DICTIONARYVAR
  5
F10B11
102
{ACAD_REACTORS
330
F10B0E
102
}
330
F10B0E
100
DictionaryVariables
280
     0
  1
1:1
  0
DICTIONARYVAR
  5
F10B10
102
{ACAD_REACTORS
330
F10B0E
102
}
330
F10B0E
100
DictionaryVariables
280
     0
  1
STANDARD
  0
DICTIONARYVAR
  5
F10B0F
102
{ACAD_REACTORS
330
F10B0E
102
}
330
F10B0E
100
DictionaryVariables
280
     0
  1
STANDARD
  0
DICTIONARYVAR
  5
F10B14
102
{ACAD_REACTORS
330
F10B0E
102
}
330
F10B0E
100
DictionaryVariables
280
     0
  1
1
  0
DICTIONARYVAR
  5
F10B13
102
{ACAD_REACTORS
330
F10B0E
102
}
330
F10B0E
100
DictionaryVariables
280
     0
  1
0
  0
DICTIONARYVAR
  5
F10B12
102
{ACAD_REACTORS
330
F10B0E
102
}
330
F10B0E
100
DictionaryVariables
280
     0
  1
127
  0
DICTIONARYVAR
  5
F10B15
102
{ACAD_REACTORS
330
F10B0E
102
}
330
F10B0E
100
DictionaryVariables
280
     0
  1
2
  0
DICTIONARY
  5
F109A8
102
{ACAD_REACTORS
330
F1099D
102
}
330
F1099D
100
AcDbDictionary
281
     1
  0
DICTIONARY
  5
F10B4A
330
FD1
100
AcDbDictionary
280
     1
281
     1
  3
ACAD_XREC_ROUNDTRIP
360
F10B4B
  0
DICTIONARY
  5
F10B48
330
FD0
100
AcDbDictionary
280
     1
281
     1
  3
ACAD_XREC_ROUNDTRIP
360
F10B49
  0
DICTIONARY
  5
F84
330
F83
100
AcDbDictionary
280
     1
281
     1
  3
ACAD_XREC_ROUNDTRIP
360
FFF
  3
BUMPTILE
360
F86
  3
DIFFUSETILE
360
F85
  3
OPACITYTILE
360
F89
  3
REFLECTIONTILE
360
F88
  3
REFRACTIONTILE
360
F8A
  3
SPECULARTILE
360
F87
  0
DICTIONARY
  5
F7C
330
F7B
100
AcDbDictionary
280
     1
281
     1
  3
ACAD_XREC_ROUNDTRIP
360
FFE
  3
BUMPTILE
360
F7E
  3
DIFFUSETILE
360
F7D
  3
OPACITYTILE
360
F81
  3
REFLECTIONTILE
360
F80
  3
REFRACTIONTILE
360
F82
  3
SPECULARTILE
360
F7F
  0
DICTIONARY
  5
F8C
330
F8B
100
AcDbDictionary
280
     1
281
     1
  3
ACAD_XREC_ROUNDTRIP
360
1000
  3
BUMPTILE
360
F8E
  3
DIFFUSETILE
360
F8D
  3
OPACITYTILE
360
F91
  3
REFLECTIONTILE
360
F90
  3
REFRACTIONTILE
360
F92
  3
SPECULARTILE
360
F8F
  0
DICTIONARY
  5
FF8
330
FA9
100
AcDbDictionary
280
     1
281
     1
  3
ACAD_ROUNDTRIP_2008_TABLESTYLE_CELLSTYLEMAP
360
F10B16
  3
ACAD_XREC_ROUNDTRIP
360
F10B47
  0
DICTIONARY
  5
F10B2B
330
F99
100
AcDbDictionary
280
     1
281
     1
  3
ACAD_XREC_ROUNDTRIP
360
F10B2C
  0
DICTIONARY
  5
F10B2F
330
F9B
100
AcDbDictionary
280
     1
281
     1
  3
ACAD_XREC_ROUNDTRIP
360
F10B30
  0
DICTIONARY
  5
F10B2D
330
F9A
100
AcDbDictionary
280
     1
281
     1
  3
ACAD_XREC_ROUNDTRIP
360
F10B2E
  0
DICTIONARY
  5
F10B29
330
F98
100
AcDbDictionary
280
     1
281
     1
  3
ACAD_XREC_ROUNDTRIP
360
F10B2A
  0
DICTIONARY
  5
F10B37
330
F9F
100
AcDbDictionary
280
     1
281
     1
  3
ACAD_XREC_ROUNDTRIP
360
F10B38
  0
DICTIONARY
  5
F10B3F
330
FA3
100
AcDbDictionary
280
     1
281
     1
  3
ACAD_XREC_ROUNDTRIP
360
F10B40
  0
DICTIONARY
  5
F10B31
330
F9C
100
AcDbDictionary
280
     1
281
     1
  3
ACAD_XREC_ROUNDTRIP
360
F10B32
  0
DICTIONARY
  5
F10B35
330
F9E
100
AcDbDictionary
280
     1
281
     1
  3
ACAD_XREC_ROUNDTRIP
360
F10B36
  0
DICTIONARY
  5
F10B45
330
FA6
100
AcDbDictionary
280
     1
281
     1
  3
ACAD_XREC_ROUNDTRIP
360
F10B46
  0
DICTIONARY
  5
F10B3D
330
FA2
100
AcDbDictionary
280
     1
281
     1
  3
ACAD_XREC_ROUNDTRIP
360
F10B3E
  0
DICTIONARY
  5
F10B21
330
F94
100
AcDbDictionary
280
     1
281
     1
  3
ACAD_XREC_ROUNDTRIP
360
F10B22
  0
DICTIONARY
  5
F10B23
330
F95
100
AcDbDictionary
280
     1
281
     1
  3
ACAD_XREC_ROUNDTRIP
360
F10B24
  0
DICTIONARY
  5
F10B25
330
F96
100
AcDbDictionary
280
     1
281
     1
  3
ACAD_XREC_ROUNDTRIP
360
F10B26
  0
DICTIONARY
  5
F10B27
330
F97
100
AcDbDictionary
280
     1
281
     1
  3
ACAD_XREC_ROUNDTRIP
360
F10B28
  0
DICTIONARY
  5
F10B51
330
F10949
100
AcDbDictionary
280
     1
281
     1
  3
ACAD_XREC_ROUNDTRIP
360
F10B52
  0
DICTIONARY
  5
F10B41
330
FA4
100
AcDbDictionary
280
     1
281
     1
  3
ACAD_XREC_ROUNDTRIP
360
F10B42
  0
DICTIONARY
  5
F10B3B
330
FA1
100
AcDbDictionary
280
     1
281
     1
  3
ACAD_XREC_ROUNDTRIP
360
F10B3C
  0
DICTIONARY
  5
F10B43
330
FA5
100
AcDbDictionary
280
     1
281
     1
  3
ACAD_XREC_ROUNDTRIP
360
F10B44
  0
DICTIONARY
  5
F10B33
330
F9D
100
AcDbDictionary
280
     1
281
     1
  3
ACAD_XREC_ROUNDTRIP
360
F10B34
  0
DICTIONARY
  5
F10B5B
330
F1094E
100
AcDbDictionary
280
     1
281
     1
  3
ACAD_XREC_ROUNDTRIP
360
F10B5C
  0
DICTIONARY
  5
F10B59
330
F1094D
100
AcDbDictionary
280
     1
281
     1
  3
ACAD_XREC_ROUNDTRIP
360
F10B5A
  0
DICTIONARY
  5
F10B53
330
F1094A
100
AcDbDictionary
280
     1
281
     1
  3
ACAD_XREC_ROUNDTRIP
360
F10B54
  0
DICTIONARY
  5
F10B55
330
F1094B
100
AcDbDictionary
280
     1
281
     1
  3
ACAD_XREC_ROUNDTRIP
360
F10B56
  0
DICTIONARY
  5
F10B39
330
FA0
100
AcDbDictionary
280
     1
281
     1
  3
ACAD_XREC_ROUNDTRIP
360
F10B3A
  0
DICTIONARY
  5
F10B4F
330
F10948
100
AcDbDictionary
280
     1
281
     1
  3
ACAD_XREC_ROUNDTRIP
360
F10B50
  0
DICTIONARY
  5
F10B57
330
F1094C
100
AcDbDictionary
280
     1
281
     1
  3
ACAD_XREC_ROUNDTRIP
360
F10B58
  0
XRECORD
  5
F10B4B
102
{ACAD_REACTORS
330
F10B4A
102
}
330
F10B4A
100
AcDbXrecord
280
     1
102
SHADEPLOT
 70
     0
102
SHADEPLOTRESLEVEL
 70
     2
102
SHADEPLOTCUSTOMDPI
 70
   300
  0
XRECORD
  5
F10B49
102
{ACAD_REACTORS
330
F10B48
102
}
330
F10B48
100
AcDbXrecord
280
     1
102
SHADEPLOT
 70
     0
102
SHADEPLOTRESLEVEL
 70
     2
102
SHADEPLOTCUSTOMDPI
 70
   300
  0
XRECORD
  5
FFF
102
{ACAD_REACTORS
330
F84
102
}
330
F84
100
AcDbXrecord
280
     1
102
MATERIAL
148
0.0
149
0.0
149
0.0
 93
        0
 94
      127
282
     0
 72
     0
 77
     0
171
     0
175
     0
179
     0
273
     0
  0
XRECORD
  5
F86
102
{ACAD_REACTORS
330
F84
102
}
330
F84
100
AcDbXrecord
280
     1
270
     1
271
     1
  0
XRECORD
  5
F85
102
{ACAD_REACTORS
330
F84
102
}
330
F84
100
AcDbXrecord
280
     1
270
     1
271
     1
  0
XRECORD
  5
F89
102
{ACAD_REACTORS
330
F84
102
}
330
F84
100
AcDbXrecord
280
     1
270
     1
271
     1
  0
XRECORD
  5
F88
102
{ACAD_REACTORS
330
F84
102
}
330
F84
100
AcDbXrecord
280
     1
270
     1
271
     1
  0
XRECORD
  5
F8A
102
{ACAD_REACTORS
330
F84
102
}
330
F84
100
AcDbXrecord
280
     1
270
     1
271
     1
  0
XRECORD
  5
F87
102
{ACAD_REACTORS
330
F84
102
}
330
F84
100
AcDbXrecord
280
     1
270
     1
271
     1
  0
XRECORD
  5
FFE
102
{ACAD_REACTORS
330
F7C
102
}
330
F7C
100
AcDbXrecord
280
     1
102
MATERIAL
148
0.0
149
0.0
149
0.0
 93
        0
 94
      127
282
     0
 72
     0
 77
     0
171
     0
175
     0
179
     0
273
     0
  0
XRECORD
  5
F7E
102
{ACAD_REACTORS
330
F7C
102
}
330
F7C
100
AcDbXrecord
280
     1
270
     1
271
     1
  0
XRECORD
  5
F7D
102
{ACAD_REACTORS
330
F7C
102
}
330
F7C
100
AcDbXrecord
280
     1
270
     1
271
     1
  0
XRECORD
  5
F81
102
{ACAD_REACTORS
330
F7C
102
}
330
F7C
100
AcDbXrecord
280
     1
270
     1
271
     1
  0
XRECORD
  5
F80
102
{ACAD_REACTORS
330
F7C
102
}
330
F7C
100
AcDbXrecord
280
     1
270
     1
271
     1
  0
XRECORD
  5
F82
102
{ACAD_REACTORS
330
F7C
102
}
330
F7C
100
AcDbXrecord
280
     1
270
     1
271
     1
  0
XRECORD
  5
F7F
102
{ACAD_REACTORS
330
F7C
102
}
330
F7C
100
AcDbXrecord
280
     1
270
     1
271
     1
  0
XRECORD
  5
1000
102
{ACAD_REACTORS
330
F8C
102
}
330
F8C
100
AcDbXrecord
280
     1
102
MATERIAL
148
0.0
149
0.0
149
0.0
 93
        0
 94
      127
282
     0
 72
     0
 77
     0
171
     0
175
     0
179
     0
273
     0
  0
XRECORD
  5
F8E
102
{ACAD_REACTORS
330
F8C
102
}
330
F8C
100
AcDbXrecord
280
     1
270
     1
271
     1
  0
XRECORD
  5
F8D
102
{ACAD_REACTORS
330
F8C
102
}
330
F8C
100
AcDbXrecord
280
     1
270
     1
271
     1
  0
XRECORD
  5
F91
102
{ACAD_REACTORS
330
F8C
102
}
330
F8C
100
AcDbXrecord
280
     1
270
     1
271
     1
  0
XRECORD
  5
F90
102
{ACAD_REACTORS
330
F8C
102
}
330
F8C
100
AcDbXrecord
280
     1
270
     1
271
     1
  0
XRECORD
  5
F92
102
{ACAD_REACTORS
330
F8C
102
}
330
F8C
100
AcDbXrecord
280
     1
270
     1
271
     1
  0
XRECORD
  5
F8F
102
{ACAD_REACTORS
330
F8C
102
}
330
F8C
100
AcDbXrecord
280
     1
270
     1
271
     1
  0
CELLSTYLEMAP
  5
F10B16
102
{ACAD_REACTORS
330
FF8
102
}
330
FF8
100
AcDbCellStyleMap
 90
        3
300
CELLSTYLE
  1
TABLEFORMAT_BEGIN
 90
        5
170
     1
 91
        0
 92
    32768
 62
   257
 93
        1
300
CONTENTFORMAT
  1
CONTENTFORMAT_BEGIN
 90
        0
 91
        0
 92
      512
 93
        0
300

 40
0.0
140
1.0
 94
        5
 62
     0
340
253
144
0.25
309
CONTENTFORMAT_END
171
     1
301
MARGIN
  1
CELLMARGIN_BEGIN
 40
0.06
 40
0.06
 40
0.06
 40
0.06
 40
0.18
 40
0.18
309
CELLMARGIN_END
 94
        6
 95
        1
302
GRIDFORMAT
  1
GRIDFORMAT_BEGIN
 90
        0
 91
        1
 62
     0
 92
       -2
340
0
 93
        0
 40
0.045
309
GRIDFORMAT_END
 95
        2
302
GRIDFORMAT
  1
GRIDFORMAT_BEGIN
 90
        0
 91
        1
 62
     0
 92
       -2
340
0
 93
        0
 40
0.045
309
GRIDFORMAT_END
 95
        4
302
GRIDFORMAT
  1
GRIDFORMAT_BEGIN
 90
        0
 91
        1
 62
     0
 92
       -2
340
0
 93
        0
 40
0.045
309
GRIDFORMAT_END
 95
        8
302
GRIDFORMAT
  1
GRIDFORMAT_BEGIN
 90
        0
 91
        1
 62
     0
 92
       -2
340
0
 93
        0
 40
0.045
309
GRIDFORMAT_END
 95
       16
302
GRIDFORMAT
  1
GRIDFORMAT_BEGIN
 90
        0
 91
        1
 62
     0
 92
       -2
340
0
 93
        0
 40
0.045
309
GRIDFORMAT_END
 95
       32
302
GRIDFORMAT
  1
GRIDFORMAT_BEGIN
 90
        0
 91
        1
 62
     0
 92
       -2
340
0
 93
        0
 40
0.045
309
GRIDFORMAT_END
309
TABLEFORMAT_END
  1
CELLSTYLE_BEGIN
 90
        1
 91
        1
300
_TITLE
309
CELLSTYLE_END
300
CELLSTYLE
  1
TABLEFORMAT_BEGIN
 90
        5
170
     1
 91
        0
 92
        0
 62
   257
 93
        1
300
CONTENTFORMAT
  1
CONTENTFORMAT_BEGIN
 90
        0
 91
        0
 92
      512
 93
        0
300

 40
0.0
140
1.0
 94
        5
 62
     0
340
253
144
0.18
309
CONTENTFORMAT_END
171
     1
301
MARGIN
  1
CELLMARGIN_BEGIN
 40
0.06
 40
0.06
 40
0.06
 40
0.06
 40
0.18
 40
0.18
309
CELLMARGIN_END
 94
        6
 95
        1
302
GRIDFORMAT
  1
GRIDFORMAT_BEGIN
 90
        0
 91
        1
 62
     0
 92
       -2
340
0
 93
        0
 40
0.045
309
GRIDFORMAT_END
 95
        2
302
GRIDFORMAT
  1
GRIDFORMAT_BEGIN
 90
        0
 91
        1
 62
     0
 92
       -2
340
0
 93
        0
 40
0.045
309
GRIDFORMAT_END
 95
        4
302
GRIDFORMAT
  1
GRIDFORMAT_BEGIN
 90
        0
 91
        1
 62
     0
 92
       -2
340
0
 93
        0
 40
0.045
309
GRIDFORMAT_END
 95
        8
302
GRIDFORMAT
  1
GRIDFORMAT_BEGIN
 90
        0
 91
        1
 62
     0
 92
       -2
340
0
 93
        0
 40
0.045
309
GRIDFORMAT_END
 95
       16
302
GRIDFORMAT
  1
GRIDFORMAT_BEGIN
 90
        0
 91
        1
 62
     0
 92
       -2
340
0
 93
        0
 40
0.045
309
GRIDFORMAT_END
 95
       32
302
GRIDFORMAT
  1
GRIDFORMAT_BEGIN
 90
        0
 91
        1
 62
     0
 92
       -2
340
0
 93
        0
 40
0.045
309
GRIDFORMAT_END
309
TABLEFORMAT_END
  1
CELLSTYLE_BEGIN
 90
        2
 91
        1
300
_HEADER
309
CELLSTYLE_END
300
CELLSTYLE
  1
TABLEFORMAT_BEGIN
 90
        5
170
     1
 91
        0
 92
        0
 62
   257
 93
        1
300
CONTENTFORMAT
  1
CONTENTFORMAT_BEGIN
 90
        0
 91
        0
 92
      512
 93
        0
300

 40
0.0
140
1.0
 94
        2
 62
     0
340
253
144
0.18
309
CONTENTFORMAT_END
171
     1
301
MARGIN
  1
CELLMARGIN_BEGIN
 40
0.06
 40
0.06
 40
0.06
 40
0.06
 40
0.18
 40
0.18
309
CELLMARGIN_END
 94
        6
 95
        1
302
GRIDFORMAT
  1
GRIDFORMAT_BEGIN
 90
        0
 91
        1
 62
     0
 92
       -2
340
0
 93
        0
 40
0.045
309
GRIDFORMAT_END
 95
        2
302
GRIDFORMAT
  1
GRIDFORMAT_BEGIN
 90
        0
 91
        1
 62
     0
 92
       -2
340
0
 93
        0
 40
0.045
309
GRIDFORMAT_END
 95
        4
302
GRIDFORMAT
  1
GRIDFORMAT_BEGIN
 90
        0
 91
        1
 62
     0
 92
       -2
340
0
 93
        0
 40
0.045
309
GRIDFORMAT_END
 95
        8
302
GRIDFORMAT
  1
GRIDFORMAT_BEGIN
 90
        0
 91
        1
 62
     0
 92
       -2
340
0
 93
        0
 40
0.045
309
GRIDFORMAT_END
 95
       16
302
GRIDFORMAT
  1
GRIDFORMAT_BEGIN
 90
        0
 91
        1
 62
     0
 92
       -2
340
0
 93
        0
 40
0.045
309
GRIDFORMAT_END
 95
       32
302
GRIDFORMAT
  1
GRIDFORMAT_BEGIN
 90
        0
 91
        1
 62
     0
 92
       -2
340
0
 93
        0
 40
0.045
309
GRIDFORMAT_END
309
TABLEFORMAT_END
  1
CELLSTYLE_BEGIN
 90
        3
 91
        2
300
_DATA
309
CELLSTYLE_END
  0
XRECORD
  5
F10B47
102
{ACAD_REACTORS
330
FF8
102
}
330
FF8
100
AcDbXrecord
280
     1
102
ACAD_ROUNDTRIP_PRE2007_TABLESTYLE
 90
      512
 91
        0
  1

 92
      512
 93
        0
  2

 94
      512
 95
        0
  3

  0
XRECORD
  5
F10B2C
102
{ACAD_REACTORS
330
F10B2B
102
}
330
F10B2B
100
AcDbXrecord
280
     1
102
RTVSPropertyOp0
 70
     1
102
RTVSPropertyOp1
 70
     1
102
RTVSPropertyOp2
 70
     1
102
RTVSPropertyOp3
 70
     1
102
RTVSPropertyOp4
 70
     1
102
RTVSPropertyOp5
 70
     1
102
RTVSPropertyOp6
 70
     1
102
RTVSPropertyOp7
 70
     1
102
RTVSPropertyOp8
 70
     1
102
RTVSPropertyOp9
 70
     1
102
RTVSPropertyOp10
 70
     1
102
RTVSPropertyOp11
 70
     1
102
RTVSPropertyOp12
 70
     1
102
RTVSPropertyOp13
 70
     1
102
RTVSPropertyOp14
 70
     1
102
RTVSPropertyOp15
 70
     1
102
RTVSPropertyOp16
 70
     1
102
RTVSPropertyOp17
 70
     1
102
RTVSPropertyOp18
 70
     1
102
RTVSPropertyOp19
 70
     1
102
RTVSPropertyOp20
 70
     1
102
RTVSPropertyOp21
 70
     1
102
RTVSPropertyOp22
 70
     1
102
RTVSPropertyOp23
 70
     1
102
RTVSPropertyOp24
 70
     1
102
RTVSPropertyOp25
 70
     1
102
RTVSPropertyOp26
 70
     1
102
RTVSPropertyOp27
 70
     1
102
RTVSPropertyOp28
 70
     1
102
RTVSPropertyOp29
 70
     1
102
RTVSPropertyOp30
 70
     1
102
RTVSPropertyOp31
 70
     1
102
RTVSPropertyOp32
 70
     1
  0
XRECORD
  5
F10B30
102
{ACAD_REACTORS
330
F10B2F
102
}
330
F10B2F
100
AcDbXrecord
280
     1
102
RTVSPropertyOp0
 70
     1
102
RTVSPropertyOp1
 70
     1
102
RTVSPropertyOp2
 70
     1
102
RTVSPropertyOp3
 70
     1
102
RTVSPropertyOp4
 70
     1
102
RTVSPropertyOp5
 70
     1
102
RTVSPropertyOp6
 70
     1
102
RTVSPropertyOp7
 70
     1
102
RTVSPropertyOp8
 70
     1
102
RTVSPropertyOp9
 70
     1
102
RTVSPropertyOp10
 70
     1
102
RTVSPropertyOp11
 70
     1
102
RTVSPropertyOp12
 70
     1
102
RTVSPropertyOp13
 70
     1
102
RTVSPropertyOp14
 70
     1
102
RTVSPropertyOp15
 70
     1
102
RTVSPropertyOp16
 70
     1
102
RTVSPropertyOp17
 70
     1
102
RTVSPropertyOp18
 70
     1
102
RTVSPropertyOp19
 70
     1
102
RTVSPropertyOp20
 70
     1
102
RTVSPropertyOp21
 70
     1
102
RTVSPropertyOp22
 70
     1
102
RTVSPropertyOp23
 70
     1
102
RTVSPropertyOp24
 70
     1
102
RTVSPropertyOp25
 70
     1
102
RTVSPropertyOp26
 70
     1
102
RTVSPropertyOp27
 70
     1
102
RTVSPropertyOp28
 70
     1
102
RTVSPropertyOp29
 70
     1
102
RTVSPropertyOp30
 70
     1
102
RTVSPropertyOp31
 70
     1
102
RTVSPropertyOp32
 70
     1
  0
XRECORD
  5
F10B2E
102
{ACAD_REACTORS
330
F10B2D
102
}
330
F10B2D
100
AcDbXrecord
280
     1
102
RTVSPropertyOp0
 70
     1
102
RTVSPropertyOp1
 70
     1
102
RTVSPropertyOp2
 70
     1
102
RTVSPropertyOp3
 70
     1
102
RTVSPropertyOp4
 70
     1
102
RTVSPropertyOp5
 70
     1
102
RTVSPropertyOp6
 70
     1
102
RTVSPropertyOp7
 70
     1
102
RTVSPropertyOp8
 70
     1
102
RTVSPropertyOp9
 70
     1
102
RTVSPropertyOp10
 70
     1
102
RTVSPropertyOp11
 70
     1
102
RTVSPropertyOp12
 70
     1
102
RTVSPropertyOp13
 70
     1
102
RTVSPropertyOp14
 70
     1
102
RTVSPropertyOp15
 70
     1
102
RTVSPropertyOp16
 70
     1
102
RTVSPropertyOp17
 70
     1
102
RTVSPropertyOp18
 70
     1
102
RTVSPropertyOp19
 70
     1
102
RTVSPropertyOp20
 70
     1
102
RTVSPropertyOp21
 70
     1
102
RTVSPropertyOp22
 70
     1
102
RTVSPropertyOp23
 70
     1
102
RTVSPropertyOp24
 70
     1
102
RTVSPropertyOp25
 70
     1
102
RTVSPropertyOp26
 70
     1
102
RTVSPropertyOp27
 70
     1
102
RTVSPropertyOp28
 70
     1
102
RTVSPropertyOp29
 70
     1
102
RTVSPropertyOp30
 70
     1
102
RTVSPropertyOp31
 70
     1
102
RTVSPropertyOp32
 70
     1
  0
XRECORD
  5
F10B2A
102
{ACAD_REACTORS
330
F10B29
102
}
330
F10B29
100
AcDbXrecord
280
     1
102
RTVSPropertyOp0
 70
     1
102
RTVSPropertyOp1
 70
     1
102
RTVSPropertyOp2
 70
     1
102
RTVSPropertyOp3
 70
     1
102
RTVSPropertyOp4
 70
     1
102
RTVSPropertyOp5
 70
     1
102
RTVSPropertyOp6
 70
     1
102
RTVSPropertyOp7
 70
     1
102
RTVSPropertyOp8
 70
     1
102
RTVSPropertyOp9
 70
     1
102
RTVSPropertyOp10
 70
     1
102
RTVSPropertyOp11
 70
     1
102
RTVSPropertyOp12
 70
     1
102
RTVSPropertyOp13
 70
     1
102
RTVSPropertyOp14
 70
     1
102
RTVSPropertyOp15
 70
     1
102
RTVSPropertyOp16
 70
     1
102
RTVSPropertyOp17
 70
     1
102
RTVSPropertyOp18
 70
     1
102
RTVSPropertyOp19
 70
     1
102
RTVSPropertyOp20
 70
     1
102
RTVSPropertyOp21
 70
     1
102
RTVSPropertyOp22
 70
     1
102
RTVSPropertyOp23
 70
     1
102
RTVSPropertyOp24
 70
     1
102
RTVSPropertyOp25
 70
     1
102
RTVSPropertyOp26
 70
     1
102
RTVSPropertyOp27
 70
     1
102
RTVSPropertyOp28
 70
     1
102
RTVSPropertyOp29
 70
     1
102
RTVSPropertyOp30
 70
     1
102
RTVSPropertyOp31
 70
     1
102
RTVSPropertyOp32
 70
     1
  0
XRECORD
  5
F10B38
102
{ACAD_REACTORS
330
F10B37
102
}
330
F10B37
100
AcDbXrecord
280
     1
102
RTVSPropertyOp0
 70
     1
102
RTVSPropertyOp1
 70
     1
102
RTVSPropertyOp2
 70
     1
102
RTVSPropertyOp3
 70
     1
102
RTVSPropertyOp4
 70
     1
102
RTVSPropertyOp5
 70
     1
102
RTVSPropertyOp6
 70
     1
102
RTVSPropertyOp7
 70
     1
102
RTVSPropertyOp8
 70
     1
102
RTVSPropertyOp9
 70
     1
102
RTVSPropertyOp10
 70
     1
102
RTVSPropertyOp11
 70
     1
102
RTVSPropertyOp12
 70
     1
102
RTVSPropertyOp13
 70
     1
102
RTVSPropertyOp14
 70
     1
102
RTVSPropertyOp15
 70
     1
102
RTVSPropertyOp16
 70
     1
102
RTVSPropertyOp17
 70
     1
102
RTVSPropertyOp18
 70
     1
102
RTVSPropertyOp19
 70
     1
102
RTVSPropertyOp20
 70
     1
102
RTVSPropertyOp21
 70
     1
102
RTVSPropertyOp22
 70
     1
102
RTVSPropertyOp23
 70
     1
102
RTVSPropertyOp24
 70
     1
102
RTVSPropertyOp25
 70
     1
102
RTVSPropertyOp26
 70
     1
102
RTVSPropertyOp27
 70
     1
102
RTVSPropertyOp28
 70
     1
102
RTVSPropertyOp29
 70
     1
102
RTVSPropertyOp30
 70
     1
102
RTVSPropertyOp31
 70
     1
102
RTVSPropertyOp32
 70
     1
  0
XRECORD
  5
F10B40
102
{ACAD_REACTORS
330
F10B3F
102
}
330
F10B3F
100
AcDbXrecord
280
     1
102
RTVSPropertyOp0
 70
     1
102
RTVSPropertyOp1
 70
     1
102
RTVSPropertyOp2
 70
     1
102
RTVSPropertyOp3
 70
     1
102
RTVSPropertyOp4
 70
     1
102
RTVSPropertyOp5
 70
     1
102
RTVSPropertyOp6
 70
     1
102
RTVSPropertyOp7
 70
     1
102
RTVSPropertyOp8
 70
     1
102
RTVSPropertyOp9
 70
     1
102
RTVSPropertyOp10
 70
     1
102
RTVSPropertyOp11
 70
     1
102
RTVSPropertyOp12
 70
     1
102
RTVSPropertyOp13
 70
     1
102
RTVSPropertyOp14
 70
     1
102
RTVSPropertyOp15
 70
     1
102
RTVSPropertyOp16
 70
     1
102
RTVSPropertyOp17
 70
     1
102
RTVSPropertyOp18
 70
     1
102
RTVSPropertyOp19
 70
     1
102
RTVSPropertyOp20
 70
     1
102
RTVSPropertyOp21
 70
     1
102
RTVSPropertyOp22
 70
     1
102
RTVSPropertyOp23
 70
     1
102
RTVSPropertyOp24
 70
     1
102
RTVSPropertyOp25
 70
     1
102
RTVSPropertyOp26
 70
     1
102
RTVSPropertyOp27
 70
     1
102
RTVSPropertyOp28
 70
     1
102
RTVSPropertyOp29
 70
     1
102
RTVSPropertyOp30
 70
     1
102
RTVSPropertyOp31
 70
     1
102
RTVSPropertyOp32
 70
     1
  0
XRECORD
  5
F10B32
102
{ACAD_REACTORS
330
F10B31
102
}
330
F10B31
100
AcDbXrecord
280
     1
102
RTVSPropertyOp0
 70
     1
102
RTVSPropertyOp1
 70
     1
102
RTVSPropertyOp2
 70
     1
102
RTVSPropertyOp3
 70
     1
102
RTVSPropertyOp4
 70
     1
102
RTVSPropertyOp5
 70
     1
102
RTVSPropertyOp6
 70
     1
102
RTVSPropertyOp7
 70
     1
102
RTVSPropertyOp8
 70
     1
102
RTVSPropertyOp9
 70
     1
102
RTVSPropertyOp10
 70
     1
102
RTVSPropertyOp11
 70
     1
102
RTVSPropertyOp12
 70
     1
102
RTVSPropertyOp13
 70
     1
102
RTVSPropertyOp14
 70
     1
102
RTVSPropertyOp15
 70
     1
102
RTVSPropertyOp16
 70
     1
102
RTVSPropertyOp17
 70
     1
102
RTVSPropertyOp18
 70
     1
102
RTVSPropertyOp19
 70
     1
102
RTVSPropertyOp20
 70
     1
102
RTVSPropertyOp21
 70
     1
102
RTVSPropertyOp22
 70
     1
102
RTVSPropertyOp23
 70
     1
102
RTVSPropertyOp24
 70
     1
102
RTVSPropertyOp25
 70
     1
102
RTVSPropertyOp26
 70
     1
102
RTVSPropertyOp27
 70
     1
102
RTVSPropertyOp28
 70
     1
102
RTVSPropertyOp29
 70
     1
102
RTVSPropertyOp30
 70
     1
102
RTVSPropertyOp31
 70
     1
102
RTVSPropertyOp32
 70
     1
  0
XRECORD
  5
F10B36
102
{ACAD_REACTORS
330
F10B35
102
}
330
F10B35
100
AcDbXrecord
280
     1
102
RTVSPropertyOp0
 70
     1
102
RTVSPropertyOp1
 70
     1
102
RTVSPropertyOp2
 70
     1
102
RTVSPropertyOp3
 70
     1
102
RTVSPropertyOp4
 70
     1
102
RTVSPropertyOp5
 70
     1
102
RTVSPropertyOp6
 70
     1
102
RTVSPropertyOp7
 70
     1
102
RTVSPropertyOp8
 70
     1
102
RTVSPropertyOp9
 70
     1
102
RTVSPropertyOp10
 70
     1
102
RTVSPropertyOp11
 70
     1
102
RTVSPropertyOp12
 70
     1
102
RTVSPropertyOp13
 70
     1
102
RTVSPropertyOp14
 70
     1
102
RTVSPropertyOp15
 70
     1
102
RTVSPropertyOp16
 70
     1
102
RTVSPropertyOp17
 70
     1
102
RTVSPropertyOp18
 70
     1
102
RTVSPropertyOp19
 70
     1
102
RTVSPropertyOp20
 70
     1
102
RTVSPropertyOp21
 70
     1
102
RTVSPropertyOp22
 70
     1
102
RTVSPropertyOp23
 70
     1
102
RTVSPropertyOp24
 70
     1
102
RTVSPropertyOp25
 70
     1
102
RTVSPropertyOp26
 70
     1
102
RTVSPropertyOp27
 70
     1
102
RTVSPropertyOp28
 70
     1
102
RTVSPropertyOp29
 70
     1
102
RTVSPropertyOp30
 70
     1
102
RTVSPropertyOp31
 70
     1
102
RTVSPropertyOp32
 70
     1
  0
XRECORD
  5
F10B46
102
{ACAD_REACTORS
330
F10B45
102
}
330
F10B45
100
AcDbXrecord
280
     1
102
RTVSPropertyOp0
 70
     0
102
RTVSPropertyOp1
 70
     0
102
RTVSPropertyOp2
 70
     0
102
RTVSPropertyOp3
 70
     0
102
RTVSPropertyOp4
 70
     0
102
RTVSPropertyOp5
 70
     0
102
RTVSPropertyOp6
 70
     0
102
RTVSPropertyOp7
 70
     0
102
RTVSPropertyOp8
 70
     0
102
RTVSPropertyOp9
 70
     0
102
RTVSPropertyOp10
 70
     0
102
RTVSPropertyOp11
 70
     0
102
RTVSPropertyOp12
 70
     0
102
RTVSPropertyOp13
 70
     0
102
RTVSPropertyOp14
 70
     2
102
RTVSPropertyOp15
 70
     0
102
RTVSPropertyOp16
 70
     0
102
RTVSPropertyOp17
 70
     0
102
RTVSPropertyOp18
 70
     0
102
RTVSPropertyOp19
 70
     0
102
RTVSPropertyOp20
 70
     0
102
RTVSPropertyOp21
 70
     0
102
RTVSPropertyOp22
 70
     0
102
RTVSPropertyOp23
 70
     0
102
RTVSPropertyOp24
 70
     0
102
RTVSPropertyOp25
 70
     0
102
RTVSPropertyOp26
 70
     0
102
RTVSPropertyOp27
 70
     0
102
RTVSPropertyOp28
 70
     1
102
RTVSPropertyOp29
 70
     1
102
RTVSPropertyOp30
 70
     1
102
RTVSPropertyOp31
 70
     1
102
RTVSPropertyOp32
 70
     1
  0
XRECORD
  5
F10B3E
102
{ACAD_REACTORS
330
F10B3D
102
}
330
F10B3D
100
AcDbXrecord
280
     1
102
RTVSPropertyOp0
 70
     1
102
RTVSPropertyOp1
 70
     1
102
RTVSPropertyOp2
 70
     1
102
RTVSPropertyOp3
 70
     1
102
RTVSPropertyOp4
 70
     1
102
RTVSPropertyOp5
 70
     1
102
RTVSPropertyOp6
 70
     1
102
RTVSPropertyOp7
 70
     1
102
RTVSPropertyOp8
 70
     1
102
RTVSPropertyOp9
 70
     1
102
RTVSPropertyOp10
 70
     1
102
RTVSPropertyOp11
 70
     1
102
RTVSPropertyOp12
 70
     1
102
RTVSPropertyOp13
 70
     1
102
RTVSPropertyOp14
 70
     1
102
RTVSPropertyOp15
 70
     1
102
RTVSPropertyOp16
 70
     1
102
RTVSPropertyOp17
 70
     1
102
RTVSPropertyOp18
 70
     1
102
RTVSPropertyOp19
 70
     1
102
RTVSPropertyOp20
 70
     1
102
RTVSPropertyOp21
 70
     1
102
RTVSPropertyOp22
 70
     1
102
RTVSPropertyOp23
 70
     1
102
RTVSPropertyOp24
 70
     1
102
RTVSPropertyOp25
 70
     1
102
RTVSPropertyOp26
 70
     1
102
RTVSPropertyOp27
 70
     1
102
RTVSPropertyOp28
 70
     1
102
RTVSPropertyOp29
 70
     1
102
RTVSPropertyOp30
 70
     1
102
RTVSPropertyOp31
 70
     1
102
RTVSPropertyOp32
 70
     1
  0
XRECORD
  5
F10B22
102
{ACAD_REACTORS
330
F10B21
102
}
330
F10B21
100
AcDbXrecord
280
     1
102
RTVSPropertyOp0
 70
     1
102
RTVSPropertyOp1
 70
     1
102
RTVSPropertyOp2
 70
     1
102
RTVSPropertyOp3
 70
     1
102
RTVSPropertyOp4
 70
     1
102
RTVSPropertyOp5
 70
     1
102
RTVSPropertyOp6
 70
     1
102
RTVSPropertyOp7
 70
     1
102
RTVSPropertyOp8
 70
     1
102
RTVSPropertyOp9
 70
     1
102
RTVSPropertyOp10
 70
     1
102
RTVSPropertyOp11
 70
     1
102
RTVSPropertyOp12
 70
     1
102
RTVSPropertyOp13
 70
     1
102
RTVSPropertyOp14
 70
     1
102
RTVSPropertyOp15
 70
     1
102
RTVSPropertyOp16
 70
     1
102
RTVSPropertyOp17
 70
     1
102
RTVSPropertyOp18
 70
     1
102
RTVSPropertyOp19
 70
     1
102
RTVSPropertyOp20
 70
     1
102
RTVSPropertyOp21
 70
     1
102
RTVSPropertyOp22
 70
     1
102
RTVSPropertyOp23
 70
     1
102
RTVSPropertyOp24
 70
     1
102
RTVSPropertyOp25
 70
     1
102
RTVSPropertyOp26
 70
     1
102
RTVSPropertyOp27
 70
     1
102
RTVSPropertyOp28
 70
     1
102
RTVSPropertyOp29
 70
     1
102
RTVSPropertyOp30
 70
     1
102
RTVSPropertyOp31
 70
     1
102
RTVSPropertyOp32
 70
     1
  0
XRECORD
  5
F10B24
102
{ACAD_REACTORS
330
F10B23
102
}
330
F10B23
100
AcDbXrecord
280
     1
102
RTVSPropertyOp0
 70
     1
102
RTVSPropertyOp1
 70
     1
102
RTVSPropertyOp2
 70
     1
102
RTVSPropertyOp3
 70
     1
102
RTVSPropertyOp4
 70
     1
102
RTVSPropertyOp5
 70
     1
102
RTVSPropertyOp6
 70
     1
102
RTVSPropertyOp7
 70
     1
102
RTVSPropertyOp8
 70
     1
102
RTVSPropertyOp9
 70
     1
102
RTVSPropertyOp10
 70
     1
102
RTVSPropertyOp11
 70
     1
102
RTVSPropertyOp12
 70
     1
102
RTVSPropertyOp13
 70
     1
102
RTVSPropertyOp14
 70
     1
102
RTVSPropertyOp15
 70
     1
102
RTVSPropertyOp16
 70
     1
102
RTVSPropertyOp17
 70
     1
102
RTVSPropertyOp18
 70
     1
102
RTVSPropertyOp19
 70
     1
102
RTVSPropertyOp20
 70
     1
102
RTVSPropertyOp21
 70
     1
102
RTVSPropertyOp22
 70
     1
102
RTVSPropertyOp23
 70
     1
102
RTVSPropertyOp24
 70
     1
102
RTVSPropertyOp25
 70
     1
102
RTVSPropertyOp26
 70
     1
102
RTVSPropertyOp27
 70
     1
102
RTVSPropertyOp28
 70
     1
102
RTVSPropertyOp29
 70
     1
102
RTVSPropertyOp30
 70
     1
102
RTVSPropertyOp31
 70
     1
102
RTVSPropertyOp32
 70
     1
  0
XRECORD
  5
F10B26
102
{ACAD_REACTORS
330
F10B25
102
}
330
F10B25
100
AcDbXrecord
280
     1
102
RTVSPropertyOp0
 70
     1
102
RTVSPropertyOp1
 70
     1
102
RTVSPropertyOp2
 70
     1
102
RTVSPropertyOp3
 70
     1
102
RTVSPropertyOp4
 70
     1
102
RTVSPropertyOp5
 70
     1
102
RTVSPropertyOp6
 70
     1
102
RTVSPropertyOp7
 70
     1
102
RTVSPropertyOp8
 70
     1
102
RTVSPropertyOp9
 70
     1
102
RTVSPropertyOp10
 70
     1
102
RTVSPropertyOp11
 70
     1
102
RTVSPropertyOp12
 70
     1
102
RTVSPropertyOp13
 70
     1
102
RTVSPropertyOp14
 70
     1
102
RTVSPropertyOp15
 70
     1
102
RTVSPropertyOp16
 70
     1
102
RTVSPropertyOp17
 70
     1
102
RTVSPropertyOp18
 70
     1
102
RTVSPropertyOp19
 70
     1
102
RTVSPropertyOp20
 70
     1
102
RTVSPropertyOp21
 70
     1
102
RTVSPropertyOp22
 70
     1
102
RTVSPropertyOp23
 70
     1
102
RTVSPropertyOp24
 70
     1
102
RTVSPropertyOp25
 70
     1
102
RTVSPropertyOp26
 70
     1
102
RTVSPropertyOp27
 70
     1
102
RTVSPropertyOp28
 70
     1
102
RTVSPropertyOp29
 70
     1
102
RTVSPropertyOp30
 70
     1
102
RTVSPropertyOp31
 70
     1
102
RTVSPropertyOp32
 70
     1
  0
XRECORD
  5
F10B28
102
{ACAD_REACTORS
330
F10B27
102
}
330
F10B27
100
AcDbXrecord
280
     1
102
RTVSPropertyOp0
 70
     1
102
RTVSPropertyOp1
 70
     1
102
RTVSPropertyOp2
 70
     1
102
RTVSPropertyOp3
 70
     1
102
RTVSPropertyOp4
 70
     1
102
RTVSPropertyOp5
 70
     1
102
RTVSPropertyOp6
 70
     1
102
RTVSPropertyOp7
 70
     1
102
RTVSPropertyOp8
 70
     1
102
RTVSPropertyOp9
 70
     1
102
RTVSPropertyOp10
 70
     1
102
RTVSPropertyOp11
 70
     1
102
RTVSPropertyOp12
 70
     1
102
RTVSPropertyOp13
 70
     1
102
RTVSPropertyOp14
 70
     1
102
RTVSPropertyOp15
 70
     1
102
RTVSPropertyOp16
 70
     1
102
RTVSPropertyOp17
 70
     1
102
RTVSPropertyOp18
 70
     1
102
RTVSPropertyOp19
 70
     1
102
RTVSPropertyOp20
 70
     1
102
RTVSPropertyOp21
 70
     1
102
RTVSPropertyOp22
 70
     1
102
RTVSPropertyOp23
 70
     1
102
RTVSPropertyOp24
 70
     1
102
RTVSPropertyOp25
 70
     1
102
RTVSPropertyOp26
 70
     1
102
RTVSPropertyOp27
 70
     1
102
RTVSPropertyOp28
 70
     1
102
RTVSPropertyOp29
 70
     1
102
RTVSPropertyOp30
 70
     1
102
RTVSPropertyOp31
 70
     1
102
RTVSPropertyOp32
 70
     1
  0
XRECORD
  5
F10B52
102
{ACAD_REACTORS
330
F10B51
102
}
330
F10B51
100
AcDbXrecord
280
     1
102
RTVSPropertyOp0
 70
     1
102
RTVSPropertyOp1
 70
     1
102
RTVSPropertyOp2
 70
     1
102
RTVSPropertyOp3
 70
     1
102
RTVSPropertyOp4
 70
     1
102
RTVSPropertyOp5
 70
     1
102
RTVSPropertyOp6
 70
     1
102
RTVSPropertyOp7
 70
     1
102
RTVSPropertyOp8
 70
     1
102
RTVSPropertyOp9
 70
     1
102
RTVSPropertyOp10
 70
     1
102
RTVSPropertyOp11
 70
     1
102
RTVSPropertyOp12
 70
     1
102
RTVSPropertyOp13
 70
     1
102
RTVSPropertyOp14
 70
     1
102
RTVSPropertyOp15
 70
     1
102
RTVSPropertyOp16
 70
     1
102
RTVSPropertyOp17
 70
     1
102
RTVSPropertyOp18
 70
     1
102
RTVSPropertyOp19
 70
     1
102
RTVSPropertyOp20
 70
     1
102
RTVSPropertyOp21
 70
     1
102
RTVSPropertyOp22
 70
     1
102
RTVSPropertyOp23
 70
     1
102
RTVSPropertyOp24
 70
     1
102
RTVSPropertyOp25
 70
     1
102
RTVSPropertyOp26
 70
     1
102
RTVSPropertyOp27
 70
     1
102
RTVSPropertyOp28
 70
     1
102
RTVSPropertyOp29
 70
     1
102
RTVSPropertyOp30
 70
     1
102
RTVSPropertyOp31
 70
     1
102
RTVSPropertyOp32
 70
     1
  0
XRECORD
  5
F10B42
102
{ACAD_REACTORS
330
F10B41
102
}
330
F10B41
100
AcDbXrecord
280
     1
102
RTVSPropertyOp0
 70
     0
102
RTVSPropertyOp1
 70
     0
102
RTVSPropertyOp2
 70
     0
102
RTVSPropertyOp3
 70
     0
102
RTVSPropertyOp4
 70
     0
102
RTVSPropertyOp5
 70
     0
102
RTVSPropertyOp6
 70
     0
102
RTVSPropertyOp7
 70
     0
102
RTVSPropertyOp8
 70
     0
102
RTVSPropertyOp9
 70
     0
102
RTVSPropertyOp10
 70
     0
102
RTVSPropertyOp11
 70
     0
102
RTVSPropertyOp12
 70
     0
102
RTVSPropertyOp13
 70
     0
102
RTVSPropertyOp14
 70
     2
102
RTVSPropertyOp15
 70
     0
102
RTVSPropertyOp16
 70
     0
102
RTVSPropertyOp17
 70
     0
102
RTVSPropertyOp18
 70
     0
102
RTVSPropertyOp19
 70
     0
102
RTVSPropertyOp20
 70
     0
102
RTVSPropertyOp21
 70
     0
102
RTVSPropertyOp22
 70
     0
102
RTVSPropertyOp23
 70
     0
102
RTVSPropertyOp24
 70
     0
102
RTVSPropertyOp25
 70
     0
102
RTVSPropertyOp26
 70
     0
102
RTVSPropertyOp27
 70
     0
102
RTVSPropertyOp28
 70
     1
102
RTVSPropertyOp29
 70
     1
102
RTVSPropertyOp30
 70
     1
102
RTVSPropertyOp31
 70
     1
102
RTVSPropertyOp32
 70
     1
  0
XRECORD
  5
F10B3C
102
{ACAD_REACTORS
330
F10B3B
102
}
330
F10B3B
100
AcDbXrecord
280
     1
102
RTVSPropertyOp0
 70
     1
102
RTVSPropertyOp1
 70
     1
102
RTVSPropertyOp2
 70
     1
102
RTVSPropertyOp3
 70
     1
102
RTVSPropertyOp4
 70
     1
102
RTVSPropertyOp5
 70
     1
102
RTVSPropertyOp6
 70
     1
102
RTVSPropertyOp7
 70
     1
102
RTVSPropertyOp8
 70
     1
102
RTVSPropertyOp9
 70
     1
102
RTVSPropertyOp10
 70
     1
102
RTVSPropertyOp11
 70
     1
102
RTVSPropertyOp12
 70
     1
102
RTVSPropertyOp13
 70
     1
102
RTVSPropertyOp14
 70
     1
102
RTVSPropertyOp15
 70
     1
102
RTVSPropertyOp16
 70
     1
102
RTVSPropertyOp17
 70
     1
102
RTVSPropertyOp18
 70
     1
102
RTVSPropertyOp19
 70
     1
102
RTVSPropertyOp20
 70
     1
102
RTVSPropertyOp21
 70
     1
102
RTVSPropertyOp22
 70
     1
102
RTVSPropertyOp23
 70
     1
102
RTVSPropertyOp24
 70
     1
102
RTVSPropertyOp25
 70
     1
102
RTVSPropertyOp26
 70
     1
102
RTVSPropertyOp27
 70
     1
102
RTVSPropertyOp28
 70
     1
102
RTVSPropertyOp29
 70
     1
102
RTVSPropertyOp30
 70
     1
102
RTVSPropertyOp31
 70
     1
102
RTVSPropertyOp32
 70
     1
  0
XRECORD
  5
F10B44
102
{ACAD_REACTORS
330
F10B43
102
}
330
F10B43
100
AcDbXrecord
280
     1
102
RTVSPropertyOp0
 70
     0
102
RTVSPropertyOp1
 70
     0
102
RTVSPropertyOp2
 70
     0
102
RTVSPropertyOp3
 70
     0
102
RTVSPropertyOp4
 70
     0
102
RTVSPropertyOp5
 70
     0
102
RTVSPropertyOp6
 70
     0
102
RTVSPropertyOp7
 70
     0
102
RTVSPropertyOp8
 70
     0
102
RTVSPropertyOp9
 70
     0
102
RTVSPropertyOp10
 70
     0
102
RTVSPropertyOp11
 70
     0
102
RTVSPropertyOp12
 70
     0
102
RTVSPropertyOp13
 70
     0
102
RTVSPropertyOp14
 70
     2
102
RTVSPropertyOp15
 70
     0
102
RTVSPropertyOp16
 70
     0
102
RTVSPropertyOp17
 70
     0
102
RTVSPropertyOp18
 70
     0
102
RTVSPropertyOp19
 70
     0
102
RTVSPropertyOp20
 70
     0
102
RTVSPropertyOp21
 70
     0
102
RTVSPropertyOp22
 70
     0
102
RTVSPropertyOp23
 70
     0
102
RTVSPropertyOp24
 70
     0
102
RTVSPropertyOp25
 70
     0
102
RTVSPropertyOp26
 70
     0
102
RTVSPropertyOp27
 70
     0
102
RTVSPropertyOp28
 70
     1
102
RTVSPropertyOp29
 70
     1
102
RTVSPropertyOp30
 70
     1
102
RTVSPropertyOp31
 70
     1
102
RTVSPropertyOp32
 70
     1
  0
XRECORD
  5
F10B34
102
{ACAD_REACTORS
330
F10B33
102
}
330
F10B33
100
AcDbXrecord
280
     1
102
RTVSPropertyOp0
 70
     1
102
RTVSPropertyOp1
 70
     1
102
RTVSPropertyOp2
 70
     1
102
RTVSPropertyOp3
 70
     1
102
RTVSPropertyOp4
 70
     1
102
RTVSPropertyOp5
 70
     1
102
RTVSPropertyOp6
 70
     1
102
RTVSPropertyOp7
 70
     1
102
RTVSPropertyOp8
 70
     1
102
RTVSPropertyOp9
 70
     1
102
RTVSPropertyOp10
 70
     1
102
RTVSPropertyOp11
 70
     1
102
RTVSPropertyOp12
 70
     1
102
RTVSPropertyOp13
 70
     1
102
RTVSPropertyOp14
 70
     1
102
RTVSPropertyOp15
 70
     1
102
RTVSPropertyOp16
 70
     1
102
RTVSPropertyOp17
 70
     1
102
RTVSPropertyOp18
 70
     1
102
RTVSPropertyOp19
 70
     1
102
RTVSPropertyOp20
 70
     1
102
RTVSPropertyOp21
 70
     1
102
RTVSPropertyOp22
 70
     1
102
RTVSPropertyOp23
 70
     1
102
RTVSPropertyOp24
 70
     1
102
RTVSPropertyOp25
 70
     1
102
RTVSPropertyOp26
 70
     1
102
RTVSPropertyOp27
 70
     1
102
RTVSPropertyOp28
 70
     1
102
RTVSPropertyOp29
 70
     1
102
RTVSPropertyOp30
 70
     1
102
RTVSPropertyOp31
 70
     1
102
RTVSPropertyOp32
 70
     1
  0
XRECORD
  5
F10B5C
102
{ACAD_REACTORS
330
F10B5B
102
}
330
F10B5B
100
AcDbXrecord
280
     1
102
RTVSPropertyOp0
 70
     1
102
RTVSPropertyOp1
 70
     1
102
RTVSPropertyOp2
 70
     1
102
RTVSPropertyOp3
 70
     1
102
RTVSPropertyOp4
 70
     1
102
RTVSPropertyOp5
 70
     1
102
RTVSPropertyOp6
 70
     1
102
RTVSPropertyOp7
 70
     1
102
RTVSPropertyOp8
 70
     1
102
RTVSPropertyOp9
 70
     1
102
RTVSPropertyOp10
 70
     1
102
RTVSPropertyOp11
 70
     1
102
RTVSPropertyOp12
 70
     1
102
RTVSPropertyOp13
 70
     1
102
RTVSPropertyOp14
 70
     1
102
RTVSPropertyOp15
 70
     1
102
RTVSPropertyOp16
 70
     1
102
RTVSPropertyOp17
 70
     1
102
RTVSPropertyOp18
 70
     1
102
RTVSPropertyOp19
 70
     1
102
RTVSPropertyOp20
 70
     1
102
RTVSPropertyOp21
 70
     1
102
RTVSPropertyOp22
 70
     1
102
RTVSPropertyOp23
 70
     1
102
RTVSPropertyOp24
 70
     1
102
RTVSPropertyOp25
 70
     1
102
RTVSPropertyOp26
 70
     1
102
RTVSPropertyOp27
 70
     1
102
RTVSPropertyOp28
 70
     1
102
RTVSPropertyOp29
 70
     1
102
RTVSPropertyOp30
 70
     1
102
RTVSPropertyOp31
 70
     1
102
RTVSPropertyOp32
 70
     1
  0
XRECORD
  5
F10B5A
102
{ACAD_REACTORS
330
F10B59
102
}
330
F10B59
100
AcDbXrecord
280
     1
102
RTVSPropertyOp0
 70
     1
102
RTVSPropertyOp1
 70
     1
102
RTVSPropertyOp2
 70
     1
102
RTVSPropertyOp3
 70
     1
102
RTVSPropertyOp4
 70
     1
102
RTVSPropertyOp5
 70
     1
102
RTVSPropertyOp6
 70
     1
102
RTVSPropertyOp7
 70
     1
102
RTVSPropertyOp8
 70
     1
102
RTVSPropertyOp9
 70
     1
102
RTVSPropertyOp10
 70
     1
102
RTVSPropertyOp11
 70
     1
102
RTVSPropertyOp12
 70
     1
102
RTVSPropertyOp13
 70
     1
102
RTVSPropertyOp14
 70
     1
102
RTVSPropertyOp15
 70
     1
102
RTVSPropertyOp16
 70
     1
102
RTVSPropertyOp17
 70
     1
102
RTVSPropertyOp18
 70
     1
102
RTVSPropertyOp19
 70
     1
102
RTVSPropertyOp20
 70
     1
102
RTVSPropertyOp21
 70
     1
102
RTVSPropertyOp22
 70
     1
102
RTVSPropertyOp23
 70
     1
102
RTVSPropertyOp24
 70
     1
102
RTVSPropertyOp25
 70
     1
102
RTVSPropertyOp26
 70
     1
102
RTVSPropertyOp27
 70
     1
102
RTVSPropertyOp28
 70
     1
102
RTVSPropertyOp29
 70
     1
102
RTVSPropertyOp30
 70
     1
102
RTVSPropertyOp31
 70
     1
102
RTVSPropertyOp32
 70
     1
  0
XRECORD
  5
F10B54
102
{ACAD_REACTORS
330
F10B53
102
}
330
F10B53
100
AcDbXrecord
280
     1
102
RTVSPropertyOp0
 70
     1
102
RTVSPropertyOp1
 70
     1
102
RTVSPropertyOp2
 70
     1
102
RTVSPropertyOp3
 70
     1
102
RTVSPropertyOp4
 70
     1
102
RTVSPropertyOp5
 70
     1
102
RTVSPropertyOp6
 70
     1
102
RTVSPropertyOp7
 70
     1
102
RTVSPropertyOp8
 70
     1
102
RTVSPropertyOp9
 70
     1
102
RTVSPropertyOp10
 70
     1
102
RTVSPropertyOp11
 70
     1
102
RTVSPropertyOp12
 70
     1
102
RTVSPropertyOp13
 70
     1
102
RTVSPropertyOp14
 70
     1
102
RTVSPropertyOp15
 70
     1
102
RTVSPropertyOp16
 70
     1
102
RTVSPropertyOp17
 70
     1
102
RTVSPropertyOp18
 70
     1
102
RTVSPropertyOp19
 70
     1
102
RTVSPropertyOp20
 70
     1
102
RTVSPropertyOp21
 70
     1
102
RTVSPropertyOp22
 70
     1
102
RTVSPropertyOp23
 70
     1
102
RTVSPropertyOp24
 70
     1
102
RTVSPropertyOp25
 70
     1
102
RTVSPropertyOp26
 70
     1
102
RTVSPropertyOp27
 70
     1
102
RTVSPropertyOp28
 70
     1
102
RTVSPropertyOp29
 70
     1
102
RTVSPropertyOp30
 70
     1
102
RTVSPropertyOp31
 70
     1
102
RTVSPropertyOp32
 70
     1
  0
XRECORD
  5
F10B56
102
{ACAD_REACTORS
330
F10B55
102
}
330
F10B55
100
AcDbXrecord
280
     1
102
RTVSPropertyOp0
 70
     1
102
RTVSPropertyOp1
 70
     1
102
RTVSPropertyOp2
 70
     1
102
RTVSPropertyOp3
 70
     1
102
RTVSPropertyOp4
 70
     1
102
RTVSPropertyOp5
 70
     1
102
RTVSPropertyOp6
 70
     1
102
RTVSPropertyOp7
 70
     1
102
RTVSPropertyOp8
 70
     1
102
RTVSPropertyOp9
 70
     1
102
RTVSPropertyOp10
 70
     1
102
RTVSPropertyOp11
 70
     1
102
RTVSPropertyOp12
 70
     1
102
RTVSPropertyOp13
 70
     1
102
RTVSPropertyOp14
 70
     1
102
RTVSPropertyOp15
 70
     1
102
RTVSPropertyOp16
 70
     1
102
RTVSPropertyOp17
 70
     1
102
RTVSPropertyOp18
 70
     1
102
RTVSPropertyOp19
 70
     1
102
RTVSPropertyOp20
 70
     1
102
RTVSPropertyOp21
 70
     1
102
RTVSPropertyOp22
 70
     1
102
RTVSPropertyOp23
 70
     1
102
RTVSPropertyOp24
 70
     1
102
RTVSPropertyOp25
 70
     1
102
RTVSPropertyOp26
 70
     1
102
RTVSPropertyOp27
 70
     1
102
RTVSPropertyOp28
 70
     1
102
RTVSPropertyOp29
 70
     1
102
RTVSPropertyOp30
 70
     1
102
RTVSPropertyOp31
 70
     1
102
RTVSPropertyOp32
 70
     1
  0
XRECORD
  5
F10B3A
102
{ACAD_REACTORS
330
F10B39
102
}
330
F10B39
100
AcDbXrecord
280
     1
102
RTVSPropertyOp0
 70
     1
102
RTVSPropertyOp1
 70
     1
102
RTVSPropertyOp2
 70
     1
102
RTVSPropertyOp3
 70
     1
102
RTVSPropertyOp4
 70
     1
102
RTVSPropertyOp5
 70
     1
102
RTVSPropertyOp6
 70
     1
102
RTVSPropertyOp7
 70
     1
102
RTVSPropertyOp8
 70
     1
102
RTVSPropertyOp9
 70
     1
102
RTVSPropertyOp10
 70
     1
102
RTVSPropertyOp11
 70
     1
102
RTVSPropertyOp12
 70
     1
102
RTVSPropertyOp13
 70
     1
102
RTVSPropertyOp14
 70
     1
102
RTVSPropertyOp15
 70
     1
102
RTVSPropertyOp16
 70
     1
102
RTVSPropertyOp17
 70
     1
102
RTVSPropertyOp18
 70
     1
102
RTVSPropertyOp19
 70
     1
102
RTVSPropertyOp20
 70
     1
102
RTVSPropertyOp21
 70
     1
102
RTVSPropertyOp22
 70
     1
102
RTVSPropertyOp23
 70
     1
102
RTVSPropertyOp24
 70
     1
102
RTVSPropertyOp25
 70
     1
102
RTVSPropertyOp26
 70
     1
102
RTVSPropertyOp27
 70
     1
102
RTVSPropertyOp28
 70
     1
102
RTVSPropertyOp29
 70
     1
102
RTVSPropertyOp30
 70
     1
102
RTVSPropertyOp31
 70
     1
102
RTVSPropertyOp32
 70
     1
  0
XRECORD
  5
F10B50
102
{ACAD_REACTORS
330
F10B4F
102
}
330
F10B4F
100
AcDbXrecord
280
     1
102
RTVSPropertyOp0
 70
     1
102
RTVSPropertyOp1
 70
     1
102
RTVSPropertyOp2
 70
     1
102
RTVSPropertyOp3
 70
     1
102
RTVSPropertyOp4
 70
     1
102
RTVSPropertyOp5
 70
     1
102
RTVSPropertyOp6
 70
     1
102
RTVSPropertyOp7
 70
     1
102
RTVSPropertyOp8
 70
     1
102
RTVSPropertyOp9
 70
     1
102
RTVSPropertyOp10
 70
     1
102
RTVSPropertyOp11
 70
     1
102
RTVSPropertyOp12
 70
     1
102
RTVSPropertyOp13
 70
     1
102
RTVSPropertyOp14
 70
     1
102
RTVSPropertyOp15
 70
     1
102
RTVSPropertyOp16
 70
     1
102
RTVSPropertyOp17
 70
     1
102
RTVSPropertyOp18
 70
     1
102
RTVSPropertyOp19
 70
     1
102
RTVSPropertyOp20
 70
     1
102
RTVSPropertyOp21
 70
     1
102
RTVSPropertyOp22
 70
     1
102
RTVSPropertyOp23
 70
     1
102
RTVSPropertyOp24
 70
     1
102
RTVSPropertyOp25
 70
     1
102
RTVSPropertyOp26
 70
     1
102
RTVSPropertyOp27
 70
     1
102
RTVSPropertyOp28
 70
     1
102
RTVSPropertyOp29
 70
     1
102
RTVSPropertyOp30
 70
     1
102
RTVSPropertyOp31
 70
     1
102
RTVSPropertyOp32
 70
     1
  0
XRECORD
  5
F10B58
102
{ACAD_REACTORS
330
F10B57
102
}
330
F10B57
100
AcDbXrecord
280
     1
102
RTVSPropertyOp0
 70
     1
102
RTVSPropertyOp1
 70
     1
102
RTVSPropertyOp2
 70
     1
102
RTVSPropertyOp3
 70
     1
102
RTVSPropertyOp4
 70
     1
102
RTVSPropertyOp5
 70
     1
102
RTVSPropertyOp6
 70
     1
102
RTVSPropertyOp7
 70
     1
102
RTVSPropertyOp8
 70
     1
102
RTVSPropertyOp9
 70
     1
102
RTVSPropertyOp10
 70
     1
102
RTVSPropertyOp11
 70
     1
102
RTVSPropertyOp12
 70
     1
102
RTVSPropertyOp13
 70
     1
102
RTVSPropertyOp14
 70
     1
102
RTVSPropertyOp15
 70
     1
102
RTVSPropertyOp16
 70
     1
102
RTVSPropertyOp17
 70
     1
102
RTVSPropertyOp18
 70
     1
102
RTVSPropertyOp19
 70
     1
102
RTVSPropertyOp20
 70
     1
102
RTVSPropertyOp21
 70
     1
102
RTVSPropertyOp22
 70
     1
102
RTVSPropertyOp23
 70
     1
102
RTVSPropertyOp24
 70
     1
102
RTVSPropertyOp25
 70
     1
102
RTVSPropertyOp26
 70
     1
102
RTVSPropertyOp27
 70
     1
102
RTVSPropertyOp28
 70
     1
102
RTVSPropertyOp29
 70
     1
102
RTVSPropertyOp30
 70
     1
102
RTVSPropertyOp31
 70
     1
102
RTVSPropertyOp32
 70
     1
  0
ENDSEC
  0
EOF
