  0
SECTION
  2
HEADER
  9
$ACADVER
  1
AC1015
  9
$ACADMAINTVER
 70
    20
  9
$DWGCODEPAGE
  3
ANSI_1252
  9
$INSBASE
 10
0.0
 20
0.0
 30
0.0
  9
$EXTMIN
 10
-134.524070021882
 20
-100.175054704595
 30
0.0
  9
$EXTMAX
 10
143.484682713348
 20
99.945295404814
 30
0.0
  9
$LIMMIN
 10
0.0
 20
0.0
  9
$LIMMAX
 10
12.0
 20
9.0
  9
$ORTHOMODE
 70
     0
  9
$REGENMODE
 70
     1
  9
$FILLMODE
 70
     1
  9
$QTEXTMODE
 70
     0
  9
$MIRRTEXT
 70
     1
  9
$LTSCALE
 40
1.0
  9
$ATTMODE
 70
     1
  9
$TEXTSIZE
 40
0.2
  9
$TRACEWID
 40
0.05
  9
$TEXTSTYLE
  7
Standard
  9
$CLAYER
  8
0
  9
$CELTYPE
  6
ByLayer
  9
$CECOLOR
 62
   256
  9
$CELTSCALE
 40
1.0
  9
$DISPSILH
 70
     0
  9
$DIMSCALE
 40
1.0
  9
$DIMASZ
 40
2.5
  9
$DIMEXO
 40
0.625
  9
$DIMDLI
 40
0.38
  9
$DIMRND
 40
0.0
  9
$DIMDLE
 40
0.0
  9
$DIMEXE
 40
1.25
  9
$DIMTP
 40
0.0
  9
$DIMTM
 40
0.000000001
  9
$DIMTXT
 40
2.5
  9
$DIMCEN
 40
0.09
  9
$DIMTSZ
 40
0.0
  9
$DIMTOL
 70
     1
  9
$DIMLIM
 70
     0
  9
$DIMTIH
 70
     0
  9
$DIMTOH
 70
     0
  9
$DIMSE1
 70
     0
  9
$DIMSE2
 70
     0
  9
$DIMTAD
 70
     1
  9
$DIMZIN
 70
     0
  9
$DIMBLK
  1
VDDIM_DEFAULT
  9
$DIMASO
 70
     1
  9
$DIMSHO
 70
     1
  9
$DIMPOST
  1

  9
$DIMAPOST
  1

  9
$DIMALT
 70
     0
  9
$DIMALTD
 70
     2
  9
$DIMALTF
 40
25.4
  9
$DIMLFAC
 40
1.0
  9
$DIMTOFL
 70
     0
  9
$DIMTVP
 40
0.0
  9
$DIMTIX
 70
     0
  9
$DIMSOXD
 70
     0
  9
$DIMSAH
 70
     0
  9
$DIMBLK1
  1

  9
$DIMBLK2
  1

  9
$DIMSTYLE
  2
BEM-ISBE
  9
$DIMCLRD
 70
     0
  9
$DIMCLRE
 70
     0
  9
$DIMCLRT
 70
     0
  9
$DIMTFAC
 40
0.5
  9
$DIMGAP
 40
0.625
  9
$DIMJUST
 70
     0
  9
$DIMSD1
 70
     0
  9
$DIMSD2
 70
     0
  9
$DIMTOLJ
 70
     1
  9
$DIMTZIN
 70
     0
  9
$DIMALTZ
 70
     0
  9
$DIMALTTZ
 70
     0
  9
$DIMUPT
 70
     0
  9
$DIMDEC
 70
     3
  9
$DIMTDEC
 70
     3
  9
$DIMALTU
 70
     2
  9
$DIMALTTD
 70
     2
  9
$DIMTXSTY
  7
Standard
  9
$DIMAUNIT
 70
     0
  9
$DIMADEC
 70
     3
  9
$DIMALTRND
 40
0.0
  9
$DIMAZIN
 70
     0
  9
$DIMDSEP
 70
    46
  9
$DIMATFIT
 70
     3
  9
$DIMFRAC
 70
     0
  9
$DIMLDRBLK
  1

  9
$DIMLUNIT
 70
     2
  9
$DIMLWD
 70
    -2
  9
$DIMLWE
 70
    -2
  9
$DIMTMOVE
 70
     0
  9
$LUNITS
 70
     2
  9
$LUPREC
 70
     4
  9
$SKETCHINC
 40
0.1
  9
$FILLETRAD
 40
0.5
  9
$AUNITS
 70
     0
  9
$AUPREC
 70
     0
  9
$MENU
  1
.
  9
$ELEVATION
 40
0.0
  9
$PELEVATION
 40
0.0
  9
$THICKNESS
 40
0.0
  9
$LIMCHECK
 70
     0
  9
$CHAMFERA
 40
0.5
  9
$CHAMFERB
 40
0.5
  9
$CHAMFERC
 40
1.0
  9
$CHAMFERD
 40
0.0
  9
$SKPOLY
 70
     0
  9
$TDCREATE
 40
2456884.312405139
  9
$TDUCREATE
 40
2456884.229071806
  9
$TDUPDATE
 40
2456884.344990243
  9
$TDUUPDATE
 40
2456884.261656909
  9
$TDINDWG
 40
0.0065923727
  9
$TDUSRTIMER
 40
0.0065922801
  9
$USRTIMER
 70
     1
  9
$ANGBASE
 50
0.0
  9
$ANGDIR
 70
     0
  9
$PDMODE
 70
     0
  9
$PDSIZE
 40
0.0
  9
$PLINEWID
 40
0.0
  9
$SPLFRAME
 70
     0
  9
$SPLINETYPE
 70
     6
  9
$SPLINESEGS
 70
     8
  9
$HANDSEED
  5
F109FC
  9
$SURFTAB1
 70
     6
  9
$SURFTAB2
 70
     6
  9
$SURFTYPE
 70
     6
  9
$SURFU
 70
     6
  9
$SURFV
 70
     6
  9
$UCSBASE
  2

  9
$UCSNAME
  2

  9
$UCSORG
 10
0.9941091398807911
 20
13.1699258663398
 30
0.0
  9
$UCSXDIR
 10
1.0
 20
0.0
 30
0.0
  9
$UCSYDIR
 10
0.0
 20
1.0
 30
0.0
  9
$UCSORTHOREF
  2

  9
$UCSORTHOVIEW
 70
     0
  9
$UCSORGTOP
 10
0.0
 20
0.0
 30
0.0
  9
$UCSORGBOTTOM
 10
0.0
 20
0.0
 30
0.0
  9
$UCSORGLEFT
 10
0.0
 20
0.0
 30
0.0
  9
$UCSORGRIGHT
 10
0.0
 20
0.0
 30
0.0
  9
$UCSORGFRONT
 10
0.0
 20
0.0
 30
0.0
  9
$UCSORGBACK
 10
0.0
 20
0.0
 30
0.0
  9
$PUCSBASE
  2

  9
$PUCSNAME
  2

  9
$PUCSORG
 10
0.0
 20
0.0
 30
0.0
  9
$PUCSXDIR
 10
1.0
 20
0.0
 30
0.0
  9
$PUCSYDIR
 10
0.0
 20
1.0
 30
0.0
  9
$PUCSORTHOREF
  2

  9
$PUCSORTHOVIEW
 70
     0
  9
$PUCSORGTOP
 10
0.0
 20
0.0
 30
0.0
  9
$PUCSORGBOTTOM
 10
0.0
 20
0.0
 30
0.0
  9
$PUCSORGLEFT
 10
0.0
 20
0.0
 30
0.0
  9
$PUCSORGRIGHT
 10
0.0
 20
0.0
 30
0.0
  9
$PUCSORGFRONT
 10
0.0
 20
0.0
 30
0.0
  9
$PUCSORGBACK
 10
0.0
 20
0.0
 30
0.0
  9
$USERI1
 70
     0
  9
$USERI2
 70
     0
  9
$USERI3
 70
     0
  9
$USERI4
 70
     0
  9
$USERI5
 70
     0
  9
$USERR1
 40
0.0
  9
$USERR2
 40
0.0
  9
$USERR3
 40
0.0
  9
$USERR4
 40
0.0
  9
$USERR5
 40
0.0
  9
$WORLDVIEW
 70
     1
  9
$SHADEDGE
 70
     3
  9
$SHADEDIF
 70
    70
  9
$TILEMODE
 70
     1
  9
$MAXACTVP
 70
    64
  9
$PINSBASE
 10
0.0
 20
0.0
 30
0.0
  9
$PLIMCHECK
 70
     0
  9
$PEXTMIN
 10
1.000000000000000E+20
 20
1.000000000000000E+20
 30
1.000000000000000E+20
  9
$PEXTMAX
 10
-1.000000000000000E+20
 20
-1.000000000000000E+20
 30
-1.000000000000000E+20
  9
$PLIMMIN
 10
0.0
 20
0.0
  9
$PLIMMAX
 10
12.0
 20
9.0
  9
$UNITMODE
 70
     0
  9
$VISRETAIN
 70
     1
  9
$PLINEGEN
 70
     0
  9
$PSLTSCALE
 70
     1
  9
$TREEDEPTH
 70
  3020
  9
$CMLSTYLE
  2
Standard
  9
$CMLJUST
 70
     0
  9
$CMLSCALE
 40
1.0
  9
$PROXYGRAPHICS
 70
     1
  9
$MEASUREMENT
 70
     0
  9
$CELWEIGHT
370
    -1
  9
$ENDCAPS
280
     0
  9
$JOINSTYLE
280
     0
  9
$LWDISPLAY
290
     0
  9
$INSUNITS
 70
     4
  9
$HYPERLINKBASE
  1

  9
$STYLESHEET
  1

  9
$XEDIT
290
     1
  9
$CEPSNTYPE
380
     0
  9
$PSTYLEMODE
290
     0
  9
$FINGERPRINTGUID
  2
{FAEB1C30-E019-11D5-929B-00C0DF256EC4}
  9
$VERSIONGUID
  2
{2C4715BD-3EFE-49C2-9B9C-287E6CD65797}
  9
$EXTNAMES
290
     1
  9
$PSVPSCALE
 40
0.0
  9
$OLESTARTUP
290
     0
  0
ENDSEC
  0
SECTION
  2
CLASSES
  0
CLASS
  1
ACDBDICTIONARYWDFLT
  2
AcDbDictionaryWithDefault
  3
ObjectDBX Classes
 90
        0
280
     0
281
     0
  0
CLASS
  1
MATERIAL
  2
AcDbMaterial
  3
ObjectDBX Classes
 90
     1153
280
     0
281
     0
  0
CLASS
  1
MLEADERSTYLE
  2
AcDbMLeaderStyle
  3
ACDB_MLEADERSTYLE_CLASS
 90
     4095
280
     0
281
     0
  0
CLASS
  1
SCALE
  2
AcDbScale
  3
ObjectDBX Classes
 90
     1153
280
     0
281
     0
  0
CLASS
  1
TABLESTYLE
  2
AcDbTableStyle
  3
ObjectDBX Classes
 90
     4095
280
     0
281
     0
  0
CLASS
  1
VISUALSTYLE
  2
AcDbVisualStyle
  3
ObjectDBX Classes
 90
     4095
280
     0
281
     0
  0
CLASS
  1
DICTIONARYVAR
  2
AcDbDictionaryVar
  3
ObjectDBX Classes
 90
        0
280
     0
281
     0
  0
CLASS
  1
CELLSTYLEMAP
  2
AcDbCellStyleMap
  3
ObjectDBX Classes
 90
     1152
280
     0
281
     0
  0
CLASS
  1
AMGSETTINGSOBJ
  2
AmgSettingsObj
  3
"AcadM|Product Description: AutoCAD Mechanical|Company: Autodesk, Inc."
 90
     1024
280
     0
281
     0
  0
CLASS
  1
ACME_DOCUMENT
  2
AcMeDbDoc
  3
AcMeServices
 90
     1024
280
     0
281
     0
  0
CLASS
  1
ACMESCOPE
  2
AcMeScope
  3
AcMeServices
 90
     1024
280
     0
281
     0
  0
CLASS
  1
ACMECOMMANDHISTORY
  2
AcMeCommandHistory
  3
AcMeServices
 90
     1024
280
     0
281
     0
  0
CLASS
  1
ACIMSYSVARMAN
  2
AcImSysVarManager
  3
AcMeServices
 90
     1024
280
     0
281
     0
  0
CLASS
  1
ACIMINTSYSVAR
  2
AcImIntSysVar
  3
AcMeServices
 90
     1024
280
     0
281
     0
  0
CLASS
  1
ACMESTATEMGR
  2
AcMeStateMgr
  3
AcMeServices
 90
     1024
280
     0
281
     0
  0
CLASS
  1
ACDBENTITYCACHE
  2
AcMeEntityCache
  3
AcMeServices
 90
     1024
280
     0
281
     0
  0
CLASS
  1
ACGREFMASTER
  2
AcGrefMaster
  3
AcAttribServices
 90
     1024
280
     0
281
     0
  0
CLASS
  1
AM_DRAWING_MGR
  2
AcDmDwgMgr
  3
AcMechDwgViewMgmt
 90
     1024
280
     0
281
     0
  0
CLASS
  1
AM_DWG_DOCUMENT
  2
AcDmDwgDocument
  3
AcMechDwgViewMgmt
 90
     1024
280
     0
281
     0
  0
CLASS
  1
AM_DWG_SHEET
  2
AcDmSheet
  3
AcMechDwgViewMgmt
 90
     1024
280
     0
281
     0
  0
CLASS
  1
AM_VIEWDIMPARMAP
  2
AcDmViewDimParMap
  3
AcMechDwgViewMgmt
 90
     1024
280
     0
281
     0
  0
CLASS
  1
AMDTINTERNALREACTOR
  2
AmdtInternalReactor
  3
AcMeServices
 90
     1024
280
     0
281
     0
  0
CLASS
  1
ACIMREALSYSVAR
  2
AcImRealSysVar
  3
AcMeServices
 90
     1024
280
     0
281
     0
  0
CLASS
  1
AM_DWGMGR_NAME
  2
AcDmDwgMgrName
  3
AcMechDwgViewMgmt
 90
     1024
280
     0
281
     0
  0
CLASS
  1
ACME_DATABASE
  2
AcMeDbDatabase
  3
AcMeServices
 90
     1024
280
     0
281
     0
  0
CLASS
  1
ACRFINSADJUSTERMGR
  2
AcRfInsAdjusterMgr
  3
AcMeServices
 90
     1024
280
     0
281
     0
  0
CLASS
  1
ACGREFACADMASTER
  2
AcGrefacadMaster
  3
AcGrefServices
 90
     1024
280
     0
281
     0
  0
CLASS
  1
AMDTMENUSTATEMGR
  2
AmdtMenuStateMgr
  3
McadcomServices
 90
     1024
280
     0
281
     0
  0
CLASS
  1
AMDTMCOMMENUSTATE
  2
AmdtMcomMenuState
  3
McadcomServices
 90
     1024
280
     0
281
     0
  0
CLASS
  1
AMIMASTER
  2
AmiMaster
  3
AmiServices
 90
     1024
280
     0
281
     0
  0
CLASS
  1
MAPIAMMOUDLE
  2
MApiAmModule
  3
MApiAmServices
 90
     1024
280
     0
281
     0
  0
CLASS
  1
ACIMSTRSYSVAR
  2
AcImStrSysVar
  3
AcMeServices
 90
     1024
280
     0
281
     0
  0
CLASS
  1
AMDTDMMENUSTATE
  2
AmdtDmMenuState
  3
AcMechDwgViewMgmt
 90
     1024
280
     0
281
     0
  0
CLASS
  1
AMDTAMMENUSTATE
  2
AmdtAmMenuState
  3
DesignerAssemblies
 90
     1024
280
     0
281
     0
  0
CLASS
  1
ACAMPROJECT
  2
AcAmProject
  3
DesignerAssemblies
 90
     1024
280
     0
281
     0
  0
CLASS
  1
ACAMGRCOMPDEF
  2
AcAmGrCompDef
  3
DesignerAssemblies
 90
     1024
280
     0
281
     0
  0
CLASS
  1
ACAMCOMPDEF
  2
AcAmCompDef
  3
DesignerAssemblies
 90
     1024
280
     0
281
     0
  0
CLASS
  1
ACAMCOMPDEFMGR
  2
AcAmCompDefMgr
  3
DesignerAssemblies
 90
     1024
280
     0
281
     0
  0
CLASS
  1
AMCONTEXTMGR
  2
AcAmContextMgr
  3
DesignerAssemblies
 90
     1024
280
     0
281
     0
  0
CLASS
  1
ACAMCONTEXTMODELER
  2
AcAmContextModeler
  3
DesignerAssemblies
 90
     1024
280
     0
281
     0
  0
CLASS
  1
ACMDATADICTIONARY
  2
AcmDataDictionary
  3
"AcmSymBB|Product Description: AutoCAD Mechanical|Company: Autodesk, Inc."
 90
     1024
280
     0
281
     0
  0
CLASS
  1
ACAMGRCOMPDEFSET
  2
AcAmGrCompDefSet
  3
DesignerAssemblies
 90
     1024
280
     0
281
     0
  0
CLASS
  1
AMDTBROWSERDBTAB
  2
AmdtBrowserDbTab
  3
McadcomServices
 90
     1024
280
     0
281
     0
  0
CLASS
  1
CBROWSERAPPOBJECT
  2
CBrowserAppObject
  3
McadcomServices
 90
     1024
280
     0
281
     0
  0
CLASS
  1
DM_PLACEHOLDER
  2
AcDmSelsetPlaceholder
  3
AcMechDwgViewMgmt
 90
     1024
280
     0
281
     0
  0
CLASS
  1
EXACXREFPANELOBJECT
  2
ExAcXREFPanelObject
  3
EXAC_ESW
 90
     1025
280
     0
281
     0
  0
CLASS
  1
NPOCOLLECTION
  2
AcDbImpNonPersistentObjectsCollection
  3
ObjectDBX Classes
 90
     1153
280
     0
281
     0
  0
CLASS
  1
ACMSTANDARDANSI
  2
AcmStandardANSI
  3
"Amdt_StdImp|Product Description: AutoCAD Mechanical|Company: Autodesk, Inc."
 90
     1024
280
     0
281
     0
  0
CLASS
  1
ACMSURFSTANDARDANSI
  2
AcmSurfTextStdANSI
  3
"Amdt_StdImp|Product Description: AutoCAD Mechanical|Company: Autodesk, Inc."
 90
     1024
280
     0
281
     0
  0
CLASS
  1
ACMFCFSTANDARDANSI
  2
AcmFCFStdANSI
  3
"Amdt_StdImp|Product Description: AutoCAD Mechanical|Company: Autodesk, Inc."
 90
     1024
280
     0
281
     0
  0
CLASS
  1
ACMWELDSTANDARDANSI
  2
AcmWeldingStdANSI
  3
"Amdt_StdImp|Product Description: AutoCAD Mechanical|Company: Autodesk, Inc."
 90
     1024
280
     0
281
     0
  0
CLASS
  1
ACMIDSTANDARDANSI
  2
AcmIdStdANSI
  3
"Amdt_StdImp|Product Description: AutoCAD Mechanical|Company: Autodesk, Inc."
 90
     1024
280
     0
281
     0
  0
CLASS
  1
ACMDATUMSTANDARDANSI
  2
AcmDatumStdANSI
  3
"Amdt_StdImp|Product Description: AutoCAD Mechanical|Company: Autodesk, Inc."
 90
     1024
280
     0
281
     0
  0
CLASS
  1
ACMBOMSTANDARDANSI
  2
AcmBOMStdANSI
  3
"Amdt_StdImp|Product Description: AutoCAD Mechanical|Company: Autodesk, Inc."
 90
     1024
280
     0
281
     0
  0
CLASS
  1
ACMDETAILSTANDARDANSI
  2
AmdtDetailSymStdANSI
  3
"Amdt_StdImp|Product Description: AutoCAD Mechanical|Company: Autodesk, Inc."
 90
     1024
280
     0
281
     0
  0
CLASS
  1
ACMSECTIONSTANDARDANSI
  2
AmdtSectionSymStdANSI
  3
"Amdt_StdImp|Product Description: AutoCAD Mechanical|Company: Autodesk, Inc."
 90
     1024
280
     0
281
     0
  0
CLASS
  1
ACMCENTERLINESTANDARDANSI
  2
AmdtCenterLineStdANSI
  3
"Amdt_StdImp|Product Description: AutoCAD Mechanical|Company: Autodesk, Inc."
 90
     1024
280
     0
281
     0
  0
CLASS
  1
ACMTHREADLINESTANDARDANSI
  2
AmdtThreadLineStdANSI
  3
"Amdt_StdImp|Product Description: AutoCAD Mechanical|Company: Autodesk, Inc."
 90
     1024
280
     0
281
     0
  0
CLASS
  1
ACMNOTESTANDARDANSI
  2
AmdtNoteStdANSI
  3
"Amdt_StdImp|Product Description: AutoCAD Mechanical|Company: Autodesk, Inc."
 90
     1024
280
     0
281
     0
  0
CLASS
  1
ACMTAPERSTANDARDANSI
  2
AcmTaperStdANSI
  3
"Amdt_StdImp|Product Description: AutoCAD Mechanical|Company: Autodesk, Inc."
 90
     1024
280
     0
281
     0
  0
CLASS
  1
ACMANOOTATIONVIEWSTANDARDANSI
  2
AmdtAnViewStdANSI
  3
"Amdt_StdImp|Product Description: AutoCAD Mechanical|Company: Autodesk, Inc."
 90
     1024
280
     0
281
     0
  0
CLASS
  1
ACAMGLAYSTD
  2
AcAmgLayStd
  3
"AmgLay|Product Description: AutoCAD Mechanical|Company: Autodesk, Inc."
 90
     1024
280
     0
281
     0
  0
CLASS
  1
ACAMGDIMSTD
  2
AcAmgDimStd
  3
"AmgDim|Product Description: AutoCAD Mechanical|Company: Autodesk, Inc."
 90
     1024
280
     0
281
     0
  0
CLASS
  1
AMGOBJPROPCFG
  2
AmgObjPropCfg
  3
"AmgLay|Product Description: AutoCAD Mechanical|Company: Autodesk, Inc."
 90
     1025
280
     0
281
     0
  0
CLASS
  1
ACAMGHOLECHARTSTDANSI
  2
AcAmgHoleChartStdANSI
  3
AmgDim|Product Description: AutoCAD Mechanical|Company: Autodesk, Inc.
 90
     1024
280
     0
281
     0
  0
CLASS
  1
ACAMGTITLESTD
  2
AcAmgTitleStd
  3
"AmgTitle|Product Description: AutoCAD Mechanical|Company: Autodesk, Inc."
 90
     4095
280
     0
281
     0
  0
CLASS
  1
AMDTNOTETEMPLATEDB
  2
AmdtNoteTemplateDB
  3
AcmSymBB|Product Description: AutoCAD Mechanical|Company: Autodesk, Inc.
 90
     1024
280
     0
281
     0
  0
CLASS
  1
ACAMGFILTERDAT
  2
AcAmgFilterDat
  3
"AcadM|Product Description: AutoCAD Mechanical|Company: Autodesk, Inc."
 90
    33792
280
     0
281
     0
  0
CLASS
  1
ACDBPLACEHOLDER
  2
AcDbPlaceHolder
  3
ObjectDBX Classes
 90
        0
280
     0
281
     0
  0
CLASS
  1
LAYOUT
  2
AcDbLayout
  3
ObjectDBX Classes
 90
        0
280
     0
281
     0
  0
ENDSEC
  0
SECTION
  2
TABLES
  0
TABLE
  2
VPORT
  5
24A
330
0
100
AcDbSymbolTable
 70
     1
  0
VPORT
  5
26B
330
24A
100
AcDbSymbolTableRecord
100
AcDbViewportTableRecord
  2
*Active
 70
     0
 10
0.0
 20
0.0
 11
1.0
 21
1.0
 12
22.44014492736244
 22
-3.770906502760524
 13
0.0
 23
0.0
 14
10.0
 24
10.0
 15
10.0
 25
10.0
 16
0.0
 26
0.0
 36
1.0
 17
0.0
 27
0.0
 37
0.0
 40
240.7472618002203
 41
1.466735966735966
 42
1.0
 43
0.0
 44
0.0
 50
0.0
 51
0.0000000000007958
 71
     0
 72
   100
 73
     1
 74
     3
 75
     0
 76
     0
 77
     0
 78
     1
281
     0
 65
     0
110
0.0
120
0.0
130
0.0
111
1.0
121
0.0
131
0.0
112
0.0
122
1.0
132
0.0
 79
     0
146
0.0
  0
ENDTAB
  0
TABLE
  2
LTYPE
  5
247
330
0
100
AcDbSymbolTable
 70
    35
  0
LTYPE
  5
256
330
247
100
AcDbSymbolTableRecord
100
AcDbLinetypeTableRecord
  2
ByBlock
 70
     0
  3

 72
    65
 73
     0
 40
0.0
  0
LTYPE
  5
257
330
247
100
AcDbSymbolTableRecord
100
AcDbLinetypeTableRecord
  2
ByLayer
 70
     0
  3

 72
    65
 73
     0
 40
0.0
  0
LTYPE
  5
258
330
247
100
AcDbSymbolTableRecord
100
AcDbLinetypeTableRecord
  2
Continuous
 70
     0
  3
Solid line
 72
    65
 73
     0
 40
0.0
  0
LTYPE
  5
273
330
247
100
AcDbSymbolTableRecord
100
AcDbLinetypeTableRecord
  2
CENTER
 70
     0
  3
Center ____ _ ____ _ ____ _ ____ _ ____ _ ____
 72
    65
 73
     4
 40
2.0
 49
1.25
 74
     0
 49
-0.25
 74
     0
 49
0.25
 74
     0
 49
-0.25
 74
     0
  0
LTYPE
  5
274
330
247
100
AcDbSymbolTableRecord
100
AcDbLinetypeTableRecord
  2
DASHDOT
 70
     0
  3
Dashdot __ . __ . __ . __ . __ . __ . __ . __
 72
    65
 73
     4
 40
1.0
 49
0.5
 74
     0
 49
-0.25
 74
     0
 49
0.0
 74
     0
 49
-0.25
 74
     0
  0
LTYPE
  5
275
330
247
100
AcDbSymbolTableRecord
100
AcDbLinetypeTableRecord
  2
DASHED
 70
     0
  3
Dashed __ __ __ __ __ __ __ __ __ __ __ __ __ _
 72
    65
 73
     2
 40
0.75
 49
0.5
 74
     0
 49
-0.25
 74
     0
  0
LTYPE
  5
276
330
247
100
AcDbSymbolTableRecord
100
AcDbLinetypeTableRecord
  2
HIDDEN
 70
     0
  3
Hidden __ __ __ __ __ __ __ __ __ __ __ __ __ __
 72
    65
 73
     2
 40
0.375
 49
0.25
 74
     0
 49
-0.125
 74
     0
  0
LTYPE
  5
277
330
247
100
AcDbSymbolTableRecord
100
AcDbLinetypeTableRecord
  2
HIDDEN2
 70
     0
  3
Hidden2 _ _ _ _ _ _ _ _ _ _ _ _ _ _ _ _ _
 72
    65
 73
     2
 40
0.1875
 49
0.125
 74
     0
 49
-0.0625
 74
     0
  0
LTYPE
  5
278
330
247
100
AcDbSymbolTableRecord
100
AcDbLinetypeTableRecord
  2
BORDER
 70
     0
  3
Border __ __ . __ __ . __ __ . __ __ . __ __ .
 72
    65
 73
     6
 40
1.75
 49
0.5
 74
     0
 49
-0.25
 74
     0
 49
0.5
 74
     0
 49
-0.25
 74
     0
 49
0.0
 74
     0
 49
-0.25
 74
     0
  0
LTYPE
  5
279
330
247
100
AcDbSymbolTableRecord
100
AcDbLinetypeTableRecord
  2
BORDER2
 70
     0
  3
Border2 __.__.__.__.__.__.__.__.__.__.__.
 72
    65
 73
     6
 40
0.875
 49
0.25
 74
     0
 49
-0.125
 74
     0
 49
0.25
 74
     0
 49
-0.125
 74
     0
 49
0.0
 74
     0
 49
-0.125
 74
     0
  0
LTYPE
  5
27A
330
247
100
AcDbSymbolTableRecord
100
AcDbLinetypeTableRecord
  2
BORDERX2
 70
     0
  3
Borderx2  ____  ____  .  ____  ____  .  ___
 72
    65
 73
     6
 40
3.5
 49
1.0
 74
     0
 49
-0.5
 74
     0
 49
1.0
 74
     0
 49
-0.5
 74
     0
 49
0.0
 74
     0
 49
-0.5
 74
     0
  0
LTYPE
  5
27B
330
247
100
AcDbSymbolTableRecord
100
AcDbLinetypeTableRecord
  2
CENTER2
 70
     0
  3
Center2  ___ _ ___ _ ___ _ ___ _ ___ _ ___
 72
    65
 73
     4
 40
1.125
 49
0.75
 74
     0
 49
-0.125
 74
     0
 49
0.125
 74
     0
 49
-0.125
 74
     0
  0
LTYPE
  5
27C
330
247
100
AcDbSymbolTableRecord
100
AcDbLinetypeTableRecord
  2
CENTERX2
 70
     0
  3
Centerx2  ________  __  ________  __  _____
 72
    65
 73
     4
 40
4.0
 49
2.5
 74
     0
 49
-0.5
 74
     0
 49
0.5
 74
     0
 49
-0.5
 74
     0
  0
LTYPE
  5
27D
330
247
100
AcDbSymbolTableRecord
100
AcDbLinetypeTableRecord
  2
DASHDOT2
 70
     0
  3
Dashdot2  _._._._._._._._._._._._._._._.
 72
    65
 73
     4
 40
0.5
 49
0.25
 74
     0
 49
-0.125
 74
     0
 49
0.0
 74
     0
 49
-0.125
 74
     0
  0
LTYPE
  5
27E
330
247
100
AcDbSymbolTableRecord
100
AcDbLinetypeTableRecord
  2
DASHDOTX2
 70
     0
  3
Dashdotx2 ____  .  ____  .  ____  .  ___
 72
    65
 73
     4
 40
2.0
 49
1.0
 74
     0
 49
-0.5
 74
     0
 49
0.0
 74
     0
 49
-0.5
 74
     0
  0
LTYPE
  5
27F
330
247
100
AcDbSymbolTableRecord
100
AcDbLinetypeTableRecord
  2
DASHED2
 70
     0
  3
Dashed2 _ _ _ _ _ _ _ _ _ _ _ _ _ _ _ _ _
 72
    65
 73
     2
 40
0.375
 49
0.25
 74
     0
 49
-0.125
 74
     0
  0
LTYPE
  5
280
330
247
100
AcDbSymbolTableRecord
100
AcDbLinetypeTableRecord
  2
DASHEDX2
 70
     0
  3
Dashedx2 ____  ____  ____  ____  ____  ___
 72
    65
 73
     2
 40
1.5
 49
1.0
 74
     0
 49
-0.5
 74
     0
  0
LTYPE
  5
281
330
247
100
AcDbSymbolTableRecord
100
AcDbLinetypeTableRecord
  2
DIVIDE
 70
     0
  3
Divide ____ . . ____ . . ____ . . ____ . . ____
 72
    65
 73
     6
 40
1.25
 49
0.5
 74
     0
 49
-0.25
 74
     0
 49
0.0
 74
     0
 49
-0.25
 74
     0
 49
0.0
 74
     0
 49
-0.25
 74
     0
  0
LTYPE
  5
282
330
247
100
AcDbSymbolTableRecord
100
AcDbLinetypeTableRecord
  2
DIVIDE2
 70
     0
  3
Divide2 __..__..__..__..__..__..__..__.._
 72
    65
 73
     6
 40
0.625
 49
0.25
 74
     0
 49
-0.125
 74
     0
 49
0.0
 74
     0
 49
-0.125
 74
     0
 49
0.0
 74
     0
 49
-0.125
 74
     0
  0
LTYPE
  5
283
330
247
100
AcDbSymbolTableRecord
100
AcDbLinetypeTableRecord
  2
DIVIDEX2
 70
     0
  3
Dividex2 ________  .  .  ________  .  .  _
 72
    65
 73
     6
 40
2.5
 49
1.0
 74
     0
 49
-0.5
 74
     0
 49
0.0
 74
     0
 49
-0.5
 74
     0
 49
0.0
 74
     0
 49
-0.5
 74
     0
  0
LTYPE
  5
284
330
247
100
AcDbSymbolTableRecord
100
AcDbLinetypeTableRecord
  2
DOT
 70
     0
  3
Dot . . . . . . . . . . . . . . . . . . . . . . . .
 72
    65
 73
     2
 40
0.25
 49
0.0
 74
     0
 49
-0.25
 74
     0
  0
LTYPE
  5
285
330
247
100
AcDbSymbolTableRecord
100
AcDbLinetypeTableRecord
  2
DOT2
 70
     0
  3
Dot2 ........................................
 72
    65
 73
     2
 40
0.125
 49
0.0
 74
     0
 49
-0.125
 74
     0
  0
LTYPE
  5
286
330
247
100
AcDbSymbolTableRecord
100
AcDbLinetypeTableRecord
  2
DOTX2
 70
     0
  3
Dotx2 .  .  .  .  .  .  .  .  .  .  .  .  .  .
 72
    65
 73
     2
 40
0.5
 49
0.0
 74
     0
 49
-0.5
 74
     0
  0
LTYPE
  5
287
330
247
100
AcDbSymbolTableRecord
100
AcDbLinetypeTableRecord
  2
HIDDENX2
 70
     0
  3
Hiddenx2 ____ ____ ____ ____ ____ ____ ____
 72
    65
 73
     2
 40
0.75
 49
0.5
 74
     0
 49
-0.25
 74
     0
  0
LTYPE
  5
288
330
247
100
AcDbSymbolTableRecord
100
AcDbLinetypeTableRecord
  2
PHANTOM
 70
     0
  3
Phantom ______  __  __  ______  __  __  ______
 72
    65
 73
     6
 40
2.5
 49
1.25
 74
     0
 49
-0.25
 74
     0
 49
0.25
 74
     0
 49
-0.25
 74
     0
 49
0.25
 74
     0
 49
-0.25
 74
     0
  0
LTYPE
  5
289
330
247
100
AcDbSymbolTableRecord
100
AcDbLinetypeTableRecord
  2
PHANTOM2
 70
     0
  3
Phantom2 ___ _ _ ___ _ _ ___ _ _ ___ _ _
 72
    65
 73
     6
 40
1.25
 49
0.625
 74
     0
 49
-0.125
 74
     0
 49
0.125
 74
     0
 49
-0.125
 74
     0
 49
0.125
 74
     0
 49
-0.125
 74
     0
  0
LTYPE
  5
28A
330
247
100
AcDbSymbolTableRecord
100
AcDbLinetypeTableRecord
  2
PHANTOMX2
 70
     0
  3
Phantomx2 ____________    ____    ____   _
 72
    65
 73
     6
 40
5.0
 49
2.5
 74
     0
 49
-0.5
 74
     0
 49
0.5
 74
     0
 49
-0.5
 74
     0
 49
0.5
 74
     0
 49
-0.5
 74
     0
  0
LTYPE
  5
F1079D
330
247
100
AcDbSymbolTableRecord
100
AcDbLinetypeTableRecord
  2
AM_ISO02W050
 70
     0
  3
__ __ __ __ __ __ __ __ __ __ __ __ __ __ __
 72
    65
 73
     2
 40
7.5
 49
6.0
 74
     0
 49
-1.5
 74
     0
  0
LTYPE
  5
F1079E
330
247
100
AcDbSymbolTableRecord
100
AcDbLinetypeTableRecord
  2
AM_ISO08W050
 70
     0
  3
____ . ____ . ____ . ____ . ____ . ____ . ____
 72
    65
 73
     4
 40
18.0
 49
12.0
 74
     0
 49
-1.5
 74
     0
 49
3.0
 74
     0
 49
-1.5
 74
     0
  0
LTYPE
  5
F1079F
330
247
100
AcDbSymbolTableRecord
100
AcDbLinetypeTableRecord
  2
AM_ISO09W050
 70
     0
  3
_____ . . _____ . . _____ . . ____ .. ____
 72
    65
 73
     6
 40
22.5
 49
12.0
 74
     0
 49
-1.5
 74
     0
 49
3.0
 74
     0
 49
-1.5
 74
     0
 49
3.0
 74
     0
 49
-1.5
 74
     0
  0
LTYPE
  5
F107A0
330
247
100
AcDbSymbolTableRecord
100
AcDbLinetypeTableRecord
  2
Amconstr
 70
     0
  3
_______________________
 72
    65
 73
     2
 40
9999.0
 49
9999.0
 74
     0
 49
0.0
 74
     0
  0
LTYPE
  5
F107A1
330
247
100
AcDbSymbolTableRecord
100
AcDbLinetypeTableRecord
  2
AM_ISO08W050x2
 70
     0
  3
__ . __ . __ . __ . __ . __
 72
    65
 73
     4
 40
9.0
 49
6.0
 74
     0
 49
-0.75
 74
     0
 49
1.5
 74
     0
 49
-0.75
 74
     0
  0
LTYPE
  5
F107A2
330
247
100
AcDbSymbolTableRecord
100
AcDbLinetypeTableRecord
  2
AM_ISO02W050x2
 70
     0
  3
 _ _ _ _ _ _ _ _ _ _ _ _
 72
    65
 73
     2
 40
3.75
 49
3.0
 74
     0
 49
-0.75
 74
     0
  0
LTYPE
  5
F107A5
330
247
100
AcDbSymbolTableRecord
100
AcDbLinetypeTableRecord
  2
Amzigzag
 70
     0
  3
/\/-/\/-/\/-/\/-/\/-/\/
 72
    65
 73
     2
 40
11.0001
 49
0.0001
 74
     4
 75
   136
340
F107A4
 46
0.04
 50
0.0
 44
0.0
 45
0.0
 49
-11.0
 74
     0
  0
LTYPE
  5
F107A6
330
247
100
AcDbSymbolTableRecord
100
AcDbLinetypeTableRecord
  2
Amzigzag2
 70
     0
  3
/\/-/\/-/\/-/\/-/\/-/\/
 72
    65
 73
     2
 40
0.4401
 49
0.0001
 74
     4
 75
   136
340
F107A4
 46
0.0016
 50
0.0
 44
0.0
 45
0.0
 49
-0.4400000000000002
 74
     0
  0
LTYPE
  5
F107B4
330
247
100
AcDbSymbolTableRecord
100
AcDbLinetypeTableRecord
  2
ACANSTGB
 70
     0
  3
__ . . __ . .
 72
    65
 73
     6
 40
0.35433070866
 49
0.15748031496
 74
     0
 49
-0.03937007874
 74
     0
 49
0.03937007874
 74
     0
 49
-0.03937007874
 74
     0
 49
0.03937007874
 74
     0
 49
-0.03937007874
 74
     0
  0
LTYPE
  5
F107B5
330
247
100
AcDbSymbolTableRecord
100
AcDbLinetypeTableRecord
  2
ACANSTGL
 70
     0
  3
_ _ _ _ _
 72
    65
 73
     2
 40
0.11811023622
 49
0.07874015748
 74
     0
 49
-0.03937007874
 74
     0
  0
ENDTAB
  0
TABLE
  2
LAYER
  5
244
330
0
100
AcDbSymbolTable
 70
     6
  0
LAYER
  5
252
102
{ACAD_XDICTIONARY
360
F108E6
102
}
330
244
100
AcDbSymbolTableRecord
100
AcDbLayerTableRecord
  2
0
 70
     0
 62
     7
  6
Continuous
370
     0
390
19
  0
LAYER
  5
23F
102
{ACAD_XDICTIONARY
360
F108E8
102
}
330
244
100
AcDbSymbolTableRecord
100
AcDbLayerTableRecord
  2
Bemassung
 70
     0
 62
     7
  6
Continuous
370
     0
390
19
  0
LAYER
  5
240
102
{ACAD_XDICTIONARY
360
F108EA
102
}
330
244
100
AcDbSymbolTableRecord
100
AcDbLayerTableRecord
  2
Rahmen
 70
     0
 62
     7
  6
Continuous
370
     0
390
19
  0
LAYER
  5
241
102
{ACAD_XDICTIONARY
360
F108EC
102
}
330
244
100
AcDbSymbolTableRecord
100
AcDbLayerTableRecord
  2
Geo
 70
     0
 62
     7
  6
Continuous
370
     0
390
19
  0
LAYER
  5
33A
330
244
100
AcDbSymbolTableRecord
100
AcDbLayerTableRecord
  2
Defpoints
 70
     0
 62
     7
  6
Continuous
290
     0
370
    -3
390
19
  0
LAYER
  5
57E
102
{ACAD_XDICTIONARY
360
F108EE
102
}
330
244
100
AcDbSymbolTableRecord
100
AcDbLayerTableRecord
  2
Text
 70
     0
 62
     7
  6
Continuous
370
     0
390
19
1001
AcAecLayerStandard
1000

1000

  0
ENDTAB
  0
TABLE
  2
STYLE
  5
245
330
0
100
AcDbSymbolTable
 70
     5
  0
STYLE
  5
253
330
245
100
AcDbSymbolTableRecord
100
AcDbTextStyleTableRecord
  2
Standard
 70
     0
 40
0.0
 41
1.0
 50
0.0
 71
     0
 42
0.2
  3
Arial
  4

1001
ACAD
1000
Arial
1071
        0
  0
STYLE
  5
132
330
245
100
AcDbSymbolTableRecord
100
AcDbTextStyleTableRecord
  2
Beschriftung
 70
     0
 40
0.0
 41
1.0
 50
0.0
 71
     0
 42
0.2
  3
Arial
  4

1001
ACAD
1000
Arial
1071
        0
1001
AcadAnnotative
1000
AnnotativeData
1070
     1
1070
     1
  0
STYLE
  5
F107A4
330
245
100
AcDbSymbolTableRecord
100
AcDbTextStyleTableRecord
  2

 70
     1
 40
0.0
 41
1.0
 50
0.0
 71
     0
 42
0.2
  3
genltshp.shx
  4

  0
STYLE
  5
F107B2
330
245
100
AcDbSymbolTableRecord
100
AcDbTextStyleTableRecord
  2
ACANSTS
 70
     0
 40
1.0
 41
1.0
 50
0.0
 71
     0
 42
0.2
  3
romans.shx
  4

  0
STYLE
  5
F107B3
330
245
100
AcDbSymbolTableRecord
100
AcDbTextStyleTableRecord
  2
ACANSGDT
 70
     0
 40
0.0
 41
1.0
 50
0.0
 71
     0
 42
0.2
  3
amgdt.shx
  4

  0
ENDTAB
  0
TABLE
  2
VIEW
  5
248
330
0
100
AcDbSymbolTable
 70
     0
  0
ENDTAB
  0
TABLE
  2
UCS
  5
249
330
0
100
AcDbSymbolTable
 70
     0
  0
ENDTAB
  0
TABLE
  2
APPID
  5
24B
330
0
100
AcDbSymbolTable
 70
    30
  0
APPID
  5
254
330
24B
100
AcDbSymbolTableRecord
100
AcDbRegAppTableRecord
  2
ACAD
 70
     0
  0
APPID
  5
26C
330
24B
100
AcDbSymbolTableRecord
100
AcDbRegAppTableRecord
  2
VD_INVISIBLE_NOT_FOR_READ
 70
     0
  0
APPID
  5
26D
330
24B
100
AcDbSymbolTableRecord
100
AcDbRegAppTableRecord
  2
VD_TEMPHATCH
 70
     0
  0
APPID
  5
26E
330
24B
100
AcDbSymbolTableRecord
100
AcDbRegAppTableRecord
  2
VDEXTRAPARAM
 70
     0
  0
APPID
  5
26F
330
24B
100
AcDbSymbolTableRecord
100
AcDbRegAppTableRecord
  2
PE_URL
 70
     0
  0
APPID
  5
270
330
24B
100
AcDbSymbolTableRecord
100
AcDbRegAppTableRecord
  2
VD_UNKNOWN
 70
     0
  0
APPID
  5
28F
330
24B
100
AcDbSymbolTableRecord
100
AcDbRegAppTableRecord
  2
AcadAnnotative
 70
     0
  0
APPID
  5
290
330
24B
100
AcDbSymbolTableRecord
100
AcDbRegAppTableRecord
  2
ACAD_DSTYLE_DIMJAG
 70
     0
  0
APPID
  5
291
330
24B
100
AcDbSymbolTableRecord
100
AcDbRegAppTableRecord
  2
ACAD_DSTYLE_DIMTALN
 70
     0
  0
APPID
  5
293
330
24B
100
AcDbSymbolTableRecord
100
AcDbRegAppTableRecord
  2
ACAD_PSEXT
 70
     0
  0
APPID
  5
42A
330
24B
100
AcDbSymbolTableRecord
100
AcDbRegAppTableRecord
  2
ACAD_MLEADERVER
 70
     0
  0
APPID
  5
532
330
24B
100
AcDbSymbolTableRecord
100
AcDbRegAppTableRecord
  2
ACAD_EXEMPT_FROM_CAD_STANDARDS
 70
     0
  0
APPID
  5
57F
330
24B
100
AcDbSymbolTableRecord
100
AcDbRegAppTableRecord
  2
AcAecLayerStandard
 70
     0
  0
APPID
  5
F10737
330
24B
100
AcDbSymbolTableRecord
100
AcDbRegAppTableRecord
  2
MCAD_NO_VIS
 70
     0
  0
APPID
  5
F10738
330
24B
100
AcDbSymbolTableRecord
100
AcDbRegAppTableRecord
  2
ACAD_TEMP_GRAPHIC
 70
     0
  0
APPID
  5
F10761
330
24B
100
AcDbSymbolTableRecord
100
AcDbRegAppTableRecord
  2
AD_DRAW
 70
     0
  0
APPID
  5
F10764
330
24B
100
AcDbSymbolTableRecord
100
AcDbRegAppTableRecord
  2
ACATTRIBSERVICES
 70
     0
  0
APPID
  5
F1077D
330
24B
100
AcDbSymbolTableRecord
100
AcDbRegAppTableRecord
  2
DESIGNERASSEMBLIES
 70
     0
  0
APPID
  5
F10782
330
24B
100
AcDbSymbolTableRecord
100
AcDbRegAppTableRecord
  2
ACADM_DIM_EDIT
 70
     0
  0
APPID
  5
F10783
330
24B
100
AcDbSymbolTableRecord
100
AcDbRegAppTableRecord
  2
AMDT_DM_ADJ
 70
     0
  0
APPID
  5
F1079B
330
24B
100
AcDbSymbolTableRecord
100
AcDbRegAppTableRecord
  2
ACAD_DSTYLE_DIMBREAK
 70
     0
  0
APPID
  5
F107BC
330
24B
100
AcDbSymbolTableRecord
100
AcDbRegAppTableRecord
  2
GENIUS_GENSCREG_15
 70
     0
  0
APPID
  5
F107BD
330
24B
100
AcDbSymbolTableRecord
100
AcDbRegAppTableRecord
  2
GENIUS_GENODEF_13
 70
     0
  0
APPID
  5
F107BE
330
24B
100
AcDbSymbolTableRecord
100
AcDbRegAppTableRecord
  2
GENIUS_GENOBJ-N-SDF_13
 70
     0
  0
APPID
  5
F107FA
330
24B
100
AcDbSymbolTableRecord
100
AcDbRegAppTableRecord
  2
GENIUS_GENDTOL_13
 70
     0
  0
APPID
  5
F10846
330
24B
100
AcDbSymbolTableRecord
100
AcDbRegAppTableRecord
  2
ACAD_DSTYLE_DIMINSPECT
 70
     0
  0
APPID
  5
F1093C
330
24B
100
AcDbSymbolTableRecord
100
AcDbRegAppTableRecord
  2
ACAD_DSTYLE_DIMARC_LENGTH_SYMBOL
 70
     0
  0
APPID
  5
F1093D
330
24B
100
AcDbSymbolTableRecord
100
AcDbRegAppTableRecord
  2
ACAD_DSTYLE_DIM_LINETYPE
 70
     0
  0
APPID
  5
F1093E
330
24B
100
AcDbSymbolTableRecord
100
AcDbRegAppTableRecord
  2
ACAD_DSTYLE_DIM_EXT1_LINETYPE
 70
     0
  0
APPID
  5
F1093F
330
24B
100
AcDbSymbolTableRecord
100
AcDbRegAppTableRecord
  2
ACAD_DSTYLE_DIM_EXT2_LINETYPE
 70
     0
  0
ENDTAB
  0
TABLE
  2
DIMSTYLE
  5
24C
330
0
100
AcDbSymbolTable
 70
     9
100
AcDbDimStyleTable
 71
     2
340
27
340
269
  0
DIMSTYLE
105
269
330
24C
100
AcDbSymbolTableRecord
100
AcDbDimStyleTableRecord
  2
Standard
 70
     0
172
     1
174
     1
288
     1
340
253
342
23C
  0
DIMSTYLE
105
137
330
24C
100
AcDbSymbolTableRecord
100
AcDbDimStyleTableRecord
  2
Beschriftung
 70
     0
 41
2.5
 42
0.625
 44
1.25
 73
     0
 74
     0
 77
     1
140
2.5
147
0.625
172
     1
174
     1
271
     2
288
     1
340
253
342
23C
1001
AcadAnnotative
1000
AnnotativeData
1070
     1
1070
     1
1001
ACAD_DSTYLE_DIMJAG
1070
   388
1040
1.5
1001
ACAD_DSTYLE_DIMTALN
1070
   392
1070
     0
  0
DIMSTYLE
105
27
102
{ACAD_REACTORS
330
F1000D
330
F10017
330
F1001C
330
F10003
330
F10008
330
F10012
102
}
330
24C
100
AcDbSymbolTableRecord
100
AcDbDimStyleTableRecord
  2
BEM-ISBE
 70
     0
 41
2.5
 42
0.625
 44
1.25
 48
0.000000001
 71
     1
 73
     0
 74
     0
 77
     1
140
2.5
146
0.5
147
0.625
171
     3
172
     1
179
     3
271
     3
272
     3
274
     3
340
253
342
23C
1001
ACAD_DSTYLE_DIMJAG
1070
   388
1040
1.5
1001
ACAD_DSTYLE_DIMTALN
1070
   392
1070
     1
  0
DIMSTYLE
105
F1079A
102
{ACAD_REACTORS
330
F10999
102
}
330
24C
100
AcDbSymbolTableRecord
100
AcDbDimStyleTableRecord
  2
AM_ANSI
 70
     0
  4
mm
 41
0.12
 42
0.05
 43
0.5
 44
0.1
 47
0.1
 48
0.1
 78
     7
 79
     2
140
0.12
141
0.0
146
0.71
147
0.06
176
   256
177
   256
178
     2
274
     4
284
     7
340
253
371
    -1
372
    -1
1001
ACAD_DSTYLE_DIMJAG
1070
   388
1040
1.5
1001
ACAD_DSTYLE_DIMBREAK
1070
   391
1040
0.125
1001
ACAD_DSTYLE_DIMARC_LENGTH_SYMBOL
1070
   379
1070
     1
1001
ACAD_DSTYLE_DIM_LINETYPE
1070
   380
1005
256
1001
ACAD_DSTYLE_DIM_EXT1_LINETYPE
1070
   381
1005
256
1001
ACAD_DSTYLE_DIM_EXT2_LINETYPE
1070
   382
1005
256
  0
DIMSTYLE
105
F107A7
330
24C
100
AcDbSymbolTableRecord
100
AcDbDimStyleTableRecord
  2
AM_ANSI$3
 70
     0
  4
mm
 41
0.12
 42
0.05
 43
0.5
 44
0.1
 47
0.1
 48
0.1
 78
     7
 79
     2
140
0.12
141
0.0
146
0.71
147
0.06
176
   256
177
   256
178
     2
274
     4
284
     7
288
     1
289
     0
340
253
371
    -1
372
    -1
1001
ACAD_DSTYLE_DIMBREAK
1070
   391
1040
0.125
1001
ACAD_DSTYLE_DIMJAG
1070
   388
1040
1.5
1001
ACAD_DSTYLE_DIMARC_LENGTH_SYMBOL
1070
   379
1070
     1
1001
ACAD_DSTYLE_DIM_LINETYPE
1070
   380
1005
256
1001
ACAD_DSTYLE_DIM_EXT1_LINETYPE
1070
   381
1005
256
1001
ACAD_DSTYLE_DIM_EXT2_LINETYPE
1070
   382
1005
256
  0
DIMSTYLE
105
F107A8
330
24C
100
AcDbSymbolTableRecord
100
AcDbDimStyleTableRecord
  2
AM_ANSI$4
 70
     0
  4
mm
 41
0.12
 42
0.05
 43
0.5
 44
0.1
 47
0.1
 48
0.1
 78
     7
 79
     2
140
0.12
141
0.0
146
0.71
147
0.06
176
   256
177
   256
178
     2
274
     4
284
     7
288
     1
289
     0
340
253
371
    -1
372
    -1
1001
ACAD_DSTYLE_DIMBREAK
1070
   391
1040
0.125
1001
ACAD_DSTYLE_DIMJAG
1070
   388
1040
1.5
1001
ACAD_DSTYLE_DIMARC_LENGTH_SYMBOL
1070
   379
1070
     1
1001
ACAD_DSTYLE_DIM_LINETYPE
1070
   380
1005
256
1001
ACAD_DSTYLE_DIM_EXT1_LINETYPE
1070
   381
1005
256
1001
ACAD_DSTYLE_DIM_EXT2_LINETYPE
1070
   382
1005
256
  0
DIMSTYLE
105
F107A9
330
24C
100
AcDbSymbolTableRecord
100
AcDbDimStyleTableRecord
  2
AM_ANSI$7
 70
     0
  4
mm
 41
0.12
 42
0.05
 43
0.5
 44
0.1
 47
0.1
 48
0.1
 78
     7
 79
     2
140
0.12
141
0.0
146
0.71
147
0.06
176
   256
177
   256
178
     2
274
     4
284
     7
340
253
371
    -1
372
    -1
1001
ACAD_DSTYLE_DIMBREAK
1070
   391
1040
0.125
1001
ACAD_DSTYLE_DIMJAG
1070
   388
1040
1.5
1001
ACAD_DSTYLE_DIMARC_LENGTH_SYMBOL
1070
   379
1070
     1
1001
ACAD_DSTYLE_DIM_LINETYPE
1070
   380
1005
256
1001
ACAD_DSTYLE_DIM_EXT1_LINETYPE
1070
   381
1005
256
1001
ACAD_DSTYLE_DIM_EXT2_LINETYPE
1070
   382
1005
256
  0
DIMSTYLE
105
F107AA
330
24C
100
AcDbSymbolTableRecord
100
AcDbDimStyleTableRecord
  2
AM_ANSI$SF
 70
     0
  4
mm
 41
0.12
 42
0.05
 43
0.5
 44
0.1
 47
0.1
 48
0.1
 75
     1
 76
     1
 78
     7
 79
     2
140
0.12
141
0.0
146
0.71
147
0.06
176
   256
177
   256
178
     2
274
     4
284
     7
340
253
371
    -1
372
    -1
1001
ACAD_DSTYLE_DIMBREAK
1070
   391
1040
0.125
1001
ACAD_DSTYLE_DIMJAG
1070
   388
1040
1.5
1001
ACAD_DSTYLE_DIMARC_LENGTH_SYMBOL
1070
   379
1070
     1
1001
ACAD_DSTYLE_DIM_LINETYPE
1070
   380
1005
256
1001
ACAD_DSTYLE_DIM_EXT1_LINETYPE
1070
   381
1005
256
1001
ACAD_DSTYLE_DIM_EXT2_LINETYPE
1070
   382
1005
256
  0
DIMSTYLE
105
F107AF
330
24C
100
AcDbSymbolTableRecord
100
AcDbDimStyleTableRecord
  2
AM_ANSI$SH
 70
     0
  4
mm
 41
0.12
 42
0.05
 43
0.5
 44
0.1
 47
0.1
 48
0.1
 75
     1
 76
     1
 78
     7
 79
     2
140
0.12
141
0.0
146
0.71
147
0.06
173
     1
176
   256
177
   256
178
     2
274
     4
284
     7
340
253
343
F107AB
371
    -1
372
    -1
1001
ACAD_DSTYLE_DIMBREAK
1070
   391
1040
0.125
1001
ACAD_DSTYLE_DIMJAG
1070
   388
1040
1.5
1001
ACAD_DSTYLE_DIMARC_LENGTH_SYMBOL
1070
   379
1070
     1
1001
ACAD_DSTYLE_DIM_LINETYPE
1070
   380
1005
256
1001
ACAD_DSTYLE_DIM_EXT1_LINETYPE
1070
   381
1005
256
1001
ACAD_DSTYLE_DIM_EXT2_LINETYPE
1070
   382
1005
256
  0
ENDTAB
  0
TABLE
  2
BLOCK_RECORD
  5
243
330
0
100
AcDbSymbolTable
 70
    11
  0
BLOCK_RECORD
  5
261
330
243
100
AcDbSymbolTableRecord
100
AcDbBlockTableRecord
  2
*Model_Space
340
FD0
  0
BLOCK_RECORD
  5
25D
330
243
100
AcDbSymbolTableRecord
100
AcDbBlockTableRecord
  2
*Paper_Space
340
FD1
  0
BLOCK_RECORD
  5
265
330
243
100
AcDbSymbolTableRecord
100
AcDbBlockTableRecord
  2
*Paper_Space0
340
0
  0
BLOCK_RECORD
  5
23C
330
243
100
AcDbSymbolTableRecord
100
AcDbBlockTableRecord
  2
VDDIM_DEFAULT
340
0
102
{BLKREFS
331
F108B6
331
F108BC
331
F108BD
331
F108C5
331
F108C6
331
F108CE
331
F108CF
331
F108D7
331
F108D8
331
F108E0
331
F108E1
102
}
  0
BLOCK_RECORD
  5
23E
330
243
100
AcDbSymbolTableRecord
100
AcDbBlockTableRecord
  2
VDDIM_NONE
340
0
  0
BLOCK_RECORD
  5
F1000C
330
243
100
AcDbSymbolTableRecord
100
AcDbBlockTableRecord
  2
*D3
340
0
  0
BLOCK_RECORD
  5
F10016
330
243
100
AcDbSymbolTableRecord
100
AcDbBlockTableRecord
  2
*D4
340
0
  0
BLOCK_RECORD
  5
F1001B
330
243
100
AcDbSymbolTableRecord
100
AcDbBlockTableRecord
  2
*D5
340
0
  0
BLOCK_RECORD
  5
F10002
330
243
100
AcDbSymbolTableRecord
100
AcDbBlockTableRecord
  2
*D6
340
0
  0
BLOCK_RECORD
  5
F10007
330
243
100
AcDbSymbolTableRecord
100
AcDbBlockTableRecord
  2
*D7
340
0
  0
BLOCK_RECORD
  5
F10011
330
243
100
AcDbSymbolTableRecord
100
AcDbBlockTableRecord
  2
*D8
340
0
  0
BLOCK_RECORD
  5
F107AB
330
243
100
AcDbSymbolTableRecord
100
AcDbBlockTableRecord
  2
GENAXEH
340
0
  0
ENDTAB
  0
ENDSEC
  0
SECTION
  2
BLOCKS
  0
BLOCK
  5
262
330
261
100
AcDbEntity
  8
0
100
AcDbBlockBegin
  2
*Model_Space
 70
     0
 10
0.0
 20
0.0
 30
0.0
  3
*Model_Space
  1

  0
ENDBLK
  5
263
330
261
100
AcDbEntity
  8
0
100
AcDbBlockEnd
  0
BLOCK
  5
25E
330
25D
100
AcDbEntity
 67
     1
  8
0
100
AcDbBlockBegin
  2
*Paper_Space
 70
     0
 10
0.0
 20
0.0
 30
0.0
  3
*Paper_Space
  1

  0
ENDBLK
  5
25F
330
25D
100
AcDbEntity
 67
     1
  8
0
100
AcDbBlockEnd
  0
BLOCK
  5
266
330
265
100
AcDbEntity
  8
0
100
AcDbBlockBegin
  2
*Paper_Space0
 70
     0
 10
0.0
 20
0.0
 30
0.0
  3
*Paper_Space0
  1

  0
VIEWPORT
  5
296
102
{ACAD_XDICTIONARY
360
F109BF
102
}
330
265
100
AcDbEntity
  8
0
 60
     1
100
AcDbViewport
 10
0.0
 20
0.0
 30
0.0
 40
10.0
 41
10.0
 69
     0
 12
0.0
 22
0.0
 13
0.0
 23
0.0
 14
1.0
 24
1.0
 15
0.0
 25
0.0
 16
0.0
 26
0.0
 36
1.0
 17
0.0
 27
0.0
 37
0.0
 42
0.0
 43
0.0
 44
0.0
 45
10.0
 50
0.0
 51
0.0000000000007958
 72
   100
 90
   163872
  1

281
     0
 71
     0
 74
     0
110
0.0
120
0.0
130
0.0
111
1.0
121
0.0
131
0.0
112
0.0
122
1.0
132
0.0
 79
     0
146
0.0
1001
VD_INVISIBLE_NOT_FOR_READ
1000
VD_INVISIBLE_NOT_FOR_READ
  0
VIEWPORT
  5
297
102
{ACAD_XDICTIONARY
360
F109C1
102
}
330
265
100
AcDbEntity
  8
0
 60
     1
100
AcDbViewport
 10
0.0
 20
0.0
 30
0.0
 40
10.0
 41
10.0
 69
     0
 12
0.0
 22
0.0
 13
0.0
 23
0.0
 14
1.0
 24
1.0
 15
0.0
 25
0.0
 16
0.0
 26
0.0
 36
1.0
 17
0.0
 27
0.0
 37
0.0
 42
0.0
 43
0.0
 44
0.0
 45
10.0
 50
0.0
 51
0.0000000000007958
 72
   100
 90
   163872
  1

281
     0
 71
     0
 74
     0
110
0.0
120
0.0
130
0.0
111
1.0
121
0.0
131
0.0
112
0.0
122
1.0
132
0.0
 79
     0
146
0.0
1001
VD_INVISIBLE_NOT_FOR_READ
1000
VD_INVISIBLE_NOT_FOR_READ
  0
ENDBLK
  5
267
330
265
100
AcDbEntity
  8
0
100
AcDbBlockEnd
  0
BLOCK
  5
28B
330
23C
100
AcDbEntity
  8
0
100
AcDbBlockBegin
  2
VDDIM_DEFAULT
 70
     0
 10
0.0
 20
0.0
 30
0.0
  3
VDDIM_DEFAULT
  1

  0
LWPOLYLINE
  5
23D
330
23C
100
AcDbEntity
  8
0
  6
Continuous
 62
     0
100
AcDbPolyline
 90
        4
 70
     0
 43
0.0
 10
0.0
 20
0.0
 10
-1.0
 20
-0.1665
 10
-1.0
 20
0.1665
 10
0.0
 20
0.0
1001
VDEXTRAPARAM
1071
        1
1071
        0
1071
        0
1040
1.0
1000

1000

1040
0.0
1040
0.0
  0
HATCH
  5
292
330
23C
100
AcDbEntity
  8
0
  6
Continuous
 62
     0
100
AcDbHatch
 10
0.0
 20
0.0
 30
0.0
210
0.0
220
0.0
230
1.0
  2
SOLID
 70
     1
 71
     0
 91
        1
 92
        2
 72
     0
 73
     1
 93
        3
 10
0.0
 20
0.0
 10
-1.0
 20
-0.1665
 10
-1.0
 20
0.1665
 97
        0
 75
     0
 76
     1
 98
        1
 10
0.0
 20
0.0
1001
VDEXTRAPARAM
1071
        1
1071
        0
1071
        0
1040
1.0
1000

1000

1040
0.0
1040
0.0
1001
VD_TEMPHATCH
1000
VD_TEMPHATCH
  0
ENDBLK
  5
28C
330
23C
100
AcDbEntity
  8
0
100
AcDbBlockEnd
  0
BLOCK
  5
28D
330
23E
100
AcDbEntity
  8
0
100
AcDbBlockBegin
  2
VDDIM_NONE
 70
     0
 10
0.0
 20
0.0
 30
0.0
  3
VDDIM_NONE
  1

  0
ENDBLK
  5
28E
330
23E
100
AcDbEntity
  8
0
100
AcDbBlockEnd
  0
BLOCK
  5
F10020
330
F1000C
100
AcDbEntity
  8
0
100
AcDbBlockBegin
  2
*D3
 70
     1
 10
0.0
 20
0.0
 30
0.0
  3
*D3
  1

  0
LINE
  5
F108C2
330
F1000C
100
AcDbEntity
  8
Bemassung
 62
     0
370
    -2
100
AcDbLine
 10
0.9941091398807911
 20
20.7949258663398
 30
0.0
 11
0.9941091398807923
 21
36.4199258663398
 31
0.0
  0
LINE
  5
F108C3
330
F1000C
100
AcDbEntity
  8
Bemassung
 62
     0
370
    -2
100
AcDbLine
 10
45.99410913988076
 20
20.0949258663398
 30
0.0
 11
45.99410913988076
 21
36.4199258663398
 31
0.0
  0
LINE
  5
F108C4
330
F1000C
100
AcDbEntity
  8
Bemassung
 62
     0
370
    -2
100
AcDbLine
 10
3.494109139880791
 20
35.16992586633981
 30
0.0
 11
43.49410913988076
 21
35.16992586633981
 31
0.0
  0
INSERT
  5
F108C5
330
F1000C
100
AcDbEntity
  8
Bemassung
 62
     0
370
    -2
100
AcDbBlockReference
  2
VDDIM_DEFAULT
 10
0.994109139880792
 20
35.16992586633981
 30
0.0
 41
2.5
 42
2.5
 43
2.5
 50
180.0
  0
INSERT
  5
F108C6
330
F1000C
100
AcDbEntity
  8
Bemassung
 62
     0
370
    -2
100
AcDbBlockReference
  2
VDDIM_DEFAULT
 10
45.99410913988076
 20
35.16992586633981
 30
0.0
 41
2.5
 42
2.5
 43
2.5
  0
MTEXT
  5
F108C7
330
F1000C
100
AcDbEntity
  8
Bemassung
 62
     0
100
AcDbMText
 10
23.49410913988078
 20
35.7949258663398
 30
0.0
 40
2.5
 41
0.0
 71
     8
 72
     1
  1
\A1;45
 73
     1
 44
1.0
1001
ACAD
1000
MTEXTBEGIN
1070
    73
1070
     1
1070
    44
1040
1.0
1070
    74
1070
     0
1000
MTEXTEND
  0
POINT
  5
F108C8
330
F1000C
100
AcDbEntity
  8
Defpoints
 62
     0
100
AcDbPoint
 10
0.9941091398807911
 20
20.1699258663398
 30
0.0
  0
POINT
  5
F108C9
330
F1000C
100
AcDbEntity
  8
Defpoints
 62
     0
100
AcDbPoint
 10
45.99410913988076
 20
19.4699258663398
 30
0.0
  0
POINT
  5
F108CA
330
F1000C
100
AcDbEntity
  8
Defpoints
 62
     0
100
AcDbPoint
 10
45.99410913988076
 20
35.16992586633981
 30
0.0
  0
ENDBLK
  5
F10029
330
F1000C
100
AcDbEntity
  8
0
100
AcDbBlockEnd
  0
BLOCK
  5
F1002A
330
F10016
100
AcDbEntity
  8
0
100
AcDbBlockBegin
  2
*D4
 70
     1
 10
0.0
 20
0.0
 30
0.0
  3
*D4
  1

  0
LINE
  5
F108D4
330
F10016
100
AcDbEntity
  8
Bemassung
 62
     0
370
    -2
100
AcDbLine
 10
-15.00589086011921
 20
5.5449258663398
 30
0.0
 11
-15.00589086011921
 21
-10.0800741336602
 31
0.0
  0
LINE
  5
F108D5
330
F10016
100
AcDbEntity
  8
Bemassung
 62
     0
370
    -2
100
AcDbLine
 10
-37.00589086011922
 20
-10.2050741336602
 30
0.0
 11
-37.00589086011922
 21
-7.580074133660199
 31
0.0
  0
LINE
  5
F108D6
330
F10016
100
AcDbEntity
  8
Bemassung
 62
     0
370
    -2
100
AcDbLine
 10
-17.50589086011921
 20
-8.830074133660199
 30
0.0
 11
-34.50589086011922
 21
-8.830074133660199
 31
0.0
  0
INSERT
  5
F108D7
330
F10016
100
AcDbEntity
  8
Bemassung
 62
     0
370
    -2
100
AcDbBlockReference
  2
VDDIM_DEFAULT
 10
-15.00589086011921
 20
-8.830074133660199
 30
0.0
 41
2.5
 42
2.5
 43
2.5
  0
INSERT
  5
F108D8
330
F10016
100
AcDbEntity
  8
Bemassung
 62
     0
370
    -2
100
AcDbBlockReference
  2
VDDIM_DEFAULT
 10
-37.00589086011922
 20
-8.830074133660199
 30
0.0
 41
2.5
 42
2.5
 43
2.5
 50
180.0
  0
MTEXT
  5
F108D9
330
F10016
100
AcDbEntity
  8
Bemassung
 62
     0
100
AcDbMText
 10
-26.00589086011921
 20
-8.205074133660199
 30
0.0
 40
2.5
 41
0.0
 71
     8
 72
     1
  1
\A1;22
 73
     1
 44
1.0
1001
ACAD
1000
MTEXTBEGIN
1070
    73
1070
     1
1070
    44
1040
1.0
1070
    74
1070
     0
1000
MTEXTEND
  0
POINT
  5
F108DA
330
F10016
100
AcDbEntity
  8
Defpoints
 62
     0
100
AcDbPoint
 10
-15.00589086011921
 20
6.1699258663398
 30
0.0
  0
POINT
  5
F108DB
330
F10016
100
AcDbEntity
  8
Defpoints
 62
     0
100
AcDbPoint
 10
-37.00589086011922
 20
-10.8300741336602
 30
0.0
  0
POINT
  5
F108DC
330
F10016
100
AcDbEntity
  8
Defpoints
 62
     0
100
AcDbPoint
 10
-37.00589086011922
 20
-8.830074133660199
 30
0.0
  0
ENDBLK
  5
F10033
330
F10016
100
AcDbEntity
  8
0
100
AcDbBlockEnd
  0
BLOCK
  5
F10034
330
F1001B
100
AcDbEntity
  8
0
100
AcDbBlockBegin
  2
*D5
 70
     1
 10
0.0
 20
0.0
 30
0.0
  3
*D5
  1

  0
LINE
  5
F108DD
330
F1001B
100
AcDbEntity
  8
Bemassung
 62
     0
370
    -2
100
AcDbLine
 10
45.99410913988076
 20
20.0949258663398
 30
0.0
 11
45.99410913988076
 21
51.41992586633978
 31
0.0
  0
LINE
  5
F108DE
330
F1001B
100
AcDbEntity
  8
Bemassung
 62
     0
370
    -2
100
AcDbLine
 10
-37.00589086011922
 20
-10.2050741336602
 30
0.0
 11
-37.00589086011921
 21
51.41992586633978
 31
0.0
  0
LINE
  5
F108DF
330
F1001B
100
AcDbEntity
  8
Bemassung
 62
     0
370
    -2
100
AcDbLine
 10
43.49410913988076
 20
50.16992586633978
 30
0.0
 11
-34.50589086011921
 21
50.16992586633978
 31
0.0
  0
INSERT
  5
F108E0
330
F1001B
100
AcDbEntity
  8
Bemassung
 62
     0
370
    -2
100
AcDbBlockReference
  2
VDDIM_DEFAULT
 10
45.99410913988076
 20
50.16992586633978
 30
0.0
 41
2.5
 42
2.5
 43
2.5
  0
INSERT
  5
F108E1
330
F1001B
100
AcDbEntity
  8
Bemassung
 62
     0
370
    -2
100
AcDbBlockReference
  2
VDDIM_DEFAULT
 10
-37.00589086011921
 20
50.16992586633978
 30
0.0
 41
2.5
 42
2.5
 43
2.5
 50
180.0
  0
MTEXT
  5
F108E2
330
F1001B
100
AcDbEntity
  8
Bemassung
 62
     0
100
AcDbMText
 10
4.494109139880784
 20
50.79492586633978
 30
0.0
 40
2.5
 41
0.0
 71
     8
 72
     1
  1
\A1;83
 73
     1
 44
1.0
1001
ACAD
1000
MTEXTBEGIN
1070
    73
1070
     1
1070
    44
1040
1.0
1070
    74
1070
     0
1000
MTEXTEND
  0
POINT
  5
F108E3
330
F1001B
100
AcDbEntity
  8
Defpoints
 62
     0
100
AcDbPoint
 10
45.99410913988076
 20
19.4699258663398
 30
0.0
  0
POINT
  5
F108E4
330
F1001B
100
AcDbEntity
  8
Defpoints
 62
     0
100
AcDbPoint
 10
-37.00589086011922
 20
-10.8300741336602
 30
0.0
  0
POINT
  5
F108E5
330
F1001B
100
AcDbEntity
  8
Defpoints
 62
     0
100
AcDbPoint
 10
-37.00589086011921
 20
50.16992586633978
 30
0.0
  0
ENDBLK
  5
F1003D
330
F1001B
100
AcDbEntity
  8
0
100
AcDbBlockEnd
  0
BLOCK
  5
F1003E
330
F10002
100
AcDbEntity
  8
0
100
AcDbBlockBegin
  2
*D6
 70
     1
 10
0.0
 20
0.0
 30
0.0
  3
*D6
  1

  0
LINE
  5
F108B3
330
F10002
100
AcDbEntity
  8
Bemassung
 62
     0
370
    -2
100
AcDbLine
 10
-49.20993683524833
 20
32.63832872154195
 30
0.0
 11
-36.67732986904944
 21
19.93320181443806
 31
0.0
  0
MTEXT
  5
F108B4
330
F10002
100
AcDbEntity
  8
Bemassung
 62
     0
100
AcDbMText
 10
-46.91054286305286
 20
31.19726991331741
 30
0.0
 40
2.5
 41
0.0
 71
     8
 72
     1
  1
\A1;R7
 11
0.7022567377821268
 21
-0.7119237840103427
 31
0.0
 73
     1
 44
1.0
1001
ACAD
1000
MTEXTBEGIN
1070
    73
1070
     1
1070
    44
1040
1.0
1070
    74
1070
     0
1000
MTEXTEND
  0
LINE
  5
F108B5
330
F10002
100
AcDbEntity
  8
Bemassung
 62
     0
370
    -2
100
AcDbLine
 10
-30.00589086011923
 20
13.1699258663398
 30
0.0
 11
-34.92168802459413
 21
18.15339235441221
 31
0.0
  0
INSERT
  5
F108B6
330
F10002
100
AcDbEntity
  8
Bemassung
 62
     0
370
    -2
100
AcDbBlockReference
  2
VDDIM_DEFAULT
 10
-34.92168802459413
 20
18.15339235441221
 30
0.0
 41
2.5
 42
2.5
 43
2.5
 50
314.6083439747063
  0
POINT
  5
F108B7
330
F10002
100
AcDbEntity
  8
Defpoints
 62
     0
100
AcDbPoint
 10
-34.92168802459413
 20
18.15339235441221
 30
0.0
  0
POINT
  5
F108B8
330
F10002
100
AcDbEntity
  8
Defpoints
 62
     0
100
AcDbPoint
 10
-30.00589086011923
 20
13.1699258663398
 30
0.0
  0
ENDBLK
  5
F10044
330
F10002
100
AcDbEntity
  8
0
100
AcDbBlockEnd
  0
BLOCK
  5
F10045
330
F10007
100
AcDbEntity
  8
0
100
AcDbBlockBegin
  2
*D7
 70
     1
 10
0.0
 20
0.0
 30
0.0
  3
*D7
  1

  0
LINE
  5
F108B9
330
F10007
100
AcDbEntity
  8
Bemassung
 62
     0
370
    -2
100
AcDbLine
 10
-30.63089086011922
 20
6.1699258663398
 30
0.0
 11
-48.25589086011921
 21
6.169925866339805
 31
0.0
  0
LINE
  5
F108BA
330
F10007
100
AcDbEntity
  8
Bemassung
 62
     0
370
    -2
100
AcDbLine
 10
-30.63089086011922
 20
20.1699258663398
 30
0.0
 11
-48.25589086011921
 21
20.16992586633981
 31
0.0
  0
LINE
  5
F108BB
330
F10007
100
AcDbEntity
  8
Bemassung
 62
     0
370
    -2
100
AcDbLine
 10
-47.00589086011921
 20
8.669925866339806
 30
0.0
 11
-47.00589086011921
 21
17.6699258663398
 31
0.0
  0
INSERT
  5
F108BC
330
F10007
100
AcDbEntity
  8
Bemassung
 62
     0
370
    -2
100
AcDbBlockReference
  2
VDDIM_DEFAULT
 10
-47.00589086011921
 20
6.169925866339805
 30
0.0
 41
2.5
 42
2.5
 43
2.5
 50
270.0
  0
INSERT
  5
F108BD
330
F10007
100
AcDbEntity
  8
Bemassung
 62
     0
370
    -2
100
AcDbBlockReference
  2
VDDIM_DEFAULT
 10
-47.00589086011921
 20
20.16992586633981
 30
0.0
 41
2.5
 42
2.5
 43
2.5
 50
90.0
  0
MTEXT
  5
F108BE
330
F10007
100
AcDbEntity
  8
Bemassung
 62
     0
100
AcDbMText
 10
-47.63089086011921
 20
13.1699258663398
 30
0.0
 40
2.5
 41
0.0
 71
     8
 72
     1
  1
\A1;%%c14
 11
0.0000000000000001
 21
1.0
 31
0.0
 73
     1
 44
1.0
1001
ACAD
1000
MTEXTBEGIN
1070
    73
1070
     1
1070
    44
1040
1.0
1070
    74
1070
     0
1000
MTEXTEND
  0
POINT
  5
F108BF
330
F10007
100
AcDbEntity
  8
Defpoints
 62
     0
100
AcDbPoint
 10
-30.00589086011922
 20
6.1699258663398
 30
0.0
  0
POINT
  5
F108C0
330
F10007
100
AcDbEntity
  8
Defpoints
 62
     0
100
AcDbPoint
 10
-30.00589086011922
 20
20.1699258663398
 30
0.0
  0
POINT
  5
F108C1
330
F10007
100
AcDbEntity
  8
Defpoints
 62
     0
100
AcDbPoint
 10
-47.00589086011921
 20
20.16992586633981
 30
0.0
  0
ENDBLK
  5
F1004E
330
F10007
100
AcDbEntity
  8
0
100
AcDbBlockEnd
  0
BLOCK
  5
F1004F
330
F10011
100
AcDbEntity
  8
0
100
AcDbBlockBegin
  2
*D8
 70
     1
 10
0.0
 20
0.0
 30
0.0
  3
*D8
  1

  0
LINE
  5
F108CB
330
F10011
100
AcDbEntity
  8
Bemassung
 62
     0
370
    -2
100
AcDbLine
 10
45.91910913988078
 20
6.1699258663398
 30
0.0
 11
57.24410913988078
 21
6.169925866339798
 31
0.0
  0
LINE
  5
F108CC
330
F10011
100
AcDbEntity
  8
Bemassung
 62
     0
370
    -2
100
AcDbLine
 10
45.91910913988078
 20
20.1699258663398
 30
0.0
 11
57.24410913988079
 21
20.1699258663398
 31
0.0
  0
LINE
  5
F108CD
330
F10011
100
AcDbEntity
  8
Bemassung
 62
     0
370
    -2
100
AcDbLine
 10
55.99410913988078
 20
8.669925866339797
 30
0.0
 11
55.99410913988079
 21
17.6699258663398
 31
0.0
  0
INSERT
  5
F108CE
330
F10011
100
AcDbEntity
  8
Bemassung
 62
     0
370
    -2
100
AcDbBlockReference
  2
VDDIM_DEFAULT
 10
55.99410913988078
 20
6.169925866339798
 30
0.0
 41
2.5
 42
2.5
 43
2.5
 50
270.0
  0
INSERT
  5
F108CF
330
F10011
100
AcDbEntity
  8
Bemassung
 62
     0
370
    -2
100
AcDbBlockReference
  2
VDDIM_DEFAULT
 10
55.99410913988079
 20
20.1699258663398
 30
0.0
 41
2.5
 42
2.5
 43
2.5
 50
90.0
  0
MTEXT
  5
F108D0
330
F10011
100
AcDbEntity
  8
Bemassung
 62
     0
100
AcDbMText
 10
55.36910913988078
 20
13.16992586633981
 30
0.0
 40
2.5
 41
0.0
 71
     8
 72
     1
  1
\A1;%%C14 
 11
0.0000000000000001
 21
1.0
 31
0.0
 73
     1
 44
1.0
1001
ACAD
1000
MTEXTBEGIN
1070
    73
1070
     1
1070
    44
1040
1.0
1070
    74
1070
     0
1000
MTEXTEND
  0
POINT
  5
F108D1
330
F10011
100
AcDbEntity
  8
Defpoints
 62
     0
100
AcDbPoint
 10
45.29410913988078
 20
6.1699258663398
 30
0.0
  0
POINT
  5
F108D2
330
F10011
100
AcDbEntity
  8
Defpoints
 62
     0
100
AcDbPoint
 10
45.29410913988078
 20
20.1699258663398
 30
0.0
  0
POINT
  5
F108D3
330
F10011
100
AcDbEntity
  8
Defpoints
 62
     0
100
AcDbPoint
 10
55.99410913988079
 20
20.1699258663398
 30
0.0
  0
ENDBLK
  5
F10058
330
F10011
100
AcDbEntity
  8
0
100
AcDbBlockEnd
  0
BLOCK
  5
F107AD
330
F107AB
100
AcDbEntity
  8
0
100
AcDbBlockBegin
  2
GENAXEH
 70
     0
 10
0.0
 20
0.0
 30
0.0
  3
GENAXEH
  1

  0
LINE
  5
F107AC
330
F107AB
100
AcDbEntity
  8
0
100
AcDbLine
 10
-1.0
 20
0.0
 30
0.0
 11
1.0
 21
0.0
 31
0.0
  0
ENDBLK
  5
F107AE
330
F107AB
100
AcDbEntity
  8
0
100
AcDbBlockEnd
  0
ENDSEC
  0
SECTION
  2
ENTITIES
  0
DIMENSION
  5
F1000D
330
261
100
AcDbEntity
  8
Bemassung
100
AcDbDimension
  2
*D3
 10
45.99410913988076
 20
35.16992586633981
 30
0.0
 11
23.49410913988078
 21
37.06624237384321
 31
0.0
 70
    32
  1
<>
 71
     8
 42
44.99999999999999
  3
BEM-ISBE
100
AcDbAlignedDimension
 13
0.9941091398807911
 23
20.1699258663398
 33
0.0
 14
45.99410913988076
 24
19.4699258663398
 34
0.0
100
AcDbRotatedDimension
1001
ACAD
1000
DSTYLE
1002
{
1070
    47
1040
2.0
1070
    48
1040
0.0
1070
    71
1070
     0
1070
    78
1070
     8
1070
   284
1070
     8
1002
}
  0
DIMENSION
  5
F10017
330
261
100
AcDbEntity
  8
Bemassung
100
AcDbDimension
  2
*D4
 10
-37.00589086011922
 20
-8.830074133660199
 30
0.0
 11
-26.00589086011921
 21
-6.949958171859382
 31
0.0
 70
    32
  1
<>
 71
     8
 42
22.00000000000001
  3
BEM-ISBE
100
AcDbAlignedDimension
 13
-15.00589086011921
 23
6.1699258663398
 33
0.0
 14
-37.00589086011922
 24
-10.8300741336602
 34
0.0
100
AcDbRotatedDimension
1001
ACAD
1000
DSTYLE
1002
{
1070
    47
1040
1.5
1070
    48
1040
0.0
1070
    71
1070
     0
1070
    78
1070
     8
1070
   284
1070
     8
1002
}
  0
DIMENSION
  5
F1001C
330
261
100
AcDbEntity
  8
Bemassung
100
AcDbDimension
  2
*D5
 10
-37.00589086011921
 20
50.16992586633978
 30
0.0
 11
4.494109139880784
 21
52.07221099594415
 31
0.0
 70
    32
  1
<>
 71
     8
 42
83.0
  3
BEM-ISBE
100
AcDbAlignedDimension
 13
45.99410913988076
 23
19.4699258663398
 33
0.0
 14
-37.00589086011922
 24
-10.8300741336602
 34
0.0
100
AcDbRotatedDimension
1001
ACAD
1000
DSTYLE
1002
{
1070
    47
1040
2.0
1070
    48
1040
0.0
1070
    71
1070
     0
1070
    78
1070
     8
1070
   284
1070
     8
1002
}
  0
DIMENSION
  5
F10003
330
261
100
AcDbEntity
  8
Bemassung
100
AcDbDimension
  2
*D6
 10
-30.00589086011923
 20
13.1699258663398
 30
0.0
 11
-47.35549522805934
 21
30.75835945220358
 31
0.0
 70
   164
  1
<>
 71
     8
 42
7.000000000000009
  3
BEM-ISBE
100
AcDbRadialDimension
 15
-34.92168802459413
 25
18.15339235441221
 35
0.0
 40
0.0
1001
ACAD
1000
DSTYLE
1002
{
1070
   284
1070
     8
1070
    78
1070
     8
1070
   144
1040
1.0
1070
   147
1040
0.625
1070
    72
1070
     0
1070
    71
1070
     0
1002
}
  0
DIMENSION
  5
F10008
330
261
100
AcDbEntity
  8
Bemassung
100
AcDbDimension
  2
*D7
 10
-47.00589086011921
 20
20.16992586633981
 30
0.0
 11
-48.97724147403464
 21
13.1699258663398
 31
0.0
 70
    32
  1
%%c<>
 71
     8
 42
14.0
  3
BEM-ISBE
100
AcDbAlignedDimension
 13
-30.00589086011922
 23
6.1699258663398
 33
0.0
 14
-30.00589086011922
 24
20.1699258663398
 34
0.0
 50
90.0
100
AcDbRotatedDimension
1001
ACAD
1000
DSTYLE
1002
{
1070
    48
1040
-0.07
1070
    71
1070
     0
1070
    78
1070
     8
1070
   284
1070
     8
1002
}
  0
DIMENSION
  5
F10012
330
261
100
AcDbEntity
  8
Bemassung
100
AcDbDimension
  2
*D8
 10
55.99410913988079
 20
20.1699258663398
 30
0.0
 11
54.02275852596535
 21
13.16992586633981
 31
0.0
 70
    32
  1
%%C<> 
 71
     8
 42
14.0
  3
BEM-ISBE
100
AcDbAlignedDimension
 13
45.29410913988078
 23
6.1699258663398
 33
0.0
 14
45.29410913988078
 24
20.1699258663398
 34
0.0
 50
90.0
100
AcDbRotatedDimension
1001
ACAD
1000
DSTYLE
1002
{
1070
    71
1070
     0
1070
    78
1070
     8
1002
}
1001
ACAD_DSTYLE_DIMINSPECT
1070
   396
1000
100%
1070
   395
1000

1070
   394
1070
    33
1070
   393
1070
     0
  0
ARC
  5
F10059
330
261
100
AcDbEntity
  8
Geo
100
AcDbCircle
 10
-30.00589086011922
 20
13.1699258663398
 30
0.0
 40
7.0
100
AcDbArc
 50
89.9999999999996
 51
180.0
  0
LINE
  5
F1005B
330
261
100
AcDbEntity
  8
Geo
100
AcDbLine
 10
-30.00589086011922
 20
20.1699258663398
 30
0.0
 11
0.9941091398807911
 21
20.1699258663398
 31
0.0
  0
LINE
  5
F1005D
330
261
100
AcDbEntity
  8
Geo
100
AcDbLine
 10
0.9941091398807911
 20
20.1699258663398
 30
0.0
 11
45.29410913988078
 21
20.1699258663398
 31
0.0
  0
LINE
  5
F1005F
330
261
100
AcDbEntity
  8
Geo
100
AcDbLine
 10
45.29410913988078
 20
20.1699258663398
 30
0.0
 11
45.99410913988076
 21
19.4699258663398
 31
0.0
  0
LINE
  5
F10061
330
261
100
AcDbEntity
  8
Geo
100
AcDbLine
 10
-14.30589086011921
 20
20.1684527731859
 30
0.0
 11
-14.20589086011921
 21
20.1697556994229
 31
0.0
  0
LINE
  5
F10063
330
261
100
AcDbEntity
  8
Geo
100
AcDbLine
 10
-14.20589086011921
 20
20.1697556994229
 30
0.0
 11
-14.10589086011921
 21
20.1655482961124
 31
0.0
  0
LINE
  5
F10065
330
261
100
AcDbEntity
  8
Geo
100
AcDbLine
 10
-14.10589086011921
 20
20.1655482961124
 30
0.0
 11
-14.00589086011921
 21
20.1552938597676
 31
0.0
  0
LINE
  5
F10067
330
261
100
AcDbEntity
  8
Geo
100
AcDbLine
 10
-14.00589086011921
 20
20.1552938597676
 30
0.0
 11
-13.9058908601192
 21
20.1384444510534
 31
0.0
  0
LINE
  5
F10069
330
261
100
AcDbEntity
  8
Geo
100
AcDbLine
 10
-13.9058908601192
 20
20.1384444510534
 30
0.0
 11
-13.80589086011921
 21
20.1144426097329
 31
0.0
  0
LINE
  5
F1006B
330
261
100
AcDbEntity
  8
Geo
100
AcDbLine
 10
-13.80589086011921
 20
20.1144426097329
 30
0.0
 11
-13.70589086011921
 21
20.0827232934099
 31
0.0
  0
LINE
  5
F1006D
330
261
100
AcDbEntity
  8
Geo
100
AcDbLine
 10
-13.70589086011921
 20
20.0827232934099
 30
0.0
 11
-13.60589086011921
 21
20.0427160518355
 31
0.0
  0
LINE
  5
F1006F
330
261
100
AcDbEntity
  8
Geo
100
AcDbLine
 10
-13.60589086011921
 20
20.0427160518355
 30
0.0
 11
-13.50589086011921
 21
19.9938474477978
 31
0.0
  0
LINE
  5
F10071
330
261
100
AcDbEntity
  8
Geo
100
AcDbLine
 10
-13.50589086011921
 20
19.9938474477978
 30
0.0
 11
-13.4058908601192
 21
19.9355437346646
 31
0.0
  0
LINE
  5
F10073
330
261
100
AcDbEntity
  8
Geo
100
AcDbLine
 10
-13.4058908601192
 20
19.9355437346646
 30
0.0
 11
-13.30589086011921
 21
19.8672337994864
 31
0.0
  0
LINE
  5
F10075
330
261
100
AcDbEntity
  8
Geo
100
AcDbLine
 10
-13.30589086011921
 20
19.8672337994864
 30
0.0
 11
-13.20589086011921
 21
19.788352379171
 31
0.0
  0
LINE
  5
F10077
330
261
100
AcDbEntity
  8
Geo
100
AcDbLine
 10
-13.20589086011921
 20
19.788352379171
 30
0.0
 11
-13.10589086011921
 21
19.69834355559649
 31
0.0
  0
LINE
  5
F10079
330
261
100
AcDbEntity
  8
Geo
100
AcDbLine
 10
-13.10589086011921
 20
19.69834355559649
 30
0.0
 11
-13.00589086011921
 21
19.5966645336222
 31
0.0
  0
LINE
  5
F1007B
330
261
100
AcDbEntity
  8
Geo
100
AcDbLine
 10
-13.00589086011921
 20
19.5966645336222
 30
0.0
 11
-12.90589086011921
 21
19.4827897037681
 31
0.0
  0
LINE
  5
F1007D
330
261
100
AcDbEntity
  8
Geo
100
AcDbLine
 10
-12.90589086011921
 20
19.4827897037681
 30
0.0
 11
-12.80589086011921
 21
19.3562149888559
 31
0.0
  0
LINE
  5
F1007F
330
261
100
AcDbEntity
  8
Geo
100
AcDbLine
 10
-12.80589086011921
 20
19.3562149888559
 30
0.0
 11
-12.70589086011921
 21
19.2164624711206
 31
0.0
  0
LINE
  5
F10081
330
261
100
AcDbEntity
  8
Geo
100
AcDbLine
 10
-12.70589086011921
 20
19.2164624711206
 30
0.0
 11
-12.60589086011921
 21
19.0630852932054
 31
0.0
  0
LINE
  5
F10083
330
261
100
AcDbEntity
  8
Geo
100
AcDbLine
 10
-12.60589086011921
 20
19.0630852932054
 30
0.0
 11
-12.50589086011921
 21
18.8956728230358
 31
0.0
  0
LINE
  5
F10085
330
261
100
AcDbEntity
  8
Geo
100
AcDbLine
 10
-12.50589086011921
 20
18.8956728230358
 30
0.0
 11
-12.40589086011921
 21
18.7138560688318
 31
0.0
  0
LINE
  5
F10087
330
261
100
AcDbEntity
  8
Geo
100
AcDbLine
 10
-12.40589086011921
 20
18.7138560688318
 30
0.0
 11
-12.30589086011921
 21
18.5173133264497
 31
0.0
  0
LINE
  5
F10089
330
261
100
AcDbEntity
  8
Geo
100
AcDbLine
 10
-12.30589086011921
 20
18.5173133264497
 30
0.0
 11
-12.20589086011921
 21
18.3057760368671
 31
0.0
  0
LINE
  5
F1008B
330
261
100
AcDbEntity
  8
Geo
100
AcDbLine
 10
-12.20589086011921
 20
18.3057760368671
 30
0.0
 11
-12.10589086011921
 21
18.0790348269293
 31
0.0
  0
LINE
  5
F1008D
330
261
100
AcDbEntity
  8
Geo
100
AcDbLine
 10
-12.10589086011921
 20
18.0790348269293
 30
0.0
 11
-12.00589086011921
 21
17.8369457014884
 31
0.0
  0
LINE
  5
F1008F
330
261
100
AcDbEntity
  8
Geo
100
AcDbLine
 10
-12.00589086011921
 20
17.8369457014884
 30
0.0
 11
-11.90589086011921
 21
17.57943634980219
 31
0.0
  0
LINE
  5
F10091
330
261
100
AcDbEntity
  8
Geo
100
AcDbLine
 10
-11.90589086011921
 20
17.57943634980219
 30
0.0
 11
-11.80589086011921
 21
17.3065125235508
 31
0.0
  0
LINE
  5
F10093
330
261
100
AcDbEntity
  8
Geo
100
AcDbLine
 10
-11.80589086011921
 20
17.3065125235508
 30
0.0
 11
-11.70589086011921
 21
17.0182644380991
 31
0.0
  0
LINE
  5
F10095
330
261
100
AcDbEntity
  8
Geo
100
AcDbLine
 10
-11.70589086011921
 20
17.0182644380991
 30
0.0
 11
-11.60589086011921
 21
16.7148731427403
 31
0.0
  0
LINE
  5
F10097
330
261
100
AcDbEntity
  8
Geo
100
AcDbLine
 10
-11.60589086011921
 20
16.7148731427403
 30
0.0
 11
-11.50589086011911
 21
16.3966167996331
 31
0.0
  0
LINE
  5
F10099
330
261
100
AcDbEntity
  8
Geo
100
AcDbLine
 10
-11.50589086011911
 20
16.3966167996331
 30
0.0
 11
-11.40589086011911
 21
16.0638768050642
 31
0.0
  0
LINE
  5
F1009B
330
261
100
AcDbEntity
  8
Geo
100
AcDbLine
 10
-11.40589086011911
 20
16.0638768050642
 30
0.0
 11
-11.30589086011911
 21
15.7171436805925
 31
0.0
  0
LINE
  5
F1009D
330
261
100
AcDbEntity
  8
Geo
100
AcDbLine
 10
-11.30589086011911
 20
15.7171436805925
 30
0.0
 11
-11.20589086011911
 21
15.3570226556375
 31
0.0
  0
LINE
  5
F1009F
330
261
100
AcDbEntity
  8
Geo
100
AcDbLine
 10
-11.20589086011911
 20
15.3570226556375
 30
0.0
 11
-11.10589086011912
 21
14.9842388572542
 31
0.0
  0
LINE
  5
F100A1
330
261
100
AcDbEntity
  8
Geo
100
AcDbLine
 10
-11.10589086011912
 20
14.9842388572542
 30
0.0
 11
-11.00589086011911
 21
14.5996420172833
 31
0.0
  0
LINE
  5
F100A3
330
261
100
AcDbEntity
  8
Geo
100
AcDbLine
 10
-11.00589086011911
 20
14.5996420172833
 30
0.0
 11
-10.90589086011911
 21
14.2042106018935
 31
0.0
  0
LINE
  5
F100A5
330
261
100
AcDbEntity
  8
Geo
100
AcDbLine
 10
-10.90589086011911
 20
14.2042106018935
 30
0.0
 11
-10.80589086011911
 21
13.7990552638473
 31
0.0
  0
LINE
  5
F100A7
330
261
100
AcDbEntity
  8
Geo
100
AcDbLine
 10
-10.80589086011911
 20
13.7990552638473
 30
0.0
 11
-10.70589086011911
 21
13.3854215137648
 31
0.0
  0
LINE
  5
F100A9
330
261
100
AcDbEntity
  8
Geo
100
AcDbLine
 10
-10.70589086011911
 20
13.3854215137648
 30
0.0
 11
-10.60589086011912
 21
12.9646915033564
 31
0.0
  0
LINE
  5
F100AB
330
261
100
AcDbEntity
  8
Geo
100
AcDbLine
 10
-10.60589086011912
 20
12.9646915033564
 30
0.0
 11
-10.50589086011911
 21
12.5383848111896
 31
0.0
  0
LINE
  5
F100AD
330
261
100
AcDbEntity
  8
Geo
100
AcDbLine
 10
-10.50589086011911
 20
12.5383848111896
 30
0.0
 11
-10.40589086011911
 21
12.1081581202047
 31
0.0
  0
LINE
  5
F100AF
330
261
100
AcDbEntity
  8
Geo
100
AcDbLine
 10
-10.40589086011911
 20
12.1081581202047
 30
0.0
 11
-10.30589086011911
 21
11.6758036760467
 31
0.0
  0
LINE
  5
F100B1
330
261
100
AcDbEntity
  8
Geo
100
AcDbLine
 10
-10.30589086011911
 20
11.6758036760467
 30
0.0
 11
-10.20589086011911
 21
11.2432464164992
 31
0.0
  0
LINE
  5
F100B3
330
261
100
AcDbEntity
  8
Geo
100
AcDbLine
 10
-10.20589086011911
 20
11.2432464164992
 30
0.0
 11
-10.10589086011911
 21
10.812539665054
 31
0.0
  0
LINE
  5
F100B5
330
261
100
AcDbEntity
  8
Geo
100
AcDbLine
 10
-10.10589086011911
 20
10.812539665054
 30
0.0
 11
-10.00589086011911
 21
10.3858592860831
 31
0.0
  0
LINE
  5
F100B7
330
261
100
AcDbEntity
  8
Geo
100
AcDbLine
 10
-10.00589086011911
 20
10.3858592860831
 30
0.0
 11
-9.905890860119113
 21
9.9654962053614
 31
0.0
  0
LINE
  5
F100B9
330
261
100
AcDbEntity
  8
Geo
100
AcDbLine
 10
-9.905890860119113
 20
9.9654962053614
 30
0.0
 11
-9.805890860119113
 21
9.553847207962595
 31
0.0
  0
LINE
  5
F100BB
330
261
100
AcDbEntity
  8
Geo
100
AcDbLine
 10
-9.805890860119113
 20
9.553847207962595
 30
0.0
 11
-9.705890860119112
 21
9.153403935965901
 31
0.0
  0
LINE
  5
F100BD
330
261
100
AcDbEntity
  8
Geo
100
AcDbLine
 10
-9.705890860119112
 20
9.153403935965901
 30
0.0
 11
-9.605890860119117
 21
8.766740021089097
 31
0.0
  0
LINE
  5
F100BF
330
261
100
AcDbEntity
  8
Geo
100
AcDbLine
 10
-9.605890860119117
 20
8.766740021089097
 30
0.0
 11
-9.505890860119206
 21
8.396496302417498
 31
0.0
  0
LINE
  5
F100C1
330
261
100
AcDbEntity
  8
Geo
100
AcDbLine
 10
-37.00589086011922
 20
13.1699258663398
 30
0.0
 11
-36.90589086011921
 21
13.9966882222512
 31
0.0
  0
LINE
  5
F100C3
330
261
100
AcDbEntity
  8
Geo
100
AcDbLine
 10
-36.90589086011921
 20
13.9966882222512
 30
0.0
 11
-36.80589086011921
 21
14.325122847801
 31
0.0
  0
LINE
  5
F100C5
330
261
100
AcDbEntity
  8
Geo
100
AcDbLine
 10
-36.80589086011921
 20
14.325122847801
 30
0.0
 11
-36.70589086011921
 21
14.5675471947236
 31
0.0
  0
LINE
  5
F100C7
330
261
100
AcDbEntity
  8
Geo
100
AcDbLine
 10
-36.70589086011921
 20
14.5675471947236
 30
0.0
 11
-36.60589086011921
 21
14.763869637844
 31
0.0
  0
LINE
  5
F100C9
330
261
100
AcDbEntity
  8
Geo
100
AcDbLine
 10
-36.60589086011921
 20
14.763869637844
 30
0.0
 11
-36.50589086011922
 21
14.9297412518943
 31
0.0
  0
LINE
  5
F100CB
330
261
100
AcDbEntity
  8
Geo
100
AcDbLine
 10
-36.50589086011922
 20
14.9297412518943
 30
0.0
 11
-36.40589086011921
 21
15.0732840729374
 31
0.0
  0
LINE
  5
F100CD
330
261
100
AcDbEntity
  8
Geo
100
AcDbLine
 10
-36.40589086011921
 20
15.0732840729374
 30
0.0
 11
-36.30589086011922
 21
15.1993791367746
 31
0.0
  0
LINE
  5
F100CF
330
261
100
AcDbEntity
  8
Geo
100
AcDbLine
 10
-36.30589086011922
 20
15.1993791367746
 30
0.0
 11
-36.2058908601192
 21
15.31124353109339
 31
0.0
  0
LINE
  5
F100D1
330
261
100
AcDbEntity
  8
Geo
100
AcDbLine
 10
-36.2058908601192
 20
15.31124353109339
 30
0.0
 11
-36.10589086011921
 21
15.4111377881036
 31
0.0
  0
LINE
  5
F100D3
330
261
100
AcDbEntity
  8
Geo
100
AcDbLine
 10
-36.10589086011921
 20
15.4111377881036
 30
0.0
 11
-36.00589086011922
 21
15.50072704713049
 31
0.0
  0
LINE
  5
F100D5
330
261
100
AcDbEntity
  8
Geo
100
AcDbLine
 10
-36.00589086011922
 20
15.50072704713049
 30
0.0
 11
-35.90589086011921
 21
15.58128325346119
 31
0.0
  0
LINE
  5
F100D7
330
261
100
AcDbEntity
  8
Geo
100
AcDbLine
 10
-35.90589086011921
 20
15.58128325346119
 30
0.0
 11
-35.80589086011921
 21
15.6538064925249
 31
0.0
  0
LINE
  5
F100D9
330
261
100
AcDbEntity
  8
Geo
100
AcDbLine
 10
-35.80589086011921
 20
15.6538064925249
 30
0.0
 11
-35.70589086011921
 21
15.719101860081
 31
0.0
  0
LINE
  5
F100DB
330
261
100
AcDbEntity
  8
Geo
100
AcDbLine
 10
-35.70589086011921
 20
15.719101860081
 30
0.0
 11
-35.60589086011921
 21
15.7778303381576
 31
0.0
  0
LINE
  5
F100DD
330
261
100
AcDbEntity
  8
Geo
100
AcDbLine
 10
-35.60589086011921
 20
15.7778303381576
 30
0.0
 11
-35.50589086011922
 21
15.8305437008265
 31
0.0
  0
LINE
  5
F100DF
330
261
100
AcDbEntity
  8
Geo
100
AcDbLine
 10
-35.50589086011922
 20
15.8305437008265
 30
0.0
 11
-35.40589086011921
 21
15.8777091966643
 31
0.0
  0
LINE
  5
F100E1
330
261
100
AcDbEntity
  8
Geo
100
AcDbLine
 10
-35.40589086011921
 20
15.8777091966643
 30
0.0
 11
-35.30589086011922
 21
15.9197274562009
 31
0.0
  0
LINE
  5
F100E3
330
261
100
AcDbEntity
  8
Geo
100
AcDbLine
 10
-35.30589086011922
 20
15.9197274562009
 30
0.0
 11
-35.2058908601192
 21
15.956945774746
 31
0.0
  0
LINE
  5
F100E5
330
261
100
AcDbEntity
  8
Geo
100
AcDbLine
 10
-35.2058908601192
 20
15.956945774746
 30
0.0
 11
-35.10589086011921
 21
15.9896681566453
 31
0.0
  0
LINE
  5
F100E7
330
261
100
AcDbEntity
  8
Geo
100
AcDbLine
 10
-35.10589086011921
 20
15.9896681566453
 30
0.0
 11
-35.00589086011922
 21
16.018163040338
 31
0.0
  0
LINE
  5
F100E9
330
261
100
AcDbEntity
  8
Geo
100
AcDbLine
 10
-35.00589086011922
 20
16.018163040338
 30
0.0
 11
-34.90589086011921
 21
16.0426693295474
 31
0.0
  0
LINE
  5
F100EB
330
261
100
AcDbEntity
  8
Geo
100
AcDbLine
 10
-34.90589086011921
 20
16.0426693295474
 30
0.0
 11
-34.80589086011921
 21
16.0634011654852
 31
0.0
  0
LINE
  5
F100ED
330
261
100
AcDbEntity
  8
Geo
100
AcDbLine
 10
-34.80589086011921
 20
16.0634011654852
 30
0.0
 11
-34.70589086011921
 21
16.0805517485388
 31
0.0
  0
LINE
  5
F100EF
330
261
100
AcDbEntity
  8
Geo
100
AcDbLine
 10
-34.70589086011921
 20
16.0805517485388
 30
0.0
 11
-34.60589086011921
 21
16.0942964321544
 31
0.0
  0
LINE
  5
F100F1
330
261
100
AcDbEntity
  8
Geo
100
AcDbLine
 10
-34.60589086011921
 20
16.0942964321544
 30
0.0
 11
-34.50589086011922
 21
16.1047952523013
 31
0.0
  0
LINE
  5
F100F3
330
261
100
AcDbEntity
  8
Geo
100
AcDbLine
 10
-34.50589086011922
 20
16.1047952523013
 30
0.0
 11
-34.40589086011921
 21
16.1121950141297
 31
0.0
  0
LINE
  5
F100F5
330
261
100
AcDbEntity
  8
Geo
100
AcDbLine
 10
-34.40589086011921
 20
16.1121950141297
 30
0.0
 11
-34.30589086011921
 21
16.1166310275362
 31
0.0
  0
LINE
  5
F100F7
330
261
100
AcDbEntity
  8
Geo
100
AcDbLine
 10
-34.30589086011921
 20
16.1166310275362
 30
0.0
 11
-34.20589086011921
 21
16.1182285616496
 31
0.0
  0
LINE
  5
F100F9
330
261
100
AcDbEntity
  8
Geo
100
AcDbLine
 10
-34.20589086011921
 20
16.1182285616496
 30
0.0
 11
-34.10589086011921
 21
16.1171040722706
 31
0.0
  0
LINE
  5
F100FB
330
261
100
AcDbEntity
  8
Geo
100
AcDbLine
 10
-34.10589086011921
 20
16.1171040722706
 30
0.0
 11
-34.00589086011922
 21
16.11336624440089
 31
0.0
  0
LINE
  5
F100FD
330
261
100
AcDbEntity
  8
Geo
100
AcDbLine
 10
-34.00589086011922
 20
16.11336624440089
 30
0.0
 11
-33.90589086011921
 21
16.1071168830247
 31
0.0
  0
LINE
  5
F100FF
330
261
100
AcDbEntity
  8
Geo
100
AcDbLine
 10
-33.90589086011921
 20
16.1071168830247
 30
0.0
 11
-33.80589086011922
 21
16.0984516784765
 31
0.0
  0
LINE
  5
F10101
330
261
100
AcDbEntity
  8
Geo
100
AcDbLine
 10
-33.80589086011922
 20
16.0984516784765
 30
0.0
 11
-33.7058908601192
 21
16.0874608674754
 31
0.0
  0
LINE
  5
F10103
330
261
100
AcDbEntity
  8
Geo
100
AcDbLine
 10
-33.7058908601192
 20
16.0874608674754
 30
0.0
 11
-33.60589086011921
 21
16.07422980683059
 31
0.0
  0
LINE
  5
F10105
330
261
100
AcDbEntity
  8
Geo
100
AcDbLine
 10
-33.60589086011921
 20
16.07422980683059
 30
0.0
 11
-33.50589086011922
 21
16.0588394736287
 31
0.0
  0
LINE
  5
F10107
330
261
100
AcDbEntity
  8
Geo
100
AcDbLine
 10
-33.50589086011922
 20
16.0588394736287
 30
0.0
 11
-33.40589086011921
 21
16.0413669032011
 31
0.0
  0
LINE
  5
F10109
330
261
100
AcDbEntity
  8
Geo
100
AcDbLine
 10
-33.40589086011921
 20
16.0413669032011
 30
0.0
 11
-33.30589086011921
 21
16.0218855741633
 31
0.0
  0
LINE
  5
F1010B
330
261
100
AcDbEntity
  8
Geo
100
AcDbLine
 10
-33.30589086011921
 20
16.0218855741633
 30
0.0
 11
-33.20589086011921
 21
16.0004657482223
 31
0.0
  0
LINE
  5
F1010D
330
261
100
AcDbEntity
  8
Geo
100
AcDbLine
 10
-33.20589086011921
 20
16.0004657482223
 30
0.0
 11
-33.10589086011921
 21
15.9771747711538
 31
0.0
  0
LINE
  5
F1010F
330
261
100
AcDbEntity
  8
Geo
100
AcDbLine
 10
-33.10589086011921
 20
15.9771747711538
 30
0.0
 11
-33.00589086011922
 21
15.9520773403072
 31
0.0
  0
LINE
  5
F10111
330
261
100
AcDbEntity
  8
Geo
100
AcDbLine
 10
-33.00589086011922
 20
15.9520773403072
 30
0.0
 11
-32.90589086011921
 21
15.92523574314389
 31
0.0
  0
LINE
  5
F10113
330
261
100
AcDbEntity
  8
Geo
100
AcDbLine
 10
-32.90589086011921
 20
15.92523574314389
 30
0.0
 11
-32.80589086011922
 21
15.8967100706139
 31
0.0
  0
LINE
  5
F10115
330
261
100
AcDbEntity
  8
Geo
100
AcDbLine
 10
-32.80589086011922
 20
15.8967100706139
 30
0.0
 11
-32.7058908601192
 21
15.866558408601
 31
0.0
  0
LINE
  5
F10117
330
261
100
AcDbEntity
  8
Geo
100
AcDbLine
 10
-32.7058908601192
 20
15.866558408601
 30
0.0
 11
-32.60589086011921
 21
15.8348370101886
 31
0.0
  0
LINE
  5
F10119
330
261
100
AcDbEntity
  8
Geo
100
AcDbLine
 10
-32.60589086011921
 20
15.8348370101886
 30
0.0
 11
-32.50589086011922
 21
15.8016004511015
 31
0.0
  0
LINE
  5
F1011B
330
261
100
AcDbEntity
  8
Geo
100
AcDbLine
 10
-32.50589086011922
 20
15.8016004511015
 30
0.0
 11
-32.40589086011921
 21
15.7669017703466
 31
0.0
  0
LINE
  5
F1011D
330
261
100
AcDbEntity
  8
Geo
100
AcDbLine
 10
-32.40589086011921
 20
15.7669017703466
 30
0.0
 11
-32.30589086011921
 21
15.7307925977984
 31
0.0
  0
LINE
  5
F1011F
330
261
100
AcDbEntity
  8
Geo
100
AcDbLine
 10
-32.30589086011921
 20
15.7307925977984
 30
0.0
 11
-32.20589086011921
 21
15.6933232702372
 31
0.0
  0
LINE
  5
F10121
330
261
100
AcDbEntity
  8
Geo
100
AcDbLine
 10
-32.20589086011921
 20
15.6933232702372
 30
0.0
 11
-32.10589086011921
 21
15.65454293715369
 31
0.0
  0
LINE
  5
F10123
330
261
100
AcDbEntity
  8
Geo
100
AcDbLine
 10
-32.10589086011921
 20
15.65454293715369
 30
0.0
 11
-32.00589086011922
 21
15.6144996574599
 31
0.0
  0
LINE
  5
F10125
330
261
100
AcDbEntity
  8
Geo
100
AcDbLine
 10
-32.00589086011922
 20
15.6144996574599
 30
0.0
 11
-31.90589086011921
 21
15.5732404881083
 31
0.0
  0
LINE
  5
F10127
330
261
100
AcDbEntity
  8
Geo
100
AcDbLine
 10
-31.90589086011921
 20
15.5732404881083
 30
0.0
 11
-31.80589086011921
 21
15.53081156549289
 31
0.0
  0
LINE
  5
F10129
330
261
100
AcDbEntity
  8
Geo
100
AcDbLine
 10
-31.80589086011921
 20
15.53081156549289
 30
0.0
 11
-31.70589086011921
 21
15.4872581804047
 31
0.0
  0
LINE
  5
F1012B
330
261
100
AcDbEntity
  8
Geo
100
AcDbLine
 10
-31.70589086011921
 20
15.4872581804047
 30
0.0
 11
-31.60589086011921
 21
15.4426248472224
 31
0.0
  0
LINE
  5
F1012D
330
261
100
AcDbEntity
  8
Geo
100
AcDbLine
 10
-31.60589086011921
 20
15.4426248472224
 30
0.0
 11
-31.50589086011922
 21
15.3969553679394
 31
0.0
  0
LINE
  5
F1012F
330
261
100
AcDbEntity
  8
Geo
100
AcDbLine
 10
-31.50589086011922
 20
15.3969553679394
 30
0.0
 11
-31.40589086011921
 21
15.3502928915648
 31
0.0
  0
LINE
  5
F10131
330
261
100
AcDbEntity
  8
Geo
100
AcDbLine
 10
-31.40589086011921
 20
15.3502928915648
 30
0.0
 11
-31.30589086011922
 21
15.3026799693735
 31
0.0
  0
LINE
  5
F10133
330
261
100
AcDbEntity
  8
Geo
100
AcDbLine
 10
-31.30589086011922
 20
15.3026799693735
 30
0.0
 11
-31.2058908601192
 21
15.2541586064328
 31
0.0
  0
LINE
  5
F10135
330
261
100
AcDbEntity
  8
Geo
100
AcDbLine
 10
-31.2058908601192
 20
15.2541586064328
 30
0.0
 11
-31.10589086011921
 21
15.2047703097889
 31
0.0
  0
LINE
  5
F10137
330
261
100
AcDbEntity
  8
Geo
100
AcDbLine
 10
-31.10589086011921
 20
15.2047703097889
 30
0.0
 11
-31.00589086011922
 21
15.1545561336562
 31
0.0
  0
LINE
  5
F10139
330
261
100
AcDbEntity
  8
Geo
100
AcDbLine
 10
-31.00589086011922
 20
15.1545561336562
 30
0.0
 11
-30.90589086011921
 21
15.10355672192219
 31
0.0
  0
LINE
  5
F1013B
330
261
100
AcDbEntity
  8
Geo
100
AcDbLine
 10
-30.90589086011921
 20
15.10355672192219
 30
0.0
 11
-30.80589086011921
 21
15.0518123482496
 31
0.0
  0
LINE
  5
F1013D
330
261
100
AcDbEntity
  8
Geo
100
AcDbLine
 10
-30.80589086011921
 20
15.0518123482496
 30
0.0
 11
-30.70589086011921
 21
14.999362954033
 31
0.0
  0
LINE
  5
F1013F
330
261
100
AcDbEntity
  8
Geo
100
AcDbLine
 10
-30.70589086011921
 20
14.999362954033
 30
0.0
 11
-30.60589086011921
 21
14.9462481844453
 31
0.0
  0
LINE
  5
F10141
330
261
100
AcDbEntity
  8
Geo
100
AcDbLine
 10
-30.60589086011921
 20
14.9462481844453
 30
0.0
 11
-30.50589086011922
 21
14.8925074227904
 31
0.0
  0
LINE
  5
F10143
330
261
100
AcDbEntity
  8
Geo
100
AcDbLine
 10
-30.50589086011922
 20
14.8925074227904
 30
0.0
 11
-30.40589086011921
 21
14.8381798233616
 31
0.0
  0
LINE
  5
F10145
330
261
100
AcDbEntity
  8
Geo
100
AcDbLine
 10
-30.40589086011921
 20
14.8381798233616
 30
0.0
 11
-30.30589086011922
 21
14.7833043429918
 31
0.0
  0
LINE
  5
F10147
330
261
100
AcDbEntity
  8
Geo
100
AcDbLine
 10
-30.30589086011922
 20
14.7833043429918
 30
0.0
 11
-30.2058908601192
 21
14.7279197714681
 31
0.0
  0
LINE
  5
F10149
330
261
100
AcDbEntity
  8
Geo
100
AcDbLine
 10
-30.2058908601192
 20
14.7279197714681
 30
0.0
 11
-30.10589086011921
 21
14.672064760975
 31
0.0
  0
LINE
  5
F1014B
330
261
100
AcDbEntity
  8
Geo
100
AcDbLine
 10
-30.10589086011921
 20
14.672064760975
 30
0.0
 11
-30.00589086011922
 21
14.6157778547206
 31
0.0
  0
LINE
  5
F1014D
330
261
100
AcDbEntity
  8
Geo
100
AcDbLine
 10
-30.00589086011922
 20
14.6157778547206
 30
0.0
 11
-29.90589086011921
 21
14.5592392888015
 31
0.0
  0
LINE
  5
F1014F
330
261
100
AcDbEntity
  8
Geo
100
AcDbLine
 10
-29.90589086011921
 20
14.5592392888015
 30
0.0
 11
-29.80589086011921
 21
14.502606212301
 31
0.0
  0
LINE
  5
F10151
330
261
100
AcDbEntity
  8
Geo
100
AcDbLine
 10
-29.80589086011921
 20
14.502606212301
 30
0.0
 11
-29.70589086011921
 21
14.4458824777874
 31
0.0
  0
LINE
  5
F10153
330
261
100
AcDbEntity
  8
Geo
100
AcDbLine
 10
-29.70589086011921
 20
14.4458824777874
 30
0.0
 11
-29.60589086011921
 21
14.3890719439965
 31
0.0
  0
LINE
  5
F10155
330
261
100
AcDbEntity
  8
Geo
100
AcDbLine
 10
-29.60589086011921
 20
14.3890719439965
 30
0.0
 11
-29.50589086011922
 21
14.33217847556839
 31
0.0
  0
LINE
  5
F10157
330
261
100
AcDbEntity
  8
Geo
100
AcDbLine
 10
-29.50589086011922
 20
14.33217847556839
 30
0.0
 11
-29.40589086011921
 21
14.2752059427851
 31
0.0
  0
LINE
  5
F10159
330
261
100
AcDbEntity
  8
Geo
100
AcDbLine
 10
-29.40589086011921
 20
14.2752059427851
 30
0.0
 11
-29.30589086011922
 21
14.2181582213072
 31
0.0
  0
LINE
  5
F1015B
330
261
100
AcDbEntity
  8
Geo
100
AcDbLine
 10
-29.30589086011922
 20
14.2181582213072
 30
0.0
 11
-29.20589086011921
 21
14.1610391919102
 31
0.0
  0
LINE
  5
F1015D
330
261
100
AcDbEntity
  8
Geo
100
AcDbLine
 10
-29.20589086011921
 20
14.1610391919102
 30
0.0
 11
-29.10589086011921
 21
14.1038527402201
 31
0.0
  0
LINE
  5
F1015F
330
261
100
AcDbEntity
  8
Geo
100
AcDbLine
 10
-29.10589086011921
 20
14.1038527402201
 30
0.0
 11
-29.00589086011922
 21
14.0466027564497
 31
0.0
  0
LINE
  5
F10161
330
261
100
AcDbEntity
  8
Geo
100
AcDbLine
 10
-29.00589086011922
 20
14.0466027564497
 30
0.0
 11
-28.90589086011921
 21
13.9892931351338
 31
0.0
  0
LINE
  5
F10163
330
261
100
AcDbEntity
  8
Geo
100
AcDbLine
 10
-28.90589086011921
 20
13.9892931351338
 30
0.0
 11
-28.80589086011922
 21
13.9319277748639
 31
0.0
  0
LINE
  5
F10165
330
261
100
AcDbEntity
  8
Geo
100
AcDbLine
 10
-28.80589086011922
 20
13.9319277748639
 30
0.0
 11
-28.7058908601192
 21
13.8745105780233
 31
0.0
  0
LINE
  5
F10167
330
261
100
AcDbEntity
  8
Geo
100
AcDbLine
 10
-28.7058908601192
 20
13.8745105780233
 30
0.0
 11
-28.60589086011921
 21
13.8170454505217
 31
0.0
  0
LINE
  5
F10169
330
261
100
AcDbEntity
  8
Geo
100
AcDbLine
 10
-28.60589086011921
 20
13.8170454505217
 30
0.0
 11
-28.50589086011922
 21
13.7595363015292
 31
0.0
  0
LINE
  5
F1016B
330
261
100
AcDbEntity
  8
Geo
100
AcDbLine
 10
-28.50589086011922
 20
13.7595363015292
 30
0.0
 11
-28.40589086011921
 21
13.7019870432106
 31
0.0
  0
LINE
  5
F1016D
330
261
100
AcDbEntity
  8
Geo
100
AcDbLine
 10
-28.40589086011921
 20
13.7019870432106
 30
0.0
 11
-28.30589086011921
 21
13.6444015904594
 31
0.0
  0
LINE
  5
F1016F
330
261
100
AcDbEntity
  8
Geo
100
AcDbLine
 10
-28.30589086011921
 20
13.6444015904594
 30
0.0
 11
-28.20589086011921
 21
13.586783860631
 31
0.0
  0
LINE
  5
F10171
330
261
100
AcDbEntity
  8
Geo
100
AcDbLine
 10
-28.20589086011921
 20
13.586783860631
 30
0.0
 11
-28.10589086011921
 21
13.5291377732766
 31
0.0
  0
LINE
  5
F10173
330
261
100
AcDbEntity
  8
Geo
100
AcDbLine
 10
-28.10589086011921
 20
13.5291377732766
 30
0.0
 11
-28.00589086011921
 21
13.4714672498767
 31
0.0
  0
LINE
  5
F10175
330
261
100
AcDbEntity
  8
Geo
100
AcDbLine
 10
-28.00589086011921
 20
13.4714672498767
 30
0.0
 11
-27.90589086011921
 21
13.4137762135737
 31
0.0
  0
LINE
  5
F10177
330
261
100
AcDbEntity
  8
Geo
100
AcDbLine
 10
-27.90589086011921
 20
13.4137762135737
 30
0.0
 11
-27.80589086011922
 21
13.3560685889058
 31
0.0
  0
LINE
  5
F10179
330
261
100
AcDbEntity
  8
Geo
100
AcDbLine
 10
-27.80589086011922
 20
13.3560685889058
 30
0.0
 11
-27.7058908601192
 21
13.2983483015394
 31
0.0
  0
LINE
  5
F1017B
330
261
100
AcDbEntity
  8
Geo
100
AcDbLine
 10
-27.7058908601192
 20
13.2983483015394
 30
0.0
 11
-27.60589086011921
 21
13.2406192780025
 31
0.0
  0
LINE
  5
F1017D
330
261
100
AcDbEntity
  8
Geo
100
AcDbLine
 10
-27.60589086011921
 20
13.2406192780025
 30
0.0
 11
-27.50589086011922
 21
13.1828854454172
 31
0.0
  0
LINE
  5
F1017F
330
261
100
AcDbEntity
  8
Geo
100
AcDbLine
 10
-27.50589086011922
 20
13.1828854454172
 30
0.0
 11
-27.40589086011921
 21
13.1251507312329
 31
0.0
  0
LINE
  5
F10181
330
261
100
AcDbEntity
  8
Geo
100
AcDbLine
 10
-27.40589086011921
 20
13.1251507312329
 30
0.0
 11
-27.30589086011921
 21
13.0674190629589
 31
0.0
  0
LINE
  5
F10183
330
261
100
AcDbEntity
  8
Geo
100
AcDbLine
 10
-27.30589086011921
 20
13.0674190629589
 30
0.0
 11
-27.20589086011921
 21
13.00969436789719
 31
0.0
  0
LINE
  5
F10185
330
261
100
AcDbEntity
  8
Geo
100
AcDbLine
 10
-27.20589086011921
 20
13.00969436789719
 30
0.0
 11
-27.10589086011921
 21
12.9519805728758
 31
0.0
  0
LINE
  5
F10187
330
261
100
AcDbEntity
  8
Geo
100
AcDbLine
 10
-27.10589086011921
 20
12.9519805728758
 30
0.0
 11
-27.00589086011922
 21
12.8942816039807
 31
0.0
  0
LINE
  5
F10189
330
261
100
AcDbEntity
  8
Geo
100
AcDbLine
 10
-27.00589086011922
 20
12.8942816039807
 30
0.0
 11
-26.90589086011921
 21
12.8366013862896
 31
0.0
  0
LINE
  5
F1018B
330
261
100
AcDbEntity
  8
Geo
100
AcDbLine
 10
-26.90589086011921
 20
12.8366013862896
 30
0.0
 11
-26.80589086011921
 21
12.7789438436048
 31
0.0
  0
LINE
  5
F1018D
330
261
100
AcDbEntity
  8
Geo
100
AcDbLine
 10
-26.80589086011921
 20
12.7789438436048
 30
0.0
 11
-26.70589086011921
 21
12.7213128981856
 31
0.0
  0
LINE
  5
F1018F
330
261
100
AcDbEntity
  8
Geo
100
AcDbLine
 10
-26.70589086011921
 20
12.7213128981856
 30
0.0
 11
-26.60589086011921
 21
12.6637124704825
 31
0.0
  0
LINE
  5
F10191
330
261
100
AcDbEntity
  8
Geo
100
AcDbLine
 10
-26.60589086011921
 20
12.6637124704825
 30
0.0
 11
-26.50589086011922
 21
12.6061464788696
 31
0.0
  0
LINE
  5
F10193
330
261
100
AcDbEntity
  8
Geo
100
AcDbLine
 10
-26.50589086011922
 20
12.6061464788696
 30
0.0
 11
-26.40589086011921
 21
12.5486188393785
 31
0.0
  0
LINE
  5
F10195
330
261
100
AcDbEntity
  8
Geo
100
AcDbLine
 10
-26.40589086011921
 20
12.5486188393785
 30
0.0
 11
-26.30589086011922
 21
12.491133465432
 31
0.0
  0
LINE
  5
F10197
330
261
100
AcDbEntity
  8
Geo
100
AcDbLine
 10
-26.30589086011922
 20
12.491133465432
 30
0.0
 11
-26.2058908601192
 21
12.4336942675775
 31
0.0
  0
LINE
  5
F10199
330
261
100
AcDbEntity
  8
Geo
100
AcDbLine
 10
-26.2058908601192
 20
12.4336942675775
 30
0.0
 11
-26.10589086011921
 21
12.3763051532213
 31
0.0
  0
LINE
  5
F1019B
330
261
100
AcDbEntity
  8
Geo
100
AcDbLine
 10
-26.10589086011921
 20
12.3763051532213
 30
0.0
 11
-26.00589086011922
 21
12.3189700263627
 31
0.0
  0
LINE
  5
F1019D
330
261
100
AcDbEntity
  8
Geo
100
AcDbLine
 10
-26.00589086011922
 20
12.3189700263627
 30
0.0
 11
-25.90589086011921
 21
12.2616927873283
 31
0.0
  0
LINE
  5
F1019F
330
261
100
AcDbEntity
  8
Geo
100
AcDbLine
 10
-25.90589086011921
 20
12.2616927873283
 30
0.0
 11
-25.80589086011921
 21
12.2044773325068
 31
0.0
  0
LINE
  5
F101A1
330
261
100
AcDbEntity
  8
Geo
100
AcDbLine
 10
-25.80589086011921
 20
12.2044773325068
 30
0.0
 11
-25.70589086011921
 21
12.1473275540841
 31
0.0
  0
LINE
  5
F101A3
330
261
100
AcDbEntity
  8
Geo
100
AcDbLine
 10
-25.70589086011921
 20
12.1473275540841
 30
0.0
 11
-25.60589086011921
 21
12.090247339778
 31
0.0
  0
LINE
  5
F101A5
330
261
100
AcDbEntity
  8
Geo
100
AcDbLine
 10
-25.60589086011921
 20
12.090247339778
 30
0.0
 11
-25.50589086011922
 21
12.0332405725743
 31
0.0
  0
LINE
  5
F101A7
330
261
100
AcDbEntity
  8
Geo
100
AcDbLine
 10
-25.50589086011922
 20
12.0332405725743
 30
0.0
 11
-25.40589086011921
 21
11.9763111304625
 31
0.0
  0
LINE
  5
F101A9
330
261
100
AcDbEntity
  8
Geo
100
AcDbLine
 10
-25.40589086011921
 20
11.9763111304625
 30
0.0
 11
-25.30589086011922
 21
11.9194628861718
 31
0.0
  0
LINE
  5
F101AB
330
261
100
AcDbEntity
  8
Geo
100
AcDbLine
 10
-25.30589086011922
 20
11.9194628861718
 30
0.0
 11
-25.2058908601192
 21
11.86269970690769
 31
0.0
  0
LINE
  5
F101AD
330
261
100
AcDbEntity
  8
Geo
100
AcDbLine
 10
-25.2058908601192
 20
11.86269970690769
 30
0.0
 11
-25.10589086011921
 21
11.806025454089
 31
0.0
  0
LINE
  5
F101AF
330
261
100
AcDbEntity
  8
Geo
100
AcDbLine
 10
-25.10589086011921
 20
11.806025454089
 30
0.0
 11
-25.00589086011922
 21
11.7494439830854
 31
0.0
  0
LINE
  5
F101B1
330
261
100
AcDbEntity
  8
Geo
100
AcDbLine
 10
-25.00589086011922
 20
11.7494439830854
 30
0.0
 11
-24.90589086011921
 21
11.6929591429546
 31
0.0
  0
LINE
  5
F101B3
330
261
100
AcDbEntity
  8
Geo
100
AcDbLine
 10
-24.90589086011921
 20
11.6929591429546
 30
0.0
 11
-24.80589086011921
 21
11.636574776181
 31
0.0
  0
LINE
  5
F101B5
330
261
100
AcDbEntity
  8
Geo
100
AcDbLine
 10
-24.80589086011921
 20
11.636574776181
 30
0.0
 11
-24.70589086011921
 21
11.580294718414
 31
0.0
  0
LINE
  5
F101B7
330
261
100
AcDbEntity
  8
Geo
100
AcDbLine
 10
-24.70589086011921
 20
11.580294718414
 30
0.0
 11
-24.60589086011921
 21
11.5241227982073
 31
0.0
  0
LINE
  5
F101B9
330
261
100
AcDbEntity
  8
Geo
100
AcDbLine
 10
-24.60589086011921
 20
11.5241227982073
 30
0.0
 11
-24.50589086011922
 21
11.4680628367584
 31
0.0
  0
LINE
  5
F101BB
330
261
100
AcDbEntity
  8
Geo
100
AcDbLine
 10
-24.50589086011922
 20
11.4680628367584
 30
0.0
 11
-24.40589086011921
 21
11.4121186476483
 31
0.0
  0
LINE
  5
F101BD
330
261
100
AcDbEntity
  8
Geo
100
AcDbLine
 10
-24.40589086011921
 20
11.4121186476483
 30
0.0
 11
-24.30589086011921
 21
11.3562940365827
 31
0.0
  0
LINE
  5
F101BF
330
261
100
AcDbEntity
  8
Geo
100
AcDbLine
 10
-24.30589086011921
 20
11.3562940365827
 30
0.0
 11
-24.20589086011921
 21
11.3005928011327
 31
0.0
  0
LINE
  5
F101C1
330
261
100
AcDbEntity
  8
Geo
100
AcDbLine
 10
-24.20589086011921
 20
11.3005928011327
 30
0.0
 11
-24.10589086011921
 21
11.2450187304764
 31
0.0
  0
LINE
  5
F101C3
330
261
100
AcDbEntity
  8
Geo
100
AcDbLine
 10
-24.10589086011921
 20
11.2450187304764
 30
0.0
 11
-24.00589086011922
 21
11.1895756051414
 31
0.0
  0
LINE
  5
F101C5
330
261
100
AcDbEntity
  8
Geo
100
AcDbLine
 10
-24.00589086011922
 20
11.1895756051414
 30
0.0
 11
-23.90589086011921
 21
11.1342671967476
 31
0.0
  0
LINE
  5
F101C7
330
261
100
AcDbEntity
  8
Geo
100
AcDbLine
 10
-23.90589086011921
 20
11.1342671967476
 30
0.0
 11
-23.80589086011921
 21
11.0790972677503
 31
0.0
  0
LINE
  5
F101C9
330
261
100
AcDbEntity
  8
Geo
100
AcDbLine
 10
-23.80589086011921
 20
11.0790972677503
 30
0.0
 11
-23.7058908601192
 21
11.0240695711848
 31
0.0
  0
LINE
  5
F101CB
330
261
100
AcDbEntity
  8
Geo
100
AcDbLine
 10
-23.7058908601192
 20
11.0240695711848
 30
0.0
 11
-23.60589086011921
 21
10.9691878504104
 31
0.0
  0
LINE
  5
F101CD
330
261
100
AcDbEntity
  8
Geo
100
AcDbLine
 10
-23.60589086011921
 20
10.9691878504104
 30
0.0
 11
-23.50589086011922
 21
10.9144558388564
 31
0.0
  0
LINE
  5
F101CF
330
261
100
AcDbEntity
  8
Geo
100
AcDbLine
 10
-23.50589086011922
 20
10.9144558388564
 30
0.0
 11
-23.40589086011921
 21
10.8598772597679
 31
0.0
  0
LINE
  5
F101D1
330
261
100
AcDbEntity
  8
Geo
100
AcDbLine
 10
-23.40589086011921
 20
10.8598772597679
 30
0.0
 11
-23.30589086011921
 21
10.80545582595219
 31
0.0
  0
LINE
  5
F101D3
330
261
100
AcDbEntity
  8
Geo
100
AcDbLine
 10
-23.30589086011921
 20
10.80545582595219
 30
0.0
 11
-23.20589086011921
 21
10.7511952395267
 31
0.0
  0
LINE
  5
F101D5
330
261
100
AcDbEntity
  8
Geo
100
AcDbLine
 10
-23.20589086011921
 20
10.7511952395267
 30
0.0
 11
-23.10589086011921
 21
10.69709919166689
 31
0.0
  0
LINE
  5
F101D7
330
261
100
AcDbEntity
  8
Geo
100
AcDbLine
 10
-23.10589086011921
 20
10.69709919166689
 30
0.0
 11
-23.00589086011922
 21
10.64317136235519
 31
0.0
  0
LINE
  5
F101D9
330
261
100
AcDbEntity
  8
Geo
100
AcDbLine
 10
-23.00589086011922
 20
10.64317136235519
 30
0.0
 11
-22.90589086011921
 21
10.5894154201305
 31
0.0
  0
LINE
  5
F101DB
330
261
100
AcDbEntity
  8
Geo
100
AcDbLine
 10
-22.90589086011921
 20
10.5894154201305
 30
0.0
 11
-22.80589086011922
 21
10.535835021839
 31
0.0
  0
LINE
  5
F101DD
330
261
100
AcDbEntity
  8
Geo
100
AcDbLine
 10
-22.80589086011922
 20
10.535835021839
 30
0.0
 11
-22.7058908601192
 21
10.4824338123851
 31
0.0
  0
LINE
  5
F101DF
330
261
100
AcDbEntity
  8
Geo
100
AcDbLine
 10
-22.7058908601192
 20
10.4824338123851
 30
0.0
 11
-22.60589086011921
 21
10.4292154244834
 31
0.0
  0
LINE
  5
F101E1
330
261
100
AcDbEntity
  8
Geo
100
AcDbLine
 10
-22.60589086011921
 20
10.4292154244834
 30
0.0
 11
-22.50589086011922
 21
10.376183478412
 31
0.0
  0
LINE
  5
F101E3
330
261
100
AcDbEntity
  8
Geo
100
AcDbLine
 10
-22.50589086011922
 20
10.376183478412
 30
0.0
 11
-22.40589086011921
 21
10.3233415817659
 31
0.0
  0
LINE
  5
F101E5
330
261
100
AcDbEntity
  8
Geo
100
AcDbLine
 10
-22.40589086011921
 20
10.3233415817659
 30
0.0
 11
-22.30589086011921
 21
10.2706933292113
 31
0.0
  0
LINE
  5
F101E7
330
261
100
AcDbEntity
  8
Geo
100
AcDbLine
 10
-22.30589086011921
 20
10.2706933292113
 30
0.0
 11
-22.20589086011921
 21
10.218242302242
 31
0.0
  0
LINE
  5
F101E9
330
261
100
AcDbEntity
  8
Geo
100
AcDbLine
 10
-22.20589086011921
 20
10.218242302242
 30
0.0
 11
-22.10589086011921
 21
10.1659920689346
 31
0.0
  0
LINE
  5
F101EB
330
261
100
AcDbEntity
  8
Geo
100
AcDbLine
 10
-22.10589086011921
 20
10.1659920689346
 30
0.0
 11
-22.00589086011921
 21
10.1139461837067
 31
0.0
  0
LINE
  5
F101ED
330
261
100
AcDbEntity
  8
Geo
100
AcDbLine
 10
-22.00589086011921
 20
10.1139461837067
 30
0.0
 11
-21.90589086011921
 21
10.0621081870746
 31
0.0
  0
LINE
  5
F101EF
330
261
100
AcDbEntity
  8
Geo
100
AcDbLine
 10
-21.90589086011921
 20
10.0621081870746
 30
0.0
 11
-21.80589086011921
 21
10.01048160541269
 31
0.0
  0
LINE
  5
F101F1
330
261
100
AcDbEntity
  8
Geo
100
AcDbLine
 10
-21.80589086011921
 20
10.01048160541269
 30
0.0
 11
-21.7058908601192
 21
9.959069950713301
 31
0.0
  0
LINE
  5
F101F3
330
261
100
AcDbEntity
  8
Geo
100
AcDbLine
 10
-21.7058908601192
 20
9.959069950713301
 30
0.0
 11
-21.60589086011921
 21
9.907876720348301
 31
0.0
  0
LINE
  5
F101F5
330
261
100
AcDbEntity
  8
Geo
100
AcDbLine
 10
-21.60589086011921
 20
9.907876720348301
 30
0.0
 11
-21.50589086011922
 21
9.856905396830402
 31
0.0
  0
LINE
  5
F101F7
330
261
100
AcDbEntity
  8
Geo
100
AcDbLine
 10
-21.50589086011922
 20
9.856905396830402
 30
0.0
 11
-21.40589086011921
 21
9.806159447576998
 31
0.0
  0
LINE
  5
F101F9
330
261
100
AcDbEntity
  8
Geo
100
AcDbLine
 10
-21.40589086011921
 20
9.806159447576998
 30
0.0
 11
-21.30589086011921
 21
9.755642324673999
 31
0.0
  0
LINE
  5
F101FB
330
261
100
AcDbEntity
  8
Geo
100
AcDbLine
 10
-21.30589086011921
 20
9.755642324673999
 30
0.0
 11
-21.2058908601192
 21
9.705357464640696
 31
0.0
  0
LINE
  5
F101FD
330
261
100
AcDbEntity
  8
Geo
100
AcDbLine
 10
-21.2058908601192
 20
9.705357464640696
 30
0.0
 11
-21.10589086011921
 21
9.6553082881967
 31
0.0
  0
LINE
  5
F101FF
330
261
100
AcDbEntity
  8
Geo
100
AcDbLine
 10
-21.10589086011921
 20
9.6553082881967
 30
0.0
 11
-21.00589086011922
 21
9.605498200028501
 31
0.0
  0
LINE
  5
F10201
330
261
100
AcDbEntity
  8
Geo
100
AcDbLine
 10
-21.00589086011922
 20
9.605498200028501
 30
0.0
 11
-20.90589086011921
 21
9.555930588558195
 31
0.0
  0
LINE
  5
F10203
330
261
100
AcDbEntity
  8
Geo
100
AcDbLine
 10
-20.90589086011921
 20
9.555930588558195
 30
0.0
 11
-20.80589086011921
 21
9.506608825713099
 31
0.0
  0
LINE
  5
F10205
330
261
100
AcDbEntity
  8
Geo
100
AcDbLine
 10
-20.80589086011921
 20
9.506608825713099
 30
0.0
 11
-20.70589086011921
 21
9.457536266696099
 31
0.0
  0
LINE
  5
F10207
330
261
100
AcDbEntity
  8
Geo
100
AcDbLine
 10
-20.70589086011921
 20
9.457536266696099
 30
0.0
 11
-20.60589086011921
 21
9.408716249757699
 31
0.0
  0
LINE
  5
F10209
330
261
100
AcDbEntity
  8
Geo
100
AcDbLine
 10
-20.60589086011921
 20
9.408716249757699
 30
0.0
 11
-20.50589086011922
 21
9.360152095968595
 31
0.0
  0
LINE
  5
F1020B
330
261
100
AcDbEntity
  8
Geo
100
AcDbLine
 10
-20.50589086011922
 20
9.360152095968595
 30
0.0
 11
-20.40589086011921
 21
9.311847108993898
 31
0.0
  0
LINE
  5
F1020D
330
261
100
AcDbEntity
  8
Geo
100
AcDbLine
 10
-20.40589086011921
 20
9.311847108993898
 30
0.0
 11
-20.30589086011922
 21
9.263804574868695
 31
0.0
  0
LINE
  5
F1020F
330
261
100
AcDbEntity
  8
Geo
100
AcDbLine
 10
-20.30589086011922
 20
9.263804574868695
 30
0.0
 11
-20.2058908601192
 21
9.216027761773901
 31
0.0
  0
LINE
  5
F10211
330
261
100
AcDbEntity
  8
Geo
100
AcDbLine
 10
-20.2058908601192
 20
9.216027761773901
 30
0.0
 11
-20.10589086011921
 21
9.168519919814499
 31
0.0
  0
LINE
  5
F10213
330
261
100
AcDbEntity
  8
Geo
100
AcDbLine
 10
-20.10589086011921
 20
9.168519919814499
 30
0.0
 11
-20.00589086011922
 21
9.121284280798199
 31
0.0
  0
LINE
  5
F10215
330
261
100
AcDbEntity
  8
Geo
100
AcDbLine
 10
-20.00589086011922
 20
9.121284280798199
 30
0.0
 11
-19.90589086011921
 21
9.074324058015497
 31
0.0
  0
LINE
  5
F10217
330
261
100
AcDbEntity
  8
Geo
100
AcDbLine
 10
-19.90589086011921
 20
9.074324058015497
 30
0.0
 11
-19.80589086011921
 21
9.0276424460213
 31
0.0
  0
LINE
  5
F10219
330
261
100
AcDbEntity
  8
Geo
100
AcDbLine
 10
-19.80589086011921
 20
9.0276424460213
 30
0.0
 11
-19.7058908601192
 21
8.981242620417397
 31
0.0
  0
LINE
  5
F1021B
330
261
100
AcDbEntity
  8
Geo
100
AcDbLine
 10
-19.7058908601192
 20
8.981242620417397
 30
0.0
 11
-19.60589086011921
 21
8.935127737636699
 31
0.0
  0
LINE
  5
F1021D
330
261
100
AcDbEntity
  8
Geo
100
AcDbLine
 10
-19.60589086011921
 20
8.935127737636699
 30
0.0
 11
-19.50589086011921
 21
8.889300934728197
 31
0.0
  0
LINE
  5
F1021F
330
261
100
AcDbEntity
  8
Geo
100
AcDbLine
 10
-19.50589086011921
 20
8.889300934728197
 30
0.0
 11
-19.40589086011921
 21
8.8437653291439
 31
0.0
  0
LINE
  5
F10221
330
261
100
AcDbEntity
  8
Geo
100
AcDbLine
 10
-19.40589086011921
 20
8.8437653291439
 30
0.0
 11
-19.30589086011921
 21
8.798524018526402
 31
0.0
  0
LINE
  5
F10223
330
261
100
AcDbEntity
  8
Geo
100
AcDbLine
 10
-19.30589086011921
 20
8.798524018526402
 30
0.0
 11
-19.20589086011921
 21
8.753580080498498
 31
0.0
  0
LINE
  5
F10225
330
261
100
AcDbEntity
  8
Geo
100
AcDbLine
 10
-19.20589086011921
 20
8.753580080498498
 30
0.0
 11
-19.10589086011921
 21
8.708936572453596
 31
0.0
  0
LINE
  5
F10227
330
261
100
AcDbEntity
  8
Geo
100
AcDbLine
 10
-19.10589086011921
 20
8.708936572453596
 30
0.0
 11
-19.00589086011921
 21
8.664596531347799
 31
0.0
  0
LINE
  5
F10229
330
261
100
AcDbEntity
  8
Geo
100
AcDbLine
 10
-19.00589086011921
 20
8.664596531347799
 30
0.0
 11
-18.90589086011921
 21
8.620562973493299
 31
0.0
  0
LINE
  5
F1022B
330
261
100
AcDbEntity
  8
Geo
100
AcDbLine
 10
-18.90589086011921
 20
8.620562973493299
 30
0.0
 11
-18.80589086011921
 21
8.576838894353301
 31
0.0
  0
LINE
  5
F1022D
330
261
100
AcDbEntity
  8
Geo
100
AcDbLine
 10
-18.80589086011921
 20
8.576838894353301
 30
0.0
 11
-18.70589086011921
 21
8.533427268338098
 31
0.0
  0
LINE
  5
F1022F
330
261
100
AcDbEntity
  8
Geo
100
AcDbLine
 10
-18.70589086011921
 20
8.533427268338098
 30
0.0
 11
-18.60589086011921
 21
8.490331048602698
 31
0.0
  0
LINE
  5
F10231
330
261
100
AcDbEntity
  8
Geo
100
AcDbLine
 10
-18.60589086011921
 20
8.490331048602698
 30
0.0
 11
-18.50589086011921
 21
8.447553166846198
 31
0.0
  0
LINE
  5
F10233
330
261
100
AcDbEntity
  8
Geo
100
AcDbLine
 10
-18.50589086011921
 20
8.447553166846198
 30
0.0
 11
-18.4058908601192
 21
8.405096533112098
 31
0.0
  0
LINE
  5
F10235
330
261
100
AcDbEntity
  8
Geo
100
AcDbLine
 10
-18.4058908601192
 20
8.405096533112098
 30
0.0
 11
-18.30589086011921
 21
8.362964035590298
 31
0.0
  0
LINE
  5
F10237
330
261
100
AcDbEntity
  8
Geo
100
AcDbLine
 10
-18.30589086011921
 20
8.362964035590298
 30
0.0
 11
-18.20589086011921
 21
8.321158540420999
 31
0.0
  0
LINE
  5
F10239
330
261
100
AcDbEntity
  8
Geo
100
AcDbLine
 10
-18.20589086011921
 20
8.321158540420999
 30
0.0
 11
-18.10589086011921
 21
8.279682891499199
 31
0.0
  0
LINE
  5
F1023B
330
261
100
AcDbEntity
  8
Geo
100
AcDbLine
 10
-18.10589086011921
 20
8.279682891499199
 30
0.0
 11
-18.00589086011921
 21
8.238539910281597
 31
0.0
  0
LINE
  5
F1023D
330
261
100
AcDbEntity
  8
Geo
100
AcDbLine
 10
-18.00589086011921
 20
8.238539910281597
 30
0.0
 11
-17.90589086011921
 21
8.197732395594696
 31
0.0
  0
LINE
  5
F1023F
330
261
100
AcDbEntity
  8
Geo
100
AcDbLine
 10
-17.90589086011921
 20
8.197732395594696
 30
0.0
 11
-17.80589086011921
 21
8.157263123444097
 31
0.0
  0
LINE
  5
F10241
330
261
100
AcDbEntity
  8
Geo
100
AcDbLine
 10
-17.80589086011921
 20
8.157263123444097
 30
0.0
 11
-17.70589086011921
 21
8.1171348468259
 31
0.0
  0
LINE
  5
F10243
330
261
100
AcDbEntity
  8
Geo
100
AcDbLine
 10
-17.70589086011921
 20
8.1171348468259
 30
0.0
 11
-17.60589086011921
 21
8.077350295539298
 31
0.0
  0
LINE
  5
F10245
330
261
100
AcDbEntity
  8
Geo
100
AcDbLine
 10
-17.60589086011921
 20
8.077350295539298
 30
0.0
 11
-17.50589086011921
 21
8.037912176001196
 31
0.0
  0
LINE
  5
F10247
330
261
100
AcDbEntity
  8
Geo
100
AcDbLine
 10
-17.50589086011921
 20
8.037912176001196
 30
0.0
 11
-17.40589086011921
 21
7.998823171061598
 31
0.0
  0
LINE
  5
F10249
330
261
100
AcDbEntity
  8
Geo
100
AcDbLine
 10
-17.40589086011921
 20
7.998823171061598
 30
0.0
 11
-17.30589086011921
 21
7.960085939821198
 31
0.0
  0
LINE
  5
F1024B
330
261
100
AcDbEntity
  8
Geo
100
AcDbLine
 10
-17.30589086011921
 20
7.960085939821198
 30
0.0
 11
-17.20589086011921
 21
7.921703117451197
 31
0.0
  0
LINE
  5
F1024D
330
261
100
AcDbEntity
  8
Geo
100
AcDbLine
 10
-17.20589086011921
 20
7.921703117451197
 30
0.0
 11
-17.10589086011921
 21
7.8836773150129
 31
0.0
  0
LINE
  5
F1024F
330
261
100
AcDbEntity
  8
Geo
100
AcDbLine
 10
-17.10589086011921
 20
7.8836773150129
 30
0.0
 11
-17.00589086011921
 21
7.846011119281
 31
0.0
  0
LINE
  5
F10251
330
261
100
AcDbEntity
  8
Geo
100
AcDbLine
 10
-17.00589086011921
 20
7.846011119281
 30
0.0
 11
-16.90589086011921
 21
7.808707092567197
 31
0.0
  0
LINE
  5
F10253
330
261
100
AcDbEntity
  8
Geo
100
AcDbLine
 10
-16.90589086011921
 20
7.808707092567197
 30
0.0
 11
-16.80589086011921
 21
7.771767772546
 31
0.0
  0
LINE
  5
F10255
330
261
100
AcDbEntity
  8
Geo
100
AcDbLine
 10
-16.80589086011921
 20
7.771767772546
 30
0.0
 11
-16.70589086011921
 21
7.735195672082098
 31
0.0
  0
LINE
  5
F10257
330
261
100
AcDbEntity
  8
Geo
100
AcDbLine
 10
-16.70589086011921
 20
7.735195672082098
 30
0.0
 11
-16.60589086011921
 21
7.698993279059402
 31
0.0
  0
LINE
  5
F10259
330
261
100
AcDbEntity
  8
Geo
100
AcDbLine
 10
-16.60589086011921
 20
7.698993279059402
 30
0.0
 11
-16.50589086011921
 21
7.663163056211696
 31
0.0
  0
LINE
  5
F1025B
330
261
100
AcDbEntity
  8
Geo
100
AcDbLine
 10
-16.50589086011921
 20
7.663163056211696
 30
0.0
 11
-16.4058908601192
 21
7.627707440955298
 31
0.0
  0
LINE
  5
F1025D
330
261
100
AcDbEntity
  8
Geo
100
AcDbLine
 10
-16.4058908601192
 20
7.627707440955298
 30
0.0
 11
-16.30589086011921
 21
7.592628845223298
 31
0.0
  0
LINE
  5
F1025F
330
261
100
AcDbEntity
  8
Geo
100
AcDbLine
 10
-16.30589086011921
 20
7.592628845223298
 30
0.0
 11
-16.20589086011921
 21
7.557929655300999
 31
0.0
  0
LINE
  5
F10261
330
261
100
AcDbEntity
  8
Geo
100
AcDbLine
 10
-16.20589086011921
 20
7.557929655300999
 30
0.0
 11
-16.10589086011921
 21
7.523612231664199
 31
0.0
  0
LINE
  5
F10263
330
261
100
AcDbEntity
  8
Geo
100
AcDbLine
 10
-16.10589086011921
 20
7.523612231664199
 30
0.0
 11
-16.00589086011921
 21
7.489678908818398
 31
0.0
  0
LINE
  5
F10265
330
261
100
AcDbEntity
  8
Geo
100
AcDbLine
 10
-16.00589086011921
 20
7.489678908818398
 30
0.0
 11
-15.9058908601192
 21
7.456131995139597
 31
0.0
  0
LINE
  5
F10267
330
261
100
AcDbEntity
  8
Geo
100
AcDbLine
 10
-15.9058908601192
 20
7.456131995139597
 30
0.0
 11
-15.80589086011921
 21
7.422973772718
 31
0.0
  0
LINE
  5
F10269
330
261
100
AcDbEntity
  8
Geo
100
AcDbLine
 10
-15.80589086011921
 20
7.422973772718
 30
0.0
 11
-15.70589086011921
 21
7.390206497202197
 31
0.0
  0
LINE
  5
F1026B
330
261
100
AcDbEntity
  8
Geo
100
AcDbLine
 10
-15.70589086011921
 20
7.390206497202197
 30
0.0
 11
-15.60589086011921
 21
7.357832397645799
 31
0.0
  0
LINE
  5
F1026D
330
261
100
AcDbEntity
  8
Geo
100
AcDbLine
 10
-15.60589086011921
 20
7.357832397645799
 30
0.0
 11
-15.50589086011921
 21
7.325853676356097
 31
0.0
  0
LINE
  5
F1026F
330
261
100
AcDbEntity
  8
Geo
100
AcDbLine
 10
-15.50589086011921
 20
7.325853676356097
 30
0.0
 11
-15.40589086011921
 21
7.294272508744097
 31
0.0
  0
LINE
  5
F10271
330
261
100
AcDbEntity
  8
Geo
100
AcDbLine
 10
-15.40589086011921
 20
7.294272508744097
 30
0.0
 11
-15.30589086011921
 21
7.263091043176099
 31
0.0
  0
LINE
  5
F10273
330
261
100
AcDbEntity
  8
Geo
100
AcDbLine
 10
-15.30589086011921
 20
7.263091043176099
 30
0.0
 11
-15.20589086011921
 21
7.232311400828398
 31
0.0
  0
LINE
  5
F10275
330
261
100
AcDbEntity
  8
Geo
100
AcDbLine
 10
-15.20589086011921
 20
7.232311400828398
 30
0.0
 11
-15.10589086011921
 21
7.201935675542398
 31
0.0
  0
LINE
  5
F10277
330
261
100
AcDbEntity
  8
Geo
100
AcDbLine
 10
-15.10589086011921
 20
7.201935675542398
 30
0.0
 11
-15.00589086011921
 21
7.171965933682099
 31
0.0
  0
LINE
  5
F10279
330
261
100
AcDbEntity
  8
Geo
100
AcDbLine
 10
-15.00589086011921
 20
7.171965933682099
 30
0.0
 11
-15.00589086011921
 21
7.171965933682099
 31
0.0
  0
LINE
  5
F1027B
330
261
100
AcDbEntity
  8
Geo
100
AcDbLine
 10
-15.00589086011921
 20
7.171965933682099
 30
0.0
 11
-14.90589086011921
 21
7.1804614361793
 31
0.0
  0
LINE
  5
F1027D
330
261
100
AcDbEntity
  8
Geo
100
AcDbLine
 10
-14.90589086011921
 20
7.1804614361793
 30
0.0
 11
-14.80589086011921
 21
7.189356261844898
 31
0.0
  0
LINE
  5
F1027F
330
261
100
AcDbEntity
  8
Geo
100
AcDbLine
 10
-14.80589086011921
 20
7.189356261844898
 30
0.0
 11
-14.70589086011921
 21
7.198654786868998
 31
0.0
  0
LINE
  5
F10281
330
261
100
AcDbEntity
  8
Geo
100
AcDbLine
 10
-14.70589086011921
 20
7.198654786868998
 30
0.0
 11
-14.60589086011921
 21
7.208361555369997
 31
0.0
  0
LINE
  5
F10283
330
261
100
AcDbEntity
  8
Geo
100
AcDbLine
 10
-14.60589086011921
 20
7.208361555369997
 30
0.0
 11
-14.50589086011921
 21
7.218481277880499
 31
0.0
  0
LINE
  5
F10285
330
261
100
AcDbEntity
  8
Geo
100
AcDbLine
 10
-14.50589086011921
 20
7.218481277880499
 30
0.0
 11
-14.40589086011921
 21
7.229018829759399
 31
0.0
  0
LINE
  5
F10287
330
261
100
AcDbEntity
  8
Geo
100
AcDbLine
 10
-14.40589086011921
 20
7.229018829759399
 30
0.0
 11
-14.30589086011921
 21
7.239979249527799
 31
0.0
  0
LINE
  5
F10289
330
261
100
AcDbEntity
  8
Geo
100
AcDbLine
 10
-14.30589086011921
 20
7.239979249527799
 30
0.0
 11
-14.20589086011921
 21
7.251367737127799
 31
0.0
  0
LINE
  5
F1028B
330
261
100
AcDbEntity
  8
Geo
100
AcDbLine
 10
-14.20589086011921
 20
7.251367737127799
 30
0.0
 11
-14.10589086011921
 21
7.263189652102
 31
0.0
  0
LINE
  5
F1028D
330
261
100
AcDbEntity
  8
Geo
100
AcDbLine
 10
-14.10589086011921
 20
7.263189652102
 30
0.0
 11
-14.00589086011921
 21
7.275450511692199
 31
0.0
  0
LINE
  5
F1028F
330
261
100
AcDbEntity
  8
Geo
100
AcDbLine
 10
-14.00589086011921
 20
7.275450511692199
 30
0.0
 11
-13.9058908601192
 21
7.288155988855298
 31
0.0
  0
LINE
  5
F10291
330
261
100
AcDbEntity
  8
Geo
100
AcDbLine
 10
-13.9058908601192
 20
7.288155988855298
 30
0.0
 11
-13.80589086011921
 21
7.301311910194398
 31
0.0
  0
LINE
  5
F10293
330
261
100
AcDbEntity
  8
Geo
100
AcDbLine
 10
-13.80589086011921
 20
7.301311910194398
 30
0.0
 11
-13.70589086011921
 21
7.314924253803499
 31
0.0
  0
LINE
  5
F10295
330
261
100
AcDbEntity
  8
Geo
100
AcDbLine
 10
-13.70589086011921
 20
7.314924253803499
 30
0.0
 11
-13.60589086011921
 21
7.328999147023998
 31
0.0
  0
LINE
  5
F10297
330
261
100
AcDbEntity
  8
Geo
100
AcDbLine
 10
-13.60589086011921
 20
7.328999147023998
 30
0.0
 11
-13.50589086011921
 21
7.343542864109799
 31
0.0
  0
LINE
  5
F10299
330
261
100
AcDbEntity
  8
Geo
100
AcDbLine
 10
-13.50589086011921
 20
7.343542864109799
 30
0.0
 11
-13.4058908601192
 21
7.358561823801299
 31
0.0
  0
LINE
  5
F1029B
330
261
100
AcDbEntity
  8
Geo
100
AcDbLine
 10
-13.4058908601192
 20
7.358561823801299
 30
0.0
 11
-13.30589086011921
 21
7.374062586803099
 31
0.0
  0
LINE
  5
F1029D
330
261
100
AcDbEntity
  8
Geo
100
AcDbLine
 10
-13.30589086011921
 20
7.374062586803099
 30
0.0
 11
-13.20589086011921
 21
7.3900518531663
 31
0.0
  0
LINE
  5
F1029F
330
261
100
AcDbEntity
  8
Geo
100
AcDbLine
 10
-13.20589086011921
 20
7.3900518531663
 30
0.0
 11
-13.10589086011921
 21
7.406536459571302
 31
0.0
  0
LINE
  5
F102A1
330
261
100
AcDbEntity
  8
Geo
100
AcDbLine
 10
-13.10589086011921
 20
7.406536459571302
 30
0.0
 11
-13.00589086011921
 21
7.4235233765093
 31
0.0
  0
LINE
  5
F102A3
330
261
100
AcDbEntity
  8
Geo
100
AcDbLine
 10
-13.00589086011921
 20
7.4235233765093
 30
0.0
 11
-12.90589086011921
 21
7.441019705360801
 31
0.0
  0
LINE
  5
F102A5
330
261
100
AcDbEntity
  8
Geo
100
AcDbLine
 10
-12.90589086011921
 20
7.441019705360801
 30
0.0
 11
-12.80589086011921
 21
7.4590326753689
 31
0.0
  0
LINE
  5
F102A7
330
261
100
AcDbEntity
  8
Geo
100
AcDbLine
 10
-12.80589086011921
 20
7.4590326753689
 30
0.0
 11
-12.70589086011921
 21
7.477569640503499
 31
0.0
  0
LINE
  5
F102A9
330
261
100
AcDbEntity
  8
Geo
100
AcDbLine
 10
-12.70589086011921
 20
7.477569640503499
 30
0.0
 11
-12.60589086011921
 21
7.496638076216698
 31
0.0
  0
LINE
  5
F102AB
330
261
100
AcDbEntity
  8
Geo
100
AcDbLine
 10
-12.60589086011921
 20
7.496638076216698
 30
0.0
 11
-12.50589086011921
 21
7.516245576084798
 31
0.0
  0
LINE
  5
F102AD
330
261
100
AcDbEntity
  8
Geo
100
AcDbLine
 10
-12.50589086011921
 20
7.516245576084798
 30
0.0
 11
-12.40589086011921
 21
7.5363998483359
 31
0.0
  0
LINE
  5
F102AF
330
261
100
AcDbEntity
  8
Geo
100
AcDbLine
 10
-12.40589086011921
 20
7.5363998483359
 30
0.0
 11
-12.30589086011921
 21
7.5571087122599
 31
0.0
  0
LINE
  5
F102B1
330
261
100
AcDbEntity
  8
Geo
100
AcDbLine
 10
-12.30589086011921
 20
7.5571087122599
 30
0.0
 11
-12.20589086011921
 21
7.578380094499098
 31
0.0
  0
LINE
  5
F102B3
330
261
100
AcDbEntity
  8
Geo
100
AcDbLine
 10
-12.20589086011921
 20
7.578380094499098
 30
0.0
 11
-12.10589086011921
 21
7.600222025216801
 31
0.0
  0
LINE
  5
F102B5
330
261
100
AcDbEntity
  8
Geo
100
AcDbLine
 10
-12.10589086011921
 20
7.600222025216801
 30
0.0
 11
-12.00589086011921
 21
7.622642634141199
 31
0.0
  0
LINE
  5
F102B7
330
261
100
AcDbEntity
  8
Geo
100
AcDbLine
 10
-12.00589086011921
 20
7.622642634141199
 30
0.0
 11
-11.90589086011921
 21
7.645650146482902
 31
0.0
  0
LINE
  5
F102B9
330
261
100
AcDbEntity
  8
Geo
100
AcDbLine
 10
-11.90589086011921
 20
7.645650146482902
 30
0.0
 11
-11.80589086011921
 21
7.669252878722501
 31
0.0
  0
LINE
  5
F102BB
330
261
100
AcDbEntity
  8
Geo
100
AcDbLine
 10
-11.80589086011921
 20
7.669252878722501
 30
0.0
 11
-11.70589086011921
 21
7.693459234267097
 31
0.0
  0
LINE
  5
F102BD
330
261
100
AcDbEntity
  8
Geo
100
AcDbLine
 10
-11.70589086011921
 20
7.693459234267097
 30
0.0
 11
-11.60589086011921
 21
7.7182776989718
 31
0.0
  0
LINE
  5
F102BF
330
261
100
AcDbEntity
  8
Geo
100
AcDbLine
 10
-11.60589086011921
 20
7.7182776989718
 30
0.0
 11
-11.50589086011911
 21
7.7437168365259
 31
0.0
  0
LINE
  5
F102C1
330
261
100
AcDbEntity
  8
Geo
100
AcDbLine
 10
-11.50589086011911
 20
7.7437168365259
 30
0.0
 11
-11.40589086011911
 21
7.769785283698898
 31
0.0
  0
LINE
  5
F102C3
330
261
100
AcDbEntity
  8
Geo
100
AcDbLine
 10
-11.40589086011911
 20
7.769785283698898
 30
0.0
 11
-11.30589086011911
 21
7.796491745445398
 31
0.0
  0
LINE
  5
F102C5
330
261
100
AcDbEntity
  8
Geo
100
AcDbLine
 10
-11.30589086011911
 20
7.796491745445398
 30
0.0
 11
-11.20589086011911
 21
7.823844989867
 31
0.0
  0
LINE
  5
F102C7
330
261
100
AcDbEntity
  8
Geo
100
AcDbLine
 10
-11.20589086011911
 20
7.823844989867
 30
0.0
 11
-11.10589086011912
 21
7.851853843027
 31
0.0
  0
LINE
  5
F102C9
330
261
100
AcDbEntity
  8
Geo
100
AcDbLine
 10
-11.10589086011912
 20
7.851853843027
 30
0.0
 11
-11.00589086011911
 21
7.880527183617
 31
0.0
  0
LINE
  5
F102CB
330
261
100
AcDbEntity
  8
Geo
100
AcDbLine
 10
-11.00589086011911
 20
7.880527183617
 30
0.0
 11
-10.90589086011911
 21
7.909873937472998
 31
0.0
  0
LINE
  5
F102CD
330
261
100
AcDbEntity
  8
Geo
100
AcDbLine
 10
-10.90589086011911
 20
7.909873937472998
 30
0.0
 11
-10.80589086011911
 21
7.939903071937803
 31
0.0
  0
LINE
  5
F102CF
330
261
100
AcDbEntity
  8
Geo
100
AcDbLine
 10
-10.80589086011911
 20
7.939903071937803
 30
0.0
 11
-10.70589086011911
 21
7.970623590068499
 31
0.0
  0
LINE
  5
F102D1
330
261
100
AcDbEntity
  8
Geo
100
AcDbLine
 10
-10.70589086011911
 20
7.970623590068499
 30
0.0
 11
-10.60589086011912
 21
8.002044524686098
 31
0.0
  0
LINE
  5
F102D3
330
261
100
AcDbEntity
  8
Geo
100
AcDbLine
 10
-10.60589086011912
 20
8.002044524686098
 30
0.0
 11
-10.50589086011911
 21
8.034174932265699
 31
0.0
  0
LINE
  5
F102D5
330
261
100
AcDbEntity
  8
Geo
100
AcDbLine
 10
-10.50589086011911
 20
8.034174932265699
 30
0.0
 11
-10.40589086011911
 21
8.067023886663999
 31
0.0
  0
LINE
  5
F102D7
330
261
100
AcDbEntity
  8
Geo
100
AcDbLine
 10
-10.40589086011911
 20
8.067023886663999
 30
0.0
 11
-10.30589086011911
 21
8.100600472684098
 31
0.0
  0
LINE
  5
F102D9
330
261
100
AcDbEntity
  8
Geo
100
AcDbLine
 10
-10.30589086011911
 20
8.100600472684098
 30
0.0
 11
-10.20589086011911
 21
8.134913779472897
 31
0.0
  0
LINE
  5
F102DB
330
261
100
AcDbEntity
  8
Geo
100
AcDbLine
 10
-10.20589086011911
 20
8.134913779472897
 30
0.0
 11
-10.10589086011911
 21
8.169972893751799
 31
0.0
  0
LINE
  5
F102DD
330
261
100
AcDbEntity
  8
Geo
100
AcDbLine
 10
-10.10589086011911
 20
8.169972893751799
 30
0.0
 11
-10.00589086011911
 21
8.205786892876698
 31
0.0
  0
LINE
  5
F102DF
330
261
100
AcDbEntity
  8
Geo
100
AcDbLine
 10
-10.00589086011911
 20
8.205786892876698
 30
0.0
 11
-9.905890860119113
 21
8.242364837726798
 31
0.0
  0
LINE
  5
F102E1
330
261
100
AcDbEntity
  8
Geo
100
AcDbLine
 10
-9.905890860119113
 20
8.242364837726798
 30
0.0
 11
-9.805890860119113
 21
8.279715765419799
 31
0.0
  0
LINE
  5
F102E3
330
261
100
AcDbEntity
  8
Geo
100
AcDbLine
 10
-9.805890860119113
 20
8.279715765419799
 30
0.0
 11
-9.705890860119112
 21
8.317848681852
 31
0.0
  0
LINE
  5
F102E5
330
261
100
AcDbEntity
  8
Geo
100
AcDbLine
 10
-9.705890860119112
 20
8.317848681852
 30
0.0
 11
-9.605890860119117
 21
8.3567725540624
 31
0.0
  0
LINE
  5
F102E7
330
261
100
AcDbEntity
  8
Geo
100
AcDbLine
 10
-9.605890860119117
 20
8.3567725540624
 30
0.0
 11
-9.505890860119206
 21
8.396496302417498
 31
0.0
  0
LINE
  5
F102E9
330
261
100
AcDbEntity
  8
Geo
100
AcDbLine
 10
-37.00589086011922
 20
13.1699258663398
 30
0.0
 11
-36.90589086011921
 21
13.6539453698721
 31
0.0
  0
LINE
  5
F102EB
330
261
100
AcDbEntity
  8
Geo
100
AcDbLine
 10
-36.90589086011921
 20
13.6539453698721
 30
0.0
 11
-36.80589086011921
 21
13.8394486461984
 31
0.0
  0
LINE
  5
F102ED
330
261
100
AcDbEntity
  8
Geo
100
AcDbLine
 10
-36.80589086011921
 20
13.8394486461984
 30
0.0
 11
-36.70589086011921
 21
13.9716134251676
 31
0.0
  0
LINE
  5
F102EF
330
261
100
AcDbEntity
  8
Geo
100
AcDbLine
 10
-36.70589086011921
 20
13.9716134251676
 30
0.0
 11
-36.60589086011921
 21
14.0745499237078
 31
0.0
  0
LINE
  5
F102F1
330
261
100
AcDbEntity
  8
Geo
100
AcDbLine
 10
-36.60589086011921
 20
14.0745499237078
 30
0.0
 11
-36.50589086011922
 21
14.157815857295
 31
0.0
  0
LINE
  5
F102F3
330
261
100
AcDbEntity
  8
Geo
100
AcDbLine
 10
-36.50589086011922
 20
14.157815857295
 30
0.0
 11
-36.40589086011921
 21
14.2264230783943
 31
0.0
  0
LINE
  5
F102F5
330
261
100
AcDbEntity
  8
Geo
100
AcDbLine
 10
-36.40589086011921
 20
14.2264230783943
 30
0.0
 11
-36.30589086011922
 21
14.283414912429
 31
0.0
  0
LINE
  5
F102F7
330
261
100
AcDbEntity
  8
Geo
100
AcDbLine
 10
-36.30589086011922
 20
14.283414912429
 30
0.0
 11
-36.2058908601192
 21
14.3308182210205
 31
0.0
  0
LINE
  5
F102F9
330
261
100
AcDbEntity
  8
Geo
100
AcDbLine
 10
-36.2058908601192
 20
14.3308182210205
 30
0.0
 11
-36.10589086011921
 21
14.3700722576321
 31
0.0
  0
LINE
  5
F102FB
330
261
100
AcDbEntity
  8
Geo
100
AcDbLine
 10
-36.10589086011921
 20
14.3700722576321
 30
0.0
 11
-36.00589086011922
 21
14.4022485230207
 31
0.0
  0
LINE
  5
F102FD
330
261
100
AcDbEntity
  8
Geo
100
AcDbLine
 10
-36.00589086011922
 20
14.4022485230207
 30
0.0
 11
-35.90589086011921
 21
14.4281743494735
 31
0.0
  0
LINE
  5
F102FF
330
261
100
AcDbEntity
  8
Geo
100
AcDbLine
 10
-35.90589086011921
 20
14.4281743494735
 30
0.0
 11
-35.80589086011921
 21
14.4485073551969
 31
0.0
  0
LINE
  5
F10301
330
261
100
AcDbEntity
  8
Geo
100
AcDbLine
 10
-35.80589086011921
 20
14.4485073551969
 30
0.0
 11
-35.70589086011921
 21
14.46378279917
 31
0.0
  0
LINE
  5
F10303
330
261
100
AcDbEntity
  8
Geo
100
AcDbLine
 10
-35.70589086011921
 20
14.46378279917
 30
0.0
 11
-35.60589086011921
 21
14.4744450439502
 31
0.0
  0
LINE
  5
F10305
330
261
100
AcDbEntity
  8
Geo
100
AcDbLine
 10
-35.60589086011921
 20
14.4744450439502
 30
0.0
 11
-35.50589086011922
 21
14.4808692247999
 31
0.0
  0
LINE
  5
F10307
330
261
100
AcDbEntity
  8
Geo
100
AcDbLine
 10
-35.50589086011922
 20
14.4808692247999
 30
0.0
 11
-35.40589086011921
 21
14.483376630291
 31
0.0
  0
LINE
  5
F10309
330
261
100
AcDbEntity
  8
Geo
100
AcDbLine
 10
-35.40589086011921
 20
14.483376630291
 30
0.0
 11
-35.30589086011922
 21
14.482245902924
 31
0.0
  0
LINE
  5
F1030B
330
261
100
AcDbEntity
  8
Geo
100
AcDbLine
 10
-35.30589086011922
 20
14.482245902924
 30
0.0
 11
-35.2058908601192
 21
14.4777213779636
 31
0.0
  0
LINE
  5
F1030D
330
261
100
AcDbEntity
  8
Geo
100
AcDbLine
 10
-35.2058908601192
 20
14.4777213779636
 30
0.0
 11
-35.10589086011921
 21
14.4700194122626
 31
0.0
  0
LINE
  5
F1030F
330
261
100
AcDbEntity
  8
Geo
100
AcDbLine
 10
-35.10589086011921
 20
14.4700194122626
 30
0.0
 11
-35.00589086011922
 21
14.4593332694538
 31
0.0
  0
LINE
  5
F10311
330
261
100
AcDbEntity
  8
Geo
100
AcDbLine
 10
-35.00589086011922
 20
14.4593332694538
 30
0.0
 11
-34.90589086011921
 21
14.4458369476905
 31
0.0
  0
LINE
  5
F10313
330
261
100
AcDbEntity
  8
Geo
100
AcDbLine
 10
-34.90589086011921
 20
14.4458369476905
 30
0.0
 11
-34.80589086011921
 21
14.4296882191559
 31
0.0
  0
LINE
  5
F10315
330
261
100
AcDbEntity
  8
Geo
100
AcDbLine
 10
-34.80589086011921
 20
14.4296882191559
 30
0.0
 11
-34.70589086011921
 21
14.4110310727667
 31
0.0
  0
LINE
  5
F10317
330
261
100
AcDbEntity
  8
Geo
100
AcDbLine
 10
-34.70589086011921
 20
14.4110310727667
 30
0.0
 11
-34.60589086011921
 21
14.3899976986113
 31
0.0
  0
LINE
  5
F10319
330
261
100
AcDbEntity
  8
Geo
100
AcDbLine
 10
-34.60589086011921
 20
14.3899976986113
 30
0.0
 11
-34.50589086011922
 21
14.3667101160029
 31
0.0
  0
LINE
  5
F1031B
330
261
100
AcDbEntity
  8
Geo
100
AcDbLine
 10
-34.50589086011922
 20
14.3667101160029
 30
0.0
 11
-34.40589086011921
 21
14.3412815211556
 31
0.0
  0
LINE
  5
F1031D
330
261
100
AcDbEntity
  8
Geo
100
AcDbLine
 10
-34.40589086011921
 20
14.3412815211556
 30
0.0
 11
-34.30589086011921
 21
14.3138174119479
 31
0.0
  0
LINE
  5
F1031F
330
261
100
AcDbEntity
  8
Geo
100
AcDbLine
 10
-34.30589086011921
 20
14.3138174119479
 30
0.0
 11
-34.20589086011921
 21
14.2844165337372
 31
0.0
  0
LINE
  5
F10321
330
261
100
AcDbEntity
  8
Geo
100
AcDbLine
 10
-34.20589086011921
 20
14.2844165337372
 30
0.0
 11
-34.10589086011921
 21
14.25317168023959
 31
0.0
  0
LINE
  5
F10323
330
261
100
AcDbEntity
  8
Geo
100
AcDbLine
 10
-34.10589086011921
 20
14.25317168023959
 30
0.0
 11
-34.00589086011922
 21
14.2201703760589
 31
0.0
  0
LINE
  5
F10325
330
261
100
AcDbEntity
  8
Geo
100
AcDbLine
 10
-34.00589086011922
 20
14.2201703760589
 30
0.0
 11
-33.90589086011921
 21
14.1854954618361
 31
0.0
  0
LINE
  5
F10327
330
261
100
AcDbEntity
  8
Geo
100
AcDbLine
 10
-33.90589086011921
 20
14.1854954618361
 30
0.0
 11
-33.80589086011922
 21
14.1492255987149
 31
0.0
  0
LINE
  5
F10329
330
261
100
AcDbEntity
  8
Geo
100
AcDbLine
 10
-33.80589086011922
 20
14.1492255987149
 30
0.0
 11
-33.7058908601192
 21
14.1114357055135
 31
0.0
  0
LINE
  5
F1032B
330
261
100
AcDbEntity
  8
Geo
100
AcDbLine
 10
-33.7058908601192
 20
14.1114357055135
 30
0.0
 11
-33.60589086011921
 21
14.07219733943169
 31
0.0
  0
LINE
  5
F1032D
330
261
100
AcDbEntity
  8
Geo
100
AcDbLine
 10
-33.60589086011921
 20
14.07219733943169
 30
0.0
 11
-33.50589086011922
 21
14.0315790291123
 31
0.0
  0
LINE
  5
F1032F
330
261
100
AcDbEntity
  8
Geo
100
AcDbLine
 10
-33.50589086011922
 20
14.0315790291123
 30
0.0
 11
-33.40589086011921
 21
13.9896465672794
 31
0.0
  0
LINE
  5
F10331
330
261
100
AcDbEntity
  8
Geo
100
AcDbLine
 10
-33.40589086011921
 20
13.9896465672794
 30
0.0
 11
-33.30589086011921
 21
13.9464632689187
 31
0.0
  0
LINE
  5
F10333
330
261
100
AcDbEntity
  8
Geo
100
AcDbLine
 10
-33.30589086011921
 20
13.9464632689187
 30
0.0
 11
-33.20589086011921
 21
13.9020901999414
 31
0.0
  0
LINE
  5
F10335
330
261
100
AcDbEntity
  8
Geo
100
AcDbLine
 10
-33.20589086011921
 20
13.9020901999414
 30
0.0
 11
-33.10589086011921
 21
13.8565863804606
 31
0.0
  0
LINE
  5
F10337
330
261
100
AcDbEntity
  8
Geo
100
AcDbLine
 10
-33.10589086011921
 20
13.8565863804606
 30
0.0
 11
-33.00589086011922
 21
13.8100089661387
 31
0.0
  0
LINE
  5
F10339
330
261
100
AcDbEntity
  8
Geo
100
AcDbLine
 10
-33.00589086011922
 20
13.8100089661387
 30
0.0
 11
-32.90589086011921
 21
13.7624134105235
 31
0.0
  0
LINE
  5
F1033B
330
261
100
AcDbEntity
  8
Geo
100
AcDbLine
 10
-32.90589086011921
 20
13.7624134105235
 30
0.0
 11
-32.80589086011922
 21
13.713853610843
 31
0.0
  0
LINE
  5
F1033D
330
261
100
AcDbEntity
  8
Geo
100
AcDbLine
 10
-32.80589086011922
 20
13.713853610843
 30
0.0
 11
-32.7058908601192
 21
13.6643820393618
 31
0.0
  0
LINE
  5
F1033F
330
261
100
AcDbEntity
  8
Geo
100
AcDbLine
 10
-32.7058908601192
 20
13.6643820393618
 30
0.0
 11
-32.60589086011921
 21
13.6140498620927
 31
0.0
  0
LINE
  5
F10341
330
261
100
AcDbEntity
  8
Geo
100
AcDbLine
 10
-32.60589086011921
 20
13.6140498620927
 30
0.0
 11
-32.50589086011922
 21
13.56290704640789
 31
0.0
  0
LINE
  5
F10343
330
261
100
AcDbEntity
  8
Geo
100
AcDbLine
 10
-32.50589086011922
 20
13.56290704640789
 30
0.0
 11
-32.40589086011921
 21
13.5110024588742
 31
0.0
  0
LINE
  5
F10345
330
261
100
AcDbEntity
  8
Geo
100
AcDbLine
 10
-32.40589086011921
 20
13.5110024588742
 30
0.0
 11
-32.30589086011921
 21
13.458383954463
 31
0.0
  0
LINE
  5
F10347
330
261
100
AcDbEntity
  8
Geo
100
AcDbLine
 10
-32.30589086011921
 20
13.458383954463
 30
0.0
 11
-32.20589086011921
 21
13.4050984581314
 31
0.0
  0
LINE
  5
F10349
330
261
100
AcDbEntity
  8
Geo
100
AcDbLine
 10
-32.20589086011921
 20
13.4050984581314
 30
0.0
 11
-32.10589086011921
 21
13.3511920396432
 31
0.0
  0
LINE
  5
F1034B
330
261
100
AcDbEntity
  8
Geo
100
AcDbLine
 10
-32.10589086011921
 20
13.3511920396432
 30
0.0
 11
-32.00589086011922
 21
13.2967099823901
 31
0.0
  0
LINE
  5
F1034D
330
261
100
AcDbEntity
  8
Geo
100
AcDbLine
 10
-32.00589086011922
 20
13.2967099823901
 30
0.0
 11
-31.90589086011921
 21
13.2416968468802
 31
0.0
  0
LINE
  5
F1034F
330
261
100
AcDbEntity
  8
Geo
100
AcDbLine
 10
-31.90589086011921
 20
13.2416968468802
 30
0.0
 11
-31.80589086011921
 21
13.1861965294821
 31
0.0
  0
LINE
  5
F10351
330
261
100
AcDbEntity
  8
Geo
100
AcDbLine
 10
-31.80589086011921
 20
13.1861965294821
 30
0.0
 11
-31.70589086011921
 21
13.1302523169443
 31
0.0
  0
LINE
  5
F10353
330
261
100
AcDbEntity
  8
Geo
100
AcDbLine
 10
-31.70589086011921
 20
13.1302523169443
 30
0.0
 11
-31.60589086011921
 21
13.0739069371505
 31
0.0
  0
LINE
  5
F10355
330
261
100
AcDbEntity
  8
Geo
100
AcDbLine
 10
-31.60589086011921
 20
13.0739069371505
 30
0.0
 11
-31.50589086011922
 21
13.0172026065242
 31
0.0
  0
LINE
  5
F10357
330
261
100
AcDbEntity
  8
Geo
100
AcDbLine
 10
-31.50589086011922
 20
13.0172026065242
 30
0.0
 11
-31.40589086011921
 21
12.9601810744483
 31
0.0
  0
LINE
  5
F10359
330
261
100
AcDbEntity
  8
Geo
100
AcDbLine
 10
-31.40589086011921
 20
12.9601810744483
 30
0.0
 11
-31.30589086011922
 21
12.9028836650304
 31
0.0
  0
LINE
  5
F1035B
330
261
100
AcDbEntity
  8
Geo
100
AcDbLine
 10
-31.30589086011922
 20
12.9028836650304
 30
0.0
 11
-31.2058908601192
 21
12.8453513165134
 31
0.0
  0
LINE
  5
F1035D
330
261
100
AcDbEntity
  8
Geo
100
AcDbLine
 10
-31.2058908601192
 20
12.8453513165134
 30
0.0
 11
-31.10589086011921
 21
12.7876246185999
 31
0.0
  0
LINE
  5
F1035F
330
261
100
AcDbEntity
  8
Geo
100
AcDbLine
 10
-31.10589086011921
 20
12.7876246185999
 30
0.0
 11
-31.00589086011922
 21
12.7297438479367
 31
0.0
  0
LINE
  5
F10361
330
261
100
AcDbEntity
  8
Geo
100
AcDbLine
 10
-31.00589086011922
 20
12.7297438479367
 30
0.0
 11
-30.90589086011921
 21
12.671749001985
 31
0.0
  0
LINE
  5
F10363
330
261
100
AcDbEntity
  8
Geo
100
AcDbLine
 10
-30.90589086011921
 20
12.671749001985
 30
0.0
 11
-30.80589086011921
 21
12.6136798314839
 31
0.0
  0
LINE
  5
F10365
330
261
100
AcDbEntity
  8
Geo
100
AcDbLine
 10
-30.80589086011921
 20
12.6136798314839
 30
0.0
 11
-30.70589086011921
 21
12.5555758716976
 31
0.0
  0
LINE
  5
F10367
330
261
100
AcDbEntity
  8
Geo
100
AcDbLine
 10
-30.70589086011921
 20
12.5555758716976
 30
0.0
 11
-30.60589086011921
 21
12.4974764726273
 31
0.0
  0
LINE
  5
F10369
330
261
100
AcDbEntity
  8
Geo
100
AcDbLine
 10
-30.60589086011921
 20
12.4974764726273
 30
0.0
 11
-30.50589086011922
 21
12.4394208283546
 31
0.0
  0
LINE
  5
F1036B
330
261
100
AcDbEntity
  8
Geo
100
AcDbLine
 10
-30.50589086011922
 20
12.4394208283546
 30
0.0
 11
-30.40589086011921
 21
12.3814480056746
 31
0.0
  0
LINE
  5
F1036D
330
261
100
AcDbEntity
  8
Geo
100
AcDbLine
 10
-30.40589086011921
 20
12.3814480056746
 30
0.0
 11
-30.30589086011922
 21
12.3235969721723
 31
0.0
  0
LINE
  5
F1036F
330
261
100
AcDbEntity
  8
Geo
100
AcDbLine
 10
-30.30589086011922
 20
12.3235969721723
 30
0.0
 11
-30.2058908601192
 21
12.2659066238852
 31
0.0
  0
LINE
  5
F10371
330
261
100
AcDbEntity
  8
Geo
100
AcDbLine
 10
-30.2058908601192
 20
12.2659066238852
 30
0.0
 11
-30.10589086011921
 21
12.2084158126949
 31
0.0
  0
LINE
  5
F10373
330
261
100
AcDbEntity
  8
Geo
100
AcDbLine
 10
-30.10589086011921
 20
12.2084158126949
 30
0.0
 11
-30.00589086011922
 21
12.1511633735855
 31
0.0
  0
LINE
  5
F10375
330
261
100
AcDbEntity
  8
Geo
100
AcDbLine
 10
-30.00589086011922
 20
12.1511633735855
 30
0.0
 11
-29.90589086011921
 21
12.0940783659447
 31
0.0
  0
LINE
  5
F10377
330
261
100
AcDbEntity
  8
Geo
100
AcDbLine
 10
-29.90589086011921
 20
12.0940783659447
 30
0.0
 11
-29.80589086011921
 21
12.0370665447939
 31
0.0
  0
LINE
  5
F10379
330
261
100
AcDbEntity
  8
Geo
100
AcDbLine
 10
-29.80589086011921
 20
12.0370665447939
 30
0.0
 11
-29.70589086011921
 21
11.9801317884661
 31
0.0
  0
LINE
  5
F1037B
330
261
100
AcDbEntity
  8
Geo
100
AcDbLine
 10
-29.70589086011921
 20
11.9801317884661
 30
0.0
 11
-29.60589086011921
 21
11.9232779700521
 31
0.0
  0
LINE
  5
F1037D
330
261
100
AcDbEntity
  8
Geo
100
AcDbLine
 10
-29.60589086011921
 20
11.9232779700521
 30
0.0
 11
-29.50589086011922
 21
11.8665089571368
 31
0.0
  0
LINE
  5
F1037F
330
261
100
AcDbEntity
  8
Geo
100
AcDbLine
 10
-29.50589086011922
 20
11.8665089571368
 30
0.0
 11
-29.40589086011921
 21
11.8098286115357
 31
0.0
  0
LINE
  5
F10381
330
261
100
AcDbEntity
  8
Geo
100
AcDbLine
 10
-29.40589086011921
 20
11.8098286115357
 30
0.0
 11
-29.30589086011922
 21
11.75324078903289
 31
0.0
  0
LINE
  5
F10383
330
261
100
AcDbEntity
  8
Geo
100
AcDbLine
 10
-29.30589086011922
 20
11.75324078903289
 30
0.0
 11
-29.20589086011921
 21
11.6967493391183
 31
0.0
  0
LINE
  5
F10385
330
261
100
AcDbEntity
  8
Geo
100
AcDbLine
 10
-29.20589086011921
 20
11.6967493391183
 30
0.0
 11
-29.10589086011921
 21
11.6403581047258
 31
0.0
  0
LINE
  5
F10387
330
261
100
AcDbEntity
  8
Geo
100
AcDbLine
 10
-29.10589086011921
 20
11.6403581047258
 30
0.0
 11
-29.00589086011922
 21
11.5840709219722
 31
0.0
  0
LINE
  5
F10389
330
261
100
AcDbEntity
  8
Geo
100
AcDbLine
 10
-29.00589086011922
 20
11.5840709219722
 30
0.0
 11
-28.90589086011921
 21
11.5278916198957
 31
0.0
  0
LINE
  5
F1038B
330
261
100
AcDbEntity
  8
Geo
100
AcDbLine
 10
-28.90589086011921
 20
11.5278916198957
 30
0.0
 11
-28.80589086011922
 21
11.471824020196
 31
0.0
  0
LINE
  5
F1038D
330
261
100
AcDbEntity
  8
Geo
100
AcDbLine
 10
-28.80589086011922
 20
11.471824020196
 30
0.0
 11
-28.7058908601192
 21
11.4158719369738
 31
0.0
  0
LINE
  5
F1038F
330
261
100
AcDbEntity
  8
Geo
100
AcDbLine
 10
-28.7058908601192
 20
11.4158719369738
 30
0.0
 11
-28.60589086011921
 21
11.3600391764717
 31
0.0
  0
LINE
  5
F10391
330
261
100
AcDbEntity
  8
Geo
100
AcDbLine
 10
-28.60589086011921
 20
11.3600391764717
 30
0.0
 11
-28.50589086011922
 21
11.3043295368151
 31
0.0
  0
LINE
  5
F10393
330
261
100
AcDbEntity
  8
Geo
100
AcDbLine
 10
-28.50589086011922
 20
11.3043295368151
 30
0.0
 11
-28.40589086011921
 21
11.2487468077541
 31
0.0
  0
LINE
  5
F10395
330
261
100
AcDbEntity
  8
Geo
100
AcDbLine
 10
-28.40589086011921
 20
11.2487468077541
 30
0.0
 11
-28.30589086011921
 21
11.1932947704051
 31
0.0
  0
LINE
  5
F10397
330
261
100
AcDbEntity
  8
Geo
100
AcDbLine
 10
-28.30589086011921
 20
11.1932947704051
 30
0.0
 11
-28.20589086011921
 21
11.1379771969943
 31
0.0
  0
LINE
  5
F10399
330
261
100
AcDbEntity
  8
Geo
100
AcDbLine
 10
-28.20589086011921
 20
11.1379771969943
 30
0.0
 11
-28.10589086011921
 21
11.0827978506005
 31
0.0
  0
LINE
  5
F1039B
330
261
100
AcDbEntity
  8
Geo
100
AcDbLine
 10
-28.10589086011921
 20
11.0827978506005
 30
0.0
 11
-28.00589086011921
 21
11.0277604848995
 31
0.0
  0
LINE
  5
F1039D
330
261
100
AcDbEntity
  8
Geo
100
AcDbLine
 10
-28.00589086011921
 20
11.0277604848995
 30
0.0
 11
-27.90589086011921
 21
10.9728688439085
 31
0.0
  0
LINE
  5
F1039F
330
261
100
AcDbEntity
  8
Geo
100
AcDbLine
 10
-27.90589086011921
 20
10.9728688439085
 30
0.0
 11
-27.80589086011922
 21
10.91812666173169
 31
0.0
  0
LINE
  5
F103A1
330
261
100
AcDbEntity
  8
Geo
100
AcDbLine
 10
-27.80589086011922
 20
10.91812666173169
 30
0.0
 11
-27.7058908601192
 21
10.8635376623058
 31
0.0
  0
LINE
  5
F103A3
330
261
100
AcDbEntity
  8
Geo
100
AcDbLine
 10
-27.7058908601192
 20
10.8635376623058
 30
0.0
 11
-27.60589086011921
 21
10.8091055591472
 31
0.0
  0
LINE
  5
F103A5
330
261
100
AcDbEntity
  8
Geo
100
AcDbLine
 10
-27.60589086011921
 20
10.8091055591472
 30
0.0
 11
-27.50589086011922
 21
10.7548340550991
 31
0.0
  0
LINE
  5
F103A7
330
261
100
AcDbEntity
  8
Geo
100
AcDbLine
 10
-27.50589086011922
 20
10.7548340550991
 30
0.0
 11
-27.40589086011921
 21
10.7007268420796
 31
0.0
  0
LINE
  5
F103A9
330
261
100
AcDbEntity
  8
Geo
100
AcDbLine
 10
-27.40589086011921
 20
10.7007268420796
 30
0.0
 11
-27.30589086011921
 21
10.6467876008306
 31
0.0
  0
LINE
  5
F103AB
330
261
100
AcDbEntity
  8
Geo
100
AcDbLine
 10
-27.30589086011921
 20
10.6467876008306
 30
0.0
 11
-27.20589086011921
 21
10.5930200006674
 31
0.0
  0
LINE
  5
F103AD
330
261
100
AcDbEntity
  8
Geo
100
AcDbLine
 10
-27.20589086011921
 20
10.5930200006674
 30
0.0
 11
-27.10589086011921
 21
10.5394276992293
 31
0.0
  0
LINE
  5
F103AF
330
261
100
AcDbEntity
  8
Geo
100
AcDbLine
 10
-27.10589086011921
 20
10.5394276992293
 30
0.0
 11
-27.00589086011922
 21
10.4860143422302
 31
0.0
  0
LINE
  5
F103B1
330
261
100
AcDbEntity
  8
Geo
100
AcDbLine
 10
-27.00589086011922
 20
10.4860143422302
 30
0.0
 11
-26.90589086011921
 21
10.4327835632114
 31
0.0
  0
LINE
  5
F103B3
330
261
100
AcDbEntity
  8
Geo
100
AcDbLine
 10
-26.90589086011921
 20
10.4327835632114
 30
0.0
 11
-26.80589086011921
 21
10.3797389832937
 31
0.0
  0
LINE
  5
F103B5
330
261
100
AcDbEntity
  8
Geo
100
AcDbLine
 10
-26.80589086011921
 20
10.3797389832937
 30
0.0
 11
-26.70589086011921
 21
10.3268842109315
 31
0.0
  0
LINE
  5
F103B7
330
261
100
AcDbEntity
  8
Geo
100
AcDbLine
 10
-26.70589086011921
 20
10.3268842109315
 30
0.0
 11
-26.60589086011921
 21
10.2742228416671
 31
0.0
  0
LINE
  5
F103B9
330
261
100
AcDbEntity
  8
Geo
100
AcDbLine
 10
-26.60589086011921
 20
10.2742228416671
 30
0.0
 11
-26.50589086011922
 21
10.2217584578864
 31
0.0
  0
LINE
  5
F103BB
330
261
100
AcDbEntity
  8
Geo
100
AcDbLine
 10
-26.50589086011922
 20
10.2217584578864
 30
0.0
 11
-26.40589086011921
 21
10.1694946285747
 31
0.0
  0
LINE
  5
F103BD
330
261
100
AcDbEntity
  8
Geo
100
AcDbLine
 10
-26.40589086011921
 20
10.1694946285747
 30
0.0
 11
-26.30589086011922
 21
10.1174349090746
 31
0.0
  0
LINE
  5
F103BF
330
261
100
AcDbEntity
  8
Geo
100
AcDbLine
 10
-26.30589086011922
 20
10.1174349090746
 30
0.0
 11
-26.2058908601192
 21
10.0655828408433
 31
0.0
  0
LINE
  5
F103C1
330
261
100
AcDbEntity
  8
Geo
100
AcDbLine
 10
-26.2058908601192
 20
10.0655828408433
 30
0.0
 11
-26.10589086011921
 21
10.0139419512125
 31
0.0
  0
LINE
  5
F103C3
330
261
100
AcDbEntity
  8
Geo
100
AcDbLine
 10
-26.10589086011921
 20
10.0139419512125
 30
0.0
 11
-26.00589086011922
 21
9.962515753147899
 31
0.0
  0
LINE
  5
F103C5
330
261
100
AcDbEntity
  8
Geo
100
AcDbLine
 10
-26.00589086011922
 20
9.962515753147899
 30
0.0
 11
-25.90589086011921
 21
9.911307745010699
 31
0.0
  0
LINE
  5
F103C7
330
261
100
AcDbEntity
  8
Geo
100
AcDbLine
 10
-25.90589086011921
 20
9.911307745010699
 30
0.0
 11
-25.80589086011921
 21
9.860321410318903
 31
0.0
  0
LINE
  5
F103C9
330
261
100
AcDbEntity
  8
Geo
100
AcDbLine
 10
-25.80589086011921
 20
9.860321410318903
 30
0.0
 11
-25.70589086011921
 21
9.809560217511002
 31
0.0
  0
LINE
  5
F103CB
330
261
100
AcDbEntity
  8
Geo
100
AcDbLine
 10
-25.70589086011921
 20
9.809560217511002
 30
0.0
 11
-25.60589086011921
 21
9.7590276197099
 31
0.0
  0
LINE
  5
F103CD
330
261
100
AcDbEntity
  8
Geo
100
AcDbLine
 10
-25.60589086011921
 20
9.7590276197099
 30
0.0
 11
-25.50589086011922
 21
9.708727054487797
 31
0.0
  0
LINE
  5
F103CF
330
261
100
AcDbEntity
  8
Geo
100
AcDbLine
 10
-25.50589086011922
 20
9.708727054487797
 30
0.0
 11
-25.40589086011921
 21
9.658661943632301
 31
0.0
  0
LINE
  5
F103D1
330
261
100
AcDbEntity
  8
Geo
100
AcDbLine
 10
-25.40589086011921
 20
9.658661943632301
 30
0.0
 11
-25.30589086011922
 21
9.608835692914096
 31
0.0
  0
LINE
  5
F103D3
330
261
100
AcDbEntity
  8
Geo
100
AcDbLine
 10
-25.30589086011922
 20
9.608835692914096
 30
0.0
 11
-25.2058908601192
 21
9.5592516918549
 31
0.0
  0
LINE
  5
F103D5
330
261
100
AcDbEntity
  8
Geo
100
AcDbLine
 10
-25.2058908601192
 20
9.5592516918549
 30
0.0
 11
-25.10589086011921
 21
9.509913313496598
 31
0.0
  0
LINE
  5
F103D7
330
261
100
AcDbEntity
  8
Geo
100
AcDbLine
 10
-25.10589086011921
 20
9.509913313496598
 30
0.0
 11
-25.00589086011922
 21
9.460823914172802
 31
0.0
  0
LINE
  5
F103D9
330
261
100
AcDbEntity
  8
Geo
100
AcDbLine
 10
-25.00589086011922
 20
9.460823914172802
 30
0.0
 11
-24.90589086011921
 21
9.411986833279199
 31
0.0
  0
LINE
  5
F103DB
330
261
100
AcDbEntity
  8
Geo
100
AcDbLine
 10
-24.90589086011921
 20
9.411986833279199
 30
0.0
 11
-24.80589086011921
 21
9.3634053930475
 31
0.0
  0
LINE
  5
F103DD
330
261
100
AcDbEntity
  8
Geo
100
AcDbLine
 10
-24.80589086011921
 20
9.3634053930475
 30
0.0
 11
-24.70589086011921
 21
9.3150828983188
 31
0.0
  0
LINE
  5
F103DF
330
261
100
AcDbEntity
  8
Geo
100
AcDbLine
 10
-24.70589086011921
 20
9.3150828983188
 30
0.0
 11
-24.60589086011921
 21
9.267022636319095
 31
0.0
  0
LINE
  5
F103E1
330
261
100
AcDbEntity
  8
Geo
100
AcDbLine
 10
-24.60589086011921
 20
9.267022636319095
 30
0.0
 11
-24.50589086011922
 21
9.219227876435301
 31
0.0
  0
LINE
  5
F103E3
330
261
100
AcDbEntity
  8
Geo
100
AcDbLine
 10
-24.50589086011922
 20
9.219227876435301
 30
0.0
 11
-24.40589086011921
 21
9.171701869993199
 31
0.0
  0
LINE
  5
F103E5
330
261
100
AcDbEntity
  8
Geo
100
AcDbLine
 10
-24.40589086011921
 20
9.171701869993199
 30
0.0
 11
-24.30589086011921
 21
9.1244478500363
 31
0.0
  0
LINE
  5
F103E7
330
261
100
AcDbEntity
  8
Geo
100
AcDbLine
 10
-24.30589086011921
 20
9.1244478500363
 30
0.0
 11
-24.20589086011921
 21
9.077469031105399
 31
0.0
  0
LINE
  5
F103E9
330
261
100
AcDbEntity
  8
Geo
100
AcDbLine
 10
-24.20589086011921
 20
9.077469031105399
 30
0.0
 11
-24.10589086011921
 21
9.030768609020398
 31
0.0
  0
LINE
  5
F103EB
330
261
100
AcDbEntity
  8
Geo
100
AcDbLine
 10
-24.10589086011921
 20
9.030768609020398
 30
0.0
 11
-24.00589086011922
 21
8.984349760662899
 31
0.0
  0
LINE
  5
F103ED
330
261
100
AcDbEntity
  8
Geo
100
AcDbLine
 10
-24.00589086011922
 20
8.984349760662899
 30
0.0
 11
-23.90589086011921
 21
8.938215643759598
 31
0.0
  0
LINE
  5
F103EF
330
261
100
AcDbEntity
  8
Geo
100
AcDbLine
 10
-23.90589086011921
 20
8.938215643759598
 30
0.0
 11
-23.80589086011921
 21
8.892369396668099
 31
0.0
  0
LINE
  5
F103F1
330
261
100
AcDbEntity
  8
Geo
100
AcDbLine
 10
-23.80589086011921
 20
8.892369396668099
 30
0.0
 11
-23.7058908601192
 21
8.846814138162997
 31
0.0
  0
LINE
  5
F103F3
330
261
100
AcDbEntity
  8
Geo
100
AcDbLine
 10
-23.7058908601192
 20
8.846814138162997
 30
0.0
 11
-23.60589086011921
 21
8.801552967223997
 31
0.0
  0
LINE
  5
F103F5
330
261
100
AcDbEntity
  8
Geo
100
AcDbLine
 10
-23.60589086011921
 20
8.801552967223997
 30
0.0
 11
-23.50589086011922
 21
8.7565889628248
 31
0.0
  0
LINE
  5
F103F7
330
261
100
AcDbEntity
  8
Geo
100
AcDbLine
 10
-23.50589086011922
 20
8.7565889628248
 30
0.0
 11
-23.40589086011921
 21
8.7119251837239
 31
0.0
  0
LINE
  5
F103F9
330
261
100
AcDbEntity
  8
Geo
100
AcDbLine
 10
-23.40589086011921
 20
8.7119251837239
 30
0.0
 11
-23.30589086011921
 21
8.667564668256302
 31
0.0
  0
LINE
  5
F103FB
330
261
100
AcDbEntity
  8
Geo
100
AcDbLine
 10
-23.30589086011921
 20
8.667564668256302
 30
0.0
 11
-23.20589086011921
 21
8.623510434127199
 31
0.0
  0
LINE
  5
F103FD
330
261
100
AcDbEntity
  8
Geo
100
AcDbLine
 10
-23.20589086011921
 20
8.623510434127199
 30
0.0
 11
-23.10589086011921
 21
8.579765478206098
 31
0.0
  0
LINE
  5
F103FF
330
261
100
AcDbEntity
  8
Geo
100
AcDbLine
 10
-23.10589086011921
 20
8.579765478206098
 30
0.0
 11
-23.00589086011922
 21
8.536332776323597
 31
0.0
  0
LINE
  5
F10401
330
261
100
AcDbEntity
  8
Geo
100
AcDbLine
 10
-23.00589086011922
 20
8.536332776323597
 30
0.0
 11
-22.90589086011921
 21
8.493215283068499
 31
0.0
  0
LINE
  5
F10403
330
261
100
AcDbEntity
  8
Geo
100
AcDbLine
 10
-22.90589086011921
 20
8.493215283068499
 30
0.0
 11
-22.80589086011922
 21
8.450415931586999
 31
0.0
  0
LINE
  5
F10405
330
261
100
AcDbEntity
  8
Geo
100
AcDbLine
 10
-22.80589086011922
 20
8.450415931586999
 30
0.0
 11
-22.7058908601192
 21
8.407937633382998
 31
0.0
  0
LINE
  5
F10407
330
261
100
AcDbEntity
  8
Geo
100
AcDbLine
 10
-22.7058908601192
 20
8.407937633382998
 30
0.0
 11
-22.60589086011921
 21
8.365783278120298
 31
0.0
  0
LINE
  5
F10409
330
261
100
AcDbEntity
  8
Geo
100
AcDbLine
 10
-22.60589086011921
 20
8.365783278120298
 30
0.0
 11
-22.50589086011922
 21
8.323955733426
 31
0.0
  0
LINE
  5
F1040B
330
261
100
AcDbEntity
  8
Geo
100
AcDbLine
 10
-22.50589086011922
 20
8.323955733426
 30
0.0
 11
-22.40589086011921
 21
8.282457844695001
 31
0.0
  0
LINE
  5
F1040D
330
261
100
AcDbEntity
  8
Geo
100
AcDbLine
 10
-22.40589086011921
 20
8.282457844695001
 30
0.0
 11
-22.30589086011921
 21
8.241292434897001
 31
0.0
  0
LINE
  5
F1040F
330
261
100
AcDbEntity
  8
Geo
100
AcDbLine
 10
-22.30589086011921
 20
8.241292434897001
 30
0.0
 11
-22.20589086011921
 21
8.2004623043841
 31
0.0
  0
LINE
  5
F10411
330
261
100
AcDbEntity
  8
Geo
100
AcDbLine
 10
-22.20589086011921
 20
8.2004623043841
 30
0.0
 11
-22.10589086011921
 21
8.159970230700498
 31
0.0
  0
LINE
  5
F10413
330
261
100
AcDbEntity
  8
Geo
100
AcDbLine
 10
-22.10589086011921
 20
8.159970230700498
 30
0.0
 11
-22.00589086011921
 21
8.119818968393397
 31
0.0
  0
LINE
  5
F10415
330
261
100
AcDbEntity
  8
Geo
100
AcDbLine
 10
-22.00589086011921
 20
8.119818968393397
 30
0.0
 11
-21.90589086011921
 21
8.0800112488257
 31
0.0
  0
LINE
  5
F10417
330
261
100
AcDbEntity
  8
Geo
100
AcDbLine
 10
-21.90589086011921
 20
8.0800112488257
 30
0.0
 11
-21.80589086011921
 21
8.040549779990199
 31
0.0
  0
LINE
  5
F10419
330
261
100
AcDbEntity
  8
Geo
100
AcDbLine
 10
-21.80589086011921
 20
8.040549779990199
 30
0.0
 11
-21.7058908601192
 21
8.0014372463254
 31
0.0
  0
LINE
  5
F1041B
330
261
100
AcDbEntity
  8
Geo
100
AcDbLine
 10
-21.7058908601192
 20
8.0014372463254
 30
0.0
 11
-21.60589086011921
 21
7.962676308532697
 31
0.0
  0
LINE
  5
F1041D
330
261
100
AcDbEntity
  8
Geo
100
AcDbLine
 10
-21.60589086011921
 20
7.962676308532697
 30
0.0
 11
-21.50589086011922
 21
7.924269603395599
 31
0.0
  0
LINE
  5
F1041F
330
261
100
AcDbEntity
  8
Geo
100
AcDbLine
 10
-21.50589086011922
 20
7.924269603395599
 30
0.0
 11
-21.40589086011921
 21
7.886219743600398
 31
0.0
  0
LINE
  5
F10421
330
261
100
AcDbEntity
  8
Geo
100
AcDbLine
 10
-21.40589086011921
 20
7.886219743600398
 30
0.0
 11
-21.30589086011921
 21
7.848529317558299
 31
0.0
  0
LINE
  5
F10423
330
261
100
AcDbEntity
  8
Geo
100
AcDbLine
 10
-21.30589086011921
 20
7.848529317558299
 30
0.0
 11
-21.2058908601192
 21
7.811200889229199
 31
0.0
  0
LINE
  5
F10425
330
261
100
AcDbEntity
  8
Geo
100
AcDbLine
 10
-21.2058908601192
 20
7.811200889229199
 30
0.0
 11
-21.10589086011921
 21
7.774236997947698
 31
0.0
  0
LINE
  5
F10427
330
261
100
AcDbEntity
  8
Geo
100
AcDbLine
 10
-21.10589086011921
 20
7.774236997947698
 30
0.0
 11
-21.00589086011922
 21
7.73764015825
 31
0.0
  0
LINE
  5
F10429
330
261
100
AcDbEntity
  8
Geo
100
AcDbLine
 10
-21.00589086011922
 20
7.73764015825
 30
0.0
 11
-20.90589086011921
 21
7.701412859702699
 31
0.0
  0
LINE
  5
F1042B
330
261
100
AcDbEntity
  8
Geo
100
AcDbLine
 10
-20.90589086011921
 20
7.701412859702699
 30
0.0
 11
-20.80589086011921
 21
7.665557566734098
 31
0.0
  0
LINE
  5
F1042D
330
261
100
AcDbEntity
  8
Geo
100
AcDbLine
 10
-20.80589086011921
 20
7.665557566734098
 30
0.0
 11
-20.70589086011921
 21
7.6300767184659
 31
0.0
  0
LINE
  5
F1042F
330
261
100
AcDbEntity
  8
Geo
100
AcDbLine
 10
-20.70589086011921
 20
7.6300767184659
 30
0.0
 11
-20.60589086011921
 21
7.594972728547499
 31
0.0
  0
LINE
  5
F10431
330
261
100
AcDbEntity
  8
Geo
100
AcDbLine
 10
-20.60589086011921
 20
7.594972728547499
 30
0.0
 11
-20.50589086011922
 21
7.560247984992001
 31
0.0
  0
LINE
  5
F10433
330
261
100
AcDbEntity
  8
Geo
100
AcDbLine
 10
-20.50589086011922
 20
7.560247984992001
 30
0.0
 11
-20.40589086011921
 21
7.5259048500134
 31
0.0
  0
LINE
  5
F10435
330
261
100
AcDbEntity
  8
Geo
100
AcDbLine
 10
-20.40589086011921
 20
7.5259048500134
 30
0.0
 11
-20.30589086011922
 21
7.491945659866201
 31
0.0
  0
LINE
  5
F10437
330
261
100
AcDbEntity
  8
Geo
100
AcDbLine
 10
-20.30589086011922
 20
7.491945659866201
 30
0.0
 11
-20.2058908601192
 21
7.458372724686099
 31
0.0
  0
LINE
  5
F10439
330
261
100
AcDbEntity
  8
Geo
100
AcDbLine
 10
-20.2058908601192
 20
7.458372724686099
 30
0.0
 11
-20.10589086011921
 21
7.425188328333597
 31
0.0
  0
LINE
  5
F1043B
330
261
100
AcDbEntity
  8
Geo
100
AcDbLine
 10
-20.10589086011921
 20
7.425188328333597
 30
0.0
 11
-20.00589086011922
 21
7.392394728237599
 31
0.0
  0
LINE
  5
F1043D
330
261
100
AcDbEntity
  8
Geo
100
AcDbLine
 10
-20.00589086011922
 20
7.392394728237599
 30
0.0
 11
-19.90589086011921
 21
7.359994155242597
 31
0.0
  0
LINE
  5
F1043F
330
261
100
AcDbEntity
  8
Geo
100
AcDbLine
 10
-19.90589086011921
 20
7.359994155242597
 30
0.0
 11
-19.80589086011921
 21
7.327988813456898
 31
0.0
  0
LINE
  5
F10441
330
261
100
AcDbEntity
  8
Geo
100
AcDbLine
 10
-19.80589086011921
 20
7.327988813456898
 30
0.0
 11
-19.7058908601192
 21
7.296380880102098
 31
0.0
  0
LINE
  5
F10443
330
261
100
AcDbEntity
  8
Geo
100
AcDbLine
 10
-19.7058908601192
 20
7.296380880102098
 30
0.0
 11
-19.60589086011921
 21
7.265172505365597
 31
0.0
  0
LINE
  5
F10445
330
261
100
AcDbEntity
  8
Geo
100
AcDbLine
 10
-19.60589086011921
 20
7.265172505365597
 30
0.0
 11
-19.50589086011921
 21
7.2343658122542
 31
0.0
  0
LINE
  5
F10447
330
261
100
AcDbEntity
  8
Geo
100
AcDbLine
 10
-19.50589086011921
 20
7.2343658122542
 30
0.0
 11
-19.40589086011921
 21
7.203962896449301
 31
0.0
  0
LINE
  5
F10449
330
261
100
AcDbEntity
  8
Geo
100
AcDbLine
 10
-19.40589086011921
 20
7.203962896449301
 30
0.0
 11
-19.30589086011921
 21
7.173965826164697
 31
0.0
  0
LINE
  5
F1044B
330
261
100
AcDbEntity
  8
Geo
100
AcDbLine
 10
-19.30589086011921
 20
7.173965826164697
 30
0.0
 11
-19.20589086011921
 21
7.144376642005998
 31
0.0
  0
LINE
  5
F1044D
330
261
100
AcDbEntity
  8
Geo
100
AcDbLine
 10
-19.20589086011921
 20
7.144376642005998
 30
0.0
 11
-19.10589086011921
 21
7.115197356831299
 31
0.0
  0
LINE
  5
F1044F
330
261
100
AcDbEntity
  8
Geo
100
AcDbLine
 10
-19.10589086011921
 20
7.115197356831299
 30
0.0
 11
-19.00589086011921
 21
7.086429955614898
 31
0.0
  0
LINE
  5
F10451
330
261
100
AcDbEntity
  8
Geo
100
AcDbLine
 10
-19.00589086011921
 20
7.086429955614898
 30
0.0
 11
-18.90589086011921
 21
7.058076395311597
 31
0.0
  0
LINE
  5
F10453
330
261
100
AcDbEntity
  8
Geo
100
AcDbLine
 10
-18.90589086011921
 20
7.058076395311597
 30
0.0
 11
-18.80589086011921
 21
7.030138604724199
 31
0.0
  0
LINE
  5
F10455
330
261
100
AcDbEntity
  8
Geo
100
AcDbLine
 10
-18.80589086011921
 20
7.030138604724199
 30
0.0
 11
-18.70589086011921
 21
7.0026184843719
 31
0.0
  0
LINE
  5
F10457
330
261
100
AcDbEntity
  8
Geo
100
AcDbLine
 10
-18.70589086011921
 20
7.0026184843719
 30
0.0
 11
-18.60589086011921
 21
6.975517906361098
 31
0.0
  0
LINE
  5
F10459
330
261
100
AcDbEntity
  8
Geo
100
AcDbLine
 10
-18.60589086011921
 20
6.975517906361098
 30
0.0
 11
-18.50589086011921
 21
6.948838714258097
 31
0.0
  0
LINE
  5
F1045B
330
261
100
AcDbEntity
  8
Geo
100
AcDbLine
 10
-18.50589086011921
 20
6.948838714258097
 30
0.0
 11
-18.4058908601192
 21
6.9225827229636
 31
0.0
  0
LINE
  5
F1045D
330
261
100
AcDbEntity
  8
Geo
100
AcDbLine
 10
-18.4058908601192
 20
6.9225827229636
 30
0.0
 11
-18.30589086011921
 21
6.896751718589301
 31
0.0
  0
LINE
  5
F1045F
330
261
100
AcDbEntity
  8
Geo
100
AcDbLine
 10
-18.30589086011921
 20
6.896751718589301
 30
0.0
 11
-18.20589086011921
 21
6.871347458336501
 31
0.0
  0
LINE
  5
F10461
330
261
100
AcDbEntity
  8
Geo
100
AcDbLine
 10
-18.20589086011921
 20
6.871347458336501
 30
0.0
 11
-18.10589086011921
 21
6.846371670376401
 31
0.0
  0
LINE
  5
F10463
330
261
100
AcDbEntity
  8
Geo
100
AcDbLine
 10
-18.10589086011921
 20
6.846371670376401
 30
0.0
 11
-18.00589086011921
 21
6.821826053732499
 31
0.0
  0
LINE
  5
F10465
330
261
100
AcDbEntity
  8
Geo
100
AcDbLine
 10
-18.00589086011921
 20
6.821826053732499
 30
0.0
 11
-17.90589086011921
 21
6.797712278165099
 31
0.0
  0
LINE
  5
F10467
330
261
100
AcDbEntity
  8
Geo
100
AcDbLine
 10
-17.90589086011921
 20
6.797712278165099
 30
0.0
 11
-17.80589086011921
 21
6.7740319840579
 31
0.0
  0
LINE
  5
F10469
330
261
100
AcDbEntity
  8
Geo
100
AcDbLine
 10
-17.80589086011921
 20
6.7740319840579
 30
0.0
 11
-17.70589086011921
 21
6.750786782306097
 31
0.0
  0
LINE
  5
F1046B
330
261
100
AcDbEntity
  8
Geo
100
AcDbLine
 10
-17.70589086011921
 20
6.750786782306097
 30
0.0
 11
-17.60589086011921
 21
6.727978254206999
 31
0.0
  0
LINE
  5
F1046D
330
261
100
AcDbEntity
  8
Geo
100
AcDbLine
 10
-17.60589086011921
 20
6.727978254206999
 30
0.0
 11
-17.50589086011921
 21
6.7056079513524
 31
0.0
  0
LINE
  5
F1046F
330
261
100
AcDbEntity
  8
Geo
100
AcDbLine
 10
-17.50589086011921
 20
6.7056079513524
 30
0.0
 11
-17.40589086011921
 21
6.683677395522898
 31
0.0
  0
LINE
  5
F10471
330
261
100
AcDbEntity
  8
Geo
100
AcDbLine
 10
-17.40589086011921
 20
6.683677395522898
 30
0.0
 11
-17.30589086011921
 21
6.662188078584499
 31
0.0
  0
LINE
  5
F10473
330
261
100
AcDbEntity
  8
Geo
100
AcDbLine
 10
-17.30589086011921
 20
6.662188078584499
 30
0.0
 11
-17.20589086011921
 21
6.6411414623874
 31
0.0
  0
LINE
  5
F10475
330
261
100
AcDbEntity
  8
Geo
100
AcDbLine
 10
-17.20589086011921
 20
6.6411414623874
 30
0.0
 11
-17.10589086011921
 21
6.620538978665999
 31
0.0
  0
LINE
  5
F10477
330
261
100
AcDbEntity
  8
Geo
100
AcDbLine
 10
-17.10589086011921
 20
6.620538978665999
 30
0.0
 11
-17.00589086011921
 21
6.600382028941901
 31
0.0
  0
LINE
  5
F10479
330
261
100
AcDbEntity
  8
Geo
100
AcDbLine
 10
-17.00589086011921
 20
6.600382028941901
 30
0.0
 11
-16.90589086011921
 21
6.580671984428301
 31
0.0
  0
LINE
  5
F1047B
330
261
100
AcDbEntity
  8
Geo
100
AcDbLine
 10
-16.90589086011921
 20
6.580671984428301
 30
0.0
 11
-16.80589086011921
 21
6.561410185936999
 31
0.0
  0
LINE
  5
F1047D
330
261
100
AcDbEntity
  8
Geo
100
AcDbLine
 10
-16.80589086011921
 20
6.561410185936999
 30
0.0
 11
-16.70589086011921
 21
6.542597943786998
 31
0.0
  0
LINE
  5
F1047F
330
261
100
AcDbEntity
  8
Geo
100
AcDbLine
 10
-16.70589086011921
 20
6.542597943786998
 30
0.0
 11
-16.60589086011921
 21
6.524236537715497
 31
0.0
  0
LINE
  5
F10481
330
261
100
AcDbEntity
  8
Geo
100
AcDbLine
 10
-16.60589086011921
 20
6.524236537715497
 30
0.0
 11
-16.50589086011921
 21
6.506327216790498
 31
0.0
  0
LINE
  5
F10483
330
261
100
AcDbEntity
  8
Geo
100
AcDbLine
 10
-16.50589086011921
 20
6.506327216790498
 30
0.0
 11
-16.4058908601192
 21
6.4888711993264
 31
0.0
  0
LINE
  5
F10485
330
261
100
AcDbEntity
  8
Geo
100
AcDbLine
 10
-16.4058908601192
 20
6.4888711993264
 30
0.0
 11
-16.30589086011921
 21
6.471869672800499
 31
0.0
  0
LINE
  5
F10487
330
261
100
AcDbEntity
  8
Geo
100
AcDbLine
 10
-16.30589086011921
 20
6.471869672800499
 30
0.0
 11
-16.20589086011921
 21
6.4553237937728
 31
0.0
  0
LINE
  5
F10489
330
261
100
AcDbEntity
  8
Geo
100
AcDbLine
 10
-16.20589086011921
 20
6.4553237937728
 30
0.0
 11
-16.10589086011921
 21
6.439234687806803
 31
0.0
  0
LINE
  5
F1048B
330
261
100
AcDbEntity
  8
Geo
100
AcDbLine
 10
-16.10589086011921
 20
6.439234687806803
 30
0.0
 11
-16.00589086011921
 21
6.423603449393399
 31
0.0
  0
LINE
  5
F1048D
330
261
100
AcDbEntity
  8
Geo
100
AcDbLine
 10
-16.00589086011921
 20
6.423603449393399
 30
0.0
 11
-15.9058908601192
 21
6.408431141876097
 31
0.0
  0
LINE
  5
F1048F
330
261
100
AcDbEntity
  8
Geo
100
AcDbLine
 10
-15.9058908601192
 20
6.408431141876097
 30
0.0
 11
-15.80589086011921
 21
6.393718797378798
 31
0.0
  0
LINE
  5
F10491
330
261
100
AcDbEntity
  8
Geo
100
AcDbLine
 10
-15.80589086011921
 20
6.393718797378798
 30
0.0
 11
-15.70589086011921
 21
6.379467416735696
 31
0.0
  0
LINE
  5
F10493
330
261
100
AcDbEntity
  8
Geo
100
AcDbLine
 10
-15.70589086011921
 20
6.379467416735696
 30
0.0
 11
-15.60589086011921
 21
6.3656779694227
 31
0.0
  0
LINE
  5
F10495
330
261
100
AcDbEntity
  8
Geo
100
AcDbLine
 10
-15.60589086011921
 20
6.3656779694227
 30
0.0
 11
-15.50589086011921
 21
6.3523513934924
 31
0.0
  0
LINE
  5
F10497
330
261
100
AcDbEntity
  8
Geo
100
AcDbLine
 10
-15.50589086011921
 20
6.3523513934924
 30
0.0
 11
-15.40589086011921
 21
6.339488595509298
 31
0.0
  0
LINE
  5
F10499
330
261
100
AcDbEntity
  8
Geo
100
AcDbLine
 10
-15.40589086011921
 20
6.339488595509298
 30
0.0
 11
-15.30589086011921
 21
6.3270904504888
 31
0.0
  0
LINE
  5
F1049B
330
261
100
AcDbEntity
  8
Geo
100
AcDbLine
 10
-15.30589086011921
 20
6.3270904504888
 30
0.0
 11
-15.20589086011921
 21
6.315157801837301
 31
0.0
  0
LINE
  5
F1049D
330
261
100
AcDbEntity
  8
Geo
100
AcDbLine
 10
-15.20589086011921
 20
6.315157801837301
 30
0.0
 11
-15.10589086011921
 21
6.303691461294999
 31
0.0
  0
LINE
  5
F1049F
330
261
100
AcDbEntity
  8
Geo
100
AcDbLine
 10
-15.10589086011921
 20
6.303691461294999
 30
0.0
 11
-15.00589086011921
 21
6.292692208880697
 31
0.0
  0
LINE
  5
F104A1
330
261
100
AcDbEntity
  8
Geo
100
AcDbLine
 10
-15.00589086011921
 20
6.292692208880697
 30
0.0
 11
-15.00589086011921
 21
6.292692208880697
 31
0.0
  0
LINE
  5
F104A3
330
261
100
AcDbEntity
  8
Geo
100
AcDbLine
 10
-15.00589086011921
 20
6.292692208880697
 30
0.0
 11
-14.90589086011921
 21
6.266632469741197
 31
0.0
  0
LINE
  5
F104A5
330
261
100
AcDbEntity
  8
Geo
100
AcDbLine
 10
-14.90589086011921
 20
6.266632469741197
 30
0.0
 11
-14.80589086011921
 21
6.2427436367163
 31
0.0
  0
LINE
  5
F104A7
330
261
100
AcDbEntity
  8
Geo
100
AcDbLine
 10
-14.80589086011921
 20
6.2427436367163
 30
0.0
 11
-14.70589086011921
 21
6.221451879999699
 31
0.0
  0
LINE
  5
F104A9
330
261
100
AcDbEntity
  8
Geo
100
AcDbLine
 10
-14.70589086011921
 20
6.221451879999699
 30
0.0
 11
-14.60589086011921
 21
6.2032014135095
 31
0.0
  0
LINE
  5
F104AB
330
261
100
AcDbEntity
  8
Geo
100
AcDbLine
 10
-14.60589086011921
 20
6.2032014135095
 30
0.0
 11
-14.50589086011921
 21
6.188453988102099
 31
0.0
  0
LINE
  5
F104AD
330
261
100
AcDbEntity
  8
Geo
100
AcDbLine
 10
-14.50589086011921
 20
6.188453988102099
 30
0.0
 11
-14.40589086011921
 21
6.177688251126
 31
0.0
  0
LINE
  5
F104AF
330
261
100
AcDbEntity
  8
Geo
100
AcDbLine
 10
-14.40589086011921
 20
6.177688251126
 30
0.0
 11
-14.30589086011921
 21
6.171398959493696
 31
0.0
  0
LINE
  5
F104B1
330
261
100
AcDbEntity
  8
Geo
100
AcDbLine
 10
-37.00589086011922
 20
13.1699258663398
 30
0.0
 11
-36.90589086011921
 21
13.8640525879984
 31
0.0
  0
LINE
  5
F104B3
330
261
100
AcDbEntity
  8
Geo
100
AcDbLine
 10
-36.90589086011921
 20
13.8640525879984
 30
0.0
 11
-36.80589086011921
 21
14.1370882474259
 31
0.0
  0
LINE
  5
F104B5
330
261
100
AcDbEntity
  8
Geo
100
AcDbLine
 10
-36.80589086011921
 20
14.1370882474259
 30
0.0
 11
-36.70589086011921
 21
14.336718736827
 31
0.0
  0
LINE
  5
F104B7
330
261
100
AcDbEntity
  8
Geo
100
AcDbLine
 10
-36.70589086011921
 20
14.336718736827
 30
0.0
 11
-36.60589086011921
 21
14.4967483931633
 31
0.0
  0
LINE
  5
F104B9
330
261
100
AcDbEntity
  8
Geo
100
AcDbLine
 10
-36.60589086011921
 20
14.4967483931633
 30
0.0
 11
-36.50589086011922
 21
14.6304753350338
 31
0.0
  0
LINE
  5
F104BB
330
261
100
AcDbEntity
  8
Geo
100
AcDbLine
 10
-36.50589086011922
 20
14.6304753350338
 30
0.0
 11
-36.40589086011921
 21
14.7448213081416
 31
0.0
  0
LINE
  5
F104BD
330
261
100
AcDbEntity
  8
Geo
100
AcDbLine
 10
-36.40589086011921
 20
14.7448213081416
 30
0.0
 11
-36.30589086011922
 21
14.84395857044489
 31
0.0
  0
LINE
  5
F104BF
330
261
100
AcDbEntity
  8
Geo
100
AcDbLine
 10
-36.30589086011922
 20
14.84395857044489
 30
0.0
 11
-36.2058908601192
 21
14.93064545388589
 31
0.0
  0
LINE
  5
F104C1
330
261
100
AcDbEntity
  8
Geo
100
AcDbLine
 10
-36.2058908601192
 20
14.93064545388589
 30
0.0
 11
-36.10589086011921
 21
15.0068261569199
 31
0.0
  0
LINE
  5
F104C3
330
261
100
AcDbEntity
  8
Geo
100
AcDbLine
 10
-36.10589086011921
 20
15.0068261569199
 30
0.0
 11
-36.00589086011922
 21
15.0739373316964
 31
0.0
  0
LINE
  5
F104C5
330
261
100
AcDbEntity
  8
Geo
100
AcDbLine
 10
-36.00589086011922
 20
15.0739373316964
 30
0.0
 11
-35.90589086011921
 21
15.133079927259
 31
0.0
  0
LINE
  5
F104C7
330
261
100
AcDbEntity
  8
Geo
100
AcDbLine
 10
-35.90589086011921
 20
15.133079927259
 30
0.0
 11
-35.80589086011921
 21
15.1851224259558
 31
0.0
  0
LINE
  5
F104C9
330
261
100
AcDbEntity
  8
Geo
100
AcDbLine
 10
-35.80589086011921
 20
15.1851224259558
 30
0.0
 11
-35.70589086011921
 21
15.2307663218875
 31
0.0
  0
LINE
  5
F104CB
330
261
100
AcDbEntity
  8
Geo
100
AcDbLine
 10
-35.70589086011921
 20
15.2307663218875
 30
0.0
 11
-35.60589086011921
 21
15.2705895058354
 31
0.0
  0
LINE
  5
F104CD
330
261
100
AcDbEntity
  8
Geo
100
AcDbLine
 10
-35.60589086011921
 20
15.2705895058354
 30
0.0
 11
-35.50589086011922
 21
15.3050760645188
 31
0.0
  0
LINE
  5
F104CF
330
261
100
AcDbEntity
  8
Geo
100
AcDbLine
 10
-35.50589086011922
 20
15.3050760645188
 30
0.0
 11
-35.40589086011921
 21
15.3346373753402
 31
0.0
  0
LINE
  5
F104D1
330
261
100
AcDbEntity
  8
Geo
100
AcDbLine
 10
-35.40589086011921
 20
15.3346373753402
 30
0.0
 11
-35.30589086011922
 21
15.3596274276086
 31
0.0
  0
LINE
  5
F104D3
330
261
100
AcDbEntity
  8
Geo
100
AcDbLine
 10
-35.30589086011922
 20
15.3596274276086
 30
0.0
 11
-35.2058908601192
 21
15.3803541993466
 31
0.0
  0
LINE
  5
F104D5
330
261
100
AcDbEntity
  8
Geo
100
AcDbLine
 10
-35.2058908601192
 20
15.3803541993466
 30
0.0
 11
-35.10589086011921
 21
15.3970882694952
 31
0.0
  0
LINE
  5
F104D7
330
261
100
AcDbEntity
  8
Geo
100
AcDbLine
 10
-35.10589086011921
 20
15.3970882694952
 30
0.0
 11
-35.00589086011922
 21
15.4100694486469
 31
0.0
  0
LINE
  5
F104D9
330
261
100
AcDbEntity
  8
Geo
100
AcDbLine
 10
-35.00589086011922
 20
15.4100694486469
 30
0.0
 11
-34.90589086011921
 21
15.4195119613493
 31
0.0
  0
LINE
  5
F104DB
330
261
100
AcDbEntity
  8
Geo
100
AcDbLine
 10
-34.90589086011921
 20
15.4195119613493
 30
0.0
 11
-34.80589086011921
 21
15.4256085509394
 31
0.0
  0
LINE
  5
F104DD
330
261
100
AcDbEntity
  8
Geo
100
AcDbLine
 10
-34.80589086011921
 20
15.4256085509394
 30
0.0
 11
-34.70589086011921
 21
15.4285337702236
 31
0.0
  0
LINE
  5
F104DF
330
261
100
AcDbEntity
  8
Geo
100
AcDbLine
 10
-34.70589086011921
 20
15.4285337702236
 30
0.0
 11
-34.60589086011921
 21
15.4284466482477
 31
0.0
  0
LINE
  5
F104E1
330
261
100
AcDbEntity
  8
Geo
100
AcDbLine
 10
-34.60589086011921
 20
15.4284466482477
 30
0.0
 11
-34.50589086011922
 21
15.4254928728195
 31
0.0
  0
LINE
  5
F104E3
330
261
100
AcDbEntity
  8
Geo
100
AcDbLine
 10
-34.50589086011922
 20
15.4254928728195
 30
0.0
 11
-34.40589086011921
 21
15.4198065928118
 31
0.0
  0
LINE
  5
F104E5
330
261
100
AcDbEntity
  8
Geo
100
AcDbLine
 10
-34.40589086011921
 20
15.4198065928118
 30
0.0
 11
-34.30589086011921
 21
15.4115119187534
 31
0.0
  0
LINE
  5
F104E7
330
261
100
AcDbEntity
  8
Geo
100
AcDbLine
 10
-34.30589086011921
 20
15.4115119187534
 30
0.0
 11
-34.20589086011921
 21
15.4007241816778
 31
0.0
  0
LINE
  5
F104E9
330
261
100
AcDbEntity
  8
Geo
100
AcDbLine
 10
-34.20589086011921
 20
15.4007241816778
 30
0.0
 11
-34.10589086011921
 21
15.3875509965486
 31
0.0
  0
LINE
  5
F104EB
330
261
100
AcDbEntity
  8
Geo
100
AcDbLine
 10
-34.10589086011921
 20
15.3875509965486
 30
0.0
 11
-34.00589086011922
 21
15.3720931664003
 31
0.0
  0
LINE
  5
F104ED
330
261
100
AcDbEntity
  8
Geo
100
AcDbLine
 10
-34.00589086011922
 20
15.3720931664003
 30
0.0
 11
-33.90589086011921
 21
15.3544454556637
 31
0.0
  0
LINE
  5
F104EF
330
261
100
AcDbEntity
  8
Geo
100
AcDbLine
 10
-33.90589086011921
 20
15.3544454556637
 30
0.0
 11
-33.80589086011922
 21
15.3346972552917
 31
0.0
  0
LINE
  5
F104F1
330
261
100
AcDbEntity
  8
Geo
100
AcDbLine
 10
-33.80589086011922
 20
15.3346972552917
 30
0.0
 11
-33.7058908601192
 21
15.3129331578076
 31
0.0
  0
LINE
  5
F104F3
330
261
100
AcDbEntity
  8
Geo
100
AcDbLine
 10
-33.7058908601192
 20
15.3129331578076
 30
0.0
 11
-33.60589086011921
 21
15.2892334568986
 31
0.0
  0
LINE
  5
F104F5
330
261
100
AcDbEntity
  8
Geo
100
AcDbLine
 10
-33.60589086011921
 20
15.2892334568986
 30
0.0
 11
-33.50589086011922
 21
15.2636745834448
 31
0.0
  0
LINE
  5
F104F7
330
261
100
AcDbEntity
  8
Geo
100
AcDbLine
 10
-33.50589086011922
 20
15.2636745834448
 30
0.0
 11
-33.40589086011921
 21
15.2363294877116
 31
0.0
  0
LINE
  5
F104F9
330
261
100
AcDbEntity
  8
Geo
100
AcDbLine
 10
-33.40589086011921
 20
15.2363294877116
 30
0.0
 11
-33.30589086011921
 21
15.2072679757178
 31
0.0
  0
LINE
  5
F104FB
330
261
100
AcDbEntity
  8
Geo
100
AcDbLine
 10
-33.30589086011921
 20
15.2072679757178
 30
0.0
 11
-33.20589086011921
 21
15.1765570064138
 31
0.0
  0
LINE
  5
F104FD
330
261
100
AcDbEntity
  8
Geo
100
AcDbLine
 10
-33.20589086011921
 20
15.1765570064138
 30
0.0
 11
-33.10589086011921
 21
15.1442609551972
 31
0.0
  0
LINE
  5
F104FF
330
261
100
AcDbEntity
  8
Geo
100
AcDbLine
 10
-33.10589086011921
 20
15.1442609551972
 30
0.0
 11
-33.00589086011922
 21
15.1104418483949
 31
0.0
  0
LINE
  5
F10501
330
261
100
AcDbEntity
  8
Geo
100
AcDbLine
 10
-33.00589086011922
 20
15.1104418483949
 30
0.0
 11
-32.90589086011921
 21
15.0751595726026
 31
0.0
  0
LINE
  5
F10503
330
261
100
AcDbEntity
  8
Geo
100
AcDbLine
 10
-32.90589086011921
 20
15.0751595726026
 30
0.0
 11
-32.80589086011922
 21
15.0384720621771
 31
0.0
  0
LINE
  5
F10505
330
261
100
AcDbEntity
  8
Geo
100
AcDbLine
 10
-32.80589086011922
 20
15.0384720621771
 30
0.0
 11
-32.7058908601192
 21
15.0004354676753
 31
0.0
  0
LINE
  5
F10507
330
261
100
AcDbEntity
  8
Geo
100
AcDbLine
 10
-32.7058908601192
 20
15.0004354676753
 30
0.0
 11
-32.60589086011921
 21
14.96110430762499
 31
0.0
  0
LINE
  5
F10509
330
261
100
AcDbEntity
  8
Geo
100
AcDbLine
 10
-32.60589086011921
 20
14.96110430762499
 30
0.0
 11
-32.50589086011922
 21
14.9205316056696
 31
0.0
  0
LINE
  5
F1050B
330
261
100
AcDbEntity
  8
Geo
100
AcDbLine
 10
-32.50589086011922
 20
14.9205316056696
 30
0.0
 11
-32.40589086011921
 21
14.8787690148435
 31
0.0
  0
LINE
  5
F1050D
330
261
100
AcDbEntity
  8
Geo
100
AcDbLine
 10
-32.40589086011921
 20
14.8787690148435
 30
0.0
 11
-32.30589086011921
 21
14.835866930493
 31
0.0
  0
LINE
  5
F1050F
330
261
100
AcDbEntity
  8
Geo
100
AcDbLine
 10
-32.30589086011921
 20
14.835866930493
 30
0.0
 11
-32.20589086011921
 21
14.7918745931553
 31
0.0
  0
LINE
  5
F10511
330
261
100
AcDbEntity
  8
Geo
100
AcDbLine
 10
-32.20589086011921
 20
14.7918745931553
 30
0.0
 11
-32.10589086011921
 21
14.7468401825384
 31
0.0
  0
LINE
  5
F10513
330
261
100
AcDbEntity
  8
Geo
100
AcDbLine
 10
-32.10589086011921
 20
14.7468401825384
 30
0.0
 11
-32.00589086011922
 21
14.7008109035957
 31
0.0
  0
LINE
  5
F10515
330
261
100
AcDbEntity
  8
Geo
100
AcDbLine
 10
-32.00589086011922
 20
14.7008109035957
 30
0.0
 11
-31.90589086011921
 21
14.6538330655692
 31
0.0
  0
LINE
  5
F10517
330
261
100
AcDbEntity
  8
Geo
100
AcDbLine
 10
-31.90589086011921
 20
14.6538330655692
 30
0.0
 11
-31.80589086011921
 21
14.6059521547648
 31
0.0
  0
LINE
  5
F10519
330
261
100
AcDbEntity
  8
Geo
100
AcDbLine
 10
-31.80589086011921
 20
14.6059521547648
 30
0.0
 11
-31.70589086011921
 21
14.5572129017362
 31
0.0
  0
LINE
  5
F1051B
330
261
100
AcDbEntity
  8
Geo
100
AcDbLine
 10
-31.70589086011921
 20
14.5572129017362
 30
0.0
 11
-31.60589086011921
 21
14.5076593434726
 31
0.0
  0
LINE
  5
F1051D
330
261
100
AcDbEntity
  8
Geo
100
AcDbLine
 10
-31.60589086011921
 20
14.5076593434726
 30
0.0
 11
-31.50589086011922
 21
14.4573348811211
 31
0.0
  0
LINE
  5
F1051F
330
261
100
AcDbEntity
  8
Geo
100
AcDbLine
 10
-31.50589086011922
 20
14.4573348811211
 30
0.0
 11
-31.40589086011921
 21
14.4062823337131
 31
0.0
  0
LINE
  5
F10521
330
261
100
AcDbEntity
  8
Geo
100
AcDbLine
 10
-31.40589086011921
 20
14.4062823337131
 30
0.0
 11
-31.30589086011922
 21
14.3545439883175
 31
0.0
  0
LINE
  5
F10523
330
261
100
AcDbEntity
  8
Geo
100
AcDbLine
 10
-31.30589086011922
 20
14.3545439883175
 30
0.0
 11
-31.2058908601192
 21
14.30216164699739
 31
0.0
  0
LINE
  5
F10525
330
261
100
AcDbEntity
  8
Geo
100
AcDbLine
 10
-31.2058908601192
 20
14.30216164699739
 30
0.0
 11
-31.10589086011921
 21
14.24917667090939
 31
0.0
  0
LINE
  5
F10527
330
261
100
AcDbEntity
  8
Geo
100
AcDbLine
 10
-31.10589086011921
 20
14.24917667090939
 30
0.0
 11
-31.00589086011922
 21
14.1956300218542
 31
0.0
  0
LINE
  5
F10529
330
261
100
AcDbEntity
  8
Geo
100
AcDbLine
 10
-31.00589086011922
 20
14.1956300218542
 30
0.0
 11
-30.90589086011921
 21
14.1415623015546
 31
0.0
  0
LINE
  5
F1052B
330
261
100
AcDbEntity
  8
Geo
100
AcDbLine
 10
-30.90589086011921
 20
14.1415623015546
 30
0.0
 11
-30.80589086011921
 21
14.08701378891719
 31
0.0
  0
LINE
  5
F1052D
330
261
100
AcDbEntity
  8
Geo
100
AcDbLine
 10
-30.80589086011921
 20
14.08701378891719
 30
0.0
 11
-30.70589086011921
 21
14.0320244755087
 31
0.0
  0
LINE
  5
F1052F
330
261
100
AcDbEntity
  8
Geo
100
AcDbLine
 10
-30.70589086011921
 20
14.0320244755087
 30
0.0
 11
-30.60589086011921
 21
13.9766340994612
 31
0.0
  0
LINE
  5
F10531
330
261
100
AcDbEntity
  8
Geo
100
AcDbLine
 10
-30.60589086011921
 20
13.9766340994612
 30
0.0
 11
-30.50589086011922
 21
13.9208821780046
 31
0.0
  0
LINE
  5
F10533
330
261
100
AcDbEntity
  8
Geo
100
AcDbLine
 10
-30.50589086011922
 20
13.9208821780046
 30
0.0
 11
-30.40589086011921
 21
13.8648080388112
 31
0.0
  0
LINE
  5
F10535
330
261
100
AcDbEntity
  8
Geo
100
AcDbLine
 10
-30.40589086011921
 20
13.8648080388112
 30
0.0
 11
-30.30589086011922
 21
13.8084508503241
 31
0.0
  0
LINE
  5
F10537
330
261
100
AcDbEntity
  8
Geo
100
AcDbLine
 10
-30.30589086011922
 20
13.8084508503241
 30
0.0
 11
-30.2058908601192
 21
13.751849651234
 31
0.0
  0
LINE
  5
F10539
330
261
100
AcDbEntity
  8
Geo
100
AcDbLine
 10
-30.2058908601192
 20
13.751849651234
 30
0.0
 11
-30.10589086011921
 21
13.6950433792586
 31
0.0
  0
LINE
  5
F1053B
330
261
100
AcDbEntity
  8
Geo
100
AcDbLine
 10
-30.10589086011921
 20
13.6950433792586
 30
0.0
 11
-30.00589086011922
 21
13.638070899374
 31
0.0
  0
LINE
  5
F1053D
330
261
100
AcDbEntity
  8
Geo
100
AcDbLine
 10
-30.00589086011922
 20
13.638070899374
 30
0.0
 11
-29.90589086011921
 21
13.58101298144639
 31
0.0
  0
LINE
  5
F1053F
330
261
100
AcDbEntity
  8
Geo
100
AcDbLine
 10
-29.90589086011921
 20
13.58101298144639
 30
0.0
 11
-29.80589086011921
 21
13.5239270985675
 31
0.0
  0
LINE
  5
F10541
330
261
100
AcDbEntity
  8
Geo
100
AcDbLine
 10
-29.80589086011921
 20
13.5239270985675
 30
0.0
 11
-29.70589086011921
 21
13.4668171341086
 31
0.0
  0
LINE
  5
F10543
330
261
100
AcDbEntity
  8
Geo
100
AcDbLine
 10
-29.70589086011921
 20
13.4668171341086
 30
0.0
 11
-29.60589086011921
 21
13.4096869730793
 31
0.0
  0
LINE
  5
F10545
330
261
100
AcDbEntity
  8
Geo
100
AcDbLine
 10
-29.60589086011921
 20
13.4096869730793
 30
0.0
 11
-29.50589086011922
 21
13.3525405018631
 31
0.0
  0
LINE
  5
F10547
330
261
100
AcDbEntity
  8
Geo
100
AcDbLine
 10
-29.50589086011922
 20
13.3525405018631
 30
0.0
 11
-29.40589086011921
 21
13.295381607953
 31
0.0
  0
LINE
  5
F10549
330
261
100
AcDbEntity
  8
Geo
100
AcDbLine
 10
-29.40589086011921
 20
13.295381607953
 30
0.0
 11
-29.30589086011922
 21
13.2382141796871
 31
0.0
  0
LINE
  5
F1054B
330
261
100
AcDbEntity
  8
Geo
100
AcDbLine
 10
-29.30589086011922
 20
13.2382141796871
 30
0.0
 11
-29.20589086011921
 21
13.1810421059841
 31
0.0
  0
LINE
  5
F1054D
330
261
100
AcDbEntity
  8
Geo
100
AcDbLine
 10
-29.20589086011921
 20
13.1810421059841
 30
0.0
 11
-29.10589086011921
 21
13.1238692760785
 31
0.0
  0
LINE
  5
F1054F
330
261
100
AcDbEntity
  8
Geo
100
AcDbLine
 10
-29.10589086011921
 20
13.1238692760785
 30
0.0
 11
-29.00589086011922
 21
13.0666995792566
 31
0.0
  0
LINE
  5
F10551
330
261
100
AcDbEntity
  8
Geo
100
AcDbLine
 10
-29.00589086011922
 20
13.0666995792566
 30
0.0
 11
-28.90589086011921
 21
13.0095369045912
 31
0.0
  0
LINE
  5
F10553
330
261
100
AcDbEntity
  8
Geo
100
AcDbLine
 10
-28.90589086011921
 20
13.0095369045912
 30
0.0
 11
-28.80589086011922
 21
12.9523851406778
 31
0.0
  0
LINE
  5
F10555
330
261
100
AcDbEntity
  8
Geo
100
AcDbLine
 10
-28.80589086011922
 20
12.9523851406778
 30
0.0
 11
-28.7058908601192
 21
12.8952481753692
 31
0.0
  0
LINE
  5
F10557
330
261
100
AcDbEntity
  8
Geo
100
AcDbLine
 10
-28.7058908601192
 20
12.8952481753692
 30
0.0
 11
-28.60589086011921
 21
12.838129895512
 31
0.0
  0
LINE
  5
F10559
330
261
100
AcDbEntity
  8
Geo
100
AcDbLine
 10
-28.60589086011921
 20
12.838129895512
 30
0.0
 11
-28.50589086011922
 21
12.7810341866812
 31
0.0
  0
LINE
  5
F1055B
330
261
100
AcDbEntity
  8
Geo
100
AcDbLine
 10
-28.50589086011922
 20
12.7810341866812
 30
0.0
 11
-28.40589086011921
 21
12.7239649329168
 31
0.0
  0
LINE
  5
F1055D
330
261
100
AcDbEntity
  8
Geo
100
AcDbLine
 10
-28.40589086011921
 20
12.7239649329168
 30
0.0
 11
-28.30589086011921
 21
12.6669260164589
 31
0.0
  0
LINE
  5
F1055F
330
261
100
AcDbEntity
  8
Geo
100
AcDbLine
 10
-28.30589086011921
 20
12.6669260164589
 30
0.0
 11
-28.20589086011921
 21
12.6099213174839
 31
0.0
  0
LINE
  5
F10561
330
261
100
AcDbEntity
  8
Geo
100
AcDbLine
 10
-28.20589086011921
 20
12.6099213174839
 30
0.0
 11
-28.10589086011921
 21
12.5529547138404
 31
0.0
  0
LINE
  5
F10563
330
261
100
AcDbEntity
  8
Geo
100
AcDbLine
 10
-28.10589086011921
 20
12.5529547138404
 30
0.0
 11
-28.00589086011921
 21
12.4960300807857
 31
0.0
  0
LINE
  5
F10565
330
261
100
AcDbEntity
  8
Geo
100
AcDbLine
 10
-28.00589086011921
 20
12.4960300807857
 30
0.0
 11
-27.90589086011921
 21
12.4391512907219
 31
0.0
  0
LINE
  5
F10567
330
261
100
AcDbEntity
  8
Geo
100
AcDbLine
 10
-27.90589086011921
 20
12.4391512907219
 30
0.0
 11
-27.80589086011922
 21
12.38232221293239
 31
0.0
  0
LINE
  5
F10569
330
261
100
AcDbEntity
  8
Geo
100
AcDbLine
 10
-27.80589086011922
 20
12.38232221293239
 30
0.0
 11
-27.7058908601192
 21
12.325546713319
 31
0.0
  0
LINE
  5
F1056B
330
261
100
AcDbEntity
  8
Geo
100
AcDbLine
 10
-27.7058908601192
 20
12.325546713319
 30
0.0
 11
-27.60589086011921
 21
12.2688286541386
 31
0.0
  0
LINE
  5
F1056D
330
261
100
AcDbEntity
  8
Geo
100
AcDbLine
 10
-27.60589086011921
 20
12.2688286541386
 30
0.0
 11
-27.50589086011922
 21
12.2121718937409
 31
0.0
  0
LINE
  5
F1056F
330
261
100
AcDbEntity
  8
Geo
100
AcDbLine
 10
-27.50589086011922
 20
12.2121718937409
 30
0.0
 11
-27.40589086011921
 21
12.1555802863053
 31
0.0
  0
LINE
  5
F10571
330
261
100
AcDbEntity
  8
Geo
100
AcDbLine
 10
-27.40589086011921
 20
12.1555802863053
 30
0.0
 11
-27.30589086011921
 21
12.0990576815792
 31
0.0
  0
LINE
  5
F10573
330
261
100
AcDbEntity
  8
Geo
100
AcDbLine
 10
-27.30589086011921
 20
12.0990576815792
 30
0.0
 11
-27.20589086011921
 21
12.0426079246159
 31
0.0
  0
LINE
  5
F10575
330
261
100
AcDbEntity
  8
Geo
100
AcDbLine
 10
-27.20589086011921
 20
12.0426079246159
 30
0.0
 11
-27.10589086011921
 21
11.9862348555133
 31
0.0
  0
LINE
  5
F10577
330
261
100
AcDbEntity
  8
Geo
100
AcDbLine
 10
-27.10589086011921
 20
11.9862348555133
 30
0.0
 11
-27.00589086011922
 21
11.9299423091522
 31
0.0
  0
LINE
  5
F10579
330
261
100
AcDbEntity
  8
Geo
100
AcDbLine
 10
-27.00589086011922
 20
11.9299423091522
 30
0.0
 11
-26.90589086011921
 21
11.8737341149358
 31
0.0
  0
LINE
  5
F1057B
330
261
100
AcDbEntity
  8
Geo
100
AcDbLine
 10
-26.90589086011921
 20
11.8737341149358
 30
0.0
 11
-26.80589086011921
 21
11.8176140965292
 31
0.0
  0
LINE
  5
F1057D
330
261
100
AcDbEntity
  8
Geo
100
AcDbLine
 10
-26.80589086011921
 20
11.8176140965292
 30
0.0
 11
-26.70589086011921
 21
11.7615860715991
 31
0.0
  0
LINE
  5
F1057F
330
261
100
AcDbEntity
  8
Geo
100
AcDbLine
 10
-26.70589086011921
 20
11.7615860715991
 30
0.0
 11
-26.60589086011921
 21
11.705653851554
 31
0.0
  0
LINE
  5
F10581
330
261
100
AcDbEntity
  8
Geo
100
AcDbLine
 10
-26.60589086011921
 20
11.705653851554
 30
0.0
 11
-26.50589086011922
 21
11.6498212412854
 31
0.0
  0
LINE
  5
F10583
330
261
100
AcDbEntity
  8
Geo
100
AcDbLine
 10
-26.50589086011922
 20
11.6498212412854
 30
0.0
 11
-26.40589086011921
 21
11.5940920389085
 31
0.0
  0
LINE
  5
F10585
330
261
100
AcDbEntity
  8
Geo
100
AcDbLine
 10
-26.40589086011921
 20
11.5940920389085
 30
0.0
 11
-26.30589086011922
 21
11.538470035504
 31
0.0
  0
LINE
  5
F10587
330
261
100
AcDbEntity
  8
Geo
100
AcDbLine
 10
-26.30589086011922
 20
11.538470035504
 30
0.0
 11
-26.2058908601192
 21
11.4829590148601
 31
0.0
  0
LINE
  5
F10589
330
261
100
AcDbEntity
  8
Geo
100
AcDbLine
 10
-26.2058908601192
 20
11.4829590148601
 30
0.0
 11
-26.10589086011921
 21
11.4275627532155
 31
0.0
  0
LINE
  5
F1058B
330
261
100
AcDbEntity
  8
Geo
100
AcDbLine
 10
-26.10589086011921
 20
11.4275627532155
 30
0.0
 11
-26.00589086011922
 21
11.3722850190019
 31
0.0
  0
LINE
  5
F1058D
330
261
100
AcDbEntity
  8
Geo
100
AcDbLine
 10
-26.00589086011922
 20
11.3722850190019
 30
0.0
 11
-25.90589086011921
 21
11.317129572588
 31
0.0
  0
LINE
  5
F1058F
330
261
100
AcDbEntity
  8
Geo
100
AcDbLine
 10
-25.90589086011921
 20
11.317129572588
 30
0.0
 11
-25.80589086011921
 21
11.2621001660239
 31
0.0
  0
LINE
  5
F10591
330
261
100
AcDbEntity
  8
Geo
100
AcDbLine
 10
-25.80589086011921
 20
11.2621001660239
 30
0.0
 11
-25.70589086011921
 21
11.2072005427852
 31
0.0
  0
LINE
  5
F10593
330
261
100
AcDbEntity
  8
Geo
100
AcDbLine
 10
-25.70589086011921
 20
11.2072005427852
 30
0.0
 11
-25.60589086011921
 21
11.1524344375191
 31
0.0
  0
LINE
  5
F10595
330
261
100
AcDbEntity
  8
Geo
100
AcDbLine
 10
-25.60589086011921
 20
11.1524344375191
 30
0.0
 11
-25.50589086011922
 21
11.0978055757899
 31
0.0
  0
LINE
  5
F10597
330
261
100
AcDbEntity
  8
Geo
100
AcDbLine
 10
-25.50589086011922
 20
11.0978055757899
 30
0.0
 11
-25.40589086011921
 21
11.0433176738256
 31
0.0
  0
LINE
  5
F10599
330
261
100
AcDbEntity
  8
Geo
100
AcDbLine
 10
-25.40589086011921
 20
11.0433176738256
 30
0.0
 11
-25.30589086011922
 21
10.9889744382651
 31
0.0
  0
LINE
  5
F1059B
330
261
100
AcDbEntity
  8
Geo
100
AcDbLine
 10
-25.30589086011922
 20
10.9889744382651
 30
0.0
 11
-25.2058908601192
 21
10.9347795659064
 31
0.0
  0
LINE
  5
F1059D
330
261
100
AcDbEntity
  8
Geo
100
AcDbLine
 10
-25.2058908601192
 20
10.9347795659064
 30
0.0
 11
-25.10589086011921
 21
10.8807367434543
 31
0.0
  0
LINE
  5
F1059F
330
261
100
AcDbEntity
  8
Geo
100
AcDbLine
 10
-25.10589086011921
 20
10.8807367434543
 30
0.0
 11
-25.00589086011922
 21
10.8268496472707
 31
0.0
  0
LINE
  5
F105A1
330
261
100
AcDbEntity
  8
Geo
100
AcDbLine
 10
-25.00589086011922
 20
10.8268496472707
 30
0.0
 11
-24.90589086011921
 21
10.7731219431236
 31
0.0
  0
LINE
  5
F105A3
330
261
100
AcDbEntity
  8
Geo
100
AcDbLine
 10
-24.90589086011921
 20
10.7731219431236
 30
0.0
 11
-24.80589086011921
 21
10.7195572859381
 31
0.0
  0
LINE
  5
F105A5
330
261
100
AcDbEntity
  8
Geo
100
AcDbLine
 10
-24.80589086011921
 20
10.7195572859381
 30
0.0
 11
-24.70589086011921
 21
10.6661593195479
 31
0.0
  0
LINE
  5
F105A7
330
261
100
AcDbEntity
  8
Geo
100
AcDbLine
 10
-24.70589086011921
 20
10.6661593195479
 30
0.0
 11
-24.60589086011921
 21
10.6129316764469
 31
0.0
  0
LINE
  5
F105A9
330
261
100
AcDbEntity
  8
Geo
100
AcDbLine
 10
-24.60589086011921
 20
10.6129316764469
 30
0.0
 11
-24.50589086011922
 21
10.5598779775428
 31
0.0
  0
LINE
  5
F105AB
330
261
100
AcDbEntity
  8
Geo
100
AcDbLine
 10
-24.50589086011922
 20
10.5598779775428
 30
0.0
 11
-24.40589086011921
 21
10.5070018319104
 31
0.0
  0
LINE
  5
F105AD
330
261
100
AcDbEntity
  8
Geo
100
AcDbLine
 10
-24.40589086011921
 20
10.5070018319104
 30
0.0
 11
-24.30589086011921
 21
10.4543068365459
 31
0.0
  0
LINE
  5
F105AF
330
261
100
AcDbEntity
  8
Geo
100
AcDbLine
 10
-24.30589086011921
 20
10.4543068365459
 30
0.0
 11
-24.20589086011921
 21
10.4017965761225
 31
0.0
  0
LINE
  5
F105B1
330
261
100
AcDbEntity
  8
Geo
100
AcDbLine
 10
-24.20589086011921
 20
10.4017965761225
 30
0.0
 11
-24.10589086011921
 21
10.34947462274669
 31
0.0
  0
LINE
  5
F105B3
330
261
100
AcDbEntity
  8
Geo
100
AcDbLine
 10
-24.10589086011921
 20
10.34947462274669
 30
0.0
 11
-24.00589086011922
 21
10.2973445357146
 31
0.0
  0
LINE
  5
F105B5
330
261
100
AcDbEntity
  8
Geo
100
AcDbLine
 10
-24.00589086011922
 20
10.2973445357146
 30
0.0
 11
-23.90589086011921
 21
10.2454098612708
 31
0.0
  0
LINE
  5
F105B7
330
261
100
AcDbEntity
  8
Geo
100
AcDbLine
 10
-23.90589086011921
 20
10.2454098612708
 30
0.0
 11
-23.80589086011921
 21
10.1936741323661
 31
0.0
  0
LINE
  5
F105B9
330
261
100
AcDbEntity
  8
Geo
100
AcDbLine
 10
-23.80589086011921
 20
10.1936741323661
 30
0.0
 11
-23.7058908601192
 21
10.1421408684181
 31
0.0
  0
LINE
  5
F105BB
330
261
100
AcDbEntity
  8
Geo
100
AcDbLine
 10
-23.7058908601192
 20
10.1421408684181
 30
0.0
 11
-23.60589086011921
 21
10.090813575071
 31
0.0
  0
LINE
  5
F105BD
330
261
100
AcDbEntity
  8
Geo
100
AcDbLine
 10
-23.60589086011921
 20
10.090813575071
 30
0.0
 11
-23.50589086011922
 21
10.0396957439576
 31
0.0
  0
LINE
  5
F105BF
330
261
100
AcDbEntity
  8
Geo
100
AcDbLine
 10
-23.50589086011922
 20
10.0396957439576
 30
0.0
 11
-23.40589086011921
 21
9.988790852461695
 31
0.0
  0
LINE
  5
F105C1
330
261
100
AcDbEntity
  8
Geo
100
AcDbLine
 10
-23.40589086011921
 20
9.988790852461695
 30
0.0
 11
-23.30589086011921
 21
9.938102363481499
 31
0.0
  0
LINE
  5
F105C3
330
261
100
AcDbEntity
  8
Geo
100
AcDbLine
 10
-23.30589086011921
 20
9.938102363481499
 30
0.0
 11
-23.20589086011921
 21
9.8876337251939
 31
0.0
  0
LINE
  5
F105C5
330
261
100
AcDbEntity
  8
Geo
100
AcDbLine
 10
-23.20589086011921
 20
9.8876337251939
 30
0.0
 11
-23.10589086011921
 21
9.837388370820194
 31
0.0
  0
LINE
  5
F105C7
330
261
100
AcDbEntity
  8
Geo
100
AcDbLine
 10
-23.10589086011921
 20
9.837388370820194
 30
0.0
 11
-23.00589086011922
 21
9.787369718392401
 31
0.0
  0
LINE
  5
F105C9
330
261
100
AcDbEntity
  8
Geo
100
AcDbLine
 10
-23.00589086011922
 20
9.787369718392401
 30
0.0
 11
-22.90589086011921
 21
9.737581170520499
 31
0.0
  0
LINE
  5
F105CB
330
261
100
AcDbEntity
  8
Geo
100
AcDbLine
 10
-22.90589086011921
 20
9.737581170520499
 30
0.0
 11
-22.80589086011922
 21
9.688026114161401
 31
0.0
  0
LINE
  5
F105CD
330
261
100
AcDbEntity
  8
Geo
100
AcDbLine
 10
-22.80589086011922
 20
9.688026114161401
 30
0.0
 11
-22.7058908601192
 21
9.638707920388199
 31
0.0
  0
LINE
  5
F105CF
330
261
100
AcDbEntity
  8
Geo
100
AcDbLine
 10
-22.7058908601192
 20
9.638707920388199
 30
0.0
 11
-22.60589086011921
 21
9.589629944161199
 31
0.0
  0
LINE
  5
F105D1
330
261
100
AcDbEntity
  8
Geo
100
AcDbLine
 10
-22.60589086011921
 20
9.589629944161199
 30
0.0
 11
-22.50589086011922
 21
9.540795524099099
 31
0.0
  0
LINE
  5
F105D3
330
261
100
AcDbEntity
  8
Geo
100
AcDbLine
 10
-22.50589086011922
 20
9.540795524099099
 30
0.0
 11
-22.40589086011921
 21
9.492207982252699
 31
0.0
  0
LINE
  5
F105D5
330
261
100
AcDbEntity
  8
Geo
100
AcDbLine
 10
-22.40589086011921
 20
9.492207982252699
 30
0.0
 11
-22.30589086011921
 21
9.443870623877998
 31
0.0
  0
LINE
  5
F105D7
330
261
100
AcDbEntity
  8
Geo
100
AcDbLine
 10
-22.30589086011921
 20
9.443870623877998
 30
0.0
 11
-22.20589086011921
 21
9.395786737212198
 31
0.0
  0
LINE
  5
F105D9
330
261
100
AcDbEntity
  8
Geo
100
AcDbLine
 10
-22.20589086011921
 20
9.395786737212198
 30
0.0
 11
-22.10589086011921
 21
9.347959593249401
 31
0.0
  0
LINE
  5
F105DB
330
261
100
AcDbEntity
  8
Geo
100
AcDbLine
 10
-22.10589086011921
 20
9.347959593249401
 30
0.0
 11
-22.00589086011921
 21
9.3003924455183
 31
0.0
  0
LINE
  5
F105DD
330
261
100
AcDbEntity
  8
Geo
100
AcDbLine
 10
-22.00589086011921
 20
9.3003924455183
 30
0.0
 11
-21.90589086011921
 21
9.2530885298609
 31
0.0
  0
LINE
  5
F105DF
330
261
100
AcDbEntity
  8
Geo
100
AcDbLine
 10
-21.90589086011921
 20
9.2530885298609
 30
0.0
 11
-21.80589086011921
 21
9.206051064212598
 31
0.0
  0
LINE
  5
F105E1
330
261
100
AcDbEntity
  8
Geo
100
AcDbLine
 10
-21.80589086011921
 20
9.206051064212598
 30
0.0
 11
-21.7058908601192
 21
9.1592832483828
 31
0.0
  0
LINE
  5
F105E3
330
261
100
AcDbEntity
  8
Geo
100
AcDbLine
 10
-21.7058908601192
 20
9.1592832483828
 30
0.0
 11
-21.60589086011921
 21
9.112788263837398
 31
0.0
  0
LINE
  5
F105E5
330
261
100
AcDbEntity
  8
Geo
100
AcDbLine
 10
-21.60589086011921
 20
9.112788263837398
 30
0.0
 11
-21.50589086011922
 21
9.066569273482699
 31
0.0
  0
LINE
  5
F105E7
330
261
100
AcDbEntity
  8
Geo
100
AcDbLine
 10
-21.50589086011922
 20
9.066569273482699
 30
0.0
 11
-21.40589086011921
 21
9.0206294214498
 31
0.0
  0
LINE
  5
F105E9
330
261
100
AcDbEntity
  8
Geo
100
AcDbLine
 10
-21.40589086011921
 20
9.0206294214498
 30
0.0
 11
-21.30589086011921
 21
8.974971832881101
 31
0.0
  0
LINE
  5
F105EB
330
261
100
AcDbEntity
  8
Geo
100
AcDbLine
 10
-21.30589086011921
 20
8.974971832881101
 30
0.0
 11
-21.2058908601192
 21
8.9295996137174
 31
0.0
  0
LINE
  5
F105ED
330
261
100
AcDbEntity
  8
Geo
100
AcDbLine
 10
-21.2058908601192
 20
8.9295996137174
 30
0.0
 11
-21.10589086011921
 21
8.884515850486598
 31
0.0
  0
LINE
  5
F105EF
330
261
100
AcDbEntity
  8
Geo
100
AcDbLine
 10
-21.10589086011921
 20
8.884515850486598
 30
0.0
 11
-21.00589086011922
 21
8.839723610093997
 31
0.0
  0
LINE
  5
F105F1
330
261
100
AcDbEntity
  8
Geo
100
AcDbLine
 10
-21.00589086011922
 20
8.839723610093997
 30
0.0
 11
-20.90589086011921
 21
8.795225939613597
 31
0.0
  0
LINE
  5
F105F3
330
261
100
AcDbEntity
  8
Geo
100
AcDbLine
 10
-20.90589086011921
 20
8.795225939613597
 30
0.0
 11
-20.80589086011921
 21
8.751025866080599
 31
0.0
  0
LINE
  5
F105F5
330
261
100
AcDbEntity
  8
Geo
100
AcDbLine
 10
-20.80589086011921
 20
8.751025866080599
 30
0.0
 11
-20.70589086011921
 21
8.707126396285696
 31
0.0
  0
LINE
  5
F105F7
330
261
100
AcDbEntity
  8
Geo
100
AcDbLine
 10
-20.70589086011921
 20
8.707126396285696
 30
0.0
 11
-20.60589086011921
 21
8.6635305165704
 31
0.0
  0
LINE
  5
F105F9
330
261
100
AcDbEntity
  8
Geo
100
AcDbLine
 10
-20.60589086011921
 20
8.6635305165704
 30
0.0
 11
-20.50589086011922
 21
8.620241192624098
 31
0.0
  0
LINE
  5
F105FB
330
261
100
AcDbEntity
  8
Geo
100
AcDbLine
 10
-20.50589086011922
 20
8.620241192624098
 30
0.0
 11
-20.40589086011921
 21
8.577261369281899
 31
0.0
  0
LINE
  5
F105FD
330
261
100
AcDbEntity
  8
Geo
100
AcDbLine
 10
-20.40589086011921
 20
8.577261369281899
 30
0.0
 11
-20.30589086011922
 21
8.534593970325
 31
0.0
  0
LINE
  5
F105FF
330
261
100
AcDbEntity
  8
Geo
100
AcDbLine
 10
-20.30589086011922
 20
8.534593970325
 30
0.0
 11
-20.2058908601192
 21
8.492241898280802
 31
0.0
  0
LINE
  5
F10601
330
261
100
AcDbEntity
  8
Geo
100
AcDbLine
 10
-20.2058908601192
 20
8.492241898280802
 30
0.0
 11
-20.10589086011921
 21
8.450208034226498
 31
0.0
  0
LINE
  5
F10603
330
261
100
AcDbEntity
  8
Geo
100
AcDbLine
 10
-20.10589086011921
 20
8.450208034226498
 30
0.0
 11
-20.00589086011922
 21
8.408495237592401
 31
0.0
  0
LINE
  5
F10605
330
261
100
AcDbEntity
  8
Geo
100
AcDbLine
 10
-20.00589086011922
 20
8.408495237592401
 30
0.0
 11
-19.90589086011921
 21
8.367106345967499
 31
0.0
  0
LINE
  5
F10607
330
261
100
AcDbEntity
  8
Geo
100
AcDbLine
 10
-19.90589086011921
 20
8.367106345967499
 30
0.0
 11
-19.80589086011921
 21
8.326044174906899
 31
0.0
  0
LINE
  5
F10609
330
261
100
AcDbEntity
  8
Geo
100
AcDbLine
 10
-19.80589086011921
 20
8.326044174906899
 30
0.0
 11
-19.7058908601192
 21
8.285311517739501
 31
0.0
  0
LINE
  5
F1060B
330
261
100
AcDbEntity
  8
Geo
100
AcDbLine
 10
-19.7058908601192
 20
8.285311517739501
 30
0.0
 11
-19.60589086011921
 21
8.2449111453789
 31
0.0
  0
LINE
  5
F1060D
330
261
100
AcDbEntity
  8
Geo
100
AcDbLine
 10
-19.60589086011921
 20
8.2449111453789
 30
0.0
 11
-19.50589086011921
 21
8.204845806133898
 31
0.0
  0
LINE
  5
F1060F
330
261
100
AcDbEntity
  8
Geo
100
AcDbLine
 10
-19.50589086011921
 20
8.204845806133898
 30
0.0
 11
-19.40589086011921
 21
8.165118225522599
 31
0.0
  0
LINE
  5
F10611
330
261
100
AcDbEntity
  8
Geo
100
AcDbLine
 10
-19.40589086011921
 20
8.165118225522599
 30
0.0
 11
-19.30589086011921
 21
8.125731106085996
 31
0.0
  0
LINE
  5
F10613
330
261
100
AcDbEntity
  8
Geo
100
AcDbLine
 10
-19.30589086011921
 20
8.125731106085996
 30
0.0
 11
-19.20589086011921
 21
8.0866871272049
 31
0.0
  0
LINE
  5
F10615
330
261
100
AcDbEntity
  8
Geo
100
AcDbLine
 10
-19.20589086011921
 20
8.0866871272049
 30
0.0
 11
-19.10589086011921
 21
8.047988944917097
 31
0.0
  0
LINE
  5
F10617
330
261
100
AcDbEntity
  8
Geo
100
AcDbLine
 10
-19.10589086011921
 20
8.047988944917097
 30
0.0
 11
-19.00589086011921
 21
8.009639191737198
 31
0.0
  0
LINE
  5
F10619
330
261
100
AcDbEntity
  8
Geo
100
AcDbLine
 10
-19.00589086011921
 20
8.009639191737198
 30
0.0
 11
-18.90589086011921
 21
7.971640476477097
 31
0.0
  0
LINE
  5
F1061B
330
261
100
AcDbEntity
  8
Geo
100
AcDbLine
 10
-18.90589086011921
 20
7.971640476477097
 30
0.0
 11
-18.80589086011921
 21
7.9339953840688
 31
0.0
  0
LINE
  5
F1061D
330
261
100
AcDbEntity
  8
Geo
100
AcDbLine
 10
-18.80589086011921
 20
7.9339953840688
 30
0.0
 11
-18.70589086011921
 21
7.8967064753884
 31
0.0
  0
LINE
  5
F1061F
330
261
100
AcDbEntity
  8
Geo
100
AcDbLine
 10
-18.70589086011921
 20
7.8967064753884
 30
0.0
 11
-18.60589086011921
 21
7.859776287081998
 31
0.0
  0
LINE
  5
F10621
330
261
100
AcDbEntity
  8
Geo
100
AcDbLine
 10
-18.60589086011921
 20
7.859776287081998
 30
0.0
 11
-18.50589086011921
 21
7.823207331393098
 31
0.0
  0
LINE
  5
F10623
330
261
100
AcDbEntity
  8
Geo
100
AcDbLine
 10
-18.50589086011921
 20
7.823207331393098
 30
0.0
 11
-18.4058908601192
 21
7.787002095991499
 31
0.0
  0
LINE
  5
F10625
330
261
100
AcDbEntity
  8
Geo
100
AcDbLine
 10
-18.4058908601192
 20
7.787002095991499
 30
0.0
 11
-18.30589086011921
 21
7.751163043804599
 31
0.0
  0
LINE
  5
F10627
330
261
100
AcDbEntity
  8
Geo
100
AcDbLine
 10
-18.30589086011921
 20
7.751163043804599
 30
0.0
 11
-18.20589086011921
 21
7.715692612849199
 31
0.0
  0
LINE
  5
F10629
330
261
100
AcDbEntity
  8
Geo
100
AcDbLine
 10
-18.20589086011921
 20
7.715692612849199
 30
0.0
 11
-18.10589086011921
 21
7.680593216066196
 31
0.0
  0
LINE
  5
F1062B
330
261
100
AcDbEntity
  8
Geo
100
AcDbLine
 10
-18.10589086011921
 20
7.680593216066196
 30
0.0
 11
-18.00589086011921
 21
7.645867241156097
 31
0.0
  0
LINE
  5
F1062D
330
261
100
AcDbEntity
  8
Geo
100
AcDbLine
 10
-18.00589086011921
 20
7.645867241156097
 30
0.0
 11
-17.90589086011921
 21
7.611517050416697
 31
0.0
  0
LINE
  5
F1062F
330
261
100
AcDbEntity
  8
Geo
100
AcDbLine
 10
-17.90589086011921
 20
7.611517050416697
 30
0.0
 11
-17.80589086011921
 21
7.577544980582499
 31
0.0
  0
LINE
  5
F10631
330
261
100
AcDbEntity
  8
Geo
100
AcDbLine
 10
-17.80589086011921
 20
7.577544980582499
 30
0.0
 11
-17.70589086011921
 21
7.5439533426655
 31
0.0
  0
LINE
  5
F10633
330
261
100
AcDbEntity
  8
Geo
100
AcDbLine
 10
-17.70589086011921
 20
7.5439533426655
 30
0.0
 11
-17.60589086011921
 21
7.510744421798102
 31
0.0
  0
LINE
  5
F10635
330
261
100
AcDbEntity
  8
Geo
100
AcDbLine
 10
-17.60589086011921
 20
7.510744421798102
 30
0.0
 11
-17.50589086011921
 21
7.477920477077999
 31
0.0
  0
LINE
  5
F10637
330
261
100
AcDbEntity
  8
Geo
100
AcDbLine
 10
-17.50589086011921
 20
7.477920477077999
 30
0.0
 11
-17.40589086011921
 21
7.445483741413696
 31
0.0
  0
LINE
  5
F10639
330
261
100
AcDbEntity
  8
Geo
100
AcDbLine
 10
-17.40589086011921
 20
7.445483741413696
 30
0.0
 11
-17.30589086011921
 21
7.413436421373499
 31
0.0
  0
LINE
  5
F1063B
330
261
100
AcDbEntity
  8
Geo
100
AcDbLine
 10
-17.30589086011921
 20
7.413436421373499
 30
0.0
 11
-17.20589086011921
 21
7.381780697034799
 31
0.0
  0
LINE
  5
F1063D
330
261
100
AcDbEntity
  8
Geo
100
AcDbLine
 10
-17.20589086011921
 20
7.381780697034799
 30
0.0
 11
-17.10589086011921
 21
7.350518721835896
 31
0.0
  0
LINE
  5
F1063F
330
261
100
AcDbEntity
  8
Geo
100
AcDbLine
 10
-17.10589086011921
 20
7.350518721835896
 30
0.0
 11
-17.00589086011921
 21
7.31965262243
 31
0.0
  0
LINE
  5
F10641
330
261
100
AcDbEntity
  8
Geo
100
AcDbLine
 10
-17.00589086011921
 20
7.31965262243
 30
0.0
 11
-16.90589086011921
 21
7.289184498539599
 31
0.0
  0
LINE
  5
F10643
330
261
100
AcDbEntity
  8
Geo
100
AcDbLine
 10
-16.90589086011921
 20
7.289184498539599
 30
0.0
 11
-16.80589086011921
 21
7.2591164228145
 31
0.0
  0
LINE
  5
F10645
330
261
100
AcDbEntity
  8
Geo
100
AcDbLine
 10
-16.80589086011921
 20
7.2591164228145
 30
0.0
 11
-16.70589086011921
 21
7.229450440690499
 31
0.0
  0
LINE
  5
F10647
330
261
100
AcDbEntity
  8
Geo
100
AcDbLine
 10
-16.70589086011921
 20
7.229450440690499
 30
0.0
 11
-16.60589086011921
 21
7.200188570250197
 31
0.0
  0
LINE
  5
F10649
330
261
100
AcDbEntity
  8
Geo
100
AcDbLine
 10
-16.60589086011921
 20
7.200188570250197
 30
0.0
 11
-16.50589086011921
 21
7.171332802085598
 31
0.0
  0
LINE
  5
F1064B
330
261
100
AcDbEntity
  8
Geo
100
AcDbLine
 10
-16.50589086011921
 20
7.171332802085598
 30
0.0
 11
-16.4058908601192
 21
7.142885099163197
 31
0.0
  0
LINE
  5
F1064D
330
261
100
AcDbEntity
  8
Geo
100
AcDbLine
 10
-16.4058908601192
 20
7.142885099163197
 30
0.0
 11
-16.30589086011921
 21
7.114847396689699
 31
0.0
  0
LINE
  5
F1064F
330
261
100
AcDbEntity
  8
Geo
100
AcDbLine
 10
-16.30589086011921
 20
7.114847396689699
 30
0.0
 11
-16.20589086011921
 21
7.087221601981098
 31
0.0
  0
LINE
  5
F10651
330
261
100
AcDbEntity
  8
Geo
100
AcDbLine
 10
-16.20589086011921
 20
7.087221601981098
 30
0.0
 11
-16.10589086011921
 21
7.060009594332496
 31
0.0
  0
LINE
  5
F10653
330
261
100
AcDbEntity
  8
Geo
100
AcDbLine
 10
-16.10589086011921
 20
7.060009594332496
 30
0.0
 11
-16.00589086011921
 21
7.033213224890401
 31
0.0
  0
LINE
  5
F10655
330
261
100
AcDbEntity
  8
Geo
100
AcDbLine
 10
-16.00589086011921
 20
7.033213224890401
 30
0.0
 11
-15.9058908601192
 21
7.0068343165268
 31
0.0
  0
LINE
  5
F10657
330
261
100
AcDbEntity
  8
Geo
100
AcDbLine
 10
-15.9058908601192
 20
7.0068343165268
 30
0.0
 11
-15.80589086011921
 21
6.980874663714899
 31
0.0
  0
LINE
  5
F10659
330
261
100
AcDbEntity
  8
Geo
100
AcDbLine
 10
-15.80589086011921
 20
6.980874663714899
 30
0.0
 11
-15.70589086011921
 21
6.955336032407697
 31
0.0
  0
LINE
  5
F1065B
330
261
100
AcDbEntity
  8
Geo
100
AcDbLine
 10
-15.70589086011921
 20
6.955336032407697
 30
0.0
 11
-15.60589086011921
 21
6.930220159916999
 31
0.0
  0
LINE
  5
F1065D
330
261
100
AcDbEntity
  8
Geo
100
AcDbLine
 10
-15.60589086011921
 20
6.930220159916999
 30
0.0
 11
-15.50589086011921
 21
6.905528754795999
 31
0.0
  0
LINE
  5
F1065F
330
261
100
AcDbEntity
  8
Geo
100
AcDbLine
 10
-15.50589086011921
 20
6.905528754795999
 30
0.0
 11
-15.40589086011921
 21
6.881263496722597
 31
0.0
  0
LINE
  5
F10661
330
261
100
AcDbEntity
  8
Geo
100
AcDbLine
 10
-15.40589086011921
 20
6.881263496722597
 30
0.0
 11
-15.30589086011921
 21
6.857426036385098
 31
0.0
  0
LINE
  5
F10663
330
261
100
AcDbEntity
  8
Geo
100
AcDbLine
 10
-15.30589086011921
 20
6.857426036385098
 30
0.0
 11
-15.20589086011921
 21
6.8340179953705
 31
0.0
  0
LINE
  5
F10665
330
261
100
AcDbEntity
  8
Geo
100
AcDbLine
 10
-15.20589086011921
 20
6.8340179953705
 30
0.0
 11
-15.10589086011921
 21
6.811040966053399
 31
0.0
  0
LINE
  5
F10667
330
261
100
AcDbEntity
  8
Geo
100
AcDbLine
 10
-15.10589086011921
 20
6.811040966053399
 30
0.0
 11
-15.10589086011921
 21
7.201935675542398
 31
0.0
  0
LINE
  5
F10669
330
261
100
AcDbEntity
  8
Geo
100
AcDbLine
 10
-15.10589086011921
 20
6.811040966053399
 30
0.0
 11
-15.10589086011921
 21
6.303691461294999
 31
0.0
  0
LINE
  5
F1066B
330
261
100
AcDbEntity
  8
Geo
100
AcDbLine
 10
-37.00589086011922
 20
13.1699258663398
 30
0.0
 11
-37.00589086011922
 21
13.1699258663398
 31
0.0
  0
LINE
  5
F1066D
330
261
100
AcDbEntity
  8
Geo
100
AcDbLine
 10
-37.00589086011922
 20
13.1699258663398
 30
0.0
 11
-37.00589086011922
 21
13.1699258663398
 31
0.0
  0
LINE
  5
F1066F
330
261
100
AcDbEntity
  8
Geo
100
AcDbLine
 10
45.99410913988076
 20
19.4699258663398
 30
0.0
 11
45.99410913988076
 21
13.1699258663398
 31
0.0
  0
ARC
  5
F10671
330
261
100
AcDbEntity
  8
Geo
100
AcDbCircle
 10
-30.00589086011922
 20
13.1699258663398
 30
0.0
 40
7.0
100
AcDbArc
 50
180.0
 51
270.0
  0
LINE
  5
F10673
330
261
100
AcDbEntity
  8
Geo
100
AcDbLine
 10
-30.00589086011922
 20
6.1699258663398
 30
0.0
 11
0.9941091398807911
 21
6.1699258663398
 31
0.0
  0
LINE
  5
F10675
330
261
100
AcDbEntity
  8
Geo
100
AcDbLine
 10
0.9941091398807911
 20
6.1699258663398
 30
0.0
 11
45.29410913988078
 21
6.1699258663398
 31
0.0
  0
LINE
  5
F10677
330
261
100
AcDbEntity
  8
Geo
100
AcDbLine
 10
45.29410913988078
 20
6.1699258663398
 30
0.0
 11
45.99410913988076
 21
6.8699258663398
 31
0.0
  0
LINE
  5
F10679
330
261
100
AcDbEntity
  8
Geo
100
AcDbLine
 10
-30.00589086011922
 20
20.1699258663398
 30
0.0
 11
-30.00589086011922
 21
6.1699258663398
 31
0.0
  0
LINE
  5
F1067B
330
261
100
AcDbEntity
  8
Geo
100
AcDbLine
 10
0.9941091398807911
 20
20.1699258663398
 30
0.0
 11
0.9941091398807911
 21
6.1699258663398
 31
0.0
  0
LINE
  5
F1067D
330
261
100
AcDbEntity
  8
Geo
100
AcDbLine
 10
45.29410913988078
 20
20.1699258663398
 30
0.0
 11
45.29410913988078
 21
6.1699258663398
 31
0.0
  0
LINE
  5
F1067F
330
261
100
AcDbEntity
  8
Geo
100
AcDbLine
 10
45.99410913988076
 20
19.4699258663398
 30
0.0
 11
45.99410913988076
 21
6.8699258663398
 31
0.0
  0
LWPOLYLINE
  5
F106E9
330
261
100
AcDbEntity
  8
Rahmen
100
AcDbPolyline
 90
        4
 70
     1
 43
0.0
 10
-134.524070021882
 20
99.945295404814
 10
143.484682713348
 20
99.945295404814
 10
143.484682713348
 20
-100.175054704595
 10
-134.524070021882
 20
-100.175054704595
  0
TEXT
  5
F106EB
330
261
100
AcDbEntity
  8
Text
100
AcDbText
 10
-133.6050328227569
 20
-99.67505470459521
 30
0.0
 40
1.0
  1
ISBESketcher
100
AcDbText
  0
LWPOLYLINE
  5
F106ED
330
261
100
AcDbEntity
  8
Rahmen
100
AcDbPolyline
 90
        4
 70
     1
 43
0.0
 10
103.276805251641
 20
-97.1881838074398
 10
143.484682713348
 20
-97.1881838074398
 10
143.484682713348
 20
-100.175054704595
 10
103.276805251641
 20
-100.175054704595
  0
TEXT
  5
F106EF
330
261
100
AcDbEntity
  8
Text
100
AcDbText
 10
104.425601750547
 20
-98.1881838074398
 30
0.0
 40
0.75
  1
Ers. durch:
100
AcDbText
  0
LWPOLYLINE
  5
F106F3
330
261
100
AcDbEntity
  8
Rahmen
100
AcDbPolyline
 90
        4
 70
     1
 43
0.0
 10
63.2986870897155
 20
-97.1881838074398
 10
103.276805251641
 20
-97.1881838074398
 10
103.276805251641
 20
-100.175054704595
 10
63.2986870897155
 20
-100.175054704595
  0
TEXT
  5
F106F5
330
261
100
AcDbEntity
  8
Text
100
AcDbText
 10
64.44748358862138
 20
-98.1881838074398
 30
0.0
 40
0.75
  1
Ers. für:
100
AcDbText
  0
TEXT
  5
F106F7
330
261
100
AcDbEntity
  8
Text
100
AcDbText
 10
91.32932166301969
 20
-99.5667396061269
 30
0.0
 40
0.75
  1

100
AcDbText
  0
LWPOLYLINE
  5
F106F9
330
261
100
AcDbEntity
  8
Rahmen
100
AcDbPolyline
 90
        4
 70
     1
 43
0.0
 10
130.158643326039
 20
-94.2013129102845
 10
143.484682713348
 20
-94.2013129102845
 10
143.484682713348
 20
-97.1881838074398
 10
130.158643326039
 20
-97.1881838074398
  0
TEXT
  5
F106FB
330
261
100
AcDbEntity
  8
Text
100
AcDbText
 10
131.077680525164
 20
-95.2013129102845
 30
0.0
 40
0.75
  1
Blätter
100
AcDbText
  0
TEXT
  5
F106FD
330
261
100
AcDbEntity
  8
Text
100
AcDbText
 10
141.187089715536
 20
-96.57986870897161
 30
0.0
 40
0.75
  1

100
AcDbText
  0
LWPOLYLINE
  5
F106FF
330
261
100
AcDbEntity
  8
Rahmen
100
AcDbPolyline
 90
        4
 70
     1
 43
0.0
 10
130.158643326039
 20
-91.21444201312909
 10
143.484682713348
 20
-91.21444201312909
 10
143.484682713348
 20
-94.2013129102845
 10
130.158643326039
 20
-94.2013129102845
  0
TEXT
  5
F10701
330
261
100
AcDbEntity
  8
Text
100
AcDbText
 10
131.077680525164
 20
-92.21444201312911
 30
0.0
 40
0.75
  1
Blatt
100
AcDbText
  0
TEXT
  5
F10703
330
261
100
AcDbEntity
  8
Text
100
AcDbText
 10
141.187089715536
 20
-93.59299781181618
 30
0.0
 40
0.75
  1

100
AcDbText
  0
LWPOLYLINE
  5
F10705
330
261
100
AcDbEntity
  8
Rahmen
100
AcDbPolyline
 90
        4
 70
     1
 43
0.0
 10
63.2986870897155
 20
-91.21444201312909
 10
130.158643326039
 20
-91.21444201312909
 10
130.158643326039
 20
-97.1881838074398
 10
63.2986870897155
 20
-97.1881838074398
  0
TEXT
  5
F10707
330
261
100
AcDbEntity
  8
Text
100
AcDbText
 10
64.44748358862138
 20
-92.21444201312911
 30
0.0
 40
0.75
  1
Datum:
100
AcDbText
  0
TEXT
  5
F10709
330
261
100
AcDbEntity
  8
Text
100
AcDbText
 10
90.410284463895
 20
-95.2013129102845
 30
0.0
 40
0.75
  1
18.07.2013
100
AcDbText
  0
LWPOLYLINE
  5
F1070B
330
261
100
AcDbEntity
  8
Rahmen
100
AcDbPolyline
 90
        4
 70
     1
 43
0.0
 10
63.2986870897155
 20
-85.0109409190372
 10
143.484682713348
 20
-85.0109409190372
 10
143.484682713348
 20
-91.21444201312909
 10
63.2986870897155
 20
-91.21444201312909
  0
TEXT
  5
F1070D
330
261
100
AcDbEntity
  8
Text
100
AcDbText
 10
-200.924507658643
 20
103.0
 30
0.0
 40
1.5
  1

100
AcDbText
  0
TEXT
  5
F1070F
330
261
100
AcDbEntity
  8
Text
100
AcDbText
 10
78.0032822757112
 20
-88.8037928519329
 30
0.0
 40
2.5
  1
2135-140
100
AcDbText
  0
LWPOLYLINE
  5
F10711
330
261
100
AcDbEntity
  8
Rahmen
100
AcDbPolyline
 90
        4
 70
     1
 43
0.0
 10
103.276805251641
 20
-79.0371991247265
 10
143.484682713348
 20
-79.0371991247265
 10
143.484682713348
 20
-85.0109409190372
 10
103.276805251641
 20
-85.0109409190372
  0
TEXT
  5
F10713
330
261
100
AcDbEntity
  8
Text
100
AcDbText
 10
104.425601750547
 20
-80.0371991247265
 30
0.0
 40
0.75
  1
Zu bearb. Material:
100
AcDbText
  0
TEXT
  5
F10715
330
261
100
AcDbEntity
  8
Text
100
AcDbText
 10
123.265864332604
 20
-84.4026258205689
 30
0.0
 40
0.75
  1

100
AcDbText
  0
LWPOLYLINE
  5
F10717
330
261
100
AcDbEntity
  8
Rahmen
100
AcDbPolyline
 90
        4
 70
     1
 43
0.0
 10
63.2986870897155
 20
-79.0371991247265
 10
103.276805251641
 20
-79.0371991247265
 10
103.276805251641
 20
-85.0109409190372
 10
63.2986870897155
 20
-85.0109409190372
  0
TEXT
  5
F10719
330
261
100
AcDbEntity
  8
Text
100
AcDbText
 10
64.44748358862138
 20
-80.0371991247265
 30
0.0
 40
0.75
  1
Werkstoff:
100
AcDbText
  0
TEXT
  5
F1071B
330
261
100
AcDbEntity
  8
Text
100
AcDbText
 10
83.28774617067841
 20
-84.4026258205689
 30
0.0
 40
0.75
  1

100
AcDbText
  0
LWPOLYLINE
  5
F1071D
330
261
100
AcDbEntity
  8
Rahmen
100
AcDbPolyline
 90
        4
 70
     1
 43
0.0
 10
103.276805251641
 20
-76.0503282275711
 10
143.484682713348
 20
-76.0503282275711
 10
143.484682713348
 20
-79.0371991247265
 10
103.276805251641
 20
-79.0371991247265
  0
TEXT
  5
F1071F
330
261
100
AcDbEntity
  8
Text
100
AcDbText
 10
-200.924507658643
 20
103.0
 30
0.0
 40
1.5
  1

100
AcDbText
  0
TEXT
  5
F10721
330
261
100
AcDbEntity
  8
Text
100
AcDbText
 10
123.265864332604
 20
-78.4288840262582
 30
0.0
 40
0.75
  1

100
AcDbText
  0
LWPOLYLINE
  5
F10723
330
261
100
AcDbEntity
  8
Rahmen
100
AcDbPolyline
 90
        4
 70
     1
 43
0.0
 10
63.2986870897155
 20
-76.0503282275711
 10
103.276805251641
 20
-76.0503282275711
 10
103.276805251641
 20
-79.0371991247265
 10
63.2986870897155
 20
-79.0371991247265
  0
TEXT
  5
F10725
330
261
100
AcDbEntity
  8
Text
100
AcDbText
 10
64.44748358862138
 20
-77.0503282275711
 30
0.0
 40
0.75
  1
Maßstab:
100
AcDbText
  0
TEXT
  5
F10727
330
261
100
AcDbEntity
  8
Text
100
AcDbText
 10
88.80196936542672
 20
-77.0503282275711
 30
0.0
 40
0.75
  1
1 : 1
100
AcDbText
  0
VIEWPORT
  5
294
102
{ACAD_XDICTIONARY
360
F109BB
102
}
330
25D
100
AcDbEntity
 67
     1
  8
0
 60
     1
100
AcDbViewport
 10
0.0
 20
0.0
 30
0.0
 40
10.0
 41
10.0
 68
    -1
 69
     1
 12
0.0
 22
0.0
 13
0.0
 23
0.0
 14
1.0
 24
1.0
 15
0.0
 25
0.0
 16
0.0
 26
0.0
 36
1.0
 17
0.0
 27
0.0
 37
0.0
 42
0.0
 43
0.0
 44
0.0
 45
10.0
 50
0.0
 51
0.0000000000007958
 72
   100
 90
    32800
  1

281
     0
 71
     0
 74
     0
110
0.0
120
0.0
130
0.0
111
1.0
121
0.0
131
0.0
112
0.0
122
1.0
132
0.0
 79
     0
146
0.0
1001
VD_INVISIBLE_NOT_FOR_READ
1000
VD_INVISIBLE_NOT_FOR_READ
1001
GENIUS_GENODEF_13
1002
{
1000
HIER
1070
     0
1002
}
1002
{
1000
MANEDIT
1070
     0
1002
}
1002
{
1000
NOSEL
1070
     0
1002
}
1002
{
1000
BEHIND
1070
     0
1002
}
1002
{
1000
OTHER
1070
     0
1002
}
1002
{
1000
REACTOR
1002
}
1001
GENIUS_GENOBJ-N-SDF_13
1002
{
1000
OWNER
1000
GEN
1002
}
1001
GENIUS_GENSCREG_15
1000
PF
1040
1.0
1000
DF
1040
1.0
1000
MIN
1011
-5.0
1021
-5.0
1031
0.0
1000
MAX
1011
5.0
1021
5.0
1031
0.0
1000
FLAGS
1070
     4
  0
VIEWPORT
  5
295
102
{ACAD_XDICTIONARY
360
F109BD
102
}
330
25D
100
AcDbEntity
 67
     1
  8
0
 60
     1
100
AcDbViewport
 10
0.0
 20
0.0
 30
0.0
 40
10.0
 41
10.0
 68
     0
 69
     2
 12
0.0
 22
0.0
 13
0.0
 23
0.0
 14
1.0
 24
1.0
 15
0.0
 25
0.0
 16
0.0
 26
0.0
 36
1.0
 17
0.0
 27
0.0
 37
0.0
 42
0.0
 43
0.0
 44
0.0
 45
10.0
 50
0.0
 51
0.0000000000007958
 72
   100
 90
   163872
  1

281
     0
 71
     0
 74
     0
110
0.0
120
0.0
130
0.0
111
1.0
121
0.0
131
0.0
112
0.0
122
1.0
132
0.0
 79
     0
146
0.0
1001
VD_INVISIBLE_NOT_FOR_READ
1000
VD_INVISIBLE_NOT_FOR_READ
1001
GENIUS_GENOBJ-N-SDF_13
1002
{
1000
OWNER
1000
GEN
1002
}
1001
GENIUS_GENODEF_13
1002
{
1000
HIER
1070
     0
1002
}
1002
{
1000
MANEDIT
1070
     0
1002
}
1002
{
1000
NOSEL
1070
     0
1002
}
1002
{
1000
BEHIND
1070
     0
1002
}
1002
{
1000
OTHER
1070
     0
1002
}
1002
{
1000
REACTOR
1002
}
1001
GENIUS_GENSCREG_15
1000
PF
1040
1.0
1000
DF
1040
1.0
1000
MIN
1011
-5.0
1021
-5.0
1031
0.0
1000
MAX
1011
5.0
1021
5.0
1031
0.0
1000
FLAGS
1070
     4
  0
ENDSEC
  0
SECTION
  2
OBJECTS
  0
DICTIONARY
  5
13
330
0
100
AcDbDictionary
281
     1
  3
ACAD_2007HEADERVARS_RT
350
F109B6
  3
ACAD_COLOR
350
FA7
  3
ACAD_GROUP
350
14
  3
ACAD_LAYOUT
350
FCF
  3
ACAD_MATERIAL
350
F7A
  3
ACAD_MLEADERSTYLE
350
FCD
  3
ACAD_MLINESTYLE
350
16
  3
ACAD_PLOTSETTINGS
350
17
  3
ACAD_PLOTSTYLENAME
350
18
  3
ACAD_SCALELIST
350
FAB
  3
ACAD_TABLESTYLE
350
FA8
  3
ACAD_VISUALSTYLE
350
F93
  3
ACDB_RECOMPOSE_DATA
350
F109B4
  3
AcDbVariableDictionary
350
F108F0
  3
AcmDictionary
350
F1077E
  3
AMG
350
F10732
  3
AMGSNAPSETTINGS
350
F107F2
  3
DWGPROPS
350
F109B5
  0
DICTIONARY
  5
F108E6
330
252
100
AcDbDictionary
280
     1
281
     1
  3
ADSK_XREC_LAYER_RECONCILED
360
F108E7
  0
DICTIONARY
  5
F108E8
330
23F
100
AcDbDictionary
280
     1
281
     1
  3
ADSK_XREC_LAYER_RECONCILED
360
F108E9
  0
DICTIONARY
  5
F108EA
330
240
100
AcDbDictionary
280
     1
281
     1
  3
ADSK_XREC_LAYER_RECONCILED
360
F108EB
  0
DICTIONARY
  5
F108EC
330
241
100
AcDbDictionary
280
     1
281
     1
  3
ADSK_XREC_LAYER_RECONCILED
360
F108ED
  0
DICTIONARY
  5
F108EE
330
57E
100
AcDbDictionary
280
     1
281
     1
  3
ADSK_XREC_LAYER_RECONCILED
360
F108EF
  0
DICTIONARY
  5
F109BF
330
296
100
AcDbDictionary
280
     1
281
     1
  3
ACAD_XREC_ROUNDTRIP
360
F109C0
  0
DICTIONARY
  5
F109C1
330
297
100
AcDbDictionary
280
     1
281
     1
  3
ACAD_XREC_ROUNDTRIP
360
F109C2
  0
DICTIONARY
  5
F109BB
330
294
100
AcDbDictionary
280
     1
281
     1
  3
ACAD_XREC_ROUNDTRIP
360
F109BC
  0
DICTIONARY
  5
F109BD
330
295
100
AcDbDictionary
280
     1
281
     1
  3
ACAD_XREC_ROUNDTRIP
360
F109BE
  0
DICTIONARY
  5
F109B6
102
{ACAD_REACTORS
330
13
102
}
330
13
100
AcDbDictionary
281
     1
  3
DIMARCSYM
350
F109B7
  3
DIMLTEX1
350
F109B9
  3
DIMLTEX2
350
F109BA
  3
DIMLTYPE
350
F109B8
  0
DICTIONARY
  5
FA7
102
{ACAD_REACTORS
330
13
102
}
330
13
100
AcDbDictionary
281
     1
  0
DICTIONARY
  5
14
330
13
100
AcDbDictionary
281
     1
  0
DICTIONARY
  5
FCF
102
{ACAD_REACTORS
330
13
102
}
330
13
100
AcDbDictionary
281
     1
  3
Layout1
350
FD1
  3
Model
350
FD0
  0
DICTIONARY
  5
F7A
102
{ACAD_REACTORS
330
13
102
}
330
13
100
AcDbDictionary
281
     1
  3
ByBlock
350
F83
  3
ByLayer
350
F7B
  3
Global
350
F8B
  0
DICTIONARY
  5
FCD
102
{ACAD_REACTORS
330
13
102
}
330
13
100
AcDbDictionary
281
     1
  3
Standard
350
FCE
  0
DICTIONARY
  5
16
330
13
100
AcDbDictionary
281
     1
  3
Standard
350
FAA
  0
DICTIONARY
  5
17
102
{ACAD_REACTORS
330
13
102
}
330
13
100
AcDbDictionary
281
     1
  0
ACDBDICTIONARYWDFLT
  5
18
102
{ACAD_REACTORS
330
13
102
}
330
13
100
AcDbDictionary
281
     1
  3
Normal
350
19
100
AcDbDictionaryWithDefault
340
19
  0
DICTIONARY
  5
FAB
102
{ACAD_REACTORS
330
13
102
}
330
13
100
AcDbDictionary
281
     1
  3
A0
350
FAC
  3
A1
350
FAD
  3
A2
350
FAE
  3
A3
350
FAF
  3
A4
350
FB0
  3
A5
350
FB1
  3
A6
350
FB2
  3
A7
350
FB3
  3
A8
350
FB4
  3
A9
350
FB5
  3
B0
350
FB6
  3
B1
350
FB7
  3
B2
350
FB8
  3
B3
350
FB9
  3
B4
350
FBA
  3
B5
350
FBB
  3
B6
350
FBC
  3
B7
350
FBD
  3
B8
350
FBE
  3
B9
350
FBF
  3
C0
350
FC0
  3
C1
350
FC1
  3
C2
350
FC2
  3
C3
350
FC3
  3
C4
350
FC4
  3
C5
350
FC5
  3
C6
350
FC6
  3
C7
350
FC7
  3
C8
350
FC8
  3
C9
350
FC9
  3
D0
350
FCA
  3
D1
350
FCB
  3
D2
350
FCC
  0
DICTIONARY
  5
FA8
102
{ACAD_REACTORS
330
13
102
}
330
13
100
AcDbDictionary
281
     1
  3
Standard
350
FA9
  0
DICTIONARY
  5
F93
102
{ACAD_REACTORS
330
13
102
}
330
13
100
AcDbDictionary
281
     1
  3
2dWireframe
350
F99
  3
3D Hidden
350
F9B
  3
3dWireframe
350
F9A
  3
Basic
350
F98
  3
Brighten
350
F9F
  3
ColorChange
350
FA3
  3
Conceptual
350
F9C
  3
Dim
350
F9E
  3
EdgeColorOff
350
FA6
  3
Facepattern
350
FA2
  3
Flat
350
F94
  3
FlatWithEdges
350
F95
  3
Gouraud
350
F96
  3
GouraudWithEdges
350
F97
  3
Hidden
350
F1072A
  3
JitterOff
350
FA4
  3
Linepattern
350
FA1
  3
OverhangOff
350
FA5
  3
Realistic
350
F9D
  3
Shaded
350
F1072F
  3
Shaded with edges
350
F1072E
  3
Shades of Gray
350
F1072B
  3
Sketchy
350
F1072C
  3
Thicken
350
FA0
  3
Wireframe
350
F10729
  3
X-Ray
350
F1072D
  0
XRECORD
  5
F109B4
102
{ACAD_REACTORS
330
13
102
}
330
13
100
AcDbXrecord
280
     1
 90
        1
330
FA9
  0
DICTIONARY
  5
F108F0
102
{ACAD_REACTORS
330
13
102
}
330
13
100
AcDbDictionary
281
     1
  3
CANNOSCALE
350
F108F3
  3
CMLEADERSTYLE
350
F108F2
  3
CTABLESTYLE
350
F108F1
  3
DIMASSOC
350
F108F6
  3
INDEXCTL
350
F108F5
  3
SORTENTS
350
F108F4
  3
XCLIPFRAME
350
F109B2
  0
DICTIONARY
  5
F1077E
102
{ACAD_REACTORS
330
13
102
}
330
13
100
AcDbDictionary
281
     1
  3
AcmStdDictionary
350
F10789
  0
DICTIONARY
  5
F10732
102
{ACAD_REACTORS
330
13
102
}
330
13
100
AcDbDictionary
281
     1
  0
DICTIONARY
  5
F107F2
102
{ACAD_REACTORS
330
13
102
}
330
13
100
AcDbDictionary
281
     1
  0
XRECORD
  5
F109B5
102
{ACAD_REACTORS
330
13
102
}
330
13
100
AcDbXrecord
280
     1
  1
DWGPROPS COOKIE
  2

  3

  4

  6

  7

  8
steigner
  9

300
=
301
=
302
=
303
=
304
=
305
=
306
=
307
=
308
=
309
=
 40
0.0065921643518519
 41
2456884.312405139
 42
2456884.344990243
  1

 90
        0
  0
XRECORD
  5
F108E7
102
{ACAD_REACTORS
330
F108E6
102
}
330
F108E6
100
AcDbXrecord
280
     1
290
     1
  0
XRECORD
  5
F108E9
102
{ACAD_REACTORS
330
F108E8
102
}
330
F108E8
100
AcDbXrecord
280
     1
290
     1
  0
XRECORD
  5
F108EB
102
{ACAD_REACTORS
330
F108EA
102
}
330
F108EA
100
AcDbXrecord
280
     1
290
     1
  0
XRECORD
  5
F108ED
102
{ACAD_REACTORS
330
F108EC
102
}
330
F108EC
100
AcDbXrecord
280
     1
290
     1
  0
XRECORD
  5
F108EF
102
{ACAD_REACTORS
330
F108EE
102
}
330
F108EE
100
AcDbXrecord
280
     1
290
     1
  0
XRECORD
  5
F109C0
102
{ACAD_REACTORS
330
F109BF
102
}
330
F109BF
100
AcDbXrecord
280
     1
102
SHADEPLOT
 70
     0
  0
XRECORD
  5
F109C2
102
{ACAD_REACTORS
330
F109C1
102
}
330
F109C1
100
AcDbXrecord
280
     1
102
SHADEPLOT
 70
     0
  0
XRECORD
  5
F109BC
102
{ACAD_REACTORS
330
F109BB
102
}
330
F109BB
100
AcDbXrecord
280
     1
102
SHADEPLOT
 70
     0
  0
XRECORD
  5
F109BE
102
{ACAD_REACTORS
330
F109BD
102
}
330
F109BD
100
AcDbXrecord
280
     1
102
SHADEPLOT
 70
     0
  0
XRECORD
  5
F109B7
102
{ACAD_REACTORS
330
F109B6
102
}
330
F109B6
100
AcDbXrecord
280
     1
 70
     1
  0
XRECORD
  5
F109B9
102
{ACAD_REACTORS
330
F109B6
102
}
330
F109B6
100
AcDbXrecord
280
     1
340
256
  0
XRECORD
  5
F109BA
102
{ACAD_REACTORS
330
F109B6
102
}
330
F109B6
100
AcDbXrecord
280
     1
340
256
  0
XRECORD
  5
F109B8
102
{ACAD_REACTORS
330
F109B6
102
}
330
F109B6
100
AcDbXrecord
280
     1
340
256
  0
LAYOUT
  5
FD1
102
{ACAD_XDICTIONARY
360
F109EC
102
}
102
{ACAD_REACTORS
330
FCF
102
}
330
FCF
100
AcDbPlotSettings
  1

  2
Microsoft XPS Document Writer
  4

  6

 40
0.0
 41
0.0
 42
0.0
 43
0.0
 44
0.0
 45
0.0
 46
0.0
 47
0.0
 48
0.0
 49
0.0
140
0.0
141
0.0
142
1.0
143
1.0
 70
   688
 72
     0
 73
     0
 74
     5
  7

 75
    16
147
1.0
148
0.0
149
0.0
100
AcDbLayout
  1
Layout1
 70
     1
 71
     1
 10
0.0
 20
0.0
 11
12.0
 21
9.0
 12
0.0
 22
0.0
 32
0.0
 14
1.000000000000000E+20
 24
1.000000000000000E+20
 34
1.000000000000000E+20
 15
-1.000000000000000E+20
 25
-1.000000000000000E+20
 35
-1.000000000000000E+20
146
0.0
 13
0.0
 23
0.0
 33
0.0
 16
1.0
 26
0.0
 36
0.0
 17
0.0
 27
1.0
 37
0.0
 76
     0
330
25D
  0
LAYOUT
  5
FD0
102
{ACAD_XDICTIONARY
360
F109EA
102
}
102
{ACAD_REACTORS
330
FCF
102
}
330
FCF
100
AcDbPlotSettings
  1

  2
Microsoft XPS Document Writer
  4

  6

 40
0.0
 41
0.0
 42
0.0
 43
0.0
 44
0.0
 45
0.0
 46
0.0
 47
0.0
 48
0.0
 49
0.0
140
0.0
141
0.0
142
1.0
143
1.0
 70
  1712
 72
     0
 73
     0
 74
     0
  7

 75
     0
147
1.0
148
0.0
149
0.0
100
AcDbLayout
  1
Model
 70
     1
 71
     0
 10
0.0
 20
0.0
 11
12.0
 21
9.0
 12
0.0
 22
0.0
 32
0.0
 14
0.0
 24
0.0
 34
0.0
 15
0.0
 25
0.0
 35
0.0
146
0.0
 13
0.0
 23
0.0
 33
0.0
 16
1.0
 26
0.0
 36
0.0
 17
0.0
 27
1.0
 37
0.0
 76
     0
330
261
331
26B
  0
MATERIAL
  5
F83
102
{ACAD_XDICTIONARY
360
F84
102
}
102
{ACAD_REACTORS
330
F7A
102
}
330
F7A
100
AcDbMaterial
  1
ByBlock
 72
     0
 43
0.0208333333333333
 43
0.0
 43
0.0
 43
0.0
 43
0.0
 43
0.0208333333333333
 43
0.0
 43
0.0
 43
0.0
 43
0.0
 43
1.0
 43
0.0
 43
0.0
 43
0.0
 43
0.0
 43
1.0
 77
     0
 47
0.0208333333333333
 47
0.0
 47
0.0
 47
0.0
 47
0.0
 47
0.0208333333333333
 47
0.0
 47
0.0
 47
0.0
 47
0.0
 47
1.0
 47
0.0
 47
0.0
 47
0.0
 47
0.0
 47
1.0
171
     0
 49
0.0208333333333333
 49
0.0
 49
0.0
 49
0.0
 49
0.0
 49
0.0208333333333333
 49
0.0
 49
0.0
 49
0.0
 49
0.0
 49
1.0
 49
0.0
 49
0.0
 49
0.0
 49
0.0
 49
1.0
175
     0
142
0.0208333333333333
142
0.0
142
0.0
142
0.0
142
0.0
142
0.0208333333333333
142
0.0
142
0.0
142
0.0
142
0.0
142
1.0
142
0.0
142
0.0
142
0.0
142
0.0
142
1.0
179
     0
144
0.0208333333333333
144
0.0
144
0.0
144
0.0
144
0.0
144
0.0208333333333333
144
0.0
144
0.0
144
0.0
144
0.0
144
1.0
144
0.0
144
0.0
144
0.0
144
0.0
144
1.0
147
0.0208333333333333
147
0.0
147
0.0
147
0.0
147
0.0
147
0.0208333333333333
147
0.0
147
0.0
147
0.0
147
0.0
147
1.0
147
0.0
147
0.0
147
0.0
147
0.0
147
1.0
  0
MATERIAL
  5
F7B
102
{ACAD_XDICTIONARY
360
F7C
102
}
102
{ACAD_REACTORS
330
F7A
102
}
330
F7A
100
AcDbMaterial
  1
ByLayer
 72
     0
 43
0.0208333333333333
 43
0.0
 43
0.0
 43
0.0
 43
0.0
 43
0.0208333333333333
 43
0.0
 43
0.0
 43
0.0
 43
0.0
 43
1.0
 43
0.0
 43
0.0
 43
0.0
 43
0.0
 43
1.0
 77
     0
 47
0.0208333333333333
 47
0.0
 47
0.0
 47
0.0
 47
0.0
 47
0.0208333333333333
 47
0.0
 47
0.0
 47
0.0
 47
0.0
 47
1.0
 47
0.0
 47
0.0
 47
0.0
 47
0.0
 47
1.0
171
     0
 49
0.0208333333333333
 49
0.0
 49
0.0
 49
0.0
 49
0.0
 49
0.0208333333333333
 49
0.0
 49
0.0
 49
0.0
 49
0.0
 49
1.0
 49
0.0
 49
0.0
 49
0.0
 49
0.0
 49
1.0
175
     0
142
0.0208333333333333
142
0.0
142
0.0
142
0.0
142
0.0
142
0.0208333333333333
142
0.0
142
0.0
142
0.0
142
0.0
142
1.0
142
0.0
142
0.0
142
0.0
142
0.0
142
1.0
179
     0
144
0.0208333333333333
144
0.0
144
0.0
144
0.0
144
0.0
144
0.0208333333333333
144
0.0
144
0.0
144
0.0
144
0.0
144
1.0
144
0.0
144
0.0
144
0.0
144
0.0
144
1.0
147
0.0208333333333333
147
0.0
147
0.0
147
0.0
147
0.0
147
0.0208333333333333
147
0.0
147
0.0
147
0.0
147
0.0
147
1.0
147
0.0
147
0.0
147
0.0
147
0.0
147
1.0
  0
MATERIAL
  5
F8B
102
{ACAD_XDICTIONARY
360
F8C
102
}
102
{ACAD_REACTORS
330
F7A
102
}
330
F7A
100
AcDbMaterial
  1
Global
 72
     0
 43
0.0208333333333333
 43
0.0
 43
0.0
 43
0.0
 43
0.0
 43
0.0208333333333333
 43
0.0
 43
0.0
 43
0.0
 43
0.0
 43
1.0
 43
0.0
 43
0.0
 43
0.0
 43
0.0
 43
1.0
 77
     0
 47
0.0208333333333333
 47
0.0
 47
0.0
 47
0.0
 47
0.0
 47
0.0208333333333333
 47
0.0
 47
0.0
 47
0.0
 47
0.0
 47
1.0
 47
0.0
 47
0.0
 47
0.0
 47
0.0
 47
1.0
171
     0
 49
0.0208333333333333
 49
0.0
 49
0.0
 49
0.0
 49
0.0
 49
0.0208333333333333
 49
0.0
 49
0.0
 49
0.0
 49
0.0
 49
1.0
 49
0.0
 49
0.0
 49
0.0
 49
0.0
 49
1.0
175
     0
142
0.0208333333333333
142
0.0
142
0.0
142
0.0
142
0.0
142
0.0208333333333333
142
0.0
142
0.0
142
0.0
142
0.0
142
1.0
142
0.0
142
0.0
142
0.0
142
0.0
142
1.0
179
     0
144
0.0208333333333333
144
0.0
144
0.0
144
0.0
144
0.0
144
0.0208333333333333
144
0.0
144
0.0
144
0.0
144
0.0
144
1.0
144
0.0
144
0.0
144
0.0
144
0.0
144
1.0
147
0.0208333333333333
147
0.0
147
0.0
147
0.0
147
0.0
147
0.0208333333333333
147
0.0
147
0.0
147
0.0
147
0.0
147
1.0
147
0.0
147
0.0
147
0.0
147
0.0
147
1.0
  0
MLEADERSTYLE
  5
FCE
102
{ACAD_REACTORS
330
FCD
102
}
330
FCD
100
AcDbMLeaderStyle
170
     2
171
     1
172
     0
 90
        2
 40
0.0
 41
0.0
173
     1
 91
-1056964608
340
256
 92
       -2
290
     1
 42
0.09
291
     1
 43
0.36
  3
Standard
 44
0.18
300

342
253
174
     1
178
     6
175
     1
176
     0
 93
-1056964608
 45
0.18
292
     0
297
     0
 46
0.18
 94
-1056964608
 47
1.0
 49
1.0
140
1.0
293
     1
141
0.0
294
     1
177
     0
142
1.0
295
     0
296
     0
143
0.125
1001
ACAD_MLEADERVER
1070
     2
  0
MLINESTYLE
  5
FAA
102
{ACAD_REACTORS
330
16
102
}
330
16
100
AcDbMlineStyle
  2
STANDARD
 70
     0
  3

 62
   256
 51
90.0
 52
90.0
 71
     2
 49
0.5
 62
   256
  6
BYLAYER
 49
-0.5
 62
   256
  6
BYLAYER
  0
ACDBPLACEHOLDER
  5
19
102
{ACAD_REACTORS
330
18
102
}
330
18
  0
SCALE
  5
FAC
102
{ACAD_REACTORS
330
FAB
102
}
330
FAB
100
AcDbScale
 70
     0
300
1:1
140
1.0
141
1.0
290
     1
  0
SCALE
  5
FAD
102
{ACAD_REACTORS
330
FAB
102
}
330
FAB
100
AcDbScale
 70
     0
300
1:2
140
1.0
141
2.0
290
     0
  0
SCALE
  5
FAE
102
{ACAD_REACTORS
330
FAB
102
}
330
FAB
100
AcDbScale
 70
     0
300
1:4
140
1.0
141
4.0
290
     0
  0
SCALE
  5
FAF
102
{ACAD_REACTORS
330
FAB
102
}
330
FAB
100
AcDbScale
 70
     0
300
1:5
140
1.0
141
5.0
290
     0
  0
SCALE
  5
FB0
102
{ACAD_REACTORS
330
FAB
102
}
330
FAB
100
AcDbScale
 70
     0
300
1:8
140
1.0
141
8.0
290
     0
  0
SCALE
  5
FB1
102
{ACAD_REACTORS
330
FAB
102
}
330
FAB
100
AcDbScale
 70
     0
300
1:10
140
1.0
141
10.0
290
     0
  0
SCALE
  5
FB2
102
{ACAD_REACTORS
330
FAB
102
}
330
FAB
100
AcDbScale
 70
     0
300
1:16
140
1.0
141
16.0
290
     0
  0
SCALE
  5
FB3
102
{ACAD_REACTORS
330
FAB
102
}
330
FAB
100
AcDbScale
 70
     0
300
1:20
140
1.0
141
20.0
290
     0
  0
SCALE
  5
FB4
102
{ACAD_REACTORS
330
FAB
102
}
330
FAB
100
AcDbScale
 70
     0
300
1:30
140
1.0
141
30.0
290
     0
  0
SCALE
  5
FB5
102
{ACAD_REACTORS
330
FAB
102
}
330
FAB
100
AcDbScale
 70
     0
300
1:40
140
1.0
141
40.0
290
     0
  0
SCALE
  5
FB6
102
{ACAD_REACTORS
330
FAB
102
}
330
FAB
100
AcDbScale
 70
     0
300
1:50
140
1.0
141
50.0
290
     0
  0
SCALE
  5
FB7
102
{ACAD_REACTORS
330
FAB
102
}
330
FAB
100
AcDbScale
 70
     0
300
1:100
140
1.0
141
100.0
290
     0
  0
SCALE
  5
FB8
102
{ACAD_REACTORS
330
FAB
102
}
330
FAB
100
AcDbScale
 70
     0
300
2:1
140
2.0
141
1.0
290
     0
  0
SCALE
  5
FB9
102
{ACAD_REACTORS
330
FAB
102
}
330
FAB
100
AcDbScale
 70
     0
300
4:1
140
4.0
141
1.0
290
     0
  0
SCALE
  5
FBA
102
{ACAD_REACTORS
330
FAB
102
}
330
FAB
100
AcDbScale
 70
     0
300
8:1
140
8.0
141
1.0
290
     0
  0
SCALE
  5
FBB
102
{ACAD_REACTORS
330
FAB
102
}
330
FAB
100
AcDbScale
 70
     0
300
10:1
140
10.0
141
1.0
290
     0
  0
SCALE
  5
FBC
102
{ACAD_REACTORS
330
FAB
102
}
330
FAB
100
AcDbScale
 70
     0
300
100:1
140
100.0
141
1.0
290
     0
  0
SCALE
  5
FBD
102
{ACAD_REACTORS
330
FAB
102
}
330
FAB
100
AcDbScale
 70
     0
300
1/128" = 1'-0"
140
0.0078125
141
12.0
290
     0
  0
SCALE
  5
FBE
102
{ACAD_REACTORS
330
FAB
102
}
330
FAB
100
AcDbScale
 70
     0
300
1/64" = 1'-0"
140
0.015625
141
12.0
290
     0
  0
SCALE
  5
FBF
102
{ACAD_REACTORS
330
FAB
102
}
330
FAB
100
AcDbScale
 70
     0
300
1/32" = 1'-0"
140
0.03125
141
12.0
290
     0
  0
SCALE
  5
FC0
102
{ACAD_REACTORS
330
FAB
102
}
330
FAB
100
AcDbScale
 70
     0
300
1/16" = 1'-0"
140
0.0625
141
12.0
290
     0
  0
SCALE
  5
FC1
102
{ACAD_REACTORS
330
FAB
102
}
330
FAB
100
AcDbScale
 70
     0
300
3/32" = 1'-0"
140
0.09375
141
12.0
290
     0
  0
SCALE
  5
FC2
102
{ACAD_REACTORS
330
FAB
102
}
330
FAB
100
AcDbScale
 70
     0
300
1/8" = 1'-0"
140
0.125
141
12.0
290
     0
  0
SCALE
  5
FC3
102
{ACAD_REACTORS
330
FAB
102
}
330
FAB
100
AcDbScale
 70
     0
300
3/16" = 1'-0"
140
0.1875
141
12.0
290
     0
  0
SCALE
  5
FC4
102
{ACAD_REACTORS
330
FAB
102
}
330
FAB
100
AcDbScale
 70
     0
300
1/4" = 1'-0"
140
0.25
141
12.0
290
     0
  0
SCALE
  5
FC5
102
{ACAD_REACTORS
330
FAB
102
}
330
FAB
100
AcDbScale
 70
     0
300
3/8" = 1'-0"
140
0.375
141
12.0
290
     0
  0
SCALE
  5
FC6
102
{ACAD_REACTORS
330
FAB
102
}
330
FAB
100
AcDbScale
 70
     0
300
1/2" = 1'-0"
140
0.5
141
12.0
290
     0
  0
SCALE
  5
FC7
102
{ACAD_REACTORS
330
FAB
102
}
330
FAB
100
AcDbScale
 70
     0
300
3/4" = 1'-0"
140
0.75
141
12.0
290
     0
  0
SCALE
  5
FC8
102
{ACAD_REACTORS
330
FAB
102
}
330
FAB
100
AcDbScale
 70
     0
300
1" = 1'-0"
140
1.0
141
12.0
290
     0
  0
SCALE
  5
FC9
102
{ACAD_REACTORS
330
FAB
102
}
330
FAB
100
AcDbScale
 70
     0
300
1-1/2" = 1'-0"
140
1.5
141
12.0
290
     0
  0
SCALE
  5
FCA
102
{ACAD_REACTORS
330
FAB
102
}
330
FAB
100
AcDbScale
 70
     0
300
3" = 1'-0"
140
3.0
141
12.0
290
     0
  0
SCALE
  5
FCB
102
{ACAD_REACTORS
330
FAB
102
}
330
FAB
100
AcDbScale
 70
     0
300
6" = 1'-0"
140
6.0
141
12.0
290
     0
  0
SCALE
  5
FCC
102
{ACAD_REACTORS
330
FAB
102
}
330
FAB
100
AcDbScale
 70
     0
300
1'-0" = 1'-0"
140
12.0
141
12.0
290
     0
  0
TABLESTYLE
  5
FA9
102
{ACAD_XDICTIONARY
360
FF8
102
}
102
{ACAD_REACTORS
330
FA8
102
}
330
FA8
100
AcDbTableStyle
  3
Standard
 70
     0
 71
     0
 40
0.06
 41
0.06
280
     0
281
     0
  7
Standard
140
0.18
170
     2
 62
     0
 63
     7
283
     0
274
    -2
284
     1
 64
     0
275
    -2
285
     1
 65
     0
276
    -2
286
     1
 66
     0
277
    -2
287
     1
 67
     0
278
    -2
288
     1
 68
     0
279
    -2
289
     1
 69
     0
  7
Standard
140
0.25
170
     5
 62
     0
 63
     7
283
     0
274
    -2
284
     1
 64
     0
275
    -2
285
     1
 65
     0
276
    -2
286
     1
 66
     0
277
    -2
287
     1
 67
     0
278
    -2
288
     1
 68
     0
279
    -2
289
     1
 69
     0
  7
Standard
140
0.18
170
     5
 62
     0
 63
     7
283
     0
274
    -2
284
     1
 64
     0
275
    -2
285
     1
 65
     0
276
    -2
286
     1
 66
     0
277
    -2
287
     1
 67
     0
278
    -2
288
     1
 68
     0
279
    -2
289
     1
 69
     0
  0
VISUALSTYLE
  5
F99
102
{ACAD_XDICTIONARY
360
F109CD
102
}
102
{ACAD_REACTORS
330
F93
102
}
330
F93
100
AcDbVisualStyle
  2

 70
     4
 71
     0
 72
     2
 73
     0
 90
        0
 40
-0.6
 41
-30.0
 62
     5
 63
     7
 74
     1
 91
        4
 64
     7
 65
   257
 75
     1
175
     1
 42
1.0
 92
        0
 66
   257
 43
1.0
 76
     1
 77
     6
 78
     2
 67
     7
 79
     5
170
     0
171
     0
290
     0
174
     0
 93
        1
 44
0.0
173
     0
291
     0
 45
0.0
1001
ACAD
1000
AcDbSavedByObjectVersion
1070
     0
  0
VISUALSTYLE
  5
F9B
102
{ACAD_XDICTIONARY
360
F109D1
102
}
102
{ACAD_REACTORS
330
F93
102
}
330
F93
100
AcDbVisualStyle
  2

 70
     6
 71
     1
 72
     2
 73
     2
 90
        0
 40
-0.6
 41
-30.0
 62
     5
 63
     7
 74
     2
 91
        2
 64
     7
 65
   257
 75
     2
175
     1
 42
179.0
 92
        0
 66
   257
 43
1.0
 76
     1
 77
     6
 78
     2
 67
     7
 79
     3
170
     0
171
     0
290
     0
174
     0
 93
        1
 44
0.0
173
     0
291
     0
 45
0.0
1001
ACAD
1000
AcDbSavedByObjectVersion
1070
     0
  0
VISUALSTYLE
  5
F9A
102
{ACAD_XDICTIONARY
360
F109CF
102
}
102
{ACAD_REACTORS
330
F93
102
}
330
F93
100
AcDbVisualStyle
  2

 70
     5
 71
     0
 72
     2
 73
     0
 90
        0
 40
-0.6
 41
-30.0
 62
     5
 63
     7
 74
     1
 91
        4
 64
     7
 65
   257
 75
     1
175
     1
 42
1.0
 92
        0
 66
   257
 43
1.0
 76
     1
 77
     6
 78
     2
 67
     7
 79
     5
170
     0
171
     0
290
     0
174
     0
 93
        1
 44
0.0
173
     0
291
     0
 45
0.0
1001
ACAD
1000
AcDbSavedByObjectVersion
1070
     0
  0
VISUALSTYLE
  5
F98
102
{ACAD_XDICTIONARY
360
F109CB
102
}
102
{ACAD_REACTORS
330
F93
102
}
330
F93
100
AcDbVisualStyle
  2

 70
     7
 71
     1
 72
     0
 73
     1
 90
        0
 40
-0.6
 41
-30.0
 62
     5
 63
     7
 74
     0
 91
        4
 64
     7
 65
   257
 75
     1
175
     1
 42
1.0
 92
        8
 66
     7
 43
1.0
 76
     1
 77
     6
 78
     2
 67
     7
 79
     5
170
     0
171
     0
290
     0
174
     0
 93
        1
 44
0.0
173
     0
291
     1
 45
0.0
1001
ACAD
1000
AcDbSavedByObjectVersion
1070
     0
  0
VISUALSTYLE
  5
F9F
102
{ACAD_XDICTIONARY
360
F109D9
102
}
102
{ACAD_REACTORS
330
F93
102
}
330
F93
100
AcDbVisualStyle
  2

 70
    12
 71
     2
 72
     2
 73
     0
 90
        0
 40
-0.6
 41
-30.0
 62
     5
 63
     7
 74
     1
 91
        4
 64
     7
 65
   257
 75
     1
175
     1
 42
1.0
 92
        8
 66
     7
 43
1.0
 76
     1
 77
     6
 78
     2
 67
     7
 79
     5
170
     0
171
     0
290
     0
174
     0
 93
        1
 44
50.0
173
     0
291
     1
 45
0.0
1001
ACAD
1000
AcDbSavedByObjectVersion
1070
     0
  0
VISUALSTYLE
  5
FA3
102
{ACAD_XDICTIONARY
360
F109E1
102
}
102
{ACAD_REACTORS
330
F93
102
}
330
F93
100
AcDbVisualStyle
  2

 70
    16
 71
     2
 72
     2
 73
     3
 90
        0
 40
-0.6
 41
-30.0
 62
     5
 63
     8
 74
     1
 91
        4
 64
     7
 65
   257
 75
     1
175
     1
 42
1.0
 92
        8
 66
     8
 43
1.0
 76
     1
 77
     6
 78
     2
 67
     7
 79
     5
170
     0
171
     0
290
     0
174
     0
 93
        1
 44
0.0
173
     0
291
     1
 45
0.0
1001
ACAD
1000
AcDbSavedByObjectVersion
1070
     0
  0
VISUALSTYLE
  5
F9C
102
{ACAD_XDICTIONARY
360
F109D3
102
}
102
{ACAD_REACTORS
330
F93
102
}
330
F93
100
AcDbVisualStyle
  2

 70
     9
 71
     3
 72
     2
 73
     0
 90
        0
 40
-0.6
 41
-30.0
 62
     5
 63
     7
 74
     2
 91
        2
 64
     7
 65
   257
 75
     1
175
     1
 42
179.0
 92
        8
 66
     7
 43
1.0
 76
     1
 77
     6
 78
     2
 67
     7
 79
     3
170
     0
171
     0
290
     0
174
     0
 93
        1
 44
0.0
173
     0
291
     0
 45
0.0
1001
ACAD
1000
AcDbSavedByObjectVersion
1070
     0
  0
VISUALSTYLE
  5
F9E
102
{ACAD_XDICTIONARY
360
F109D7
102
}
102
{ACAD_REACTORS
330
F93
102
}
330
F93
100
AcDbVisualStyle
  2

 70
    11
 71
     2
 72
     2
 73
     0
 90
        0
 40
-0.6
 41
-30.0
 62
     5
 63
     7
 74
     1
 91
        4
 64
     7
 65
   257
 75
     1
175
     1
 42
1.0
 92
        8
 66
     7
 43
1.0
 76
     1
 77
     6
 78
     2
 67
     7
 79
     5
170
     0
171
     0
290
     0
174
     0
 93
        1
 44
-50.0
173
     0
291
     1
 45
0.0
1001
ACAD
1000
AcDbSavedByObjectVersion
1070
     0
  0
VISUALSTYLE
  5
FA6
102
{ACAD_XDICTIONARY
360
F109E7
102
}
102
{ACAD_REACTORS
330
F93
102
}
330
F93
100
AcDbVisualStyle
  2

 70
    22
 71
     2
 72
     2
 73
     0
 90
        0
 40
-0.6
 41
-30.0
 62
     5
 63
     7
 74
     1
 91
        4
 64
     7
 65
   257
 75
     1
175
     1
 42
1.0
 92
        8
 66
     7
 43
1.0
 76
     1
 77
     6
 78
     2
 67
     7
 79
     5
170
     0
171
     0
290
     0
174
     0
 93
        1
 44
0.0
173
     0
291
     1
 45
0.0
1001
ACAD
1000
AcDbSavedByObjectVersion
1070
     0
  0
VISUALSTYLE
  5
FA2
102
{ACAD_XDICTIONARY
360
F109DF
102
}
102
{ACAD_REACTORS
330
F93
102
}
330
F93
100
AcDbVisualStyle
  2

 70
    15
 71
     2
 72
     2
 73
     0
 90
        0
 40
-0.6
 41
-30.0
 62
     5
 63
     7
 74
     1
 91
        4
 64
     7
 65
   257
 75
     1
175
     1
 42
1.0
 92
        8
 66
     7
 43
1.0
 76
     1
 77
     6
 78
     2
 67
     7
 79
     5
170
     0
171
     0
290
     0
174
     0
 93
        1
 44
0.0
173
     0
291
     1
 45
0.0
1001
ACAD
1000
AcDbSavedByObjectVersion
1070
     0
  0
VISUALSTYLE
  5
F94
102
{ACAD_XDICTIONARY
360
F109C3
102
}
102
{ACAD_REACTORS
330
F93
102
}
330
F93
100
AcDbVisualStyle
  2

 70
     0
 71
     2
 72
     1
 73
     1
 90
        2
 40
-0.6
 41
30.0
 62
     5
 63
     7
 74
     0
 91
        4
 64
     7
 65
   257
 75
     1
175
     1
 42
1.0
 92
        8
 66
     7
 43
1.0
 76
     1
 77
     6
 78
     2
 67
     7
 79
     5
170
     0
171
     0
290
     0
174
     0
 93
       13
 44
0.0
173
     0
291
     1
 45
0.0
1001
ACAD
1000
AcDbSavedByObjectVersion
1070
     0
  0
VISUALSTYLE
  5
F95
102
{ACAD_XDICTIONARY
360
F109C5
102
}
102
{ACAD_REACTORS
330
F93
102
}
330
F93
100
AcDbVisualStyle
  2

 70
     1
 71
     2
 72
     1
 73
     1
 90
        2
 40
-0.6
 41
30.0
 62
     5
 63
     7
 74
     1
 91
        4
 64
     7
 65
   257
 75
     1
175
     1
 42
1.0
 92
        0
 66
   257
 43
1.0
 76
     1
 77
     6
 78
     2
 67
     7
 79
     5
170
     0
171
     0
290
     0
174
     0
 93
       13
 44
0.0
173
     0
291
     1
 45
0.0
1001
ACAD
1000
AcDbSavedByObjectVersion
1070
     0
  0
VISUALSTYLE
  5
F96
102
{ACAD_XDICTIONARY
360
F109C7
102
}
102
{ACAD_REACTORS
330
F93
102
}
330
F93
100
AcDbVisualStyle
  2

 70
     2
 71
     2
 72
     2
 73
     1
 90
        2
 40
-0.6
 41
30.0
 62
     5
 63
     7
 74
     0
 91
        4
 64
     7
 65
   257
 75
     1
175
     1
 42
1.0
 92
        0
 66
     7
 43
1.0
 76
     1
 77
     6
 78
     2
 67
     7
 79
     5
170
     0
171
     0
290
     0
174
     0
 93
       13
 44
0.0
173
     0
291
     1
 45
0.0
1001
ACAD
1000
AcDbSavedByObjectVersion
1070
     0
  0
VISUALSTYLE
  5
F97
102
{ACAD_XDICTIONARY
360
F109C9
102
}
102
{ACAD_REACTORS
330
F93
102
}
330
F93
100
AcDbVisualStyle
  2

 70
     3
 71
     2
 72
     2
 73
     1
 90
        2
 40
-0.6
 41
30.0
 62
     5
 63
     7
 74
     1
 91
        4
 64
     7
 65
   257
 75
     1
175
     1
 42
1.0
 92
        0
 66
   257
 43
1.0
 76
     1
 77
     6
 78
     2
 67
     7
 79
     5
170
     0
171
     0
290
     0
174
     0
 93
       13
 44
0.0
173
     0
291
     1
 45
0.0
1001
ACAD
1000
AcDbSavedByObjectVersion
1070
     0
  0
VISUALSTYLE
  5
F1072A
102
{ACAD_XDICTIONARY
360
F109F0
102
}
102
{ACAD_REACTORS
330
F93
102
}
330
F93
100
AcDbVisualStyle
  2

 70
     6
 71
     1
 72
     2
 73
     2
 90
        0
 40
-0.6
 41
-30.0
 62
     5
 63
     7
 74
     2
 91
        2
 64
     7
 65
   257
 75
     2
175
     1
 42
40.0
 92
        0
 66
   257
 43
1.0
 76
     1
 77
     6
 78
     2
 67
     7
 79
     3
170
     0
171
     0
290
     0
174
     0
 93
        1
 44
0.0
173
     0
291
     0
 45
0.0
1001
ACAD
1000
AcDbSavedByObjectVersion
1070
     0
  0
VISUALSTYLE
  5
FA4
102
{ACAD_XDICTIONARY
360
F109E3
102
}
102
{ACAD_REACTORS
330
F93
102
}
330
F93
100
AcDbVisualStyle
  2

 70
    20
 71
     2
 72
     2
 73
     0
 90
        0
 40
-0.6
 41
-30.0
 62
     5
 63
     7
 74
     1
 91
        4
 64
     7
 65
   257
 75
     1
175
     1
 42
1.0
 92
       10
 66
     7
 43
1.0
 76
     1
 77
     6
 78
     2
 67
     7
 79
     5
170
     0
171
     0
290
     0
174
     0
 93
        1
 44
0.0
173
     0
291
     1
 45
0.0
1001
ACAD
1000
AcDbSavedByObjectVersion
1070
     0
  0
VISUALSTYLE
  5
FA1
102
{ACAD_XDICTIONARY
360
F109DD
102
}
102
{ACAD_REACTORS
330
F93
102
}
330
F93
100
AcDbVisualStyle
  2

 70
    14
 71
     2
 72
     2
 73
     0
 90
        0
 40
-0.6
 41
-30.0
 62
     5
 63
     7
 74
     1
 91
        4
 64
     7
 65
   257
 75
     7
175
     7
 42
1.0
 92
        8
 66
     7
 43
1.0
 76
     1
 77
     6
 78
     2
 67
     7
 79
     5
170
     0
171
     0
290
     0
174
     0
 93
        1
 44
0.0
173
     0
291
     1
 45
0.0
1001
ACAD
1000
AcDbSavedByObjectVersion
1070
     0
  0
VISUALSTYLE
  5
FA5
102
{ACAD_XDICTIONARY
360
F109E5
102
}
102
{ACAD_REACTORS
330
F93
102
}
330
F93
100
AcDbVisualStyle
  2

 70
    21
 71
     2
 72
     2
 73
     0
 90
        0
 40
-0.6
 41
-30.0
 62
     5
 63
     7
 74
     1
 91
        4
 64
     7
 65
   257
 75
     1
175
     1
 42
1.0
 92
        9
 66
     7
 43
1.0
 76
     1
 77
     6
 78
     2
 67
     7
 79
     5
170
     0
171
     0
290
     0
174
     0
 93
        1
 44
0.0
173
     0
291
     1
 45
0.0
1001
ACAD
1000
AcDbSavedByObjectVersion
1070
     0
  0
VISUALSTYLE
  5
F9D
102
{ACAD_XDICTIONARY
360
F109D5
102
}
102
{ACAD_REACTORS
330
F93
102
}
330
F93
100
AcDbVisualStyle
  2

 70
     8
 71
     2
 72
     2
 73
     0
 90
        0
 40
-0.6
 41
-30.0
 62
     5
 63
     7
 74
     1
 91
        0
 64
     7
 65
   257
 75
     1
175
     1
 42
1.0
 92
        8
 66
     8
 43
1.0
 76
     1
 77
     6
 78
     2
 67
     7
 79
     5
170
     0
171
     0
290
     0
174
     0
 93
       13
 44
0.0
173
     0
291
     0
 45
0.0
1001
ACAD
1000
AcDbSavedByObjectVersion
1070
     0
  0
VISUALSTYLE
  5
F1072F
102
{ACAD_XDICTIONARY
360
F109FA
102
}
102
{ACAD_REACTORS
330
F93
102
}
330
F93
100
AcDbVisualStyle
  2

 70
    27
 71
     2
 72
     2
 73
     1
 90
        2
 40
-0.6
 41
30.0
 62
     5
 63
     7
 74
     0
 91
        4
 64
     7
 65
   257
 75
     1
175
     1
 42
1.0
 92
        8
 66
   257
 43
1.0
 76
     1
 77
     6
 78
     2
 67
     8
 79
     3
170
     0
171
     0
290
     0
174
     0
 93
        5
 44
0.0
173
     0
291
     0
 45
0.0
1001
ACAD
1000
AcDbSavedByObjectVersion
1070
     0
  0
VISUALSTYLE
  5
F1072E
102
{ACAD_XDICTIONARY
360
F109F8
102
}
102
{ACAD_REACTORS
330
F93
102
}
330
F93
100
AcDbVisualStyle
  2

 70
    26
 71
     2
 72
     2
 73
     1
 90
        2
 40
-0.6
 41
30.0
 62
     5
 63
     7
 74
     1
 91
       10
 64
     7
 65
   257
 75
     2
175
     1
 42
1.0
 92
        8
 66
   257
 43
1.0
 76
     1
 77
     6
 78
     2
 67
     7
 79
     3
170
     0
171
     0
290
     0
174
     0
 93
        5
 44
0.0
173
     0
291
     0
 45
0.0
1001
ACAD
1000
AcDbSavedByObjectVersion
1070
     0
  0
VISUALSTYLE
  5
F1072B
102
{ACAD_XDICTIONARY
360
F109F2
102
}
102
{ACAD_REACTORS
330
F93
102
}
330
F93
100
AcDbVisualStyle
  2

 70
    23
 71
     2
 72
     2
 73
     3
 90
        0
 40
-0.6
 41
-30.0
 62
     5
 63
     7
 74
     2
 91
        2
 64
     7
 65
     7
 75
     1
175
     1
 42
40.0
 92
        8
 66
     7
 43
1.0
 76
     1
 77
     6
 78
     2
 67
     7
 79
     3
170
     0
171
     0
290
     0
174
     0
 93
        1
 44
0.0
173
     0
291
     0
 45
0.0
1001
ACAD
1000
AcDbSavedByObjectVersion
1070
     0
  0
VISUALSTYLE
  5
F1072C
102
{ACAD_XDICTIONARY
360
F109F4
102
}
102
{ACAD_REACTORS
330
F93
102
}
330
F93
100
AcDbVisualStyle
  2

 70
    24
 71
     1
 72
     2
 73
     2
 90
        0
 40
-0.6
 41
-30.0
 62
     5
 63
     7
 74
     2
 91
        2
 64
     7
 65
     7
 75
     1
175
     1
 42
40.0
 92
       11
 66
     7
 43
1.0
 76
     1
 77
     6
 78
     2
 67
     7
 79
     6
170
     0
171
     0
290
     0
174
     0
 93
        1
 44
0.0
173
     0
291
     0
 45
0.0
1001
ACAD
1000
AcDbSavedByObjectVersion
1070
     0
  0
VISUALSTYLE
  5
FA0
102
{ACAD_XDICTIONARY
360
F109DB
102
}
102
{ACAD_REACTORS
330
F93
102
}
330
F93
100
AcDbVisualStyle
  2

 70
    13
 71
     2
 72
     2
 73
     0
 90
        0
 40
-0.6
 41
-30.0
 62
     5
 63
     7
 74
     1
 91
        4
 64
     7
 65
   257
 75
     1
175
     1
 42
1.0
 92
       12
 66
     7
 43
1.0
 76
     1
 77
     6
 78
     2
 67
     7
 79
     5
170
     0
171
     0
290
     0
174
     0
 93
        1
 44
0.0
173
     0
291
     1
 45
0.0
1001
ACAD
1000
AcDbSavedByObjectVersion
1070
     0
  0
VISUALSTYLE
  5
F10729
102
{ACAD_XDICTIONARY
360
F109EE
102
}
102
{ACAD_REACTORS
330
F93
102
}
330
F93
100
AcDbVisualStyle
  2

 70
     5
 71
     0
 72
     2
 73
     0
 90
        0
 40
-0.6
 41
-30.0
 62
     5
 63
     7
 74
     1
 91
        4
 64
     7
 65
   257
 75
     1
175
     1
 42
1.0
 92
        0
 66
   257
 43
1.0
 76
     1
 77
     6
 78
     2
 67
     7
 79
     3
170
     0
171
     0
290
     0
174
     0
 93
        1
 44
0.0
173
     0
291
     0
 45
0.0
1001
ACAD
1000
AcDbSavedByObjectVersion
1070
     0
  0
VISUALSTYLE
  5
F1072D
102
{ACAD_XDICTIONARY
360
F109F6
102
}
102
{ACAD_REACTORS
330
F93
102
}
330
F93
100
AcDbVisualStyle
  2

 70
    25
 71
     2
 72
     2
 73
     1
 90
        1
 40
0.5
 41
-30.0
 62
     5
 63
     7
 74
     1
 91
        0
 64
     7
 65
   257
 75
     1
175
     1
 42
1.0
 92
        8
 66
     7
 43
1.0
 76
     1
 77
     6
 78
     2
 67
     7
 79
     3
170
     0
171
     0
290
     0
174
     0
 93
       13
 44
0.0
173
     0
291
     0
 45
0.0
1001
ACAD
1000
AcDbSavedByObjectVersion
1070
     0
  0
DICTIONARYVAR
  5
F108F3
102
{ACAD_REACTORS
330
F108F0
102
}
330
F108F0
100
DictionaryVariables
280
     0
  1
1:1
  0
DICTIONARYVAR
  5
F108F2
102
{ACAD_REACTORS
330
F108F0
102
}
330
F108F0
100
DictionaryVariables
280
     0
  1
STANDARD
  0
DICTIONARYVAR
  5
F108F1
102
{ACAD_REACTORS
330
F108F0
102
}
330
F108F0
100
DictionaryVariables
280
     0
  1
STANDARD
  0
DICTIONARYVAR
  5
F108F6
102
{ACAD_REACTORS
330
F108F0
102
}
330
F108F0
100
DictionaryVariables
280
     0
  1
1
  0
DICTIONARYVAR
  5
F108F5
102
{ACAD_REACTORS
330
F108F0
102
}
330
F108F0
100
DictionaryVariables
280
     0
  1
0
  0
DICTIONARYVAR
  5
F108F4
102
{ACAD_REACTORS
330
F108F0
102
}
330
F108F0
100
DictionaryVariables
280
     0
  1
127
  0
DICTIONARYVAR
  5
F109B2
102
{ACAD_REACTORS
330
F108F0
102
}
330
F108F0
100
DictionaryVariables
280
     0
  1
2
  0
DICTIONARY
  5
F10789
102
{ACAD_REACTORS
330
F1077E
102
}
330
F1077E
100
AcDbDictionary
281
     1
  0
DICTIONARY
  5
F109EC
330
FD1
100
AcDbDictionary
280
     1
281
     1
  3
ACAD_XREC_ROUNDTRIP
360
F109ED
  0
DICTIONARY
  5
F109EA
330
FD0
100
AcDbDictionary
280
     1
281
     1
  3
ACAD_XREC_ROUNDTRIP
360
F109EB
  0
DICTIONARY
  5
F84
330
F83
100
AcDbDictionary
280
     1
281
     1
  3
ACAD_XREC_ROUNDTRIP
360
FFF
  3
BUMPTILE
360
F86
  3
DIFFUSETILE
360
F85
  3
OPACITYTILE
360
F89
  3
REFLECTIONTILE
360
F88
  3
REFRACTIONTILE
360
F8A
  3
SPECULARTILE
360
F87
  0
DICTIONARY
  5
F7C
330
F7B
100
AcDbDictionary
280
     1
281
     1
  3
ACAD_XREC_ROUNDTRIP
360
FFE
  3
BUMPTILE
360
F7E
  3
DIFFUSETILE
360
F7D
  3
OPACITYTILE
360
F81
  3
REFLECTIONTILE
360
F80
  3
REFRACTIONTILE
360
F82
  3
SPECULARTILE
360
F7F
  0
DICTIONARY
  5
F8C
330
F8B
100
AcDbDictionary
280
     1
281
     1
  3
ACAD_XREC_ROUNDTRIP
360
1000
  3
BUMPTILE
360
F8E
  3
DIFFUSETILE
360
F8D
  3
OPACITYTILE
360
F91
  3
REFLECTIONTILE
360
F90
  3
REFRACTIONTILE
360
F92
  3
SPECULARTILE
360
F8F
  0
DICTIONARY
  5
FF8
330
FA9
100
AcDbDictionary
280
     1
281
     1
  3
ACAD_ROUNDTRIP_2008_TABLESTYLE_CELLSTYLEMAP
360
F109B3
  3
ACAD_XREC_ROUNDTRIP
360
F109E9
  0
DICTIONARY
  5
F109CD
330
F99
100
AcDbDictionary
280
     1
281
     1
  3
ACAD_XREC_ROUNDTRIP
360
F109CE
  0
DICTIONARY
  5
F109D1
330
F9B
100
AcDbDictionary
280
     1
281
     1
  3
ACAD_XREC_ROUNDTRIP
360
F109D2
  0
DICTIONARY
  5
F109CF
330
F9A
100
AcDbDictionary
280
     1
281
     1
  3
ACAD_XREC_ROUNDTRIP
360
F109D0
  0
DICTIONARY
  5
F109CB
330
F98
100
AcDbDictionary
280
     1
281
     1
  3
ACAD_XREC_ROUNDTRIP
360
F109CC
  0
DICTIONARY
  5
F109D9
330
F9F
100
AcDbDictionary
280
     1
281
     1
  3
ACAD_XREC_ROUNDTRIP
360
F109DA
  0
DICTIONARY
  5
F109E1
330
FA3
100
AcDbDictionary
280
     1
281
     1
  3
ACAD_XREC_ROUNDTRIP
360
F109E2
  0
DICTIONARY
  5
F109D3
330
F9C
100
AcDbDictionary
280
     1
281
     1
  3
ACAD_XREC_ROUNDTRIP
360
F109D4
  0
DICTIONARY
  5
F109D7
330
F9E
100
AcDbDictionary
280
     1
281
     1
  3
ACAD_XREC_ROUNDTRIP
360
F109D8
  0
DICTIONARY
  5
F109E7
330
FA6
100
AcDbDictionary
280
     1
281
     1
  3
ACAD_XREC_ROUNDTRIP
360
F109E8
  0
DICTIONARY
  5
F109DF
330
FA2
100
AcDbDictionary
280
     1
281
     1
  3
ACAD_XREC_ROUNDTRIP
360
F109E0
  0
DICTIONARY
  5
F109C3
330
F94
100
AcDbDictionary
280
     1
281
     1
  3
ACAD_XREC_ROUNDTRIP
360
F109C4
  0
DICTIONARY
  5
F109C5
330
F95
100
AcDbDictionary
280
     1
281
     1
  3
ACAD_XREC_ROUNDTRIP
360
F109C6
  0
DICTIONARY
  5
F109C7
330
F96
100
AcDbDictionary
280
     1
281
     1
  3
ACAD_XREC_ROUNDTRIP
360
F109C8
  0
DICTIONARY
  5
F109C9
330
F97
100
AcDbDictionary
280
     1
281
     1
  3
ACAD_XREC_ROUNDTRIP
360
F109CA
  0
DICTIONARY
  5
F109F0
330
F1072A
100
AcDbDictionary
280
     1
281
     1
  3
ACAD_XREC_ROUNDTRIP
360
F109F1
  0
DICTIONARY
  5
F109E3
330
FA4
100
AcDbDictionary
280
     1
281
     1
  3
ACAD_XREC_ROUNDTRIP
360
F109E4
  0
DICTIONARY
  5
F109DD
330
FA1
100
AcDbDictionary
280
     1
281
     1
  3
ACAD_XREC_ROUNDTRIP
360
F109DE
  0
DICTIONARY
  5
F109E5
330
FA5
100
AcDbDictionary
280
     1
281
     1
  3
ACAD_XREC_ROUNDTRIP
360
F109E6
  0
DICTIONARY
  5
F109D5
330
F9D
100
AcDbDictionary
280
     1
281
     1
  3
ACAD_XREC_ROUNDTRIP
360
F109D6
  0
DICTIONARY
  5
F109FA
330
F1072F
100
AcDbDictionary
280
     1
281
     1
  3
ACAD_XREC_ROUNDTRIP
360
F109FB
  0
DICTIONARY
  5
F109F8
330
F1072E
100
AcDbDictionary
280
     1
281
     1
  3
ACAD_XREC_ROUNDTRIP
360
F109F9
  0
DICTIONARY
  5
F109F2
330
F1072B
100
AcDbDictionary
280
     1
281
     1
  3
ACAD_XREC_ROUNDTRIP
360
F109F3
  0
DICTIONARY
  5
F109F4
330
F1072C
100
AcDbDictionary
280
     1
281
     1
  3
ACAD_XREC_ROUNDTRIP
360
F109F5
  0
DICTIONARY
  5
F109DB
330
FA0
100
AcDbDictionary
280
     1
281
     1
  3
ACAD_XREC_ROUNDTRIP
360
F109DC
  0
DICTIONARY
  5
F109EE
330
F10729
100
AcDbDictionary
280
     1
281
     1
  3
ACAD_XREC_ROUNDTRIP
360
F109EF
  0
DICTIONARY
  5
F109F6
330
F1072D
100
AcDbDictionary
280
     1
281
     1
  3
ACAD_XREC_ROUNDTRIP
360
F109F7
  0
XRECORD
  5
F109ED
102
{ACAD_REACTORS
330
F109EC
102
}
330
F109EC
100
AcDbXrecord
280
     1
102
SHADEPLOT
 70
     0
102
SHADEPLOTRESLEVEL
 70
     2
102
SHADEPLOTCUSTOMDPI
 70
   300
  0
XRECORD
  5
F109EB
102
{ACAD_REACTORS
330
F109EA
102
}
330
F109EA
100
AcDbXrecord
280
     1
102
SHADEPLOT
 70
     0
102
SHADEPLOTRESLEVEL
 70
     2
102
SHADEPLOTCUSTOMDPI
 70
   300
  0
XRECORD
  5
FFF
102
{ACAD_REACTORS
330
F84
102
}
330
F84
100
AcDbXrecord
280
     1
102
MATERIAL
148
0.0
149
0.0
149
0.0
 93
        0
 94
      127
282
     0
 72
     0
 77
     0
171
     0
175
     0
179
     0
273
     0
  0
XRECORD
  5
F86
102
{ACAD_REACTORS
330
F84
102
}
330
F84
100
AcDbXrecord
280
     1
270
     1
271
     1
  0
XRECORD
  5
F85
102
{ACAD_REACTORS
330
F84
102
}
330
F84
100
AcDbXrecord
280
     1
270
     1
271
     1
  0
XRECORD
  5
F89
102
{ACAD_REACTORS
330
F84
102
}
330
F84
100
AcDbXrecord
280
     1
270
     1
271
     1
  0
XRECORD
  5
F88
102
{ACAD_REACTORS
330
F84
102
}
330
F84
100
AcDbXrecord
280
     1
270
     1
271
     1
  0
XRECORD
  5
F8A
102
{ACAD_REACTORS
330
F84
102
}
330
F84
100
AcDbXrecord
280
     1
270
     1
271
     1
  0
XRECORD
  5
F87
102
{ACAD_REACTORS
330
F84
102
}
330
F84
100
AcDbXrecord
280
     1
270
     1
271
     1
  0
XRECORD
  5
FFE
102
{ACAD_REACTORS
330
F7C
102
}
330
F7C
100
AcDbXrecord
280
     1
102
MATERIAL
148
0.0
149
0.0
149
0.0
 93
        0
 94
      127
282
     0
 72
     0
 77
     0
171
     0
175
     0
179
     0
273
     0
  0
XRECORD
  5
F7E
102
{ACAD_REACTORS
330
F7C
102
}
330
F7C
100
AcDbXrecord
280
     1
270
     1
271
     1
  0
XRECORD
  5
F7D
102
{ACAD_REACTORS
330
F7C
102
}
330
F7C
100
AcDbXrecord
280
     1
270
     1
271
     1
  0
XRECORD
  5
F81
102
{ACAD_REACTORS
330
F7C
102
}
330
F7C
100
AcDbXrecord
280
     1
270
     1
271
     1
  0
XRECORD
  5
F80
102
{ACAD_REACTORS
330
F7C
102
}
330
F7C
100
AcDbXrecord
280
     1
270
     1
271
     1
  0
XRECORD
  5
F82
102
{ACAD_REACTORS
330
F7C
102
}
330
F7C
100
AcDbXrecord
280
     1
270
     1
271
     1
  0
XRECORD
  5
F7F
102
{ACAD_REACTORS
330
F7C
102
}
330
F7C
100
AcDbXrecord
280
     1
270
     1
271
     1
  0
XRECORD
  5
1000
102
{ACAD_REACTORS
330
F8C
102
}
330
F8C
100
AcDbXrecord
280
     1
102
MATERIAL
148
0.0
149
0.0
149
0.0
 93
        0
 94
      127
282
     0
 72
     0
 77
     0
171
     0
175
     0
179
     0
273
     0
  0
XRECORD
  5
F8E
102
{ACAD_REACTORS
330
F8C
102
}
330
F8C
100
AcDbXrecord
280
     1
270
     1
271
     1
  0
XRECORD
  5
F8D
102
{ACAD_REACTORS
330
F8C
102
}
330
F8C
100
AcDbXrecord
280
     1
270
     1
271
     1
  0
XRECORD
  5
F91
102
{ACAD_REACTORS
330
F8C
102
}
330
F8C
100
AcDbXrecord
280
     1
270
     1
271
     1
  0
XRECORD
  5
F90
102
{ACAD_REACTORS
330
F8C
102
}
330
F8C
100
AcDbXrecord
280
     1
270
     1
271
     1
  0
XRECORD
  5
F92
102
{ACAD_REACTORS
330
F8C
102
}
330
F8C
100
AcDbXrecord
280
     1
270
     1
271
     1
  0
XRECORD
  5
F8F
102
{ACAD_REACTORS
330
F8C
102
}
330
F8C
100
AcDbXrecord
280
     1
270
     1
271
     1
  0
CELLSTYLEMAP
  5
F109B3
102
{ACAD_REACTORS
330
FF8
102
}
330
FF8
100
AcDbCellStyleMap
 90
        3
300
CELLSTYLE
  1
TABLEFORMAT_BEGIN
 90
        5
170
     1
 91
        0
 92
    32768
 62
   257
 93
        1
300
CONTENTFORMAT
  1
CONTENTFORMAT_BEGIN
 90
        0
 91
        0
 92
      512
 93
        0
300

 40
0.0
140
1.0
 94
        5
 62
     0
340
253
144
0.25
309
CONTENTFORMAT_END
171
     1
301
MARGIN
  1
CELLMARGIN_BEGIN
 40
0.06
 40
0.06
 40
0.06
 40
0.06
 40
0.18
 40
0.18
309
CELLMARGIN_END
 94
        6
 95
        1
302
GRIDFORMAT
  1
GRIDFORMAT_BEGIN
 90
        0
 91
        1
 62
     0
 92
       -2
340
0
 93
        0
 40
0.045
309
GRIDFORMAT_END
 95
        2
302
GRIDFORMAT
  1
GRIDFORMAT_BEGIN
 90
        0
 91
        1
 62
     0
 92
       -2
340
0
 93
        0
 40
0.045
309
GRIDFORMAT_END
 95
        4
302
GRIDFORMAT
  1
GRIDFORMAT_BEGIN
 90
        0
 91
        1
 62
     0
 92
       -2
340
0
 93
        0
 40
0.045
309
GRIDFORMAT_END
 95
        8
302
GRIDFORMAT
  1
GRIDFORMAT_BEGIN
 90
        0
 91
        1
 62
     0
 92
       -2
340
0
 93
        0
 40
0.045
309
GRIDFORMAT_END
 95
       16
302
GRIDFORMAT
  1
GRIDFORMAT_BEGIN
 90
        0
 91
        1
 62
     0
 92
       -2
340
0
 93
        0
 40
0.045
309
GRIDFORMAT_END
 95
       32
302
GRIDFORMAT
  1
GRIDFORMAT_BEGIN
 90
        0
 91
        1
 62
     0
 92
       -2
340
0
 93
        0
 40
0.045
309
GRIDFORMAT_END
309
TABLEFORMAT_END
  1
CELLSTYLE_BEGIN
 90
        1
 91
        1
300
_TITLE
309
CELLSTYLE_END
300
CELLSTYLE
  1
TABLEFORMAT_BEGIN
 90
        5
170
     1
 91
        0
 92
        0
 62
   257
 93
        1
300
CONTENTFORMAT
  1
CONTENTFORMAT_BEGIN
 90
        0
 91
        0
 92
      512
 93
        0
300

 40
0.0
140
1.0
 94
        5
 62
     0
340
253
144
0.18
309
CONTENTFORMAT_END
171
     1
301
MARGIN
  1
CELLMARGIN_BEGIN
 40
0.06
 40
0.06
 40
0.06
 40
0.06
 40
0.18
 40
0.18
309
CELLMARGIN_END
 94
        6
 95
        1
302
GRIDFORMAT
  1
GRIDFORMAT_BEGIN
 90
        0
 91
        1
 62
     0
 92
       -2
340
0
 93
        0
 40
0.045
309
GRIDFORMAT_END
 95
        2
302
GRIDFORMAT
  1
GRIDFORMAT_BEGIN
 90
        0
 91
        1
 62
     0
 92
       -2
340
0
 93
        0
 40
0.045
309
GRIDFORMAT_END
 95
        4
302
GRIDFORMAT
  1
GRIDFORMAT_BEGIN
 90
        0
 91
        1
 62
     0
 92
       -2
340
0
 93
        0
 40
0.045
309
GRIDFORMAT_END
 95
        8
302
GRIDFORMAT
  1
GRIDFORMAT_BEGIN
 90
        0
 91
        1
 62
     0
 92
       -2
340
0
 93
        0
 40
0.045
309
GRIDFORMAT_END
 95
       16
302
GRIDFORMAT
  1
GRIDFORMAT_BEGIN
 90
        0
 91
        1
 62
     0
 92
       -2
340
0
 93
        0
 40
0.045
309
GRIDFORMAT_END
 95
       32
302
GRIDFORMAT
  1
GRIDFORMAT_BEGIN
 90
        0
 91
        1
 62
     0
 92
       -2
340
0
 93
        0
 40
0.045
309
GRIDFORMAT_END
309
TABLEFORMAT_END
  1
CELLSTYLE_BEGIN
 90
        2
 91
        1
300
_HEADER
309
CELLSTYLE_END
300
CELLSTYLE
  1
TABLEFORMAT_BEGIN
 90
        5
170
     1
 91
        0
 92
        0
 62
   257
 93
        1
300
CONTENTFORMAT
  1
CONTENTFORMAT_BEGIN
 90
        0
 91
        0
 92
      512
 93
        0
300

 40
0.0
140
1.0
 94
        2
 62
     0
340
253
144
0.18
309
CONTENTFORMAT_END
171
     1
301
MARGIN
  1
CELLMARGIN_BEGIN
 40
0.06
 40
0.06
 40
0.06
 40
0.06
 40
0.18
 40
0.18
309
CELLMARGIN_END
 94
        6
 95
        1
302
GRIDFORMAT
  1
GRIDFORMAT_BEGIN
 90
        0
 91
        1
 62
     0
 92
       -2
340
0
 93
        0
 40
0.045
309
GRIDFORMAT_END
 95
        2
302
GRIDFORMAT
  1
GRIDFORMAT_BEGIN
 90
        0
 91
        1
 62
     0
 92
       -2
340
0
 93
        0
 40
0.045
309
GRIDFORMAT_END
 95
        4
302
GRIDFORMAT
  1
GRIDFORMAT_BEGIN
 90
        0
 91
        1
 62
     0
 92
       -2
340
0
 93
        0
 40
0.045
309
GRIDFORMAT_END
 95
        8
302
GRIDFORMAT
  1
GRIDFORMAT_BEGIN
 90
        0
 91
        1
 62
     0
 92
       -2
340
0
 93
        0
 40
0.045
309
GRIDFORMAT_END
 95
       16
302
GRIDFORMAT
  1
GRIDFORMAT_BEGIN
 90
        0
 91
        1
 62
     0
 92
       -2
340
0
 93
        0
 40
0.045
309
GRIDFORMAT_END
 95
       32
302
GRIDFORMAT
  1
GRIDFORMAT_BEGIN
 90
        0
 91
        1
 62
     0
 92
       -2
340
0
 93
        0
 40
0.045
309
GRIDFORMAT_END
309
TABLEFORMAT_END
  1
CELLSTYLE_BEGIN
 90
        3
 91
        2
300
_DATA
309
CELLSTYLE_END
  0
XRECORD
  5
F109E9
102
{ACAD_REACTORS
330
FF8
102
}
330
FF8
100
AcDbXrecord
280
     1
102
ACAD_ROUNDTRIP_PRE2007_TABLESTYLE
 90
      512
 91
        0
  1

 92
      512
 93
        0
  2

 94
      512
 95
        0
  3

  0
XRECORD
  5
F109CE
102
{ACAD_REACTORS
330
F109CD
102
}
330
F109CD
100
AcDbXrecord
280
     1
102
RTVSPropertyOp0
 70
     1
102
RTVSPropertyOp1
 70
     1
102
RTVSPropertyOp2
 70
     1
102
RTVSPropertyOp3
 70
     1
102
RTVSPropertyOp4
 70
     1
102
RTVSPropertyOp5
 70
     1
102
RTVSPropertyOp6
 70
     1
102
RTVSPropertyOp7
 70
     1
102
RTVSPropertyOp8
 70
     1
102
RTVSPropertyOp9
 70
     1
102
RTVSPropertyOp10
 70
     1
102
RTVSPropertyOp11
 70
     1
102
RTVSPropertyOp12
 70
     1
102
RTVSPropertyOp13
 70
     1
102
RTVSPropertyOp14
 70
     1
102
RTVSPropertyOp15
 70
     1
102
RTVSPropertyOp16
 70
     1
102
RTVSPropertyOp17
 70
     1
102
RTVSPropertyOp18
 70
     1
102
RTVSPropertyOp19
 70
     1
102
RTVSPropertyOp20
 70
     1
102
RTVSPropertyOp21
 70
     1
102
RTVSPropertyOp22
 70
     1
102
RTVSPropertyOp23
 70
     1
102
RTVSPropertyOp24
 70
     1
102
RTVSPropertyOp25
 70
     1
102
RTVSPropertyOp26
 70
     1
102
RTVSPropertyOp27
 70
     1
102
RTVSPropertyOp28
 70
     1
102
RTVSPropertyOp29
 70
     1
102
RTVSPropertyOp30
 70
     1
102
RTVSPropertyOp31
 70
     1
102
RTVSPropertyOp32
 70
     1
  0
XRECORD
  5
F109D2
102
{ACAD_REACTORS
330
F109D1
102
}
330
F109D1
100
AcDbXrecord
280
     1
102
RTVSPropertyOp0
 70
     1
102
RTVSPropertyOp1
 70
     1
102
RTVSPropertyOp2
 70
     1
102
RTVSPropertyOp3
 70
     1
102
RTVSPropertyOp4
 70
     1
102
RTVSPropertyOp5
 70
     1
102
RTVSPropertyOp6
 70
     1
102
RTVSPropertyOp7
 70
     1
102
RTVSPropertyOp8
 70
     1
102
RTVSPropertyOp9
 70
     1
102
RTVSPropertyOp10
 70
     1
102
RTVSPropertyOp11
 70
     1
102
RTVSPropertyOp12
 70
     1
102
RTVSPropertyOp13
 70
     1
102
RTVSPropertyOp14
 70
     1
102
RTVSPropertyOp15
 70
     1
102
RTVSPropertyOp16
 70
     1
102
RTVSPropertyOp17
 70
     1
102
RTVSPropertyOp18
 70
     1
102
RTVSPropertyOp19
 70
     1
102
RTVSPropertyOp20
 70
     1
102
RTVSPropertyOp21
 70
     1
102
RTVSPropertyOp22
 70
     1
102
RTVSPropertyOp23
 70
     1
102
RTVSPropertyOp24
 70
     1
102
RTVSPropertyOp25
 70
     1
102
RTVSPropertyOp26
 70
     1
102
RTVSPropertyOp27
 70
     1
102
RTVSPropertyOp28
 70
     1
102
RTVSPropertyOp29
 70
     1
102
RTVSPropertyOp30
 70
     1
102
RTVSPropertyOp31
 70
     1
102
RTVSPropertyOp32
 70
     1
  0
XRECORD
  5
F109D0
102
{ACAD_REACTORS
330
F109CF
102
}
330
F109CF
100
AcDbXrecord
280
     1
102
RTVSPropertyOp0
 70
     1
102
RTVSPropertyOp1
 70
     1
102
RTVSPropertyOp2
 70
     1
102
RTVSPropertyOp3
 70
     1
102
RTVSPropertyOp4
 70
     1
102
RTVSPropertyOp5
 70
     1
102
RTVSPropertyOp6
 70
     1
102
RTVSPropertyOp7
 70
     1
102
RTVSPropertyOp8
 70
     1
102
RTVSPropertyOp9
 70
     1
102
RTVSPropertyOp10
 70
     1
102
RTVSPropertyOp11
 70
     1
102
RTVSPropertyOp12
 70
     1
102
RTVSPropertyOp13
 70
     1
102
RTVSPropertyOp14
 70
     1
102
RTVSPropertyOp15
 70
     1
102
RTVSPropertyOp16
 70
     1
102
RTVSPropertyOp17
 70
     1
102
RTVSPropertyOp18
 70
     1
102
RTVSPropertyOp19
 70
     1
102
RTVSPropertyOp20
 70
     1
102
RTVSPropertyOp21
 70
     1
102
RTVSPropertyOp22
 70
     1
102
RTVSPropertyOp23
 70
     1
102
RTVSPropertyOp24
 70
     1
102
RTVSPropertyOp25
 70
     1
102
RTVSPropertyOp26
 70
     1
102
RTVSPropertyOp27
 70
     1
102
RTVSPropertyOp28
 70
     1
102
RTVSPropertyOp29
 70
     1
102
RTVSPropertyOp30
 70
     1
102
RTVSPropertyOp31
 70
     1
102
RTVSPropertyOp32
 70
     1
  0
XRECORD
  5
F109CC
102
{ACAD_REACTORS
330
F109CB
102
}
330
F109CB
100
AcDbXrecord
280
     1
102
RTVSPropertyOp0
 70
     1
102
RTVSPropertyOp1
 70
     1
102
RTVSPropertyOp2
 70
     1
102
RTVSPropertyOp3
 70
     1
102
RTVSPropertyOp4
 70
     1
102
RTVSPropertyOp5
 70
     1
102
RTVSPropertyOp6
 70
     1
102
RTVSPropertyOp7
 70
     1
102
RTVSPropertyOp8
 70
     1
102
RTVSPropertyOp9
 70
     1
102
RTVSPropertyOp10
 70
     1
102
RTVSPropertyOp11
 70
     1
102
RTVSPropertyOp12
 70
     1
102
RTVSPropertyOp13
 70
     1
102
RTVSPropertyOp14
 70
     1
102
RTVSPropertyOp15
 70
     1
102
RTVSPropertyOp16
 70
     1
102
RTVSPropertyOp17
 70
     1
102
RTVSPropertyOp18
 70
     1
102
RTVSPropertyOp19
 70
     1
102
RTVSPropertyOp20
 70
     1
102
RTVSPropertyOp21
 70
     1
102
RTVSPropertyOp22
 70
     1
102
RTVSPropertyOp23
 70
     1
102
RTVSPropertyOp24
 70
     1
102
RTVSPropertyOp25
 70
     1
102
RTVSPropertyOp26
 70
     1
102
RTVSPropertyOp27
 70
     1
102
RTVSPropertyOp28
 70
     1
102
RTVSPropertyOp29
 70
     1
102
RTVSPropertyOp30
 70
     1
102
RTVSPropertyOp31
 70
     1
102
RTVSPropertyOp32
 70
     1
  0
XRECORD
  5
F109DA
102
{ACAD_REACTORS
330
F109D9
102
}
330
F109D9
100
AcDbXrecord
280
     1
102
RTVSPropertyOp0
 70
     1
102
RTVSPropertyOp1
 70
     1
102
RTVSPropertyOp2
 70
     1
102
RTVSPropertyOp3
 70
     1
102
RTVSPropertyOp4
 70
     1
102
RTVSPropertyOp5
 70
     1
102
RTVSPropertyOp6
 70
     1
102
RTVSPropertyOp7
 70
     1
102
RTVSPropertyOp8
 70
     1
102
RTVSPropertyOp9
 70
     1
102
RTVSPropertyOp10
 70
     1
102
RTVSPropertyOp11
 70
     1
102
RTVSPropertyOp12
 70
     1
102
RTVSPropertyOp13
 70
     1
102
RTVSPropertyOp14
 70
     1
102
RTVSPropertyOp15
 70
     1
102
RTVSPropertyOp16
 70
     1
102
RTVSPropertyOp17
 70
     1
102
RTVSPropertyOp18
 70
     1
102
RTVSPropertyOp19
 70
     1
102
RTVSPropertyOp20
 70
     1
102
RTVSPropertyOp21
 70
     1
102
RTVSPropertyOp22
 70
     1
102
RTVSPropertyOp23
 70
     1
102
RTVSPropertyOp24
 70
     1
102
RTVSPropertyOp25
 70
     1
102
RTVSPropertyOp26
 70
     1
102
RTVSPropertyOp27
 70
     1
102
RTVSPropertyOp28
 70
     1
102
RTVSPropertyOp29
 70
     1
102
RTVSPropertyOp30
 70
     1
102
RTVSPropertyOp31
 70
     1
102
RTVSPropertyOp32
 70
     1
  0
XRECORD
  5
F109E2
102
{ACAD_REACTORS
330
F109E1
102
}
330
F109E1
100
AcDbXrecord
280
     1
102
RTVSPropertyOp0
 70
     1
102
RTVSPropertyOp1
 70
     1
102
RTVSPropertyOp2
 70
     1
102
RTVSPropertyOp3
 70
     1
102
RTVSPropertyOp4
 70
     1
102
RTVSPropertyOp5
 70
     1
102
RTVSPropertyOp6
 70
     1
102
RTVSPropertyOp7
 70
     1
102
RTVSPropertyOp8
 70
     1
102
RTVSPropertyOp9
 70
     1
102
RTVSPropertyOp10
 70
     1
102
RTVSPropertyOp11
 70
     1
102
RTVSPropertyOp12
 70
     1
102
RTVSPropertyOp13
 70
     1
102
RTVSPropertyOp14
 70
     1
102
RTVSPropertyOp15
 70
     1
102
RTVSPropertyOp16
 70
     1
102
RTVSPropertyOp17
 70
     1
102
RTVSPropertyOp18
 70
     1
102
RTVSPropertyOp19
 70
     1
102
RTVSPropertyOp20
 70
     1
102
RTVSPropertyOp21
 70
     1
102
RTVSPropertyOp22
 70
     1
102
RTVSPropertyOp23
 70
     1
102
RTVSPropertyOp24
 70
     1
102
RTVSPropertyOp25
 70
     1
102
RTVSPropertyOp26
 70
     1
102
RTVSPropertyOp27
 70
     1
102
RTVSPropertyOp28
 70
     1
102
RTVSPropertyOp29
 70
     1
102
RTVSPropertyOp30
 70
     1
102
RTVSPropertyOp31
 70
     1
102
RTVSPropertyOp32
 70
     1
  0
XRECORD
  5
F109D4
102
{ACAD_REACTORS
330
F109D3
102
}
330
F109D3
100
AcDbXrecord
280
     1
102
RTVSPropertyOp0
 70
     1
102
RTVSPropertyOp1
 70
     1
102
RTVSPropertyOp2
 70
     1
102
RTVSPropertyOp3
 70
     1
102
RTVSPropertyOp4
 70
     1
102
RTVSPropertyOp5
 70
     1
102
RTVSPropertyOp6
 70
     1
102
RTVSPropertyOp7
 70
     1
102
RTVSPropertyOp8
 70
     1
102
RTVSPropertyOp9
 70
     1
102
RTVSPropertyOp10
 70
     1
102
RTVSPropertyOp11
 70
     1
102
RTVSPropertyOp12
 70
     1
102
RTVSPropertyOp13
 70
     1
102
RTVSPropertyOp14
 70
     1
102
RTVSPropertyOp15
 70
     1
102
RTVSPropertyOp16
 70
     1
102
RTVSPropertyOp17
 70
     1
102
RTVSPropertyOp18
 70
     1
102
RTVSPropertyOp19
 70
     1
102
RTVSPropertyOp20
 70
     1
102
RTVSPropertyOp21
 70
     1
102
RTVSPropertyOp22
 70
     1
102
RTVSPropertyOp23
 70
     1
102
RTVSPropertyOp24
 70
     1
102
RTVSPropertyOp25
 70
     1
102
RTVSPropertyOp26
 70
     1
102
RTVSPropertyOp27
 70
     1
102
RTVSPropertyOp28
 70
     1
102
RTVSPropertyOp29
 70
     1
102
RTVSPropertyOp30
 70
     1
102
RTVSPropertyOp31
 70
     1
102
RTVSPropertyOp32
 70
     1
  0
XRECORD
  5
F109D8
102
{ACAD_REACTORS
330
F109D7
102
}
330
F109D7
100
AcDbXrecord
280
     1
102
RTVSPropertyOp0
 70
     1
102
RTVSPropertyOp1
 70
     1
102
RTVSPropertyOp2
 70
     1
102
RTVSPropertyOp3
 70
     1
102
RTVSPropertyOp4
 70
     1
102
RTVSPropertyOp5
 70
     1
102
RTVSPropertyOp6
 70
     1
102
RTVSPropertyOp7
 70
     1
102
RTVSPropertyOp8
 70
     1
102
RTVSPropertyOp9
 70
     1
102
RTVSPropertyOp10
 70
     1
102
RTVSPropertyOp11
 70
     1
102
RTVSPropertyOp12
 70
     1
102
RTVSPropertyOp13
 70
     1
102
RTVSPropertyOp14
 70
     1
102
RTVSPropertyOp15
 70
     1
102
RTVSPropertyOp16
 70
     1
102
RTVSPropertyOp17
 70
     1
102
RTVSPropertyOp18
 70
     1
102
RTVSPropertyOp19
 70
     1
102
RTVSPropertyOp20
 70
     1
102
RTVSPropertyOp21
 70
     1
102
RTVSPropertyOp22
 70
     1
102
RTVSPropertyOp23
 70
     1
102
RTVSPropertyOp24
 70
     1
102
RTVSPropertyOp25
 70
     1
102
RTVSPropertyOp26
 70
     1
102
RTVSPropertyOp27
 70
     1
102
RTVSPropertyOp28
 70
     1
102
RTVSPropertyOp29
 70
     1
102
RTVSPropertyOp30
 70
     1
102
RTVSPropertyOp31
 70
     1
102
RTVSPropertyOp32
 70
     1
  0
XRECORD
  5
F109E8
102
{ACAD_REACTORS
330
F109E7
102
}
330
F109E7
100
AcDbXrecord
280
     1
102
RTVSPropertyOp0
 70
     0
102
RTVSPropertyOp1
 70
     0
102
RTVSPropertyOp2
 70
     0
102
RTVSPropertyOp3
 70
     0
102
RTVSPropertyOp4
 70
     0
102
RTVSPropertyOp5
 70
     0
102
RTVSPropertyOp6
 70
     0
102
RTVSPropertyOp7
 70
     0
102
RTVSPropertyOp8
 70
     0
102
RTVSPropertyOp9
 70
     0
102
RTVSPropertyOp10
 70
     0
102
RTVSPropertyOp11
 70
     0
102
RTVSPropertyOp12
 70
     0
102
RTVSPropertyOp13
 70
     0
102
RTVSPropertyOp14
 70
     2
102
RTVSPropertyOp15
 70
     0
102
RTVSPropertyOp16
 70
     0
102
RTVSPropertyOp17
 70
     0
102
RTVSPropertyOp18
 70
     0
102
RTVSPropertyOp19
 70
     0
102
RTVSPropertyOp20
 70
     0
102
RTVSPropertyOp21
 70
     0
102
RTVSPropertyOp22
 70
     0
102
RTVSPropertyOp23
 70
     0
102
RTVSPropertyOp24
 70
     0
102
RTVSPropertyOp25
 70
     0
102
RTVSPropertyOp26
 70
     0
102
RTVSPropertyOp27
 70
     0
102
RTVSPropertyOp28
 70
     1
102
RTVSPropertyOp29
 70
     1
102
RTVSPropertyOp30
 70
     1
102
RTVSPropertyOp31
 70
     1
102
RTVSPropertyOp32
 70
     1
  0
XRECORD
  5
F109E0
102
{ACAD_REACTORS
330
F109DF
102
}
330
F109DF
100
AcDbXrecord
280
     1
102
RTVSPropertyOp0
 70
     1
102
RTVSPropertyOp1
 70
     1
102
RTVSPropertyOp2
 70
     1
102
RTVSPropertyOp3
 70
     1
102
RTVSPropertyOp4
 70
     1
102
RTVSPropertyOp5
 70
     1
102
RTVSPropertyOp6
 70
     1
102
RTVSPropertyOp7
 70
     1
102
RTVSPropertyOp8
 70
     1
102
RTVSPropertyOp9
 70
     1
102
RTVSPropertyOp10
 70
     1
102
RTVSPropertyOp11
 70
     1
102
RTVSPropertyOp12
 70
     1
102
RTVSPropertyOp13
 70
     1
102
RTVSPropertyOp14
 70
     1
102
RTVSPropertyOp15
 70
     1
102
RTVSPropertyOp16
 70
     1
102
RTVSPropertyOp17
 70
     1
102
RTVSPropertyOp18
 70
     1
102
RTVSPropertyOp19
 70
     1
102
RTVSPropertyOp20
 70
     1
102
RTVSPropertyOp21
 70
     1
102
RTVSPropertyOp22
 70
     1
102
RTVSPropertyOp23
 70
     1
102
RTVSPropertyOp24
 70
     1
102
RTVSPropertyOp25
 70
     1
102
RTVSPropertyOp26
 70
     1
102
RTVSPropertyOp27
 70
     1
102
RTVSPropertyOp28
 70
     1
102
RTVSPropertyOp29
 70
     1
102
RTVSPropertyOp30
 70
     1
102
RTVSPropertyOp31
 70
     1
102
RTVSPropertyOp32
 70
     1
  0
XRECORD
  5
F109C4
102
{ACAD_REACTORS
330
F109C3
102
}
330
F109C3
100
AcDbXrecord
280
     1
102
RTVSPropertyOp0
 70
     1
102
RTVSPropertyOp1
 70
     1
102
RTVSPropertyOp2
 70
     1
102
RTVSPropertyOp3
 70
     1
102
RTVSPropertyOp4
 70
     1
102
RTVSPropertyOp5
 70
     1
102
RTVSPropertyOp6
 70
     1
102
RTVSPropertyOp7
 70
     1
102
RTVSPropertyOp8
 70
     1
102
RTVSPropertyOp9
 70
     1
102
RTVSPropertyOp10
 70
     1
102
RTVSPropertyOp11
 70
     1
102
RTVSPropertyOp12
 70
     1
102
RTVSPropertyOp13
 70
     1
102
RTVSPropertyOp14
 70
     1
102
RTVSPropertyOp15
 70
     1
102
RTVSPropertyOp16
 70
     1
102
RTVSPropertyOp17
 70
     1
102
RTVSPropertyOp18
 70
     1
102
RTVSPropertyOp19
 70
     1
102
RTVSPropertyOp20
 70
     1
102
RTVSPropertyOp21
 70
     1
102
RTVSPropertyOp22
 70
     1
102
RTVSPropertyOp23
 70
     1
102
RTVSPropertyOp24
 70
     1
102
RTVSPropertyOp25
 70
     1
102
RTVSPropertyOp26
 70
     1
102
RTVSPropertyOp27
 70
     1
102
RTVSPropertyOp28
 70
     1
102
RTVSPropertyOp29
 70
     1
102
RTVSPropertyOp30
 70
     1
102
RTVSPropertyOp31
 70
     1
102
RTVSPropertyOp32
 70
     1
  0
XRECORD
  5
F109C6
102
{ACAD_REACTORS
330
F109C5
102
}
330
F109C5
100
AcDbXrecord
280
     1
102
RTVSPropertyOp0
 70
     1
102
RTVSPropertyOp1
 70
     1
102
RTVSPropertyOp2
 70
     1
102
RTVSPropertyOp3
 70
     1
102
RTVSPropertyOp4
 70
     1
102
RTVSPropertyOp5
 70
     1
102
RTVSPropertyOp6
 70
     1
102
RTVSPropertyOp7
 70
     1
102
RTVSPropertyOp8
 70
     1
102
RTVSPropertyOp9
 70
     1
102
RTVSPropertyOp10
 70
     1
102
RTVSPropertyOp11
 70
     1
102
RTVSPropertyOp12
 70
     1
102
RTVSPropertyOp13
 70
     1
102
RTVSPropertyOp14
 70
     1
102
RTVSPropertyOp15
 70
     1
102
RTVSPropertyOp16
 70
     1
102
RTVSPropertyOp17
 70
     1
102
RTVSPropertyOp18
 70
     1
102
RTVSPropertyOp19
 70
     1
102
RTVSPropertyOp20
 70
     1
102
RTVSPropertyOp21
 70
     1
102
RTVSPropertyOp22
 70
     1
102
RTVSPropertyOp23
 70
     1
102
RTVSPropertyOp24
 70
     1
102
RTVSPropertyOp25
 70
     1
102
RTVSPropertyOp26
 70
     1
102
RTVSPropertyOp27
 70
     1
102
RTVSPropertyOp28
 70
     1
102
RTVSPropertyOp29
 70
     1
102
RTVSPropertyOp30
 70
     1
102
RTVSPropertyOp31
 70
     1
102
RTVSPropertyOp32
 70
     1
  0
XRECORD
  5
F109C8
102
{ACAD_REACTORS
330
F109C7
102
}
330
F109C7
100
AcDbXrecord
280
     1
102
RTVSPropertyOp0
 70
     1
102
RTVSPropertyOp1
 70
     1
102
RTVSPropertyOp2
 70
     1
102
RTVSPropertyOp3
 70
     1
102
RTVSPropertyOp4
 70
     1
102
RTVSPropertyOp5
 70
     1
102
RTVSPropertyOp6
 70
     1
102
RTVSPropertyOp7
 70
     1
102
RTVSPropertyOp8
 70
     1
102
RTVSPropertyOp9
 70
     1
102
RTVSPropertyOp10
 70
     1
102
RTVSPropertyOp11
 70
     1
102
RTVSPropertyOp12
 70
     1
102
RTVSPropertyOp13
 70
     1
102
RTVSPropertyOp14
 70
     1
102
RTVSPropertyOp15
 70
     1
102
RTVSPropertyOp16
 70
     1
102
RTVSPropertyOp17
 70
     1
102
RTVSPropertyOp18
 70
     1
102
RTVSPropertyOp19
 70
     1
102
RTVSPropertyOp20
 70
     1
102
RTVSPropertyOp21
 70
     1
102
RTVSPropertyOp22
 70
     1
102
RTVSPropertyOp23
 70
     1
102
RTVSPropertyOp24
 70
     1
102
RTVSPropertyOp25
 70
     1
102
RTVSPropertyOp26
 70
     1
102
RTVSPropertyOp27
 70
     1
102
RTVSPropertyOp28
 70
     1
102
RTVSPropertyOp29
 70
     1
102
RTVSPropertyOp30
 70
     1
102
RTVSPropertyOp31
 70
     1
102
RTVSPropertyOp32
 70
     1
  0
XRECORD
  5
F109CA
102
{ACAD_REACTORS
330
F109C9
102
}
330
F109C9
100
AcDbXrecord
280
     1
102
RTVSPropertyOp0
 70
     1
102
RTVSPropertyOp1
 70
     1
102
RTVSPropertyOp2
 70
     1
102
RTVSPropertyOp3
 70
     1
102
RTVSPropertyOp4
 70
     1
102
RTVSPropertyOp5
 70
     1
102
RTVSPropertyOp6
 70
     1
102
RTVSPropertyOp7
 70
     1
102
RTVSPropertyOp8
 70
     1
102
RTVSPropertyOp9
 70
     1
102
RTVSPropertyOp10
 70
     1
102
RTVSPropertyOp11
 70
     1
102
RTVSPropertyOp12
 70
     1
102
RTVSPropertyOp13
 70
     1
102
RTVSPropertyOp14
 70
     1
102
RTVSPropertyOp15
 70
     1
102
RTVSPropertyOp16
 70
     1
102
RTVSPropertyOp17
 70
     1
102
RTVSPropertyOp18
 70
     1
102
RTVSPropertyOp19
 70
     1
102
RTVSPropertyOp20
 70
     1
102
RTVSPropertyOp21
 70
     1
102
RTVSPropertyOp22
 70
     1
102
RTVSPropertyOp23
 70
     1
102
RTVSPropertyOp24
 70
     1
102
RTVSPropertyOp25
 70
     1
102
RTVSPropertyOp26
 70
     1
102
RTVSPropertyOp27
 70
     1
102
RTVSPropertyOp28
 70
     1
102
RTVSPropertyOp29
 70
     1
102
RTVSPropertyOp30
 70
     1
102
RTVSPropertyOp31
 70
     1
102
RTVSPropertyOp32
 70
     1
  0
XRECORD
  5
F109F1
102
{ACAD_REACTORS
330
F109F0
102
}
330
F109F0
100
AcDbXrecord
280
     1
102
RTVSPropertyOp0
 70
     1
102
RTVSPropertyOp1
 70
     1
102
RTVSPropertyOp2
 70
     1
102
RTVSPropertyOp3
 70
     1
102
RTVSPropertyOp4
 70
     1
102
RTVSPropertyOp5
 70
     1
102
RTVSPropertyOp6
 70
     1
102
RTVSPropertyOp7
 70
     1
102
RTVSPropertyOp8
 70
     1
102
RTVSPropertyOp9
 70
     1
102
RTVSPropertyOp10
 70
     1
102
RTVSPropertyOp11
 70
     1
102
RTVSPropertyOp12
 70
     1
102
RTVSPropertyOp13
 70
     1
102
RTVSPropertyOp14
 70
     1
102
RTVSPropertyOp15
 70
     1
102
RTVSPropertyOp16
 70
     1
102
RTVSPropertyOp17
 70
     1
102
RTVSPropertyOp18
 70
     1
102
RTVSPropertyOp19
 70
     1
102
RTVSPropertyOp20
 70
     1
102
RTVSPropertyOp21
 70
     1
102
RTVSPropertyOp22
 70
     1
102
RTVSPropertyOp23
 70
     1
102
RTVSPropertyOp24
 70
     1
102
RTVSPropertyOp25
 70
     1
102
RTVSPropertyOp26
 70
     1
102
RTVSPropertyOp27
 70
     1
102
RTVSPropertyOp28
 70
     1
102
RTVSPropertyOp29
 70
     1
102
RTVSPropertyOp30
 70
     1
102
RTVSPropertyOp31
 70
     1
102
RTVSPropertyOp32
 70
     1
  0
XRECORD
  5
F109E4
102
{ACAD_REACTORS
330
F109E3
102
}
330
F109E3
100
AcDbXrecord
280
     1
102
RTVSPropertyOp0
 70
     0
102
RTVSPropertyOp1
 70
     0
102
RTVSPropertyOp2
 70
     0
102
RTVSPropertyOp3
 70
     0
102
RTVSPropertyOp4
 70
     0
102
RTVSPropertyOp5
 70
     0
102
RTVSPropertyOp6
 70
     0
102
RTVSPropertyOp7
 70
     0
102
RTVSPropertyOp8
 70
     0
102
RTVSPropertyOp9
 70
     0
102
RTVSPropertyOp10
 70
     0
102
RTVSPropertyOp11
 70
     0
102
RTVSPropertyOp12
 70
     0
102
RTVSPropertyOp13
 70
     0
102
RTVSPropertyOp14
 70
     2
102
RTVSPropertyOp15
 70
     0
102
RTVSPropertyOp16
 70
     0
102
RTVSPropertyOp17
 70
     0
102
RTVSPropertyOp18
 70
     0
102
RTVSPropertyOp19
 70
     0
102
RTVSPropertyOp20
 70
     0
102
RTVSPropertyOp21
 70
     0
102
RTVSPropertyOp22
 70
     0
102
RTVSPropertyOp23
 70
     0
102
RTVSPropertyOp24
 70
     0
102
RTVSPropertyOp25
 70
     0
102
RTVSPropertyOp26
 70
     0
102
RTVSPropertyOp27
 70
     0
102
RTVSPropertyOp28
 70
     1
102
RTVSPropertyOp29
 70
     1
102
RTVSPropertyOp30
 70
     1
102
RTVSPropertyOp31
 70
     1
102
RTVSPropertyOp32
 70
     1
  0
XRECORD
  5
F109DE
102
{ACAD_REACTORS
330
F109DD
102
}
330
F109DD
100
AcDbXrecord
280
     1
102
RTVSPropertyOp0
 70
     1
102
RTVSPropertyOp1
 70
     1
102
RTVSPropertyOp2
 70
     1
102
RTVSPropertyOp3
 70
     1
102
RTVSPropertyOp4
 70
     1
102
RTVSPropertyOp5
 70
     1
102
RTVSPropertyOp6
 70
     1
102
RTVSPropertyOp7
 70
     1
102
RTVSPropertyOp8
 70
     1
102
RTVSPropertyOp9
 70
     1
102
RTVSPropertyOp10
 70
     1
102
RTVSPropertyOp11
 70
     1
102
RTVSPropertyOp12
 70
     1
102
RTVSPropertyOp13
 70
     1
102
RTVSPropertyOp14
 70
     1
102
RTVSPropertyOp15
 70
     1
102
RTVSPropertyOp16
 70
     1
102
RTVSPropertyOp17
 70
     1
102
RTVSPropertyOp18
 70
     1
102
RTVSPropertyOp19
 70
     1
102
RTVSPropertyOp20
 70
     1
102
RTVSPropertyOp21
 70
     1
102
RTVSPropertyOp22
 70
     1
102
RTVSPropertyOp23
 70
     1
102
RTVSPropertyOp24
 70
     1
102
RTVSPropertyOp25
 70
     1
102
RTVSPropertyOp26
 70
     1
102
RTVSPropertyOp27
 70
     1
102
RTVSPropertyOp28
 70
     1
102
RTVSPropertyOp29
 70
     1
102
RTVSPropertyOp30
 70
     1
102
RTVSPropertyOp31
 70
     1
102
RTVSPropertyOp32
 70
     1
  0
XRECORD
  5
F109E6
102
{ACAD_REACTORS
330
F109E5
102
}
330
F109E5
100
AcDbXrecord
280
     1
102
RTVSPropertyOp0
 70
     0
102
RTVSPropertyOp1
 70
     0
102
RTVSPropertyOp2
 70
     0
102
RTVSPropertyOp3
 70
     0
102
RTVSPropertyOp4
 70
     0
102
RTVSPropertyOp5
 70
     0
102
RTVSPropertyOp6
 70
     0
102
RTVSPropertyOp7
 70
     0
102
RTVSPropertyOp8
 70
     0
102
RTVSPropertyOp9
 70
     0
102
RTVSPropertyOp10
 70
     0
102
RTVSPropertyOp11
 70
     0
102
RTVSPropertyOp12
 70
     0
102
RTVSPropertyOp13
 70
     0
102
RTVSPropertyOp14
 70
     2
102
RTVSPropertyOp15
 70
     0
102
RTVSPropertyOp16
 70
     0
102
RTVSPropertyOp17
 70
     0
102
RTVSPropertyOp18
 70
     0
102
RTVSPropertyOp19
 70
     0
102
RTVSPropertyOp20
 70
     0
102
RTVSPropertyOp21
 70
     0
102
RTVSPropertyOp22
 70
     0
102
RTVSPropertyOp23
 70
     0
102
RTVSPropertyOp24
 70
     0
102
RTVSPropertyOp25
 70
     0
102
RTVSPropertyOp26
 70
     0
102
RTVSPropertyOp27
 70
     0
102
RTVSPropertyOp28
 70
     1
102
RTVSPropertyOp29
 70
     1
102
RTVSPropertyOp30
 70
     1
102
RTVSPropertyOp31
 70
     1
102
RTVSPropertyOp32
 70
     1
  0
XRECORD
  5
F109D6
102
{ACAD_REACTORS
330
F109D5
102
}
330
F109D5
100
AcDbXrecord
280
     1
102
RTVSPropertyOp0
 70
     1
102
RTVSPropertyOp1
 70
     1
102
RTVSPropertyOp2
 70
     1
102
RTVSPropertyOp3
 70
     1
102
RTVSPropertyOp4
 70
     1
102
RTVSPropertyOp5
 70
     1
102
RTVSPropertyOp6
 70
     1
102
RTVSPropertyOp7
 70
     1
102
RTVSPropertyOp8
 70
     1
102
RTVSPropertyOp9
 70
     1
102
RTVSPropertyOp10
 70
     1
102
RTVSPropertyOp11
 70
     1
102
RTVSPropertyOp12
 70
     1
102
RTVSPropertyOp13
 70
     1
102
RTVSPropertyOp14
 70
     1
102
RTVSPropertyOp15
 70
     1
102
RTVSPropertyOp16
 70
     1
102
RTVSPropertyOp17
 70
     1
102
RTVSPropertyOp18
 70
     1
102
RTVSPropertyOp19
 70
     1
102
RTVSPropertyOp20
 70
     1
102
RTVSPropertyOp21
 70
     1
102
RTVSPropertyOp22
 70
     1
102
RTVSPropertyOp23
 70
     1
102
RTVSPropertyOp24
 70
     1
102
RTVSPropertyOp25
 70
     1
102
RTVSPropertyOp26
 70
     1
102
RTVSPropertyOp27
 70
     1
102
RTVSPropertyOp28
 70
     1
102
RTVSPropertyOp29
 70
     1
102
RTVSPropertyOp30
 70
     1
102
RTVSPropertyOp31
 70
     1
102
RTVSPropertyOp32
 70
     1
  0
XRECORD
  5
F109FB
102
{ACAD_REACTORS
330
F109FA
102
}
330
F109FA
100
AcDbXrecord
280
     1
102
RTVSPropertyOp0
 70
     1
102
RTVSPropertyOp1
 70
     1
102
RTVSPropertyOp2
 70
     1
102
RTVSPropertyOp3
 70
     1
102
RTVSPropertyOp4
 70
     1
102
RTVSPropertyOp5
 70
     1
102
RTVSPropertyOp6
 70
     1
102
RTVSPropertyOp7
 70
     1
102
RTVSPropertyOp8
 70
     1
102
RTVSPropertyOp9
 70
     1
102
RTVSPropertyOp10
 70
     1
102
RTVSPropertyOp11
 70
     1
102
RTVSPropertyOp12
 70
     1
102
RTVSPropertyOp13
 70
     1
102
RTVSPropertyOp14
 70
     1
102
RTVSPropertyOp15
 70
     1
102
RTVSPropertyOp16
 70
     1
102
RTVSPropertyOp17
 70
     1
102
RTVSPropertyOp18
 70
     1
102
RTVSPropertyOp19
 70
     1
102
RTVSPropertyOp20
 70
     1
102
RTVSPropertyOp21
 70
     1
102
RTVSPropertyOp22
 70
     1
102
RTVSPropertyOp23
 70
     1
102
RTVSPropertyOp24
 70
     1
102
RTVSPropertyOp25
 70
     1
102
RTVSPropertyOp26
 70
     1
102
RTVSPropertyOp27
 70
     1
102
RTVSPropertyOp28
 70
     1
102
RTVSPropertyOp29
 70
     1
102
RTVSPropertyOp30
 70
     1
102
RTVSPropertyOp31
 70
     1
102
RTVSPropertyOp32
 70
     1
  0
XRECORD
  5
F109F9
102
{ACAD_REACTORS
330
F109F8
102
}
330
F109F8
100
AcDbXrecord
280
     1
102
RTVSPropertyOp0
 70
     1
102
RTVSPropertyOp1
 70
     1
102
RTVSPropertyOp2
 70
     1
102
RTVSPropertyOp3
 70
     1
102
RTVSPropertyOp4
 70
     1
102
RTVSPropertyOp5
 70
     1
102
RTVSPropertyOp6
 70
     1
102
RTVSPropertyOp7
 70
     1
102
RTVSPropertyOp8
 70
     1
102
RTVSPropertyOp9
 70
     1
102
RTVSPropertyOp10
 70
     1
102
RTVSPropertyOp11
 70
     1
102
RTVSPropertyOp12
 70
     1
102
RTVSPropertyOp13
 70
     1
102
RTVSPropertyOp14
 70
     1
102
RTVSPropertyOp15
 70
     1
102
RTVSPropertyOp16
 70
     1
102
RTVSPropertyOp17
 70
     1
102
RTVSPropertyOp18
 70
     1
102
RTVSPropertyOp19
 70
     1
102
RTVSPropertyOp20
 70
     1
102
RTVSPropertyOp21
 70
     1
102
RTVSPropertyOp22
 70
     1
102
RTVSPropertyOp23
 70
     1
102
RTVSPropertyOp24
 70
     1
102
RTVSPropertyOp25
 70
     1
102
RTVSPropertyOp26
 70
     1
102
RTVSPropertyOp27
 70
     1
102
RTVSPropertyOp28
 70
     1
102
RTVSPropertyOp29
 70
     1
102
RTVSPropertyOp30
 70
     1
102
RTVSPropertyOp31
 70
     1
102
RTVSPropertyOp32
 70
     1
  0
XRECORD
  5
F109F3
102
{ACAD_REACTORS
330
F109F2
102
}
330
F109F2
100
AcDbXrecord
280
     1
102
RTVSPropertyOp0
 70
     1
102
RTVSPropertyOp1
 70
     1
102
RTVSPropertyOp2
 70
     1
102
RTVSPropertyOp3
 70
     1
102
RTVSPropertyOp4
 70
     1
102
RTVSPropertyOp5
 70
     1
102
RTVSPropertyOp6
 70
     1
102
RTVSPropertyOp7
 70
     1
102
RTVSPropertyOp8
 70
     1
102
RTVSPropertyOp9
 70
     1
102
RTVSPropertyOp10
 70
     1
102
RTVSPropertyOp11
 70
     1
102
RTVSPropertyOp12
 70
     1
102
RTVSPropertyOp13
 70
     1
102
RTVSPropertyOp14
 70
     1
102
RTVSPropertyOp15
 70
     1
102
RTVSPropertyOp16
 70
     1
102
RTVSPropertyOp17
 70
     1
102
RTVSPropertyOp18
 70
     1
102
RTVSPropertyOp19
 70
     1
102
RTVSPropertyOp20
 70
     1
102
RTVSPropertyOp21
 70
     1
102
RTVSPropertyOp22
 70
     1
102
RTVSPropertyOp23
 70
     1
102
RTVSPropertyOp24
 70
     1
102
RTVSPropertyOp25
 70
     1
102
RTVSPropertyOp26
 70
     1
102
RTVSPropertyOp27
 70
     1
102
RTVSPropertyOp28
 70
     1
102
RTVSPropertyOp29
 70
     1
102
RTVSPropertyOp30
 70
     1
102
RTVSPropertyOp31
 70
     1
102
RTVSPropertyOp32
 70
     1
  0
XRECORD
  5
F109F5
102
{ACAD_REACTORS
330
F109F4
102
}
330
F109F4
100
AcDbXrecord
280
     1
102
RTVSPropertyOp0
 70
     1
102
RTVSPropertyOp1
 70
     1
102
RTVSPropertyOp2
 70
     1
102
RTVSPropertyOp3
 70
     1
102
RTVSPropertyOp4
 70
     1
102
RTVSPropertyOp5
 70
     1
102
RTVSPropertyOp6
 70
     1
102
RTVSPropertyOp7
 70
     1
102
RTVSPropertyOp8
 70
     1
102
RTVSPropertyOp9
 70
     1
102
RTVSPropertyOp10
 70
     1
102
RTVSPropertyOp11
 70
     1
102
RTVSPropertyOp12
 70
     1
102
RTVSPropertyOp13
 70
     1
102
RTVSPropertyOp14
 70
     1
102
RTVSPropertyOp15
 70
     1
102
RTVSPropertyOp16
 70
     1
102
RTVSPropertyOp17
 70
     1
102
RTVSPropertyOp18
 70
     1
102
RTVSPropertyOp19
 70
     1
102
RTVSPropertyOp20
 70
     1
102
RTVSPropertyOp21
 70
     1
102
RTVSPropertyOp22
 70
     1
102
RTVSPropertyOp23
 70
     1
102
RTVSPropertyOp24
 70
     1
102
RTVSPropertyOp25
 70
     1
102
RTVSPropertyOp26
 70
     1
102
RTVSPropertyOp27
 70
     1
102
RTVSPropertyOp28
 70
     1
102
RTVSPropertyOp29
 70
     1
102
RTVSPropertyOp30
 70
     1
102
RTVSPropertyOp31
 70
     1
102
RTVSPropertyOp32
 70
     1
  0
XRECORD
  5
F109DC
102
{ACAD_REACTORS
330
F109DB
102
}
330
F109DB
100
AcDbXrecord
280
     1
102
RTVSPropertyOp0
 70
     1
102
RTVSPropertyOp1
 70
     1
102
RTVSPropertyOp2
 70
     1
102
RTVSPropertyOp3
 70
     1
102
RTVSPropertyOp4
 70
     1
102
RTVSPropertyOp5
 70
     1
102
RTVSPropertyOp6
 70
     1
102
RTVSPropertyOp7
 70
     1
102
RTVSPropertyOp8
 70
     1
102
RTVSPropertyOp9
 70
     1
102
RTVSPropertyOp10
 70
     1
102
RTVSPropertyOp11
 70
     1
102
RTVSPropertyOp12
 70
     1
102
RTVSPropertyOp13
 70
     1
102
RTVSPropertyOp14
 70
     1
102
RTVSPropertyOp15
 70
     1
102
RTVSPropertyOp16
 70
     1
102
RTVSPropertyOp17
 70
     1
102
RTVSPropertyOp18
 70
     1
102
RTVSPropertyOp19
 70
     1
102
RTVSPropertyOp20
 70
     1
102
RTVSPropertyOp21
 70
     1
102
RTVSPropertyOp22
 70
     1
102
RTVSPropertyOp23
 70
     1
102
RTVSPropertyOp24
 70
     1
102
RTVSPropertyOp25
 70
     1
102
RTVSPropertyOp26
 70
     1
102
RTVSPropertyOp27
 70
     1
102
RTVSPropertyOp28
 70
     1
102
RTVSPropertyOp29
 70
     1
102
RTVSPropertyOp30
 70
     1
102
RTVSPropertyOp31
 70
     1
102
RTVSPropertyOp32
 70
     1
  0
XRECORD
  5
F109EF
102
{ACAD_REACTORS
330
F109EE
102
}
330
F109EE
100
AcDbXrecord
280
     1
102
RTVSPropertyOp0
 70
     1
102
RTVSPropertyOp1
 70
     1
102
RTVSPropertyOp2
 70
     1
102
RTVSPropertyOp3
 70
     1
102
RTVSPropertyOp4
 70
     1
102
RTVSPropertyOp5
 70
     1
102
RTVSPropertyOp6
 70
     1
102
RTVSPropertyOp7
 70
     1
102
RTVSPropertyOp8
 70
     1
102
RTVSPropertyOp9
 70
     1
102
RTVSPropertyOp10
 70
     1
102
RTVSPropertyOp11
 70
     1
102
RTVSPropertyOp12
 70
     1
102
RTVSPropertyOp13
 70
     1
102
RTVSPropertyOp14
 70
     1
102
RTVSPropertyOp15
 70
     1
102
RTVSPropertyOp16
 70
     1
102
RTVSPropertyOp17
 70
     1
102
RTVSPropertyOp18
 70
     1
102
RTVSPropertyOp19
 70
     1
102
RTVSPropertyOp20
 70
     1
102
RTVSPropertyOp21
 70
     1
102
RTVSPropertyOp22
 70
     1
102
RTVSPropertyOp23
 70
     1
102
RTVSPropertyOp24
 70
     1
102
RTVSPropertyOp25
 70
     1
102
RTVSPropertyOp26
 70
     1
102
RTVSPropertyOp27
 70
     1
102
RTVSPropertyOp28
 70
     1
102
RTVSPropertyOp29
 70
     1
102
RTVSPropertyOp30
 70
     1
102
RTVSPropertyOp31
 70
     1
102
RTVSPropertyOp32
 70
     1
  0
XRECORD
  5
F109F7
102
{ACAD_REACTORS
330
F109F6
102
}
330
F109F6
100
AcDbXrecord
280
     1
102
RTVSPropertyOp0
 70
     1
102
RTVSPropertyOp1
 70
     1
102
RTVSPropertyOp2
 70
     1
102
RTVSPropertyOp3
 70
     1
102
RTVSPropertyOp4
 70
     1
102
RTVSPropertyOp5
 70
     1
102
RTVSPropertyOp6
 70
     1
102
RTVSPropertyOp7
 70
     1
102
RTVSPropertyOp8
 70
     1
102
RTVSPropertyOp9
 70
     1
102
RTVSPropertyOp10
 70
     1
102
RTVSPropertyOp11
 70
     1
102
RTVSPropertyOp12
 70
     1
102
RTVSPropertyOp13
 70
     1
102
RTVSPropertyOp14
 70
     1
102
RTVSPropertyOp15
 70
     1
102
RTVSPropertyOp16
 70
     1
102
RTVSPropertyOp17
 70
     1
102
RTVSPropertyOp18
 70
     1
102
RTVSPropertyOp19
 70
     1
102
RTVSPropertyOp20
 70
     1
102
RTVSPropertyOp21
 70
     1
102
RTVSPropertyOp22
 70
     1
102
RTVSPropertyOp23
 70
     1
102
RTVSPropertyOp24
 70
     1
102
RTVSPropertyOp25
 70
     1
102
RTVSPropertyOp26
 70
     1
102
RTVSPropertyOp27
 70
     1
102
RTVSPropertyOp28
 70
     1
102
RTVSPropertyOp29
 70
     1
102
RTVSPropertyOp30
 70
     1
102
RTVSPropertyOp31
 70
     1
102
RTVSPropertyOp32
 70
     1
  0
ENDSEC
  0
EOF
