  0
SECTION
  2
HEADER
  9
$ACADVER
  1
AC1015
  9
$ACADMAINTVER
 70
    20
  9
$DWGCODEPAGE
  3
ANSI_1252
  9
$INSBASE
 10
0.0
 20
0.0
 30
0.0
  9
$EXTMIN
 10
-208.09585492228
 20
-100.103626943005
 30
0.0
  9
$EXTMAX
 10
143.354922279793
 20
106.7646657571623
 30
0.0
  9
$LIMMIN
 10
0.0
 20
0.0
  9
$LIMMAX
 10
12.0
 20
9.0
  9
$ORTHOMODE
 70
     0
  9
$REGENMODE
 70
     1
  9
$FILLMODE
 70
     1
  9
$QTEXTMODE
 70
     0
  9
$MIRRTEXT
 70
     1
  9
$LTSCALE
 40
1.0
  9
$ATTMODE
 70
     1
  9
$TEXTSIZE
 40
0.2
  9
$TRACEWID
 40
0.05
  9
$TEXTSTYLE
  7
Standard
  9
$CLAYER
  8
0
  9
$CELTYPE
  6
ByLayer
  9
$CECOLOR
 62
   256
  9
$CELTSCALE
 40
1.0
  9
$DISPSILH
 70
     0
  9
$DIMSCALE
 40
1.0
  9
$DIMASZ
 40
2.5
  9
$DIMEXO
 40
0.625
  9
$DIMDLI
 40
0.38
  9
$DIMRND
 40
0.0
  9
$DIMDLE
 40
0.0
  9
$DIMEXE
 40
1.25
  9
$DIMTP
 40
0.0
  9
$DIMTM
 40
0.000000001
  9
$DIMTXT
 40
2.5
  9
$DIMCEN
 40
0.09
  9
$DIMTSZ
 40
0.0
  9
$DIMTOL
 70
     1
  9
$DIMLIM
 70
     0
  9
$DIMTIH
 70
     0
  9
$DIMTOH
 70
     0
  9
$DIMSE1
 70
     0
  9
$DIMSE2
 70
     0
  9
$DIMTAD
 70
     1
  9
$DIMZIN
 70
     0
  9
$DIMBLK
  1
VDDIM_DEFAULT
  9
$DIMASO
 70
     1
  9
$DIMSHO
 70
     1
  9
$DIMPOST
  1

  9
$DIMAPOST
  1

  9
$DIMALT
 70
     0
  9
$DIMALTD
 70
     2
  9
$DIMALTF
 40
25.4
  9
$DIMLFAC
 40
1.0
  9
$DIMTOFL
 70
     0
  9
$DIMTVP
 40
0.0
  9
$DIMTIX
 70
     0
  9
$DIMSOXD
 70
     0
  9
$DIMSAH
 70
     0
  9
$DIMBLK1
  1

  9
$DIMBLK2
  1

  9
$DIMSTYLE
  2
BEM-ISBE
  9
$DIMCLRD
 70
     0
  9
$DIMCLRE
 70
     0
  9
$DIMCLRT
 70
     0
  9
$DIMTFAC
 40
0.5
  9
$DIMGAP
 40
0.625
  9
$DIMJUST
 70
     0
  9
$DIMSD1
 70
     0
  9
$DIMSD2
 70
     0
  9
$DIMTOLJ
 70
     1
  9
$DIMTZIN
 70
     0
  9
$DIMALTZ
 70
     0
  9
$DIMALTTZ
 70
     0
  9
$DIMUPT
 70
     0
  9
$DIMDEC
 70
     3
  9
$DIMTDEC
 70
     3
  9
$DIMALTU
 70
     2
  9
$DIMALTTD
 70
     2
  9
$DIMTXSTY
  7
Standard
  9
$DIMAUNIT
 70
     0
  9
$DIMADEC
 70
     3
  9
$DIMALTRND
 40
0.0
  9
$DIMAZIN
 70
     0
  9
$DIMDSEP
 70
    46
  9
$DIMATFIT
 70
     3
  9
$DIMFRAC
 70
     0
  9
$DIMLDRBLK
  1

  9
$DIMLUNIT
 70
     2
  9
$DIMLWD
 70
    -2
  9
$DIMLWE
 70
    -2
  9
$DIMTMOVE
 70
     0
  9
$LUNITS
 70
     2
  9
$LUPREC
 70
     4
  9
$SKETCHINC
 40
0.1
  9
$FILLETRAD
 40
0.5
  9
$AUNITS
 70
     0
  9
$AUPREC
 70
     0
  9
$MENU
  1
.
  9
$ELEVATION
 40
0.0
  9
$PELEVATION
 40
0.0
  9
$THICKNESS
 40
0.0
  9
$LIMCHECK
 70
     0
  9
$CHAMFERA
 40
0.5
  9
$CHAMFERB
 40
0.5
  9
$CHAMFERC
 40
1.0
  9
$CHAMFERD
 40
0.0
  9
$SKPOLY
 70
     0
  9
$TDCREATE
 40
2456987.551211574
  9
$TDUCREATE
 40
2456987.509544908
  9
$TDUPDATE
 40
2456987.553610440
  9
$TDUUPDATE
 40
2456987.511943773
  9
$TDINDWG
 40
0.0024013194
  9
$TDUSRTIMER
 40
0.0024012616
  9
$USRTIMER
 70
     1
  9
$ANGBASE
 50
0.0
  9
$ANGDIR
 70
     0
  9
$PDMODE
 70
     0
  9
$PDSIZE
 40
0.0
  9
$PLINEWID
 40
0.0
  9
$SPLFRAME
 70
     0
  9
$SPLINETYPE
 70
     6
  9
$SPLINESEGS
 70
     8
  9
$HANDSEED
  5
F10C2F
  9
$SURFTAB1
 70
     6
  9
$SURFTAB2
 70
     6
  9
$SURFTYPE
 70
     6
  9
$SURFU
 70
     6
  9
$SURFV
 70
     6
  9
$UCSBASE
  2

  9
$UCSNAME
  2

  9
$UCSORG
 10
-5.109892333471492
 20
14.6361915257108
 30
0.0
  9
$UCSXDIR
 10
1.0
 20
0.0
 30
0.0
  9
$UCSYDIR
 10
0.0
 20
1.0
 30
0.0
  9
$UCSORTHOREF
  2

  9
$UCSORTHOVIEW
 70
     0
  9
$UCSORGTOP
 10
0.0
 20
0.0
 30
0.0
  9
$UCSORGBOTTOM
 10
0.0
 20
0.0
 30
0.0
  9
$UCSORGLEFT
 10
0.0
 20
0.0
 30
0.0
  9
$UCSORGRIGHT
 10
0.0
 20
0.0
 30
0.0
  9
$UCSORGFRONT
 10
0.0
 20
0.0
 30
0.0
  9
$UCSORGBACK
 10
0.0
 20
0.0
 30
0.0
  9
$PUCSBASE
  2

  9
$PUCSNAME
  2

  9
$PUCSORG
 10
0.0
 20
0.0
 30
0.0
  9
$PUCSXDIR
 10
1.0
 20
0.0
 30
0.0
  9
$PUCSYDIR
 10
0.0
 20
1.0
 30
0.0
  9
$PUCSORTHOREF
  2

  9
$PUCSORTHOVIEW
 70
     0
  9
$PUCSORGTOP
 10
0.0
 20
0.0
 30
0.0
  9
$PUCSORGBOTTOM
 10
0.0
 20
0.0
 30
0.0
  9
$PUCSORGLEFT
 10
0.0
 20
0.0
 30
0.0
  9
$PUCSORGRIGHT
 10
0.0
 20
0.0
 30
0.0
  9
$PUCSORGFRONT
 10
0.0
 20
0.0
 30
0.0
  9
$PUCSORGBACK
 10
0.0
 20
0.0
 30
0.0
  9
$USERI1
 70
     0
  9
$USERI2
 70
     0
  9
$USERI3
 70
     0
  9
$USERI4
 70
     0
  9
$USERI5
 70
     0
  9
$USERR1
 40
0.0
  9
$USERR2
 40
0.0
  9
$USERR3
 40
0.0
  9
$USERR4
 40
0.0
  9
$USERR5
 40
0.0
  9
$WORLDVIEW
 70
     1
  9
$SHADEDGE
 70
     3
  9
$SHADEDIF
 70
    70
  9
$TILEMODE
 70
     1
  9
$MAXACTVP
 70
    64
  9
$PINSBASE
 10
0.0
 20
0.0
 30
0.0
  9
$PLIMCHECK
 70
     0
  9
$PEXTMIN
 10
1.000000000000000E+20
 20
1.000000000000000E+20
 30
1.000000000000000E+20
  9
$PEXTMAX
 10
-1.000000000000000E+20
 20
-1.000000000000000E+20
 30
-1.000000000000000E+20
  9
$PLIMMIN
 10
0.0
 20
0.0
  9
$PLIMMAX
 10
12.0
 20
9.0
  9
$UNITMODE
 70
     0
  9
$VISRETAIN
 70
     1
  9
$PLINEGEN
 70
     0
  9
$PSLTSCALE
 70
     1
  9
$TREEDEPTH
 70
  3020
  9
$CMLSTYLE
  2
Standard
  9
$CMLJUST
 70
     0
  9
$CMLSCALE
 40
1.0
  9
$PROXYGRAPHICS
 70
     1
  9
$MEASUREMENT
 70
     0
  9
$CELWEIGHT
370
    -1
  9
$ENDCAPS
280
     0
  9
$JOINSTYLE
280
     0
  9
$LWDISPLAY
290
     0
  9
$INSUNITS
 70
     4
  9
$HYPERLINKBASE
  1

  9
$STYLESHEET
  1

  9
$XEDIT
290
     1
  9
$CEPSNTYPE
380
     0
  9
$PSTYLEMODE
290
     0
  9
$FINGERPRINTGUID
  2
{FAEB1C30-E019-11D5-929B-00C0DF256EC4}
  9
$VERSIONGUID
  2
{DD5BD827-F27E-4D3C-9D77-45E4C5252F4E}
  9
$EXTNAMES
290
     1
  9
$PSVPSCALE
 40
0.0
  9
$OLESTARTUP
290
     0
  0
ENDSEC
  0
SECTION
  2
CLASSES
  0
CLASS
  1
ACDBDICTIONARYWDFLT
  2
AcDbDictionaryWithDefault
  3
ObjectDBX Classes
 90
        0
280
     0
281
     0
  0
CLASS
  1
MATERIAL
  2
AcDbMaterial
  3
ObjectDBX Classes
 90
     1153
280
     0
281
     0
  0
CLASS
  1
MLEADERSTYLE
  2
AcDbMLeaderStyle
  3
ACDB_MLEADERSTYLE_CLASS
 90
     4095
280
     0
281
     0
  0
CLASS
  1
SCALE
  2
AcDbScale
  3
ObjectDBX Classes
 90
     1153
280
     0
281
     0
  0
CLASS
  1
TABLESTYLE
  2
AcDbTableStyle
  3
ObjectDBX Classes
 90
     4095
280
     0
281
     0
  0
CLASS
  1
VISUALSTYLE
  2
AcDbVisualStyle
  3
ObjectDBX Classes
 90
     4095
280
     0
281
     0
  0
CLASS
  1
DICTIONARYVAR
  2
AcDbDictionaryVar
  3
ObjectDBX Classes
 90
        0
280
     0
281
     0
  0
CLASS
  1
CELLSTYLEMAP
  2
AcDbCellStyleMap
  3
ObjectDBX Classes
 90
     1152
280
     0
281
     0
  0
CLASS
  1
AMGSETTINGSOBJ
  2
AmgSettingsObj
  3
"AcadM|Product Description: AutoCAD Mechanical|Company: Autodesk, Inc."
 90
     1024
280
     0
281
     0
  0
CLASS
  1
ACME_DOCUMENT
  2
AcMeDbDoc
  3
AcMeServices
 90
     1024
280
     0
281
     0
  0
CLASS
  1
ACMESCOPE
  2
AcMeScope
  3
AcMeServices
 90
     1024
280
     0
281
     0
  0
CLASS
  1
ACMECOMMANDHISTORY
  2
AcMeCommandHistory
  3
AcMeServices
 90
     1024
280
     0
281
     0
  0
CLASS
  1
ACIMSYSVARMAN
  2
AcImSysVarManager
  3
AcMeServices
 90
     1024
280
     0
281
     0
  0
CLASS
  1
ACIMINTSYSVAR
  2
AcImIntSysVar
  3
AcMeServices
 90
     1024
280
     0
281
     0
  0
CLASS
  1
ACMESTATEMGR
  2
AcMeStateMgr
  3
AcMeServices
 90
     1024
280
     0
281
     0
  0
CLASS
  1
ACDBENTITYCACHE
  2
AcMeEntityCache
  3
AcMeServices
 90
     1024
280
     0
281
     0
  0
CLASS
  1
ACGREFMASTER
  2
AcGrefMaster
  3
AcAttribServices
 90
     1024
280
     0
281
     0
  0
CLASS
  1
AM_DRAWING_MGR
  2
AcDmDwgMgr
  3
AcMechDwgViewMgmt
 90
     1024
280
     0
281
     0
  0
CLASS
  1
AM_DWG_DOCUMENT
  2
AcDmDwgDocument
  3
AcMechDwgViewMgmt
 90
     1024
280
     0
281
     0
  0
CLASS
  1
AM_DWG_SHEET
  2
AcDmSheet
  3
AcMechDwgViewMgmt
 90
     1024
280
     0
281
     0
  0
CLASS
  1
AM_VIEWDIMPARMAP
  2
AcDmViewDimParMap
  3
AcMechDwgViewMgmt
 90
     1024
280
     0
281
     0
  0
CLASS
  1
AMDTINTERNALREACTOR
  2
AmdtInternalReactor
  3
AcMeServices
 90
     1024
280
     0
281
     0
  0
CLASS
  1
ACIMREALSYSVAR
  2
AcImRealSysVar
  3
AcMeServices
 90
     1024
280
     0
281
     0
  0
CLASS
  1
AM_DWGMGR_NAME
  2
AcDmDwgMgrName
  3
AcMechDwgViewMgmt
 90
     1024
280
     0
281
     0
  0
CLASS
  1
ACME_DATABASE
  2
AcMeDbDatabase
  3
AcMeServices
 90
     1024
280
     0
281
     0
  0
CLASS
  1
ACRFINSADJUSTERMGR
  2
AcRfInsAdjusterMgr
  3
AcMeServices
 90
     1024
280
     0
281
     0
  0
CLASS
  1
ACGREFACADMASTER
  2
AcGrefacadMaster
  3
AcGrefServices
 90
     1024
280
     0
281
     0
  0
CLASS
  1
AMDTMENUSTATEMGR
  2
AmdtMenuStateMgr
  3
McadcomServices
 90
     1024
280
     0
281
     0
  0
CLASS
  1
AMDTMCOMMENUSTATE
  2
AmdtMcomMenuState
  3
McadcomServices
 90
     1024
280
     0
281
     0
  0
CLASS
  1
AMIMASTER
  2
AmiMaster
  3
AmiServices
 90
     1024
280
     0
281
     0
  0
CLASS
  1
MAPIAMMOUDLE
  2
MApiAmModule
  3
MApiAmServices
 90
     1024
280
     0
281
     0
  0
CLASS
  1
ACIMSTRSYSVAR
  2
AcImStrSysVar
  3
AcMeServices
 90
     1024
280
     0
281
     0
  0
CLASS
  1
AMDTDMMENUSTATE
  2
AmdtDmMenuState
  3
AcMechDwgViewMgmt
 90
     1024
280
     0
281
     0
  0
CLASS
  1
AMDTAMMENUSTATE
  2
AmdtAmMenuState
  3
DesignerAssemblies
 90
     1024
280
     0
281
     0
  0
CLASS
  1
ACAMPROJECT
  2
AcAmProject
  3
DesignerAssemblies
 90
     1024
280
     0
281
     0
  0
CLASS
  1
ACAMGRCOMPDEF
  2
AcAmGrCompDef
  3
DesignerAssemblies
 90
     1024
280
     0
281
     0
  0
CLASS
  1
ACAMCOMPDEF
  2
AcAmCompDef
  3
DesignerAssemblies
 90
     1024
280
     0
281
     0
  0
CLASS
  1
ACAMCOMPDEFMGR
  2
AcAmCompDefMgr
  3
DesignerAssemblies
 90
     1024
280
     0
281
     0
  0
CLASS
  1
AMCONTEXTMGR
  2
AcAmContextMgr
  3
DesignerAssemblies
 90
     1024
280
     0
281
     0
  0
CLASS
  1
ACAMCONTEXTMODELER
  2
AcAmContextModeler
  3
DesignerAssemblies
 90
     1024
280
     0
281
     0
  0
CLASS
  1
ACMDATADICTIONARY
  2
AcmDataDictionary
  3
"AcmSymBB|Product Description: AutoCAD Mechanical|Company: Autodesk, Inc."
 90
     1024
280
     0
281
     0
  0
CLASS
  1
ACAMGRCOMPDEFSET
  2
AcAmGrCompDefSet
  3
DesignerAssemblies
 90
     1024
280
     0
281
     0
  0
CLASS
  1
AMDTBROWSERDBTAB
  2
AmdtBrowserDbTab
  3
McadcomServices
 90
     1024
280
     0
281
     0
  0
CLASS
  1
CBROWSERAPPOBJECT
  2
CBrowserAppObject
  3
McadcomServices
 90
     1024
280
     0
281
     0
  0
CLASS
  1
DM_PLACEHOLDER
  2
AcDmSelsetPlaceholder
  3
AcMechDwgViewMgmt
 90
     1024
280
     0
281
     0
  0
CLASS
  1
EXACXREFPANELOBJECT
  2
ExAcXREFPanelObject
  3
EXAC_ESW
 90
     1025
280
     0
281
     0
  0
CLASS
  1
NPOCOLLECTION
  2
AcDbImpNonPersistentObjectsCollection
  3
ObjectDBX Classes
 90
     1153
280
     0
281
     0
  0
CLASS
  1
ACMSTANDARDANSI
  2
AcmStandardANSI
  3
"Amdt_StdImp|Product Description: AutoCAD Mechanical|Company: Autodesk, Inc."
 90
     1024
280
     0
281
     0
  0
CLASS
  1
ACMSURFSTANDARDANSI
  2
AcmSurfTextStdANSI
  3
"Amdt_StdImp|Product Description: AutoCAD Mechanical|Company: Autodesk, Inc."
 90
     1024
280
     0
281
     0
  0
CLASS
  1
ACMFCFSTANDARDANSI
  2
AcmFCFStdANSI
  3
"Amdt_StdImp|Product Description: AutoCAD Mechanical|Company: Autodesk, Inc."
 90
     1024
280
     0
281
     0
  0
CLASS
  1
ACMWELDSTANDARDANSI
  2
AcmWeldingStdANSI
  3
"Amdt_StdImp|Product Description: AutoCAD Mechanical|Company: Autodesk, Inc."
 90
     1024
280
     0
281
     0
  0
CLASS
  1
ACMIDSTANDARDANSI
  2
AcmIdStdANSI
  3
"Amdt_StdImp|Product Description: AutoCAD Mechanical|Company: Autodesk, Inc."
 90
     1024
280
     0
281
     0
  0
CLASS
  1
ACMDATUMSTANDARDANSI
  2
AcmDatumStdANSI
  3
"Amdt_StdImp|Product Description: AutoCAD Mechanical|Company: Autodesk, Inc."
 90
     1024
280
     0
281
     0
  0
CLASS
  1
ACMBOMSTANDARDANSI
  2
AcmBOMStdANSI
  3
"Amdt_StdImp|Product Description: AutoCAD Mechanical|Company: Autodesk, Inc."
 90
     1024
280
     0
281
     0
  0
CLASS
  1
ACMDETAILSTANDARDANSI
  2
AmdtDetailSymStdANSI
  3
"Amdt_StdImp|Product Description: AutoCAD Mechanical|Company: Autodesk, Inc."
 90
     1024
280
     0
281
     0
  0
CLASS
  1
ACMSECTIONSTANDARDANSI
  2
AmdtSectionSymStdANSI
  3
"Amdt_StdImp|Product Description: AutoCAD Mechanical|Company: Autodesk, Inc."
 90
     1024
280
     0
281
     0
  0
CLASS
  1
ACMCENTERLINESTANDARDANSI
  2
AmdtCenterLineStdANSI
  3
"Amdt_StdImp|Product Description: AutoCAD Mechanical|Company: Autodesk, Inc."
 90
     1024
280
     0
281
     0
  0
CLASS
  1
ACMTHREADLINESTANDARDANSI
  2
AmdtThreadLineStdANSI
  3
"Amdt_StdImp|Product Description: AutoCAD Mechanical|Company: Autodesk, Inc."
 90
     1024
280
     0
281
     0
  0
CLASS
  1
ACMNOTESTANDARDANSI
  2
AmdtNoteStdANSI
  3
"Amdt_StdImp|Product Description: AutoCAD Mechanical|Company: Autodesk, Inc."
 90
     1024
280
     0
281
     0
  0
CLASS
  1
ACMTAPERSTANDARDANSI
  2
AcmTaperStdANSI
  3
"Amdt_StdImp|Product Description: AutoCAD Mechanical|Company: Autodesk, Inc."
 90
     1024
280
     0
281
     0
  0
CLASS
  1
ACMANOOTATIONVIEWSTANDARDANSI
  2
AmdtAnViewStdANSI
  3
"Amdt_StdImp|Product Description: AutoCAD Mechanical|Company: Autodesk, Inc."
 90
     1024
280
     0
281
     0
  0
CLASS
  1
ACAMGLAYSTD
  2
AcAmgLayStd
  3
"AmgLay|Product Description: AutoCAD Mechanical|Company: Autodesk, Inc."
 90
     1024
280
     0
281
     0
  0
CLASS
  1
ACAMGDIMSTD
  2
AcAmgDimStd
  3
"AmgDim|Product Description: AutoCAD Mechanical|Company: Autodesk, Inc."
 90
     1024
280
     0
281
     0
  0
CLASS
  1
AMGOBJPROPCFG
  2
AmgObjPropCfg
  3
"AmgLay|Product Description: AutoCAD Mechanical|Company: Autodesk, Inc."
 90
     1025
280
     0
281
     0
  0
CLASS
  1
ACAMGHOLECHARTSTDANSI
  2
AcAmgHoleChartStdANSI
  3
AmgDim|Product Description: AutoCAD Mechanical|Company: Autodesk, Inc.
 90
     1024
280
     0
281
     0
  0
CLASS
  1
ACAMGTITLESTD
  2
AcAmgTitleStd
  3
"AmgTitle|Product Description: AutoCAD Mechanical|Company: Autodesk, Inc."
 90
     4095
280
     0
281
     0
  0
CLASS
  1
AMDTNOTETEMPLATEDB
  2
AmdtNoteTemplateDB
  3
AcmSymBB|Product Description: AutoCAD Mechanical|Company: Autodesk, Inc.
 90
     1024
280
     0
281
     0
  0
CLASS
  1
ACAMGFILTERDAT
  2
AcAmgFilterDat
  3
"AcadM|Product Description: AutoCAD Mechanical|Company: Autodesk, Inc."
 90
     1024
280
     0
281
     0
  0
CLASS
  1
ACDBPLACEHOLDER
  2
AcDbPlaceHolder
  3
ObjectDBX Classes
 90
        0
280
     0
281
     0
  0
CLASS
  1
LAYOUT
  2
AcDbLayout
  3
ObjectDBX Classes
 90
        0
280
     0
281
     0
  0
ENDSEC
  0
SECTION
  2
TABLES
  0
TABLE
  2
VPORT
  5
24A
330
0
100
AcDbSymbolTable
 70
     1
  0
VPORT
  5
26B
330
24A
100
AcDbSymbolTableRecord
100
AcDbViewportTableRecord
  2
*Active
 70
     0
 10
0.0
 20
0.0
 11
1.0
 21
1.0
 12
13.04883837801793
 22
7.986187732765756
 13
0.0
 23
0.0
 14
10.0
 24
10.0
 15
10.0
 25
10.0
 16
0.0
 26
0.0
 36
1.0
 17
0.0
 27
0.0
 37
0.0
 40
196.1916696477649
 41
1.676904176904176
 42
1.0
 43
0.0
 44
0.0
 50
0.0
 51
0.0000000000007958
 71
     0
 72
   100
 73
     1
 74
     3
 75
     0
 76
     0
 77
     0
 78
     1
281
     0
 65
     0
110
0.0
120
0.0
130
0.0
111
1.0
121
0.0
131
0.0
112
0.0
122
1.0
132
0.0
 79
     0
146
0.0
  0
ENDTAB
  0
TABLE
  2
LTYPE
  5
247
330
0
100
AcDbSymbolTable
 70
    36
  0
LTYPE
  5
256
330
247
100
AcDbSymbolTableRecord
100
AcDbLinetypeTableRecord
  2
ByBlock
 70
     0
  3

 72
    65
 73
     0
 40
0.0
  0
LTYPE
  5
257
330
247
100
AcDbSymbolTableRecord
100
AcDbLinetypeTableRecord
  2
ByLayer
 70
     0
  3

 72
    65
 73
     0
 40
0.0
  0
LTYPE
  5
258
330
247
100
AcDbSymbolTableRecord
100
AcDbLinetypeTableRecord
  2
Continuous
 70
     0
  3
Solid line
 72
    65
 73
     0
 40
0.0
  0
LTYPE
  5
273
330
247
100
AcDbSymbolTableRecord
100
AcDbLinetypeTableRecord
  2
CENTER
 70
     0
  3
Center ____ _ ____ _ ____ _ ____ _ ____ _ ____
 72
    65
 73
     4
 40
2.0
 49
1.25
 74
     0
 49
-0.25
 74
     0
 49
0.25
 74
     0
 49
-0.25
 74
     0
  0
LTYPE
  5
274
330
247
100
AcDbSymbolTableRecord
100
AcDbLinetypeTableRecord
  2
DASHDOT
 70
     0
  3
Dashdot __ . __ . __ . __ . __ . __ . __ . __
 72
    65
 73
     4
 40
1.0
 49
0.5
 74
     0
 49
-0.25
 74
     0
 49
0.0
 74
     0
 49
-0.25
 74
     0
  0
LTYPE
  5
275
330
247
100
AcDbSymbolTableRecord
100
AcDbLinetypeTableRecord
  2
DASHED
 70
     0
  3
Dashed __ __ __ __ __ __ __ __ __ __ __ __ __ _
 72
    65
 73
     2
 40
0.75
 49
0.5
 74
     0
 49
-0.25
 74
     0
  0
LTYPE
  5
276
330
247
100
AcDbSymbolTableRecord
100
AcDbLinetypeTableRecord
  2
HIDDEN
 70
     0
  3
Hidden __ __ __ __ __ __ __ __ __ __ __ __ __ __
 72
    65
 73
     2
 40
0.375
 49
0.25
 74
     0
 49
-0.125
 74
     0
  0
LTYPE
  5
277
330
247
100
AcDbSymbolTableRecord
100
AcDbLinetypeTableRecord
  2
HIDDEN2
 70
     0
  3
Hidden2 _ _ _ _ _ _ _ _ _ _ _ _ _ _ _ _ _
 72
    65
 73
     2
 40
0.1875
 49
0.125
 74
     0
 49
-0.0625
 74
     0
  0
LTYPE
  5
278
330
247
100
AcDbSymbolTableRecord
100
AcDbLinetypeTableRecord
  2
BORDER
 70
     0
  3
Border __ __ . __ __ . __ __ . __ __ . __ __ .
 72
    65
 73
     6
 40
1.75
 49
0.5
 74
     0
 49
-0.25
 74
     0
 49
0.5
 74
     0
 49
-0.25
 74
     0
 49
0.0
 74
     0
 49
-0.25
 74
     0
  0
LTYPE
  5
279
330
247
100
AcDbSymbolTableRecord
100
AcDbLinetypeTableRecord
  2
BORDER2
 70
     0
  3
Border2 __.__.__.__.__.__.__.__.__.__.__.
 72
    65
 73
     6
 40
0.875
 49
0.25
 74
     0
 49
-0.125
 74
     0
 49
0.25
 74
     0
 49
-0.125
 74
     0
 49
0.0
 74
     0
 49
-0.125
 74
     0
  0
LTYPE
  5
27A
330
247
100
AcDbSymbolTableRecord
100
AcDbLinetypeTableRecord
  2
BORDERX2
 70
     0
  3
Borderx2  ____  ____  .  ____  ____  .  ___
 72
    65
 73
     6
 40
3.5
 49
1.0
 74
     0
 49
-0.5
 74
     0
 49
1.0
 74
     0
 49
-0.5
 74
     0
 49
0.0
 74
     0
 49
-0.5
 74
     0
  0
LTYPE
  5
27B
330
247
100
AcDbSymbolTableRecord
100
AcDbLinetypeTableRecord
  2
CENTER2
 70
     0
  3
Center2  ___ _ ___ _ ___ _ ___ _ ___ _ ___
 72
    65
 73
     4
 40
1.125
 49
0.75
 74
     0
 49
-0.125
 74
     0
 49
0.125
 74
     0
 49
-0.125
 74
     0
  0
LTYPE
  5
27C
330
247
100
AcDbSymbolTableRecord
100
AcDbLinetypeTableRecord
  2
CENTERX2
 70
     0
  3
Centerx2  ________  __  ________  __  _____
 72
    65
 73
     4
 40
4.0
 49
2.5
 74
     0
 49
-0.5
 74
     0
 49
0.5
 74
     0
 49
-0.5
 74
     0
  0
LTYPE
  5
27D
330
247
100
AcDbSymbolTableRecord
100
AcDbLinetypeTableRecord
  2
DASHDOT2
 70
     0
  3
Dashdot2  _._._._._._._._._._._._._._._.
 72
    65
 73
     4
 40
0.5
 49
0.25
 74
     0
 49
-0.125
 74
     0
 49
0.0
 74
     0
 49
-0.125
 74
     0
  0
LTYPE
  5
27E
330
247
100
AcDbSymbolTableRecord
100
AcDbLinetypeTableRecord
  2
DASHDOTX2
 70
     0
  3
Dashdotx2 ____  .  ____  .  ____  .  ___
 72
    65
 73
     4
 40
2.0
 49
1.0
 74
     0
 49
-0.5
 74
     0
 49
0.0
 74
     0
 49
-0.5
 74
     0
  0
LTYPE
  5
27F
330
247
100
AcDbSymbolTableRecord
100
AcDbLinetypeTableRecord
  2
DASHED2
 70
     0
  3
Dashed2 _ _ _ _ _ _ _ _ _ _ _ _ _ _ _ _ _
 72
    65
 73
     2
 40
0.375
 49
0.25
 74
     0
 49
-0.125
 74
     0
  0
LTYPE
  5
280
330
247
100
AcDbSymbolTableRecord
100
AcDbLinetypeTableRecord
  2
DASHEDX2
 70
     0
  3
Dashedx2 ____  ____  ____  ____  ____  ___
 72
    65
 73
     2
 40
1.5
 49
1.0
 74
     0
 49
-0.5
 74
     0
  0
LTYPE
  5
281
330
247
100
AcDbSymbolTableRecord
100
AcDbLinetypeTableRecord
  2
DIVIDE
 70
     0
  3
Divide ____ . . ____ . . ____ . . ____ . . ____
 72
    65
 73
     6
 40
1.25
 49
0.5
 74
     0
 49
-0.25
 74
     0
 49
0.0
 74
     0
 49
-0.25
 74
     0
 49
0.0
 74
     0
 49
-0.25
 74
     0
  0
LTYPE
  5
282
330
247
100
AcDbSymbolTableRecord
100
AcDbLinetypeTableRecord
  2
DIVIDE2
 70
     0
  3
Divide2 __..__..__..__..__..__..__..__.._
 72
    65
 73
     6
 40
0.625
 49
0.25
 74
     0
 49
-0.125
 74
     0
 49
0.0
 74
     0
 49
-0.125
 74
     0
 49
0.0
 74
     0
 49
-0.125
 74
     0
  0
LTYPE
  5
283
330
247
100
AcDbSymbolTableRecord
100
AcDbLinetypeTableRecord
  2
DIVIDEX2
 70
     0
  3
Dividex2 ________  .  .  ________  .  .  _
 72
    65
 73
     6
 40
2.5
 49
1.0
 74
     0
 49
-0.5
 74
     0
 49
0.0
 74
     0
 49
-0.5
 74
     0
 49
0.0
 74
     0
 49
-0.5
 74
     0
  0
LTYPE
  5
284
330
247
100
AcDbSymbolTableRecord
100
AcDbLinetypeTableRecord
  2
DOT
 70
     0
  3
Dot . . . . . . . . . . . . . . . . . . . . . . . .
 72
    65
 73
     2
 40
0.25
 49
0.0
 74
     0
 49
-0.25
 74
     0
  0
LTYPE
  5
285
330
247
100
AcDbSymbolTableRecord
100
AcDbLinetypeTableRecord
  2
DOT2
 70
     0
  3
Dot2 ........................................
 72
    65
 73
     2
 40
0.125
 49
0.0
 74
     0
 49
-0.125
 74
     0
  0
LTYPE
  5
286
330
247
100
AcDbSymbolTableRecord
100
AcDbLinetypeTableRecord
  2
DOTX2
 70
     0
  3
Dotx2 .  .  .  .  .  .  .  .  .  .  .  .  .  .
 72
    65
 73
     2
 40
0.5
 49
0.0
 74
     0
 49
-0.5
 74
     0
  0
LTYPE
  5
287
330
247
100
AcDbSymbolTableRecord
100
AcDbLinetypeTableRecord
  2
HIDDENX2
 70
     0
  3
Hiddenx2 ____ ____ ____ ____ ____ ____ ____
 72
    65
 73
     2
 40
0.75
 49
0.5
 74
     0
 49
-0.25
 74
     0
  0
LTYPE
  5
288
330
247
100
AcDbSymbolTableRecord
100
AcDbLinetypeTableRecord
  2
PHANTOM
 70
     0
  3
Phantom ______  __  __  ______  __  __  ______
 72
    65
 73
     6
 40
2.5
 49
1.25
 74
     0
 49
-0.25
 74
     0
 49
0.25
 74
     0
 49
-0.25
 74
     0
 49
0.25
 74
     0
 49
-0.25
 74
     0
  0
LTYPE
  5
289
330
247
100
AcDbSymbolTableRecord
100
AcDbLinetypeTableRecord
  2
PHANTOM2
 70
     0
  3
Phantom2 ___ _ _ ___ _ _ ___ _ _ ___ _ _
 72
    65
 73
     6
 40
1.25
 49
0.625
 74
     0
 49
-0.125
 74
     0
 49
0.125
 74
     0
 49
-0.125
 74
     0
 49
0.125
 74
     0
 49
-0.125
 74
     0
  0
LTYPE
  5
28A
330
247
100
AcDbSymbolTableRecord
100
AcDbLinetypeTableRecord
  2
PHANTOMX2
 70
     0
  3
Phantomx2 ____________    ____    ____   _
 72
    65
 73
     6
 40
5.0
 49
2.5
 74
     0
 49
-0.5
 74
     0
 49
0.5
 74
     0
 49
-0.5
 74
     0
 49
0.5
 74
     0
 49
-0.5
 74
     0
  0
LTYPE
  5
F10A1E
330
247
100
AcDbSymbolTableRecord
100
AcDbLinetypeTableRecord
  2
AM_ISO02W050
 70
     0
  3
__ __ __ __ __ __ __ __ __ __ __ __ __ __ __
 72
    65
 73
     2
 40
7.5
 49
6.0
 74
     0
 49
-1.5
 74
     0
  0
LTYPE
  5
F10A1F
330
247
100
AcDbSymbolTableRecord
100
AcDbLinetypeTableRecord
  2
AM_ISO08W050
 70
     0
  3
____ . ____ . ____ . ____ . ____ . ____ . ____
 72
    65
 73
     4
 40
18.0
 49
12.0
 74
     0
 49
-1.5
 74
     0
 49
3.0
 74
     0
 49
-1.5
 74
     0
  0
LTYPE
  5
F10A20
330
247
100
AcDbSymbolTableRecord
100
AcDbLinetypeTableRecord
  2
AM_ISO09W050
 70
     0
  3
_____ . . _____ . . _____ . . ____ .. ____
 72
    65
 73
     6
 40
22.5
 49
12.0
 74
     0
 49
-1.5
 74
     0
 49
3.0
 74
     0
 49
-1.5
 74
     0
 49
3.0
 74
     0
 49
-1.5
 74
     0
  0
LTYPE
  5
F10A21
330
247
100
AcDbSymbolTableRecord
100
AcDbLinetypeTableRecord
  2
Amconstr
 70
     0
  3
_______________________
 72
    65
 73
     2
 40
9999.0
 49
9999.0
 74
     0
 49
0.0
 74
     0
  0
LTYPE
  5
F10A22
330
247
100
AcDbSymbolTableRecord
100
AcDbLinetypeTableRecord
  2
AM_ISO08W050x2
 70
     0
  3
__ . __ . __ . __ . __ . __
 72
    65
 73
     4
 40
9.0
 49
6.0
 74
     0
 49
-0.75
 74
     0
 49
1.5
 74
     0
 49
-0.75
 74
     0
  0
LTYPE
  5
F10A23
330
247
100
AcDbSymbolTableRecord
100
AcDbLinetypeTableRecord
  2
AM_ISO02W050x2
 70
     0
  3
 _ _ _ _ _ _ _ _ _ _ _ _
 72
    65
 73
     2
 40
3.75
 49
3.0
 74
     0
 49
-0.75
 74
     0
  0
LTYPE
  5
F10A26
330
247
100
AcDbSymbolTableRecord
100
AcDbLinetypeTableRecord
  2
Amzigzag
 70
     0
  3
/\/-/\/-/\/-/\/-/\/-/\/
 72
    65
 73
     2
 40
11.0001
 49
0.0001
 74
     4
 75
   136
340
F10A25
 46
0.04
 50
0.0
 44
0.0
 45
0.0
 49
-11.0
 74
     0
  0
LTYPE
  5
F10A27
330
247
100
AcDbSymbolTableRecord
100
AcDbLinetypeTableRecord
  2
Amzigzag2
 70
     0
  3
/\/-/\/-/\/-/\/-/\/-/\/
 72
    65
 73
     2
 40
0.4401
 49
0.0001
 74
     4
 75
   136
340
F10A25
 46
0.0016
 50
0.0
 44
0.0
 45
0.0
 49
-0.4400000000000001
 74
     0
  0
LTYPE
  5
F10A35
330
247
100
AcDbSymbolTableRecord
100
AcDbLinetypeTableRecord
  2
ACANSTGB
 70
     0
  3
__ . . __ . .
 72
    65
 73
     6
 40
0.35433070866
 49
0.15748031496
 74
     0
 49
-0.03937007874
 74
     0
 49
0.03937007874
 74
     0
 49
-0.03937007874
 74
     0
 49
0.03937007874
 74
     0
 49
-0.03937007874
 74
     0
  0
LTYPE
  5
F10A36
330
247
100
AcDbSymbolTableRecord
100
AcDbLinetypeTableRecord
  2
ACANSTGL
 70
     0
  3
_ _ _ _ _
 72
    65
 73
     2
 40
0.11811023622
 49
0.07874015748
 74
     0
 49
-0.03937007874
 74
     0
  0
ENDTAB
  0
TABLE
  2
LAYER
  5
244
330
0
100
AcDbSymbolTable
 70
     6
  0
LAYER
  5
252
102
{ACAD_XDICTIONARY
360
F10BD5
102
}
330
244
100
AcDbSymbolTableRecord
100
AcDbLayerTableRecord
  2
0
 70
     0
 62
     7
  6
Continuous
370
     0
390
19
  0
LAYER
  5
23F
102
{ACAD_XDICTIONARY
360
F10BD7
102
}
330
244
100
AcDbSymbolTableRecord
100
AcDbLayerTableRecord
  2
Bemassung
 70
     0
 62
     7
  6
Continuous
370
     0
390
19
  0
LAYER
  5
240
102
{ACAD_XDICTIONARY
360
F10BD9
102
}
330
244
100
AcDbSymbolTableRecord
100
AcDbLayerTableRecord
  2
Rahmen
 70
     0
 62
     7
  6
Continuous
370
     0
390
19
  0
LAYER
  5
241
102
{ACAD_XDICTIONARY
360
F10BDB
102
}
330
244
100
AcDbSymbolTableRecord
100
AcDbLayerTableRecord
  2
Geo
 70
     0
 62
     7
  6
Continuous
370
     0
390
19
  0
LAYER
  5
33A
330
244
100
AcDbSymbolTableRecord
100
AcDbLayerTableRecord
  2
Defpoints
 70
     0
 62
     7
  6
Continuous
290
     0
370
    -3
390
19
  0
LAYER
  5
57E
102
{ACAD_XDICTIONARY
360
F10BDD
102
}
330
244
100
AcDbSymbolTableRecord
100
AcDbLayerTableRecord
  2
Text
 70
     0
 62
     7
  6
Continuous
370
     0
390
19
1001
AcAecLayerStandard
1000

1000

  0
ENDTAB
  0
TABLE
  2
STYLE
  5
245
330
0
100
AcDbSymbolTable
 70
     5
  0
STYLE
  5
253
330
245
100
AcDbSymbolTableRecord
100
AcDbTextStyleTableRecord
  2
Standard
 70
     0
 40
0.0
 41
1.0
 50
0.0
 71
     0
 42
0.2
  3
Arial
  4

1001
ACAD
1000
Arial
1071
        0
  0
STYLE
  5
132
330
245
100
AcDbSymbolTableRecord
100
AcDbTextStyleTableRecord
  2
Beschriftung
 70
     0
 40
0.0
 41
1.0
 50
0.0
 71
     0
 42
0.2
  3
Arial
  4

1001
ACAD
1000
Arial
1071
        0
1001
AcadAnnotative
1000
AnnotativeData
1070
     1
1070
     1
  0
STYLE
  5
F10A25
330
245
100
AcDbSymbolTableRecord
100
AcDbTextStyleTableRecord
  2

 70
     1
 40
0.0
 41
1.0
 50
0.0
 71
     0
 42
0.2
  3
genltshp.shx
  4

  0
STYLE
  5
F10A33
330
245
100
AcDbSymbolTableRecord
100
AcDbTextStyleTableRecord
  2
ACANSTS
 70
     0
 40
1.0
 41
1.0
 50
0.0
 71
     0
 42
0.2
  3
romans.shx
  4

  0
STYLE
  5
F10A34
330
245
100
AcDbSymbolTableRecord
100
AcDbTextStyleTableRecord
  2
ACANSGDT
 70
     0
 40
0.0
 41
1.0
 50
0.0
 71
     0
 42
0.2
  3
amgdt.shx
  4

  0
ENDTAB
  0
TABLE
  2
VIEW
  5
248
330
0
100
AcDbSymbolTable
 70
     0
  0
ENDTAB
  0
TABLE
  2
UCS
  5
249
330
0
100
AcDbSymbolTable
 70
     0
  0
ENDTAB
  0
TABLE
  2
APPID
  5
24B
330
0
100
AcDbSymbolTable
 70
    30
  0
APPID
  5
254
330
24B
100
AcDbSymbolTableRecord
100
AcDbRegAppTableRecord
  2
ACAD
 70
     0
  0
APPID
  5
26C
330
24B
100
AcDbSymbolTableRecord
100
AcDbRegAppTableRecord
  2
VD_INVISIBLE_NOT_FOR_READ
 70
     0
  0
APPID
  5
26D
330
24B
100
AcDbSymbolTableRecord
100
AcDbRegAppTableRecord
  2
VD_TEMPHATCH
 70
     0
  0
APPID
  5
26E
330
24B
100
AcDbSymbolTableRecord
100
AcDbRegAppTableRecord
  2
VDEXTRAPARAM
 70
     0
  0
APPID
  5
26F
330
24B
100
AcDbSymbolTableRecord
100
AcDbRegAppTableRecord
  2
PE_URL
 70
     0
  0
APPID
  5
270
330
24B
100
AcDbSymbolTableRecord
100
AcDbRegAppTableRecord
  2
VD_UNKNOWN
 70
     0
  0
APPID
  5
28F
330
24B
100
AcDbSymbolTableRecord
100
AcDbRegAppTableRecord
  2
AcadAnnotative
 70
     0
  0
APPID
  5
290
330
24B
100
AcDbSymbolTableRecord
100
AcDbRegAppTableRecord
  2
ACAD_DSTYLE_DIMJAG
 70
     0
  0
APPID
  5
291
330
24B
100
AcDbSymbolTableRecord
100
AcDbRegAppTableRecord
  2
ACAD_DSTYLE_DIMTALN
 70
     0
  0
APPID
  5
293
330
24B
100
AcDbSymbolTableRecord
100
AcDbRegAppTableRecord
  2
ACAD_PSEXT
 70
     0
  0
APPID
  5
42A
330
24B
100
AcDbSymbolTableRecord
100
AcDbRegAppTableRecord
  2
ACAD_MLEADERVER
 70
     0
  0
APPID
  5
532
330
24B
100
AcDbSymbolTableRecord
100
AcDbRegAppTableRecord
  2
ACAD_EXEMPT_FROM_CAD_STANDARDS
 70
     0
  0
APPID
  5
57F
330
24B
100
AcDbSymbolTableRecord
100
AcDbRegAppTableRecord
  2
AcAecLayerStandard
 70
     0
  0
APPID
  5
F109B8
330
24B
100
AcDbSymbolTableRecord
100
AcDbRegAppTableRecord
  2
MCAD_NO_VIS
 70
     0
  0
APPID
  5
F109B9
330
24B
100
AcDbSymbolTableRecord
100
AcDbRegAppTableRecord
  2
ACAD_TEMP_GRAPHIC
 70
     0
  0
APPID
  5
F109E2
330
24B
100
AcDbSymbolTableRecord
100
AcDbRegAppTableRecord
  2
AD_DRAW
 70
     0
  0
APPID
  5
F109E5
330
24B
100
AcDbSymbolTableRecord
100
AcDbRegAppTableRecord
  2
ACATTRIBSERVICES
 70
     0
  0
APPID
  5
F109FE
330
24B
100
AcDbSymbolTableRecord
100
AcDbRegAppTableRecord
  2
DESIGNERASSEMBLIES
 70
     0
  0
APPID
  5
F10A03
330
24B
100
AcDbSymbolTableRecord
100
AcDbRegAppTableRecord
  2
ACADM_DIM_EDIT
 70
     0
  0
APPID
  5
F10A04
330
24B
100
AcDbSymbolTableRecord
100
AcDbRegAppTableRecord
  2
AMDT_DM_ADJ
 70
     0
  0
APPID
  5
F10A1C
330
24B
100
AcDbSymbolTableRecord
100
AcDbRegAppTableRecord
  2
ACAD_DSTYLE_DIMBREAK
 70
     0
  0
APPID
  5
F10A3D
330
24B
100
AcDbSymbolTableRecord
100
AcDbRegAppTableRecord
  2
GENIUS_GENSCREG_15
 70
     0
  0
APPID
  5
F10A3E
330
24B
100
AcDbSymbolTableRecord
100
AcDbRegAppTableRecord
  2
GENIUS_GENODEF_13
 70
     0
  0
APPID
  5
F10A3F
330
24B
100
AcDbSymbolTableRecord
100
AcDbRegAppTableRecord
  2
GENIUS_GENOBJ-N-SDF_13
 70
     0
  0
APPID
  5
F10AE1
330
24B
100
AcDbSymbolTableRecord
100
AcDbRegAppTableRecord
  2
GENIUS_GENDTOL_13
 70
     0
  0
APPID
  5
F10AE2
330
24B
100
AcDbSymbolTableRecord
100
AcDbRegAppTableRecord
  2
ACAD_DSTYLE_DIMINSPECT
 70
     0
  0
APPID
  5
F10C2B
330
24B
100
AcDbSymbolTableRecord
100
AcDbRegAppTableRecord
  2
ACAD_DSTYLE_DIMARC_LENGTH_SYMBOL
 70
     0
  0
APPID
  5
F10C2C
330
24B
100
AcDbSymbolTableRecord
100
AcDbRegAppTableRecord
  2
ACAD_DSTYLE_DIM_LINETYPE
 70
     0
  0
APPID
  5
F10C2D
330
24B
100
AcDbSymbolTableRecord
100
AcDbRegAppTableRecord
  2
ACAD_DSTYLE_DIM_EXT1_LINETYPE
 70
     0
  0
APPID
  5
F10C2E
330
24B
100
AcDbSymbolTableRecord
100
AcDbRegAppTableRecord
  2
ACAD_DSTYLE_DIM_EXT2_LINETYPE
 70
     0
  0
ENDTAB
  0
TABLE
  2
DIMSTYLE
  5
24C
330
0
100
AcDbSymbolTable
 70
     9
100
AcDbDimStyleTable
 71
     2
340
27
340
269
  0
DIMSTYLE
105
269
330
24C
100
AcDbSymbolTableRecord
100
AcDbDimStyleTableRecord
  2
Standard
 70
     0
172
     1
174
     1
288
     1
340
253
342
23C
  0
DIMSTYLE
105
137
330
24C
100
AcDbSymbolTableRecord
100
AcDbDimStyleTableRecord
  2
Beschriftung
 70
     0
 41
2.5
 42
0.625
 44
1.25
 73
     0
 74
     0
 77
     1
140
2.5
147
0.625
172
     1
174
     1
271
     2
288
     1
340
253
342
23C
1001
AcadAnnotative
1000
AnnotativeData
1070
     1
1070
     1
1001
ACAD_DSTYLE_DIMJAG
1070
   388
1040
1.5
1001
ACAD_DSTYLE_DIMTALN
1070
   392
1070
     0
  0
DIMSTYLE
105
27
102
{ACAD_REACTORS
330
F1001C
330
F10021
330
F10026
330
F10008
330
F1000D
330
F10017
330
F10012
102
}
330
24C
100
AcDbSymbolTableRecord
100
AcDbDimStyleTableRecord
  2
BEM-ISBE
 70
     0
 41
2.5
 42
0.625
 44
1.25
 48
0.000000001
 71
     1
 73
     0
 74
     0
 77
     1
140
2.5
146
0.5
147
0.625
171
     3
172
     1
179
     3
271
     3
272
     3
274
     3
340
253
342
23C
1001
ACAD_DSTYLE_DIMJAG
1070
   388
1040
1.5
1001
ACAD_DSTYLE_DIMTALN
1070
   392
1070
     1
  0
DIMSTYLE
105
F10A1B
102
{ACAD_REACTORS
330
F10A0B
102
}
330
24C
100
AcDbSymbolTableRecord
100
AcDbDimStyleTableRecord
  2
AM_ANSI
 70
     0
  4
mm
 41
0.12
 42
0.05
 43
0.5
 44
0.1
 47
0.1
 48
0.1
 78
     7
 79
     2
140
0.12
141
0.0
146
0.71
147
0.06
176
   256
177
   256
178
   140
274
     4
284
     7
340
253
371
    -1
372
    -1
1001
ACAD_DSTYLE_DIMJAG
1070
   388
1040
1.5
1001
ACAD_DSTYLE_DIMBREAK
1070
   391
1040
0.125
1001
ACAD_DSTYLE_DIMARC_LENGTH_SYMBOL
1070
   379
1070
     1
1001
ACAD_DSTYLE_DIM_LINETYPE
1070
   380
1005
256
1001
ACAD_DSTYLE_DIM_EXT1_LINETYPE
1070
   381
1005
256
1001
ACAD_DSTYLE_DIM_EXT2_LINETYPE
1070
   382
1005
256
  0
DIMSTYLE
105
F10A28
330
24C
100
AcDbSymbolTableRecord
100
AcDbDimStyleTableRecord
  2
AM_ANSI$3
 70
     0
  4
mm
 41
0.12
 42
0.05
 43
0.5
 44
0.1
 47
0.1
 48
0.1
 78
     7
 79
     2
140
0.12
141
0.0
146
0.71
147
0.06
176
   256
177
   256
178
   140
274
     4
284
     7
288
     1
289
     0
340
253
371
    -1
372
    -1
1001
ACAD_DSTYLE_DIMBREAK
1070
   391
1040
0.125
1001
ACAD_DSTYLE_DIMJAG
1070
   388
1040
1.5
1001
ACAD_DSTYLE_DIMARC_LENGTH_SYMBOL
1070
   379
1070
     1
1001
ACAD_DSTYLE_DIM_LINETYPE
1070
   380
1005
256
1001
ACAD_DSTYLE_DIM_EXT1_LINETYPE
1070
   381
1005
256
1001
ACAD_DSTYLE_DIM_EXT2_LINETYPE
1070
   382
1005
256
  0
DIMSTYLE
105
F10A29
330
24C
100
AcDbSymbolTableRecord
100
AcDbDimStyleTableRecord
  2
AM_ANSI$4
 70
     0
  4
mm
 41
0.12
 42
0.05
 43
0.5
 44
0.1
 47
0.1
 48
0.1
 78
     7
 79
     2
140
0.12
141
0.0
146
0.71
147
0.06
176
   256
177
   256
178
   140
274
     4
284
     7
288
     1
289
     0
340
253
371
    -1
372
    -1
1001
ACAD_DSTYLE_DIMBREAK
1070
   391
1040
0.125
1001
ACAD_DSTYLE_DIMJAG
1070
   388
1040
1.5
1001
ACAD_DSTYLE_DIMARC_LENGTH_SYMBOL
1070
   379
1070
     1
1001
ACAD_DSTYLE_DIM_LINETYPE
1070
   380
1005
256
1001
ACAD_DSTYLE_DIM_EXT1_LINETYPE
1070
   381
1005
256
1001
ACAD_DSTYLE_DIM_EXT2_LINETYPE
1070
   382
1005
256
  0
DIMSTYLE
105
F10A2A
330
24C
100
AcDbSymbolTableRecord
100
AcDbDimStyleTableRecord
  2
AM_ANSI$7
 70
     0
  4
mm
 41
0.12
 42
0.05
 43
0.5
 44
0.1
 47
0.1
 48
0.1
 78
     7
 79
     2
140
0.12
141
0.0
146
0.71
147
0.06
176
   256
177
   256
178
   140
274
     4
284
     7
340
253
371
    -1
372
    -1
1001
ACAD_DSTYLE_DIMBREAK
1070
   391
1040
0.125
1001
ACAD_DSTYLE_DIMJAG
1070
   388
1040
1.5
1001
ACAD_DSTYLE_DIMARC_LENGTH_SYMBOL
1070
   379
1070
     1
1001
ACAD_DSTYLE_DIM_LINETYPE
1070
   380
1005
256
1001
ACAD_DSTYLE_DIM_EXT1_LINETYPE
1070
   381
1005
256
1001
ACAD_DSTYLE_DIM_EXT2_LINETYPE
1070
   382
1005
256
  0
DIMSTYLE
105
F10A2B
330
24C
100
AcDbSymbolTableRecord
100
AcDbDimStyleTableRecord
  2
AM_ANSI$SF
 70
     0
  4
mm
 41
0.12
 42
0.05
 43
0.5
 44
0.1
 47
0.1
 48
0.1
 75
     1
 76
     1
 78
     7
 79
     2
140
0.12
141
0.0
146
0.71
147
0.06
176
   256
177
   256
178
   140
274
     4
284
     7
340
253
371
    -1
372
    -1
1001
ACAD_DSTYLE_DIMBREAK
1070
   391
1040
0.125
1001
ACAD_DSTYLE_DIMJAG
1070
   388
1040
1.5
1001
ACAD_DSTYLE_DIMARC_LENGTH_SYMBOL
1070
   379
1070
     1
1001
ACAD_DSTYLE_DIM_LINETYPE
1070
   380
1005
256
1001
ACAD_DSTYLE_DIM_EXT1_LINETYPE
1070
   381
1005
256
1001
ACAD_DSTYLE_DIM_EXT2_LINETYPE
1070
   382
1005
256
  0
DIMSTYLE
105
F10A30
330
24C
100
AcDbSymbolTableRecord
100
AcDbDimStyleTableRecord
  2
AM_ANSI$SH
 70
     0
  4
mm
 41
0.12
 42
0.05
 43
0.5
 44
0.1
 47
0.1
 48
0.1
 75
     1
 76
     1
 78
     7
 79
     2
140
0.12
141
0.0
146
0.71
147
0.06
173
     1
176
   256
177
   256
178
   140
274
     4
284
     7
340
253
343
F10A2C
371
    -1
372
    -1
1001
ACAD_DSTYLE_DIMBREAK
1070
   391
1040
0.125
1001
ACAD_DSTYLE_DIMJAG
1070
   388
1040
1.5
1001
ACAD_DSTYLE_DIMARC_LENGTH_SYMBOL
1070
   379
1070
     1
1001
ACAD_DSTYLE_DIM_LINETYPE
1070
   380
1005
256
1001
ACAD_DSTYLE_DIM_EXT1_LINETYPE
1070
   381
1005
256
1001
ACAD_DSTYLE_DIM_EXT2_LINETYPE
1070
   382
1005
256
  0
ENDTAB
  0
TABLE
  2
BLOCK_RECORD
  5
243
330
0
100
AcDbSymbolTable
 70
    13
  0
BLOCK_RECORD
  5
261
330
243
100
AcDbSymbolTableRecord
100
AcDbBlockTableRecord
  2
*Model_Space
340
FD0
  0
BLOCK_RECORD
  5
25D
330
243
100
AcDbSymbolTableRecord
100
AcDbBlockTableRecord
  2
*Paper_Space
340
FD1
  0
BLOCK_RECORD
  5
265
330
243
100
AcDbSymbolTableRecord
100
AcDbBlockTableRecord
  2
*Paper_Space0
340
0
  0
BLOCK_RECORD
  5
23C
330
243
100
AcDbSymbolTableRecord
100
AcDbBlockTableRecord
  2
VDDIM_DEFAULT
340
0
102
{BLKREFS
331
F10ACF
331
F10AD0
331
F10B98
331
F10B99
331
F10BA2
331
F10BA3
331
F10BAB
331
F10BAC
331
F10BB4
331
F10BB5
331
F10BBD
331
F10BBE
331
F10BC6
331
F10BC7
331
F10BCF
331
F10BD0
102
}
  0
BLOCK_RECORD
  5
23E
330
243
100
AcDbSymbolTableRecord
100
AcDbBlockTableRecord
  2
VDDIM_NONE
340
0
  0
BLOCK_RECORD
  5
F10002
330
243
100
AcDbSymbolTableRecord
100
AcDbBlockTableRecord
  2
*D3
340
0
  0
BLOCK_RECORD
  5
F10011
330
243
100
AcDbSymbolTableRecord
100
AcDbBlockTableRecord
  2
*D4
340
0
  0
BLOCK_RECORD
  5
F1001B
330
243
100
AcDbSymbolTableRecord
100
AcDbBlockTableRecord
  2
*D5
340
0
  0
BLOCK_RECORD
  5
F10020
330
243
100
AcDbSymbolTableRecord
100
AcDbBlockTableRecord
  2
*D6
340
0
  0
BLOCK_RECORD
  5
F10025
330
243
100
AcDbSymbolTableRecord
100
AcDbBlockTableRecord
  2
*D7
340
0
  0
BLOCK_RECORD
  5
F10007
330
243
100
AcDbSymbolTableRecord
100
AcDbBlockTableRecord
  2
*D8
340
0
  0
BLOCK_RECORD
  5
F1000C
330
243
100
AcDbSymbolTableRecord
100
AcDbBlockTableRecord
  2
*D9
340
0
  0
BLOCK_RECORD
  5
F10016
330
243
100
AcDbSymbolTableRecord
100
AcDbBlockTableRecord
  2
*D10
340
0
  0
BLOCK_RECORD
  5
F10A2C
330
243
100
AcDbSymbolTableRecord
100
AcDbBlockTableRecord
  2
GENAXEH
340
0
  0
ENDTAB
  0
ENDSEC
  0
SECTION
  2
BLOCKS
  0
BLOCK
  5
262
330
261
100
AcDbEntity
  8
0
100
AcDbBlockBegin
  2
*Model_Space
 70
     0
 10
0.0
 20
0.0
 30
0.0
  3
*Model_Space
  1

  0
ENDBLK
  5
263
330
261
100
AcDbEntity
  8
0
100
AcDbBlockEnd
  0
BLOCK
  5
25E
330
25D
100
AcDbEntity
 67
     1
  8
0
100
AcDbBlockBegin
  2
*Paper_Space
 70
     0
 10
0.0
 20
0.0
 30
0.0
  3
*Paper_Space
  1

  0
ENDBLK
  5
25F
330
25D
100
AcDbEntity
 67
     1
  8
0
100
AcDbBlockEnd
  0
BLOCK
  5
266
330
265
100
AcDbEntity
  8
0
100
AcDbBlockBegin
  2
*Paper_Space0
 70
     0
 10
0.0
 20
0.0
 30
0.0
  3
*Paper_Space0
  1

  0
VIEWPORT
  5
296
102
{ACAD_XDICTIONARY
360
F10BEE
102
}
330
265
100
AcDbEntity
  8
0
 60
     1
100
AcDbViewport
 10
0.0
 20
0.0
 30
0.0
 40
10.0
 41
10.0
 69
     0
 12
0.0
 22
0.0
 13
0.0
 23
0.0
 14
1.0
 24
1.0
 15
0.0
 25
0.0
 16
0.0
 26
0.0
 36
1.0
 17
0.0
 27
0.0
 37
0.0
 42
0.0
 43
0.0
 44
0.0
 45
10.0
 50
0.0
 51
0.0000000000007958
 72
   100
 90
   163872
  1

281
     0
 71
     0
 74
     0
110
0.0
120
0.0
130
0.0
111
1.0
121
0.0
131
0.0
112
0.0
122
1.0
132
0.0
 79
     0
146
0.0
1001
VD_INVISIBLE_NOT_FOR_READ
1000
VD_INVISIBLE_NOT_FOR_READ
  0
VIEWPORT
  5
297
102
{ACAD_XDICTIONARY
360
F10BF0
102
}
330
265
100
AcDbEntity
  8
0
 60
     1
100
AcDbViewport
 10
0.0
 20
0.0
 30
0.0
 40
10.0
 41
10.0
 69
     0
 12
0.0
 22
0.0
 13
0.0
 23
0.0
 14
1.0
 24
1.0
 15
0.0
 25
0.0
 16
0.0
 26
0.0
 36
1.0
 17
0.0
 27
0.0
 37
0.0
 42
0.0
 43
0.0
 44
0.0
 45
10.0
 50
0.0
 51
0.0000000000007958
 72
   100
 90
   163872
  1

281
     0
 71
     0
 74
     0
110
0.0
120
0.0
130
0.0
111
1.0
121
0.0
131
0.0
112
0.0
122
1.0
132
0.0
 79
     0
146
0.0
1001
VD_INVISIBLE_NOT_FOR_READ
1000
VD_INVISIBLE_NOT_FOR_READ
  0
ENDBLK
  5
267
330
265
100
AcDbEntity
  8
0
100
AcDbBlockEnd
  0
BLOCK
  5
28B
330
23C
100
AcDbEntity
  8
0
100
AcDbBlockBegin
  2
VDDIM_DEFAULT
 70
     0
 10
0.0
 20
0.0
 30
0.0
  3
VDDIM_DEFAULT
  1

  0
LWPOLYLINE
  5
23D
330
23C
100
AcDbEntity
  8
0
  6
Continuous
 62
     0
100
AcDbPolyline
 90
        4
 70
     0
 43
0.0
 10
0.0
 20
0.0
 10
-1.0
 20
-0.1665
 10
-1.0
 20
0.1665
 10
0.0
 20
0.0
1001
VDEXTRAPARAM
1071
        1
1071
        0
1071
        0
1040
1.0
1000

1000

1040
0.0
1040
0.0
  0
HATCH
  5
292
330
23C
100
AcDbEntity
  8
0
  6
Continuous
 62
     0
100
AcDbHatch
 10
0.0
 20
0.0
 30
0.0
210
0.0
220
0.0
230
1.0
  2
SOLID
 70
     1
 71
     0
 91
        1
 92
        2
 72
     0
 73
     1
 93
        3
 10
0.0
 20
0.0
 10
-1.0
 20
-0.1665
 10
-1.0
 20
0.1665
 97
        0
 75
     0
 76
     1
 98
        1
 10
0.0
 20
0.0
1001
VDEXTRAPARAM
1071
        1
1071
        0
1071
        0
1040
1.0
1000

1000

1040
0.0
1040
0.0
1001
VD_TEMPHATCH
1000
VD_TEMPHATCH
  0
ENDBLK
  5
28C
330
23C
100
AcDbEntity
  8
0
100
AcDbBlockEnd
  0
BLOCK
  5
28D
330
23E
100
AcDbEntity
  8
0
100
AcDbBlockBegin
  2
VDDIM_NONE
 70
     0
 10
0.0
 20
0.0
 30
0.0
  3
VDDIM_NONE
  1

  0
ENDBLK
  5
28E
330
23E
100
AcDbEntity
  8
0
100
AcDbBlockEnd
  0
BLOCK
  5
F1002A
330
F10002
100
AcDbEntity
  8
0
100
AcDbBlockBegin
  2
*D3
 70
     1
 10
0.0
 20
0.0
 30
0.0
  3
*D3
  1

  0
LINE
  5
F10ACA
330
F10002
100
AcDbEntity
  8
Bemassung
 62
     0
370
    -2
100
AcDbLine
 10
-83.04845814977978
 20
-3.8727973568282
 30
0.0
 11
-83.04845814977978
 21
35.7522026431718
 31
0.0
  0
LINE
  5
F10ACB
330
F10002
100
AcDbEntity
  8
Bemassung
 62
     0
370
    -2
100
AcDbLine
 10
-82.89845814977979
 20
25.1272026431718
 30
0.0
 11
-82.89845814977979
 21
35.7522026431718
 31
0.0
  0
LINE
  5
F10ACC
330
F10002
100
AcDbEntity
  8
Bemassung
 62
     0
370
    -2
100
AcDbLine
 10
-85.54845814977978
 20
34.5022026431718
 30
0.0
 11
-88.04845814977978
 21
34.5022026431718
 31
0.0
  0
LINE
  5
F10ACD
330
F10002
100
AcDbEntity
  8
Bemassung
 62
     0
370
    -2
100
AcDbLine
 10
-80.39845814977979
 20
34.5022026431718
 30
0.0
 11
-70.13583877733778
 21
34.5022026431718
 31
0.0
  0
LINE
  5
F10ACE
330
F10002
100
AcDbEntity
  8
Bemassung
 62
     0
370
    -2
100
AcDbLine
 10
-83.04845814977978
 20
34.5022026431718
 30
0.0
 11
-82.89845814977979
 21
34.5022026431718
 31
0.0
  0
INSERT
  5
F10ACF
330
F10002
100
AcDbEntity
  8
Bemassung
 62
     0
370
    -2
100
AcDbBlockReference
  2
VDDIM_DEFAULT
 10
-83.04845814977978
 20
34.5022026431718
 30
0.0
 41
2.5
 42
2.5
 43
2.5
  0
INSERT
  5
F10AD0
330
F10002
100
AcDbEntity
  8
Bemassung
 62
     0
370
    -2
100
AcDbBlockReference
  2
VDDIM_DEFAULT
 10
-82.89845814977979
 20
34.5022026431718
 30
0.0
 41
2.5
 42
2.5
 43
2.5
 50
180.0
  0
MTEXT
  5
F10AD1
330
F10002
100
AcDbEntity
  8
Bemassung
 62
     0
100
AcDbMText
 10
-74.01714846355878
 20
35.1272026431718
 30
0.0
 40
2.5
 41
0.0
 71
     8
 72
     1
  1
\A1;0.15
 73
     1
 44
1.0
1001
ACAD
1000
MTEXTBEGIN
1070
    73
1070
     1
1070
    44
1040
1.0
1070
    74
1070
     0
1000
MTEXTEND
  0
POINT
  5
F10AD2
330
F10002
100
AcDbEntity
  8
Defpoints
 62
     0
100
AcDbPoint
 10
-83.04845814977978
 20
-4.4977973568282
 30
0.0
  0
POINT
  5
F10AD3
330
F10002
100
AcDbEntity
  8
Defpoints
 62
     0
100
AcDbPoint
 10
-82.89845814977979
 20
24.5022026431718
 30
0.0
  0
POINT
  5
F10AD4
330
F10002
100
AcDbEntity
  8
Defpoints
 62
     0
100
AcDbPoint
 10
-82.89845814977979
 20
34.5022026431718
 30
0.0
  0
ENDBLK
  5
F10033
330
F10002
100
AcDbEntity
  8
0
100
AcDbBlockEnd
  0
BLOCK
  5
F10034
330
F10011
100
AcDbEntity
  8
0
100
AcDbBlockBegin
  2
*D4
 70
     1
 10
0.0
 20
0.0
 30
0.0
  3
*D4
  1

  0
LINE
  5
F10BA8
330
F10011
100
AcDbEntity
  8
Bemassung
 62
     0
370
    -2
100
AcDbLine
 10
-5.109892333471492
 20
21.26119152571081
 30
0.0
 11
-5.109892333471491
 21
36.8861915257108
 31
0.0
  0
LINE
  5
F10BA9
330
F10011
100
AcDbEntity
  8
Bemassung
 62
     0
370
    -2
100
AcDbLine
 10
39.8901076665285
 20
20.5611915257108
 30
0.0
 11
39.8901076665285
 21
36.8861915257108
 31
0.0
  0
LINE
  5
F10BAA
330
F10011
100
AcDbEntity
  8
Bemassung
 62
     0
370
    -2
100
AcDbLine
 10
-2.609892333471491
 20
35.6361915257108
 30
0.0
 11
37.3901076665285
 21
35.6361915257108
 31
0.0
  0
INSERT
  5
F10BAB
330
F10011
100
AcDbEntity
  8
Bemassung
 62
     0
370
    -2
100
AcDbBlockReference
  2
VDDIM_DEFAULT
 10
-5.109892333471491
 20
35.6361915257108
 30
0.0
 41
2.5
 42
2.5
 43
2.5
 50
180.0
  0
INSERT
  5
F10BAC
330
F10011
100
AcDbEntity
  8
Bemassung
 62
     0
370
    -2
100
AcDbBlockReference
  2
VDDIM_DEFAULT
 10
39.8901076665285
 20
35.6361915257108
 30
0.0
 41
2.5
 42
2.5
 43
2.5
  0
MTEXT
  5
F10BAD
330
F10011
100
AcDbEntity
  8
Bemassung
 62
     0
100
AcDbMText
 10
17.3901076665285
 20
36.2611915257108
 30
0.0
 40
2.5
 41
0.0
 71
     8
 72
     1
  1
\A1;45
 73
     1
 44
1.0
1001
ACAD
1000
MTEXTBEGIN
1070
    73
1070
     1
1070
    44
1040
1.0
1070
    74
1070
     0
1000
MTEXTEND
  0
POINT
  5
F10BAE
330
F10011
100
AcDbEntity
  8
Defpoints
 62
     0
100
AcDbPoint
 10
-5.109892333471492
 20
20.63619152571081
 30
0.0
  0
POINT
  5
F10BAF
330
F10011
100
AcDbEntity
  8
Defpoints
 62
     0
100
AcDbPoint
 10
39.8901076665285
 20
19.9361915257108
 30
0.0
  0
POINT
  5
F10BB0
330
F10011
100
AcDbEntity
  8
Defpoints
 62
     0
100
AcDbPoint
 10
39.8901076665285
 20
35.6361915257108
 30
0.0
  0
ENDBLK
  5
F1003D
330
F10011
100
AcDbEntity
  8
0
100
AcDbBlockEnd
  0
BLOCK
  5
F1003E
330
F1001B
100
AcDbEntity
  8
0
100
AcDbBlockBegin
  2
*D5
 70
     1
 10
0.0
 20
0.0
 30
0.0
  3
*D5
  1

  0
LINE
  5
F10BBA
330
F1001B
100
AcDbEntity
  8
Bemassung
 62
     0
370
    -2
100
AcDbLine
 10
-21.10989233347149
 20
8.161191525710803
 30
0.0
 11
-21.10989233347149
 21
-7.613808474289198
 31
0.0
  0
LINE
  5
F10BBB
330
F1001B
100
AcDbEntity
  8
Bemassung
 62
     0
370
    -2
100
AcDbLine
 10
-43.10989233347148
 20
-7.738808474289196
 30
0.0
 11
-43.10989233347148
 21
-5.113808474289197
 31
0.0
  0
LINE
  5
F10BBC
330
F1001B
100
AcDbEntity
  8
Bemassung
 62
     0
370
    -2
100
AcDbLine
 10
-23.60989233347149
 20
-6.363808474289197
 30
0.0
 11
-40.60989233347148
 21
-6.363808474289197
 31
0.0
  0
INSERT
  5
F10BBD
330
F1001B
100
AcDbEntity
  8
Bemassung
 62
     0
370
    -2
100
AcDbBlockReference
  2
VDDIM_DEFAULT
 10
-21.10989233347149
 20
-6.363808474289197
 30
0.0
 41
2.5
 42
2.5
 43
2.5
  0
INSERT
  5
F10BBE
330
F1001B
100
AcDbEntity
  8
Bemassung
 62
     0
370
    -2
100
AcDbBlockReference
  2
VDDIM_DEFAULT
 10
-43.10989233347148
 20
-6.363808474289197
 30
0.0
 41
2.5
 42
2.5
 43
2.5
 50
180.0
  0
MTEXT
  5
F10BBF
330
F1001B
100
AcDbEntity
  8
Bemassung
 62
     0
100
AcDbMText
 10
-32.10989233347149
 20
-5.738808474289197
 30
0.0
 40
2.5
 41
0.0
 71
     8
 72
     1
  1
\A1;22
 73
     1
 44
1.0
1001
ACAD
1000
MTEXTBEGIN
1070
    73
1070
     1
1070
    44
1040
1.0
1070
    74
1070
     0
1000
MTEXTEND
  0
POINT
  5
F10BC0
330
F1001B
100
AcDbEntity
  8
Defpoints
 62
     0
100
AcDbPoint
 10
-21.10989233347149
 20
8.786191525710803
 30
0.0
  0
POINT
  5
F10BC1
330
F1001B
100
AcDbEntity
  8
Defpoints
 62
     0
100
AcDbPoint
 10
-43.10989233347148
 20
-8.363808474289196
 30
0.0
  0
POINT
  5
F10BC2
330
F1001B
100
AcDbEntity
  8
Defpoints
 62
     0
100
AcDbPoint
 10
-43.10989233347148
 20
-6.363808474289197
 30
0.0
  0
ENDBLK
  5
F10047
330
F1001B
100
AcDbEntity
  8
0
100
AcDbBlockEnd
  0
BLOCK
  5
F10048
330
F10020
100
AcDbEntity
  8
0
100
AcDbBlockBegin
  2
*D6
 70
     1
 10
0.0
 20
0.0
 30
0.0
  3
*D6
  1

  0
LINE
  5
F10BC3
330
F10020
100
AcDbEntity
  8
Bemassung
 62
     0
370
    -2
100
AcDbLine
 10
39.8901076665285
 20
20.5611915257108
 30
0.0
 11
39.8901076665285
 21
61.8861915257108
 31
0.0
  0
LINE
  5
F10BC4
330
F10020
100
AcDbEntity
  8
Bemassung
 62
     0
370
    -2
100
AcDbLine
 10
-43.10989233347148
 20
-7.738808474289196
 30
0.0
 11
-43.10989233347148
 21
61.8861915257108
 31
0.0
  0
LINE
  5
F10BC5
330
F10020
100
AcDbEntity
  8
Bemassung
 62
     0
370
    -2
100
AcDbLine
 10
37.3901076665285
 20
60.6361915257108
 30
0.0
 11
-40.60989233347148
 21
60.6361915257108
 31
0.0
  0
INSERT
  5
F10BC6
330
F10020
100
AcDbEntity
  8
Bemassung
 62
     0
370
    -2
100
AcDbBlockReference
  2
VDDIM_DEFAULT
 10
39.8901076665285
 20
60.6361915257108
 30
0.0
 41
2.5
 42
2.5
 43
2.5
  0
INSERT
  5
F10BC7
330
F10020
100
AcDbEntity
  8
Bemassung
 62
     0
370
    -2
100
AcDbBlockReference
  2
VDDIM_DEFAULT
 10
-43.10989233347148
 20
60.6361915257108
 30
0.0
 41
2.5
 42
2.5
 43
2.5
 50
180.0
  0
MTEXT
  5
F10BC8
330
F10020
100
AcDbEntity
  8
Bemassung
 62
     0
100
AcDbMText
 10
-1.609892333471488
 20
61.2611915257108
 30
0.0
 40
2.5
 41
0.0
 71
     8
 72
     1
  1
\A1;83
 73
     1
 44
1.0
1001
ACAD
1000
MTEXTBEGIN
1070
    73
1070
     1
1070
    44
1040
1.0
1070
    74
1070
     0
1000
MTEXTEND
  0
POINT
  5
F10BC9
330
F10020
100
AcDbEntity
  8
Defpoints
 62
     0
100
AcDbPoint
 10
39.8901076665285
 20
19.9361915257108
 30
0.0
  0
POINT
  5
F10BCA
330
F10020
100
AcDbEntity
  8
Defpoints
 62
     0
100
AcDbPoint
 10
-43.10989233347148
 20
-8.363808474289196
 30
0.0
  0
POINT
  5
F10BCB
330
F10020
100
AcDbEntity
  8
Defpoints
 62
     0
100
AcDbPoint
 10
-43.10989233347148
 20
60.6361915257108
 30
0.0
  0
ENDBLK
  5
F10051
330
F10020
100
AcDbEntity
  8
0
100
AcDbBlockEnd
  0
BLOCK
  5
F10052
330
F10025
100
AcDbEntity
  8
0
100
AcDbBlockBegin
  2
*D7
 70
     1
 10
0.0
 20
0.0
 30
0.0
  3
*D7
  1

  0
LINE
  5
F10BCC
330
F10025
100
AcDbEntity
  8
Bemassung
 62
     0
370
    -2
100
AcDbLine
 10
-43.10989233347148
 20
8.161191525710803
 30
0.0
 11
-43.10989233347148
 21
-20.3120463597517
 31
0.0
  0
LINE
  5
F10BCD
330
F10025
100
AcDbEntity
  8
Bemassung
 62
     0
370
    -2
100
AcDbLine
 10
-9.109892333471492
 20
8.161191525710803
 30
0.0
 11
-9.109892333471494
 21
-20.3120463597517
 31
0.0
  0
LINE
  5
F10BCE
330
F10025
100
AcDbEntity
  8
Bemassung
 62
     0
370
    -2
100
AcDbLine
 10
-40.60989233347148
 20
-19.0620463597517
 30
0.0
 11
-11.60989233347149
 21
-19.0620463597517
 31
0.0
  0
INSERT
  5
F10BCF
330
F10025
100
AcDbEntity
  8
Bemassung
 62
     0
370
    -2
100
AcDbBlockReference
  2
VDDIM_DEFAULT
 10
-43.10989233347148
 20
-19.0620463597517
 30
0.0
 41
2.5
 42
2.5
 43
2.5
 50
180.0
  0
INSERT
  5
F10BD0
330
F10025
100
AcDbEntity
  8
Bemassung
 62
     0
370
    -2
100
AcDbBlockReference
  2
VDDIM_DEFAULT
 10
-9.109892333471494
 20
-19.0620463597517
 30
0.0
 41
2.5
 42
2.5
 43
2.5
  0
MTEXT
  5
F10BD1
330
F10025
100
AcDbEntity
  8
Bemassung
 62
     0
100
AcDbMText
 10
-26.10989233347149
 20
-18.4370463597517
 30
0.0
 40
2.5
 41
0.0
 71
     8
 72
     1
  1
\A1;34
 73
     1
 44
1.0
1001
ACAD
1000
MTEXTBEGIN
1070
    73
1070
     1
1070
    44
1040
1.0
1070
    74
1070
     0
1000
MTEXTEND
  0
POINT
  5
F10BD2
330
F10025
100
AcDbEntity
  8
Defpoints
 62
     0
100
AcDbPoint
 10
-43.10989233347148
 20
8.786191525710803
 30
0.0
  0
POINT
  5
F10BD3
330
F10025
100
AcDbEntity
  8
Defpoints
 62
     0
100
AcDbPoint
 10
-9.109892333471492
 20
8.786191525710803
 30
0.0
  0
POINT
  5
F10BD4
330
F10025
100
AcDbEntity
  8
Defpoints
 62
     0
100
AcDbPoint
 10
-9.109892333471494
 20
-19.0620463597517
 30
0.0
  0
ENDBLK
  5
F1005B
330
F10025
100
AcDbEntity
  8
0
100
AcDbBlockEnd
  0
BLOCK
  5
F1005C
330
F10007
100
AcDbEntity
  8
0
100
AcDbBlockBegin
  2
*D8
 70
     1
 10
0.0
 20
0.0
 30
0.0
  3
*D8
  1

  0
LINE
  5
F10B95
330
F10007
100
AcDbEntity
  8
Bemassung
 62
     0
370
    -2
100
AcDbLine
 10
-43.58489233347149
 20
8.636191525710803
 30
0.0
 11
-56.5783682629442
 21
8.636191525710806
 31
0.0
  0
LINE
  5
F10B96
330
F10007
100
AcDbEntity
  8
Bemassung
 62
     0
370
    -2
100
AcDbLine
 10
-43.58489233347149
 20
20.63619152571081
 30
0.0
 11
-56.57836826294419
 21
20.63619152571081
 31
0.0
  0
LINE
  5
F10B97
330
F10007
100
AcDbEntity
  8
Bemassung
 62
     0
370
    -2
100
AcDbLine
 10
-55.3283682629442
 20
11.13619152571081
 30
0.0
 11
-55.32836826294419
 21
18.13619152571081
 31
0.0
  0
INSERT
  5
F10B98
330
F10007
100
AcDbEntity
  8
Bemassung
 62
     0
370
    -2
100
AcDbBlockReference
  2
VDDIM_DEFAULT
 10
-55.3283682629442
 20
8.636191525710806
 30
0.0
 41
2.5
 42
2.5
 43
2.5
 50
270.0
  0
INSERT
  5
F10B99
330
F10007
100
AcDbEntity
  8
Bemassung
 62
     0
370
    -2
100
AcDbBlockReference
  2
VDDIM_DEFAULT
 10
-55.32836826294419
 20
20.63619152571081
 30
0.0
 41
2.5
 42
2.5
 43
2.5
 50
90.0
  0
MTEXT
  5
F10B9A
330
F10007
100
AcDbEntity
  8
Bemassung
 62
     0
100
AcDbMText
 10
-55.9533682629442
 20
14.6361915257108
 30
0.0
 40
2.5
 41
0.0
 71
     8
 72
     1
  1
\A1;%%c12
 11
0.0000000000000001
 21
1.0
 31
0.0
 73
     1
 44
1.0
1001
ACAD
1000
MTEXTBEGIN
1070
    73
1070
     1
1070
    44
1040
1.0
1070
    74
1070
     0
1000
MTEXTEND
  0
POINT
  5
F10B9B
330
F10007
100
AcDbEntity
  8
Defpoints
 62
     0
100
AcDbPoint
 10
-42.95989233347149
 20
8.636191525710803
 30
0.0
  0
POINT
  5
F10B9C
330
F10007
100
AcDbEntity
  8
Defpoints
 62
     0
100
AcDbPoint
 10
-42.95989233347149
 20
20.63619152571081
 30
0.0
  0
POINT
  5
F10B9D
330
F10007
100
AcDbEntity
  8
Defpoints
 62
     0
100
AcDbPoint
 10
-55.32836826294419
 20
20.63619152571081
 30
0.0
  0
ENDBLK
  5
F10065
330
F10007
100
AcDbEntity
  8
0
100
AcDbBlockEnd
  0
BLOCK
  5
F10066
330
F1000C
100
AcDbEntity
  8
0
100
AcDbBlockBegin
  2
*D9
 70
     1
 10
0.0
 20
0.0
 30
0.0
  3
*D9
  1

  0
LINE
  5
F10B9E
330
F1000C
100
AcDbEntity
  8
Bemassung
 62
     0
370
    -2
100
AcDbLine
 10
-14.21066325858159
 20
8.786191525710803
 30
0.0
 11
-15.61376549739264
 21
8.786191525710803
 31
0.0
  0
LINE
  5
F10B9F
330
F1000C
100
AcDbEntity
  8
Bemassung
 62
     0
370
    -2
100
AcDbLine
 10
-14.21066325858159
 20
20.4861915257108
 30
0.0
 11
-15.61376549739264
 21
20.4861915257108
 31
0.0
  0
LINE
  5
F10BA0
330
F1000C
100
AcDbEntity
  8
Bemassung
 62
     0
370
    -2
100
AcDbLine
 10
-14.36376549739264
 20
11.2861915257108
 30
0.0
 11
-14.36376549739264
 21
17.9861915257108
 31
0.0
  0
LINE
  5
F10BA1
330
F1000C
100
AcDbEntity
  8
Bemassung
 62
     0
370
    -2
100
AcDbLine
 10
-14.36376549739264
 20
20.4861915257108
 30
0.0
 11
-14.36376549739263
 21
35.00597209979343
 31
0.0
  0
INSERT
  5
F10BA2
330
F1000C
100
AcDbEntity
  8
Bemassung
 62
     0
370
    -2
100
AcDbBlockReference
  2
VDDIM_DEFAULT
 10
-14.36376549739264
 20
8.786191525710803
 30
0.0
 41
2.5
 42
2.5
 43
2.5
 50
270.0
  0
INSERT
  5
F10BA3
330
F1000C
100
AcDbEntity
  8
Bemassung
 62
     0
370
    -2
100
AcDbBlockReference
  2
VDDIM_DEFAULT
 10
-14.36376549739264
 20
20.4861915257108
 30
0.0
 41
2.5
 42
2.5
 43
2.5
 50
90.0
  0
MTEXT
  5
F10BA4
330
F1000C
100
AcDbEntity
  8
Bemassung
 62
     0
100
AcDbMText
 10
-14.98876549739264
 20
29.77404849815632
 30
0.0
 40
2.5
 41
0.0
 71
     8
 72
     1
  1
\A1;%%c11.7
 11
0.0000000000000001
 21
1.0
 31
0.0
 73
     1
 44
1.0
1001
ACAD
1000
MTEXTBEGIN
1070
    73
1070
     1
1070
    44
1040
1.0
1070
    74
1070
     0
1000
MTEXTEND
  0
POINT
  5
F10BA5
330
F1000C
100
AcDbEntity
  8
Defpoints
 62
     0
100
AcDbPoint
 10
-13.58566325858159
 20
8.786191525710803
 30
0.0
  0
POINT
  5
F10BA6
330
F1000C
100
AcDbEntity
  8
Defpoints
 62
     0
100
AcDbPoint
 10
-13.58566325858159
 20
20.4861915257108
 30
0.0
  0
POINT
  5
F10BA7
330
F1000C
100
AcDbEntity
  8
Defpoints
 62
     0
100
AcDbPoint
 10
-14.36376549739264
 20
20.4861915257108
 30
0.0
  0
ENDBLK
  5
F1006F
330
F1000C
100
AcDbEntity
  8
0
100
AcDbBlockEnd
  0
BLOCK
  5
F10070
330
F10016
100
AcDbEntity
  8
0
100
AcDbBlockBegin
  2
*D10
 70
     1
 10
0.0
 20
0.0
 30
0.0
  3
*D10
  1

  0
LINE
  5
F10BB1
330
F10016
100
AcDbEntity
  8
Bemassung
 62
     0
370
    -2
100
AcDbLine
 10
39.8151076665285
 20
8.636191525710803
 30
0.0
 11
51.1401076665285
 21
8.636191525710801
 31
0.0
  0
LINE
  5
F10BB2
330
F10016
100
AcDbEntity
  8
Bemassung
 62
     0
370
    -2
100
AcDbLine
 10
39.8151076665285
 20
20.63619152571081
 30
0.0
 11
51.1401076665285
 21
20.6361915257108
 31
0.0
  0
LINE
  5
F10BB3
330
F10016
100
AcDbEntity
  8
Bemassung
 62
     0
370
    -2
100
AcDbLine
 10
49.8901076665285
 20
11.1361915257108
 30
0.0
 11
49.8901076665285
 21
18.1361915257108
 31
0.0
  0
INSERT
  5
F10BB4
330
F10016
100
AcDbEntity
  8
Bemassung
 62
     0
370
    -2
100
AcDbBlockReference
  2
VDDIM_DEFAULT
 10
49.8901076665285
 20
8.636191525710801
 30
0.0
 41
2.5
 42
2.5
 43
2.5
 50
270.0
  0
INSERT
  5
F10BB5
330
F10016
100
AcDbEntity
  8
Bemassung
 62
     0
370
    -2
100
AcDbBlockReference
  2
VDDIM_DEFAULT
 10
49.8901076665285
 20
20.6361915257108
 30
0.0
 41
2.5
 42
2.5
 43
2.5
 50
90.0
  0
MTEXT
  5
F10BB6
330
F10016
100
AcDbEntity
  8
Bemassung
 62
     0
100
AcDbMText
 10
49.2651076665285
 20
14.63619152571081
 30
0.0
 40
2.5
 41
0.0
 71
     8
 72
     1
  1
\A1;%%C12
 11
0.0000000000000001
 21
1.0
 31
0.0
 73
     1
 44
1.0
1001
ACAD
1000
MTEXTBEGIN
1070
    73
1070
     1
1070
    44
1040
1.0
1070
    74
1070
     0
1000
MTEXTEND
  0
POINT
  5
F10BB7
330
F10016
100
AcDbEntity
  8
Defpoints
 62
     0
100
AcDbPoint
 10
39.1901076665285
 20
8.636191525710803
 30
0.0
  0
POINT
  5
F10BB8
330
F10016
100
AcDbEntity
  8
Defpoints
 62
     0
100
AcDbPoint
 10
39.1901076665285
 20
20.63619152571081
 30
0.0
  0
POINT
  5
F10BB9
330
F10016
100
AcDbEntity
  8
Defpoints
 62
     0
100
AcDbPoint
 10
49.8901076665285
 20
20.6361915257108
 30
0.0
  0
ENDBLK
  5
F10079
330
F10016
100
AcDbEntity
  8
0
100
AcDbBlockEnd
  0
BLOCK
  5
F10A2E
330
F10A2C
100
AcDbEntity
  8
0
100
AcDbBlockBegin
  2
GENAXEH
 70
     0
 10
0.0
 20
0.0
 30
0.0
  3
GENAXEH
  1

  0
LINE
  5
F10A2D
330
F10A2C
100
AcDbEntity
  8
0
100
AcDbLine
 10
-1.0
 20
0.0
 30
0.0
 11
1.0
 21
0.0
 31
0.0
  0
ENDBLK
  5
F10A2F
330
F10A2C
100
AcDbEntity
  8
0
100
AcDbBlockEnd
  0
ENDSEC
  0
SECTION
  2
ENTITIES
  0
DIMENSION
  5
F10012
330
261
100
AcDbEntity
  8
Bemassung
100
AcDbDimension
  2
*D4
 10
39.8901076665285
 20
35.6361915257108
 30
0.0
 11
17.3901076665285
 21
37.53250803321421
 31
0.0
 70
    32
  1
<>
 71
     8
 42
44.99999999999999
  3
BEM-ISBE
100
AcDbAlignedDimension
 13
-5.109892333471492
 23
20.63619152571081
 33
0.0
 14
39.8901076665285
 24
19.9361915257108
 34
0.0
100
AcDbRotatedDimension
1001
ACAD
1000
DSTYLE
1002
{
1070
   147
1040
0.625
1070
    72
1070
     0
1070
    71
1070
     0
1070
   284
1070
     8
1070
    78
1070
     8
1070
   144
1040
1.0
1070
    47
1040
2.0
1070
    48
1040
0.0
1002
}
  0
DIMENSION
  5
F1001C
330
261
100
AcDbEntity
  8
Bemassung
100
AcDbDimension
  2
*D5
 10
-43.10989233347148
 20
-6.363808474289197
 30
0.0
 11
-32.10989233347149
 21
-4.483692512488379
 31
0.0
 70
    32
  1
<>
 71
     8
 42
21.99999999999999
  3
BEM-ISBE
100
AcDbAlignedDimension
 13
-21.10989233347149
 23
8.786191525710803
 33
0.0
 14
-43.10989233347148
 24
-8.363808474289196
 34
0.0
100
AcDbRotatedDimension
1001
ACAD
1000
DSTYLE
1002
{
1070
   147
1040
0.625
1070
    72
1070
     0
1070
    71
1070
     0
1070
   284
1070
     8
1070
    78
1070
     8
1070
   144
1040
1.0
1070
    47
1040
1.5
1070
    48
1040
0.0
1002
}
  0
DIMENSION
  5
F10021
330
261
100
AcDbEntity
  8
Bemassung
100
AcDbDimension
  2
*D6
 10
-43.10989233347148
 20
60.6361915257108
 30
0.0
 11
-1.609892333471488
 21
62.53847665531516
 31
0.0
 70
    32
  1
<>
 71
     8
 42
82.99999999999998
  3
BEM-ISBE
100
AcDbAlignedDimension
 13
39.8901076665285
 23
19.9361915257108
 33
0.0
 14
-43.10989233347148
 24
-8.363808474289196
 34
0.0
100
AcDbRotatedDimension
1001
ACAD
1000
DSTYLE
1002
{
1070
   147
1040
0.625
1070
    72
1070
     0
1070
    71
1070
     0
1070
   284
1070
     8
1070
    78
1070
     8
1070
   144
1040
1.0
1070
    47
1040
2.0
1070
    48
1040
0.0
1002
}
  0
DIMENSION
  5
F10026
330
261
100
AcDbEntity
  8
Bemassung
100
AcDbDimension
  2
*D7
 10
-9.109892333471494
 20
-19.0620463597517
 30
0.0
 11
-26.10989233347149
 21
-17.15976123014733
 31
0.0
 70
    32
  1
<>
 71
     8
 42
33.99999999999999
  3
BEM-ISBE
100
AcDbAlignedDimension
 13
-43.10989233347148
 23
8.786191525710803
 33
0.0
 14
-9.109892333471492
 24
8.786191525710803
 34
0.0
100
AcDbRotatedDimension
1001
ACAD
1000
DSTYLE
1002
{
1070
   284
1070
     8
1070
    78
1070
     8
1070
   144
1040
1.0
1070
   147
1040
0.625
1070
    72
1070
     0
1070
    71
1070
     0
1002
}
  0
DIMENSION
  5
F10008
330
261
100
AcDbEntity
  8
Bemassung
100
AcDbDimension
  2
*D8
 10
-55.32836826294419
 20
20.63619152571081
 30
0.0
 11
-57.29971887685961
 21
14.6361915257108
 31
0.0
 70
    32
  1
%%c<>
 71
     8
 42
12.0
  3
BEM-ISBE
100
AcDbAlignedDimension
 13
-42.95989233347149
 23
8.636191525710803
 33
0.0
 14
-42.95989233347149
 24
20.63619152571081
 34
0.0
 50
90.0
100
AcDbRotatedDimension
1001
ACAD
1000
DSTYLE
1002
{
1070
   147
1040
0.625
1070
    72
1070
     0
1070
    71
1070
     0
1070
   284
1070
     8
1070
    78
1070
     8
1070
   144
1040
1.0
1070
    47
1040
0.0
1070
    48
1040
-0.07
1002
}
  0
DIMENSION
  5
F1000D
330
261
100
AcDbEntity
  8
Bemassung
100
AcDbDimension
  2
*D9
 10
-14.36376549739264
 20
20.4861915257108
 30
0.0
 11
-14.36376549739264
 21
29.77404849815632
 31
0.0
 70
   160
  1
%%c<>
 71
     8
 42
11.69999999999999
  3
BEM-ISBE
100
AcDbAlignedDimension
 13
-13.58566325858159
 23
8.786191525710803
 33
0.0
 14
-13.58566325858159
 24
20.4861915257108
 34
0.0
 50
90.0
100
AcDbRotatedDimension
1001
ACAD
1000
DSTYLE
1002
{
1070
   147
1040
0.625
1070
    72
1070
     0
1070
    71
1070
     0
1070
   284
1070
     8
1070
    78
1070
     8
1070
   144
1040
1.0
1070
    47
1040
0.05
1070
    48
1040
-0.05
1002
}
  0
DIMENSION
  5
F10017
330
261
100
AcDbEntity
  8
Bemassung
100
AcDbDimension
  2
*D10
 10
49.8901076665285
 20
20.6361915257108
 30
0.0
 11
47.91875705261308
 21
14.63619152571081
 31
0.0
 70
    32
  1
%%C<>
 71
     8
 42
12.0
  3
BEM-ISBE
100
AcDbAlignedDimension
 13
39.1901076665285
 23
8.636191525710803
 33
0.0
 14
39.1901076665285
 24
20.63619152571081
 34
0.0
 50
90.0
100
AcDbRotatedDimension
1001
ACAD
1000
DSTYLE
1002
{
1070
    71
1070
     0
1070
    78
1070
     8
1002
}
1001
ACAD_DSTYLE_DIMINSPECT
1070
   396
1000
100%
1070
   395
1000

1070
   394
1070
    33
1070
   393
1070
     0
  0
LINE
  5
F1007A
330
261
100
AcDbEntity
  8
Geo
100
AcDbLine
 10
-43.10989233347148
 20
14.6361915257108
 30
0.0
 11
-43.10989233347148
 21
20.4861915257108
 31
0.0
  0
LINE
  5
F1007C
330
261
100
AcDbEntity
  8
Geo
100
AcDbLine
 10
-43.10989233347148
 20
20.4861915257108
 30
0.0
 11
-42.95989233347149
 21
20.63619152571081
 31
0.0
  0
LINE
  5
F1007E
330
261
100
AcDbEntity
  8
Geo
100
AcDbLine
 10
-42.95989233347149
 20
20.63619152571081
 30
0.0
 11
-21.10989233347149
 21
20.63619152571081
 31
0.0
  0
LINE
  5
F10080
330
261
100
AcDbEntity
  8
Geo
100
AcDbLine
 10
-21.10989233347149
 20
20.63619152571081
 30
0.0
 11
-21.10989233347149
 21
20.4861915257108
 31
0.0
  0
LINE
  5
F10082
330
261
100
AcDbEntity
  8
Geo
100
AcDbLine
 10
-21.10989233347149
 20
20.4861915257108
 30
0.0
 11
-9.109892333471492
 21
20.4861915257108
 31
0.0
  0
LINE
  5
F10084
330
261
100
AcDbEntity
  8
Geo
100
AcDbLine
 10
-5.109892333471492
 20
20.4861915257108
 30
0.0
 11
-5.109892333471492
 21
20.63619152571081
 31
0.0
  0
LINE
  5
F10086
330
261
100
AcDbEntity
  8
Geo
100
AcDbLine
 10
-9.109892333471492
 20
20.63619152571081
 30
0.0
 11
11.7901076665285
 21
20.63619152571081
 31
0.0
  0
LINE
  5
F10088
330
261
100
AcDbEntity
  8
Geo
100
AcDbLine
 10
11.7901076665285
 20
20.63619152571081
 30
0.0
 11
13.3901076665285
 21
19.0361915257108
 31
0.0
  0
LINE
  5
F1008A
330
261
100
AcDbEntity
  8
Geo
100
AcDbLine
 10
13.3901076665285
 20
19.0361915257108
 30
0.0
 11
21.3901076665285
 21
19.0361915257108
 31
0.0
  0
LINE
  5
F1008C
330
261
100
AcDbEntity
  8
Geo
100
AcDbLine
 10
21.3901076665285
 20
19.0361915257108
 30
0.0
 11
22.9901076665285
 21
20.63619152571081
 31
0.0
  0
LINE
  5
F1008E
330
261
100
AcDbEntity
  8
Geo
100
AcDbLine
 10
22.9901076665285
 20
20.63619152571081
 30
0.0
 11
39.1901076665285
 21
20.63619152571081
 31
0.0
  0
LINE
  5
F10090
330
261
100
AcDbEntity
  8
Geo
100
AcDbLine
 10
39.1901076665285
 20
20.63619152571081
 30
0.0
 11
39.8901076665285
 21
19.9361915257108
 31
0.0
  0
LINE
  5
F10092
330
261
100
AcDbEntity
  8
Geo
100
AcDbLine
 10
-38.30989233347149
 20
20.6361313277968
 30
0.0
 11
-38.2098923334715
 21
20.6358243987991
 31
0.0
  0
LINE
  5
F10094
330
261
100
AcDbEntity
  8
Geo
100
AcDbLine
 10
-38.2098923334715
 20
20.6358243987991
 30
0.0
 11
-38.10989233347149
 21
20.634068280343
 31
0.0
  0
LINE
  5
F10096
330
261
100
AcDbEntity
  8
Geo
100
AcDbLine
 10
-38.10989233347149
 20
20.634068280343
 30
0.0
 11
-38.00989233347149
 21
20.63086339661261
 31
0.0
  0
LINE
  5
F10098
330
261
100
AcDbEntity
  8
Geo
100
AcDbLine
 10
-38.00989233347149
 20
20.63086339661261
 30
0.0
 11
-37.9098923334715
 21
20.62621052173581
 31
0.0
  0
LINE
  5
F1009A
330
261
100
AcDbEntity
  8
Geo
100
AcDbLine
 10
-37.9098923334715
 20
20.62621052173581
 30
0.0
 11
-37.80989233347149
 21
20.6201107795976
 31
0.0
  0
LINE
  5
F1009C
330
261
100
AcDbEntity
  8
Geo
100
AcDbLine
 10
-37.80989233347149
 20
20.6201107795976
 30
0.0
 11
-37.7098923334715
 21
20.6125656435685
 31
0.0
  0
LINE
  5
F1009E
330
261
100
AcDbEntity
  8
Geo
100
AcDbLine
 10
-37.7098923334715
 20
20.6125656435685
 30
0.0
 11
-37.60989233347149
 21
20.6035769361486
 31
0.0
  0
LINE
  5
F100A0
330
261
100
AcDbEntity
  8
Geo
100
AcDbLine
 10
-37.60989233347149
 20
20.6035769361486
 30
0.0
 11
-37.50989233347149
 21
20.5931468285275
 31
0.0
  0
LINE
  5
F100A2
330
261
100
AcDbEntity
  8
Geo
100
AcDbLine
 10
-37.50989233347149
 20
20.5931468285275
 30
0.0
 11
-37.4098923334715
 21
20.5812778400595
 31
0.0
  0
LINE
  5
F100A4
330
261
100
AcDbEntity
  8
Geo
100
AcDbLine
 10
-37.4098923334715
 20
20.5812778400595
 30
0.0
 11
-37.30989233347149
 21
20.5679728376558
 31
0.0
  0
LINE
  5
F100A6
330
261
100
AcDbEntity
  8
Geo
100
AcDbLine
 10
-37.30989233347149
 20
20.5679728376558
 30
0.0
 11
-37.20989233347149
 21
20.553235035091
 31
0.0
  0
LINE
  5
F100A8
330
261
100
AcDbEntity
  8
Geo
100
AcDbLine
 10
-37.20989233347149
 20
20.553235035091
 30
0.0
 11
-37.10989233347149
 21
20.5370679922277
 31
0.0
  0
LINE
  5
F100AA
330
261
100
AcDbEntity
  8
Geo
100
AcDbLine
 10
-37.10989233347149
 20
20.5370679922277
 30
0.0
 11
-37.00989233347149
 21
20.51947561415611
 31
0.0
  0
LINE
  5
F100AC
330
261
100
AcDbEntity
  8
Geo
100
AcDbLine
 10
-37.00989233347149
 20
20.51947561415611
 30
0.0
 11
-36.9098923334715
 21
20.5004621502512
 31
0.0
  0
LINE
  5
F100AE
330
261
100
AcDbEntity
  8
Geo
100
AcDbLine
 10
-36.9098923334715
 20
20.5004621502512
 30
0.0
 11
-36.80989233347149
 21
20.4800321931458
 31
0.0
  0
LINE
  5
F100B0
330
261
100
AcDbEntity
  8
Geo
100
AcDbLine
 10
-36.80989233347149
 20
20.4800321931458
 30
0.0
 11
-36.7098923334715
 21
20.4581906776217
 31
0.0
  0
LINE
  5
F100B2
330
261
100
AcDbEntity
  8
Geo
100
AcDbLine
 10
-36.7098923334715
 20
20.4581906776217
 30
0.0
 11
-36.60989233347148
 21
20.4349428794172
 31
0.0
  0
LINE
  5
F100B4
330
261
100
AcDbEntity
  8
Geo
100
AcDbLine
 10
-36.60989233347148
 20
20.4349428794172
 30
0.0
 11
-36.50989233347149
 21
20.4102944139534
 31
0.0
  0
LINE
  5
F100B6
330
261
100
AcDbEntity
  8
Geo
100
AcDbLine
 10
-36.50989233347149
 20
20.4102944139534
 30
0.0
 11
-36.4098923334715
 21
20.38425123497731
 31
0.0
  0
LINE
  5
F100B8
330
261
100
AcDbEntity
  8
Geo
100
AcDbLine
 10
-36.4098923334715
 20
20.38425123497731
 30
0.0
 11
-36.30989233347149
 21
20.35681963312381
 31
0.0
  0
LINE
  5
F100BA
330
261
100
AcDbEntity
  8
Geo
100
AcDbLine
 10
-36.30989233347149
 20
20.35681963312381
 30
0.0
 11
-36.20989233347149
 21
20.32800623439641
 31
0.0
  0
LINE
  5
F100BC
330
261
100
AcDbEntity
  8
Geo
100
AcDbLine
 10
-36.20989233347149
 20
20.32800623439641
 30
0.0
 11
-36.10989233347149
 21
20.29781799856661
 31
0.0
  0
LINE
  5
F100BE
330
261
100
AcDbEntity
  8
Geo
100
AcDbLine
 10
-36.10989233347149
 20
20.29781799856661
 30
0.0
 11
-36.00989233347149
 21
20.2662622174928
 31
0.0
  0
LINE
  5
F100C0
330
261
100
AcDbEntity
  8
Geo
100
AcDbLine
 10
-36.00989233347149
 20
20.2662622174928
 30
0.0
 11
-35.9098923334715
 21
20.2333465133588
 31
0.0
  0
LINE
  5
F100C2
330
261
100
AcDbEntity
  8
Geo
100
AcDbLine
 10
-35.9098923334715
 20
20.2333465133588
 30
0.0
 11
-35.80989233347149
 21
20.1990788368331
 31
0.0
  0
LINE
  5
F100C4
330
261
100
AcDbEntity
  8
Geo
100
AcDbLine
 10
-35.80989233347149
 20
20.1990788368331
 30
0.0
 11
-35.7098923334715
 21
20.1634674651481
 31
0.0
  0
LINE
  5
F100C6
330
261
100
AcDbEntity
  8
Geo
100
AcDbLine
 10
-35.7098923334715
 20
20.1634674651481
 30
0.0
 11
-35.60989233347149
 21
20.12652100010081
 31
0.0
  0
LINE
  5
F100C8
330
261
100
AcDbEntity
  8
Geo
100
AcDbLine
 10
-35.60989233347149
 20
20.12652100010081
 30
0.0
 11
-35.50989233347149
 21
20.0882483659753
 31
0.0
  0
LINE
  5
F100CA
330
261
100
AcDbEntity
  8
Geo
100
AcDbLine
 10
-35.50989233347149
 20
20.0882483659753
 30
0.0
 11
-35.4098923334715
 21
20.04865880738681
 31
0.0
  0
LINE
  5
F100CC
330
261
100
AcDbEntity
  8
Geo
100
AcDbLine
 10
-35.4098923334715
 20
20.04865880738681
 30
0.0
 11
-35.30989233347149
 21
20.00776188704901
 31
0.0
  0
LINE
  5
F100CE
330
261
100
AcDbEntity
  8
Geo
100
AcDbLine
 10
-35.30989233347149
 20
20.00776188704901
 30
0.0
 11
-35.2098923334715
 21
19.9655674834639
 31
0.0
  0
LINE
  5
F100D0
330
261
100
AcDbEntity
  8
Geo
100
AcDbLine
 10
-35.2098923334715
 20
19.9655674834639
 30
0.0
 11
-35.10989233347149
 21
19.9220857885359
 31
0.0
  0
LINE
  5
F100D2
330
261
100
AcDbEntity
  8
Geo
100
AcDbLine
 10
-35.10989233347149
 20
19.9220857885359
 30
0.0
 11
-35.00989233347149
 21
19.87732730511021
 31
0.0
  0
LINE
  5
F100D4
330
261
100
AcDbEntity
  8
Geo
100
AcDbLine
 10
-35.00989233347149
 20
19.87732730511021
 30
0.0
 11
-34.9098923334715
 21
19.8313028444352
 31
0.0
  0
LINE
  5
F100D6
330
261
100
AcDbEntity
  8
Geo
100
AcDbLine
 10
-34.9098923334715
 20
19.8313028444352
 30
0.0
 11
-34.80989233347149
 21
19.7840235235516
 31
0.0
  0
LINE
  5
F100D8
330
261
100
AcDbEntity
  8
Geo
100
AcDbLine
 10
-34.80989233347149
 20
19.7840235235516
 30
0.0
 11
-34.70989233347149
 21
19.7355007626072
 31
0.0
  0
LINE
  5
F100DA
330
261
100
AcDbEntity
  8
Geo
100
AcDbLine
 10
-34.70989233347149
 20
19.7355007626072
 30
0.0
 11
-34.60989233347149
 21
19.6857462820981
 31
0.0
  0
LINE
  5
F100DC
330
261
100
AcDbEntity
  8
Geo
100
AcDbLine
 10
-34.60989233347149
 20
19.6857462820981
 30
0.0
 11
-34.50989233347149
 21
19.6347721000377
 31
0.0
  0
LINE
  5
F100DE
330
261
100
AcDbEntity
  8
Geo
100
AcDbLine
 10
-34.50989233347149
 20
19.6347721000377
 30
0.0
 11
-34.4098923334715
 21
19.5825905290539
 31
0.0
  0
LINE
  5
F100E0
330
261
100
AcDbEntity
  8
Geo
100
AcDbLine
 10
-34.4098923334715
 20
19.5825905290539
 30
0.0
 11
-34.30989233347149
 21
19.5292141734152
 31
0.0
  0
LINE
  5
F100E2
330
261
100
AcDbEntity
  8
Geo
100
AcDbLine
 10
-34.30989233347149
 20
19.5292141734152
 30
0.0
 11
-34.2098923334715
 21
19.47465592598561
 31
0.0
  0
LINE
  5
F100E4
330
261
100
AcDbEntity
  8
Geo
100
AcDbLine
 10
-34.2098923334715
 20
19.47465592598561
 30
0.0
 11
-34.10989233347148
 21
19.41892896511111
 31
0.0
  0
LINE
  5
F100E6
330
261
100
AcDbEntity
  8
Geo
100
AcDbLine
 10
-34.10989233347148
 20
19.41892896511111
 30
0.0
 11
-34.00989233347149
 21
19.362046751436
 31
0.0
  0
LINE
  5
F100E8
330
261
100
AcDbEntity
  8
Geo
100
AcDbLine
 10
-34.00989233347149
 20
19.362046751436
 30
0.0
 11
-33.9098923334715
 21
19.3040230246517
 31
0.0
  0
LINE
  5
F100EA
330
261
100
AcDbEntity
  8
Geo
100
AcDbLine
 10
-33.9098923334715
 20
19.3040230246517
 30
0.0
 11
-33.80989233347149
 21
19.244871800178
 31
0.0
  0
LINE
  5
F100EC
330
261
100
AcDbEntity
  8
Geo
100
AcDbLine
 10
-33.80989233347149
 20
19.244871800178
 30
0.0
 11
-33.70989233347149
 21
19.1846073657776
 31
0.0
  0
LINE
  5
F100EE
330
261
100
AcDbEntity
  8
Geo
100
AcDbLine
 10
-33.70989233347149
 20
19.1846073657776
 30
0.0
 11
-33.60989233347149
 21
19.123244278105
 31
0.0
  0
LINE
  5
F100F0
330
261
100
AcDbEntity
  8
Geo
100
AcDbLine
 10
-33.60989233347149
 20
19.123244278105
 30
0.0
 11
-33.50989233347149
 21
19.0607973591906
 31
0.0
  0
LINE
  5
F100F2
330
261
100
AcDbEntity
  8
Geo
100
AcDbLine
 10
-33.50989233347149
 20
19.0607973591906
 30
0.0
 11
-33.4098923334715
 21
18.9972816928599
 31
0.0
  0
LINE
  5
F100F4
330
261
100
AcDbEntity
  8
Geo
100
AcDbLine
 10
-33.4098923334715
 20
18.9972816928599
 30
0.0
 11
-33.30989233347149
 21
18.9327126210909
 31
0.0
  0
LINE
  5
F100F6
330
261
100
AcDbEntity
  8
Geo
100
AcDbLine
 10
-33.30989233347149
 20
18.9327126210909
 30
0.0
 11
-33.2098923334715
 21
18.8671057403073
 31
0.0
  0
LINE
  5
F100F8
330
261
100
AcDbEntity
  8
Geo
100
AcDbLine
 10
-33.2098923334715
 20
18.8671057403073
 30
0.0
 11
-33.10989233347149
 21
18.8004768976123
 31
0.0
  0
LINE
  5
F100FA
330
261
100
AcDbEntity
  8
Geo
100
AcDbLine
 10
-33.10989233347149
 20
18.8004768976123
 30
0.0
 11
-33.00989233347149
 21
18.73284218696
 31
0.0
  0
LINE
  5
F100FC
330
261
100
AcDbEntity
  8
Geo
100
AcDbLine
 10
-33.00989233347149
 20
18.73284218696
 30
0.0
 11
-32.9098923334715
 21
18.6642179452683
 31
0.0
  0
LINE
  5
F100FE
330
261
100
AcDbEntity
  8
Geo
100
AcDbLine
 10
-32.9098923334715
 20
18.6642179452683
 30
0.0
 11
-32.80989233347149
 21
18.5946207484728
 31
0.0
  0
LINE
  5
F10100
330
261
100
AcDbEntity
  8
Geo
100
AcDbLine
 10
-32.80989233347149
 20
18.5946207484728
 30
0.0
 11
-32.7098923334715
 21
18.5240674075226
 31
0.0
  0
LINE
  5
F10102
330
261
100
AcDbEntity
  8
Geo
100
AcDbLine
 10
-32.7098923334715
 20
18.5240674075226
 30
0.0
 11
-32.60989233347149
 21
18.4525749643203
 31
0.0
  0
LINE
  5
F10104
330
261
100
AcDbEntity
  8
Geo
100
AcDbLine
 10
-32.60989233347149
 20
18.4525749643203
 30
0.0
 11
-32.50989233347149
 21
18.380160687605
 31
0.0
  0
LINE
  5
F10106
330
261
100
AcDbEntity
  8
Geo
100
AcDbLine
 10
-32.50989233347149
 20
18.380160687605
 30
0.0
 11
-32.4098923334715
 21
18.3068420687812
 31
0.0
  0
LINE
  5
F10108
330
261
100
AcDbEntity
  8
Geo
100
AcDbLine
 10
-32.4098923334715
 20
18.3068420687812
 30
0.0
 11
-32.30989233347149
 21
18.2326368176944
 31
0.0
  0
LINE
  5
F1010A
330
261
100
AcDbEntity
  8
Geo
100
AcDbLine
 10
-32.30989233347149
 20
18.2326368176944
 30
0.0
 11
-32.20989233347149
 21
18.15756285835231
 31
0.0
  0
LINE
  5
F1010C
330
261
100
AcDbEntity
  8
Geo
100
AcDbLine
 10
-32.20989233347149
 20
18.15756285835231
 30
0.0
 11
-32.10989233347149
 21
18.0816383245965
 31
0.0
  0
LINE
  5
F1010E
330
261
100
AcDbEntity
  8
Geo
100
AcDbLine
 10
-32.10989233347149
 20
18.0816383245965
 30
0.0
 11
-32.00989233347149
 21
18.0048815557213
 31
0.0
  0
LINE
  5
F10110
330
261
100
AcDbEntity
  8
Geo
100
AcDbLine
 10
-32.00989233347149
 20
18.0048815557213
 30
0.0
 11
-31.9098923334715
 21
17.9273110920445
 31
0.0
  0
LINE
  5
F10112
330
261
100
AcDbEntity
  8
Geo
100
AcDbLine
 10
-31.9098923334715
 20
17.9273110920445
 30
0.0
 11
-31.80989233347149
 21
17.848945670429
 31
0.0
  0
LINE
  5
F10114
330
261
100
AcDbEntity
  8
Geo
100
AcDbLine
 10
-31.80989233347149
 20
17.848945670429
 30
0.0
 11
-31.7098923334715
 21
17.7698042197569
 31
0.0
  0
LINE
  5
F10116
330
261
100
AcDbEntity
  8
Geo
100
AcDbLine
 10
-31.7098923334715
 20
17.7698042197569
 30
0.0
 11
-31.60989233347148
 21
17.6899058563572
 31
0.0
  0
LINE
  5
F10118
330
261
100
AcDbEntity
  8
Geo
100
AcDbLine
 10
-31.60989233347148
 20
17.6899058563572
 30
0.0
 11
-31.50989233347149
 21
17.6092698793883
 31
0.0
  0
LINE
  5
F1011A
330
261
100
AcDbEntity
  8
Geo
100
AcDbLine
 10
-31.50989233347149
 20
17.6092698793883
 30
0.0
 11
-31.4098923334715
 21
17.5279157661767
 31
0.0
  0
LINE
  5
F1011C
330
261
100
AcDbEntity
  8
Geo
100
AcDbLine
 10
-31.4098923334715
 20
17.5279157661767
 30
0.0
 11
-31.30989233347149
 21
17.4458631675121
 31
0.0
  0
LINE
  5
F1011E
330
261
100
AcDbEntity
  8
Geo
100
AcDbLine
 10
-31.30989233347149
 20
17.4458631675121
 30
0.0
 11
-31.20989233347149
 21
17.3631319029005
 31
0.0
  0
LINE
  5
F10120
330
261
100
AcDbEntity
  8
Geo
100
AcDbLine
 10
-31.20989233347149
 20
17.3631319029005
 30
0.0
 11
-31.10989233347149
 21
17.2797419557776
 31
0.0
  0
LINE
  5
F10122
330
261
100
AcDbEntity
  8
Geo
100
AcDbLine
 10
-31.10989233347149
 20
17.2797419557776
 30
0.0
 11
-31.00989233347149
 21
17.1957134686812
 31
0.0
  0
LINE
  5
F10124
330
261
100
AcDbEntity
  8
Geo
100
AcDbLine
 10
-31.00989233347149
 20
17.1957134686812
 30
0.0
 11
-30.9098923334715
 21
17.1110667383861
 31
0.0
  0
LINE
  5
F10126
330
261
100
AcDbEntity
  8
Geo
100
AcDbLine
 10
-30.9098923334715
 20
17.1110667383861
 30
0.0
 11
-30.80989233347149
 21
17.0258222110016
 31
0.0
  0
LINE
  5
F10128
330
261
100
AcDbEntity
  8
Geo
100
AcDbLine
 10
-30.80989233347149
 20
17.0258222110016
 30
0.0
 11
-30.7098923334715
 21
16.9400004770327
 31
0.0
  0
LINE
  5
F1012A
330
261
100
AcDbEntity
  8
Geo
100
AcDbLine
 10
-30.7098923334715
 20
16.9400004770327
 30
0.0
 11
-30.60989233347149
 21
16.8536222664065
 31
0.0
  0
LINE
  5
F1012C
330
261
100
AcDbEntity
  8
Geo
100
AcDbLine
 10
-30.60989233347149
 20
16.8536222664065
 30
0.0
 11
-30.50989233347149
 21
16.7667084434649
 31
0.0
  0
LINE
  5
F1012E
330
261
100
AcDbEntity
  8
Geo
100
AcDbLine
 10
-30.50989233347149
 20
16.7667084434649
 30
0.0
 11
-30.4098923334715
 21
16.67928000192531
 31
0.0
  0
LINE
  5
F10130
330
261
100
AcDbEntity
  8
Geo
100
AcDbLine
 10
-30.4098923334715
 20
16.67928000192531
 30
0.0
 11
-30.30989233347149
 21
16.5913580598092
 31
0.0
  0
LINE
  5
F10132
330
261
100
AcDbEntity
  8
Geo
100
AcDbLine
 10
-30.30989233347149
 20
16.5913580598092
 30
0.0
 11
-30.2098923334715
 21
16.5029638543411
 31
0.0
  0
LINE
  5
F10134
330
261
100
AcDbEntity
  8
Geo
100
AcDbLine
 10
-30.2098923334715
 20
16.5029638543411
 30
0.0
 11
-30.10989233347149
 21
16.4141187368195
 31
0.0
  0
LINE
  5
F10136
330
261
100
AcDbEntity
  8
Geo
100
AcDbLine
 10
-30.10989233347149
 20
16.4141187368195
 30
0.0
 11
-30.00989233347149
 21
16.3248441674586
 31
0.0
  0
LINE
  5
F10138
330
261
100
AcDbEntity
  8
Geo
100
AcDbLine
 10
-30.00989233347149
 20
16.3248441674586
 30
0.0
 11
-29.9098923334715
 21
16.2351617102053
 31
0.0
  0
LINE
  5
F1013A
330
261
100
AcDbEntity
  8
Geo
100
AcDbLine
 10
-29.9098923334715
 20
16.2351617102053
 30
0.0
 11
-29.80989233347149
 21
16.1450930275305
 31
0.0
  0
LINE
  5
F1013C
330
261
100
AcDbEntity
  8
Geo
100
AcDbLine
 10
-29.80989233347149
 20
16.1450930275305
 30
0.0
 11
-29.70989233347149
 21
16.0546598751963
 31
0.0
  0
LINE
  5
F1013E
330
261
100
AcDbEntity
  8
Geo
100
AcDbLine
 10
-29.70989233347149
 20
16.0546598751963
 30
0.0
 11
-29.60989233347149
 21
15.963884097001
 31
0.0
  0
LINE
  5
F10140
330
261
100
AcDbEntity
  8
Geo
100
AcDbLine
 10
-29.60989233347149
 20
15.963884097001
 30
0.0
 11
-29.50989233347149
 21
15.8727876195031
 31
0.0
  0
LINE
  5
F10142
330
261
100
AcDbEntity
  8
Geo
100
AcDbLine
 10
-29.50989233347149
 20
15.8727876195031
 30
0.0
 11
-29.4098923334715
 21
15.7813924467249
 31
0.0
  0
LINE
  5
F10144
330
261
100
AcDbEntity
  8
Geo
100
AcDbLine
 10
-29.4098923334715
 20
15.7813924467249
 30
0.0
 11
-29.30989233347149
 21
15.6897206548371
 31
0.0
  0
LINE
  5
F10146
330
261
100
AcDbEntity
  8
Geo
100
AcDbLine
 10
-29.30989233347149
 20
15.6897206548371
 30
0.0
 11
-29.2098923334715
 21
15.5977943868272
 31
0.0
  0
LINE
  5
F10148
330
261
100
AcDbEntity
  8
Geo
100
AcDbLine
 10
-29.2098923334715
 20
15.5977943868272
 30
0.0
 11
-29.10989233347148
 21
15.5056358471502
 31
0.0
  0
LINE
  5
F1014A
330
261
100
AcDbEntity
  8
Geo
100
AcDbLine
 10
-29.10989233347148
 20
15.5056358471502
 30
0.0
 11
-29.00989233347149
 21
15.4132672963655
 31
0.0
  0
LINE
  5
F1014C
330
261
100
AcDbEntity
  8
Geo
100
AcDbLine
 10
-29.00989233347149
 20
15.4132672963655
 30
0.0
 11
-28.9098923334715
 21
15.3207110457599
 31
0.0
  0
LINE
  5
F1014E
330
261
100
AcDbEntity
  8
Geo
100
AcDbLine
 10
-28.9098923334715
 20
15.3207110457599
 30
0.0
 11
-28.80989233347149
 21
15.2279894519587
 31
0.0
  0
LINE
  5
F10150
330
261
100
AcDbEntity
  8
Geo
100
AcDbLine
 10
-28.80989233347149
 20
15.2279894519587
 30
0.0
 11
-28.70989233347149
 21
15.1351249115248
 31
0.0
  0
LINE
  5
F10152
330
261
100
AcDbEntity
  8
Geo
100
AcDbLine
 10
-28.70989233347149
 20
15.1351249115248
 30
0.0
 11
-28.60989233347149
 21
15.0421398555497
 31
0.0
  0
LINE
  5
F10154
330
261
100
AcDbEntity
  8
Geo
100
AcDbLine
 10
-28.60989233347149
 20
15.0421398555497
 30
0.0
 11
-28.50989233347149
 21
14.9490567442347
 31
0.0
  0
LINE
  5
F10156
330
261
100
AcDbEntity
  8
Geo
100
AcDbLine
 10
-28.50989233347149
 20
14.9490567442347
 30
0.0
 11
-28.4098923334715
 21
14.8558980614663
 31
0.0
  0
LINE
  5
F10158
330
261
100
AcDbEntity
  8
Geo
100
AcDbLine
 10
-28.4098923334715
 20
14.8558980614663
 30
0.0
 11
-28.30989233347149
 21
14.7626863093847
 31
0.0
  0
LINE
  5
F1015A
330
261
100
AcDbEntity
  8
Geo
100
AcDbLine
 10
-28.30989233347149
 20
14.7626863093847
 30
0.0
 11
-28.2098923334715
 21
14.6694440029491
 31
0.0
  0
LINE
  5
F1015C
330
261
100
AcDbEntity
  8
Geo
100
AcDbLine
 10
-28.2098923334715
 20
14.6694440029491
 30
0.0
 11
-28.10989233347149
 21
14.5761936644987
 31
0.0
  0
LINE
  5
F1015E
330
261
100
AcDbEntity
  8
Geo
100
AcDbLine
 10
-28.10989233347149
 20
14.5761936644987
 30
0.0
 11
-28.00989233347149
 21
14.4829578183131
 31
0.0
  0
LINE
  5
F10160
330
261
100
AcDbEntity
  8
Geo
100
AcDbLine
 10
-28.00989233347149
 20
14.4829578183131
 30
0.0
 11
-27.9098923334715
 21
14.3897589851712
 31
0.0
  0
LINE
  5
F10162
330
261
100
AcDbEntity
  8
Geo
100
AcDbLine
 10
-27.9098923334715
 20
14.3897589851712
 30
0.0
 11
-27.80989233347149
 21
14.2966196769114
 31
0.0
  0
LINE
  5
F10164
330
261
100
AcDbEntity
  8
Geo
100
AcDbLine
 10
-27.80989233347149
 20
14.2966196769114
 30
0.0
 11
-27.7098923334715
 21
14.2035623909944
 31
0.0
  0
LINE
  5
F10166
330
261
100
AcDbEntity
  8
Geo
100
AcDbLine
 10
-27.7098923334715
 20
14.2035623909944
 30
0.0
 11
-27.60989233347149
 21
14.1106096050683
 31
0.0
  0
LINE
  5
F10168
330
261
100
AcDbEntity
  8
Geo
100
AcDbLine
 10
-27.60989233347149
 20
14.1106096050683
 30
0.0
 11
-27.50989233347149
 21
14.0177837715401
 31
0.0
  0
LINE
  5
F1016A
330
261
100
AcDbEntity
  8
Geo
100
AcDbLine
 10
-27.50989233347149
 20
14.0177837715401
 30
0.0
 11
-27.4098923334715
 21
13.9251073121514
 31
0.0
  0
LINE
  5
F1016C
330
261
100
AcDbEntity
  8
Geo
100
AcDbLine
 10
-27.4098923334715
 20
13.9251073121514
 30
0.0
 11
-27.30989233347149
 21
13.8326026125634
 31
0.0
  0
LINE
  5
F1016E
330
261
100
AcDbEntity
  8
Geo
100
AcDbLine
 10
-27.30989233347149
 20
13.8326026125634
 30
0.0
 11
-27.20989233347149
 21
13.7402920169492
 31
0.0
  0
LINE
  5
F10170
330
261
100
AcDbEntity
  8
Geo
100
AcDbLine
 10
-27.20989233347149
 20
13.7402920169492
 30
0.0
 11
-27.10989233347149
 21
13.6481978225967
 31
0.0
  0
LINE
  5
F10172
330
261
100
AcDbEntity
  8
Geo
100
AcDbLine
 10
-27.10989233347149
 20
13.6481978225967
 30
0.0
 11
-27.00989233347149
 21
13.556342274523
 31
0.0
  0
LINE
  5
F10174
330
261
100
AcDbEntity
  8
Geo
100
AcDbLine
 10
-27.00989233347149
 20
13.556342274523
 30
0.0
 11
-26.9098923334715
 21
13.4647475601011
 31
0.0
  0
LINE
  5
F10176
330
261
100
AcDbEntity
  8
Geo
100
AcDbLine
 10
-26.9098923334715
 20
13.4647475601011
 30
0.0
 11
-26.80989233347149
 21
13.3734358037005
 31
0.0
  0
LINE
  5
F10178
330
261
100
AcDbEntity
  8
Geo
100
AcDbLine
 10
-26.80989233347149
 20
13.3734358037005
 30
0.0
 11
-26.7098923334715
 21
13.2824290613431
 31
0.0
  0
LINE
  5
F1017A
330
261
100
AcDbEntity
  8
Geo
100
AcDbLine
 10
-26.7098923334715
 20
13.2824290613431
 30
0.0
 11
-26.60989233347148
 21
13.191749315376
 31
0.0
  0
LINE
  5
F1017C
330
261
100
AcDbEntity
  8
Geo
100
AcDbLine
 10
-26.60989233347148
 20
13.191749315376
 30
0.0
 11
-26.50989233347149
 21
13.1014184691614
 31
0.0
  0
LINE
  5
F1017E
330
261
100
AcDbEntity
  8
Geo
100
AcDbLine
 10
-26.50989233347149
 20
13.1014184691614
 30
0.0
 11
-26.4098923334715
 21
13.011458341786
 31
0.0
  0
LINE
  5
F10180
330
261
100
AcDbEntity
  8
Geo
100
AcDbLine
 10
-26.4098923334715
 20
13.011458341786
 30
0.0
 11
-26.30989233347149
 21
12.9218906627908
 31
0.0
  0
LINE
  5
F10182
330
261
100
AcDbEntity
  8
Geo
100
AcDbLine
 10
-26.30989233347149
 20
12.9218906627908
 30
0.0
 11
-26.20989233347149
 21
12.8327370669223
 31
0.0
  0
LINE
  5
F10184
330
261
100
AcDbEntity
  8
Geo
100
AcDbLine
 10
-26.20989233347149
 20
12.8327370669223
 30
0.0
 11
-26.10989233347149
 21
12.7440190889067
 31
0.0
  0
LINE
  5
F10186
330
261
100
AcDbEntity
  8
Geo
100
AcDbLine
 10
-26.10989233347149
 20
12.7440190889067
 30
0.0
 11
-26.00989233347149
 21
12.6557581582483
 31
0.0
  0
LINE
  5
F10188
330
261
100
AcDbEntity
  8
Geo
100
AcDbLine
 10
-26.00989233347149
 20
12.6557581582483
 30
0.0
 11
-25.9098923334715
 21
12.5679755940533
 31
0.0
  0
LINE
  5
F1018A
330
261
100
AcDbEntity
  8
Geo
100
AcDbLine
 10
-25.9098923334715
 20
12.5679755940533
 30
0.0
 11
-25.80989233347149
 21
12.4806925998801
 31
0.0
  0
LINE
  5
F1018C
330
261
100
AcDbEntity
  8
Geo
100
AcDbLine
 10
-25.80989233347149
 20
12.4806925998801
 30
0.0
 11
-25.7098923334715
 21
12.3939302586181
 31
0.0
  0
LINE
  5
F1018E
330
261
100
AcDbEntity
  8
Geo
100
AcDbLine
 10
-25.7098923334715
 20
12.3939302586181
 30
0.0
 11
-25.60989233347149
 21
12.3077095273945
 31
0.0
  0
LINE
  5
F10190
330
261
100
AcDbEntity
  8
Geo
100
AcDbLine
 10
-25.60989233347149
 20
12.3077095273945
 30
0.0
 11
-25.50989233347149
 21
12.2220512325128
 31
0.0
  0
LINE
  5
F10192
330
261
100
AcDbEntity
  8
Geo
100
AcDbLine
 10
-25.50989233347149
 20
12.2220512325128
 30
0.0
 11
-25.4098923334715
 21
12.1369760644221
 31
0.0
  0
LINE
  5
F10194
330
261
100
AcDbEntity
  8
Geo
100
AcDbLine
 10
-25.4098923334715
 20
12.1369760644221
 30
0.0
 11
-25.30989233347149
 21
12.0525045727191
 31
0.0
  0
LINE
  5
F10196
330
261
100
AcDbEntity
  8
Geo
100
AcDbLine
 10
-25.30989233347149
 20
12.0525045727191
 30
0.0
 11
-25.2098923334715
 21
11.9686571611848
 31
0.0
  0
LINE
  5
F10198
330
261
100
AcDbEntity
  8
Geo
100
AcDbLine
 10
-25.2098923334715
 20
11.9686571611848
 30
0.0
 11
-25.10989233347149
 21
11.8854540828561
 31
0.0
  0
LINE
  5
F1019A
330
261
100
AcDbEntity
  8
Geo
100
AcDbLine
 10
-25.10989233347149
 20
11.8854540828561
 30
0.0
 11
-25.00989233347149
 21
11.8029154351332
 31
0.0
  0
LINE
  5
F1019C
330
261
100
AcDbEntity
  8
Geo
100
AcDbLine
 10
-25.00989233347149
 20
11.8029154351332
 30
0.0
 11
-24.9098923334715
 21
11.7210611549258
 31
0.0
  0
LINE
  5
F1019E
330
261
100
AcDbEntity
  8
Geo
100
AcDbLine
 10
-24.9098923334715
 20
11.7210611549258
 30
0.0
 11
-24.80989233347149
 21
11.639911013837
 31
0.0
  0
LINE
  5
F101A0
330
261
100
AcDbEntity
  8
Geo
100
AcDbLine
 10
-24.80989233347149
 20
11.639911013837
 30
0.0
 11
-24.70989233347149
 21
11.5594846133876
 31
0.0
  0
LINE
  5
F101A2
330
261
100
AcDbEntity
  8
Geo
100
AcDbLine
 10
-24.70989233347149
 20
11.5594846133876
 30
0.0
 11
-24.60989233347149
 21
11.4798013802817
 31
0.0
  0
LINE
  5
F101A4
330
261
100
AcDbEntity
  8
Geo
100
AcDbLine
 10
-24.60989233347149
 20
11.4798013802817
 30
0.0
 11
-24.50989233347149
 21
11.4008805617138
 31
0.0
  0
LINE
  5
F101A6
330
261
100
AcDbEntity
  8
Geo
100
AcDbLine
 10
-24.50989233347149
 20
11.4008805617138
 30
0.0
 11
-24.4098923334715
 21
11.32274122072
 31
0.0
  0
LINE
  5
F101A8
330
261
100
AcDbEntity
  8
Geo
100
AcDbLine
 10
-24.4098923334715
 20
11.32274122072
 30
0.0
 11
-24.30989233347149
 21
11.2454022315735
 31
0.0
  0
LINE
  5
F101AA
330
261
100
AcDbEntity
  8
Geo
100
AcDbLine
 10
-24.30989233347149
 20
11.2454022315735
 30
0.0
 11
-24.2098923334715
 21
11.1688822752253
 31
0.0
  0
LINE
  5
F101AC
330
261
100
AcDbEntity
  8
Geo
100
AcDbLine
 10
-24.2098923334715
 20
11.1688822752253
 30
0.0
 11
-24.10989233347148
 21
11.093199834792
 31
0.0
  0
LINE
  5
F101AE
330
261
100
AcDbEntity
  8
Geo
100
AcDbLine
 10
-24.10989233347148
 20
11.093199834792
 30
0.0
 11
-24.00989233347149
 21
11.0183731910912
 31
0.0
  0
LINE
  5
F101B0
330
261
100
AcDbEntity
  8
Geo
100
AcDbLine
 10
-24.00989233347149
 20
11.0183731910912
 30
0.0
 11
-23.90989233347149
 21
10.9444204182262
 31
0.0
  0
LINE
  5
F101B2
330
261
100
AcDbEntity
  8
Geo
100
AcDbLine
 10
-23.90989233347149
 20
10.9444204182262
 30
0.0
 11
-23.80989233347149
 21
10.8713593792197
 31
0.0
  0
LINE
  5
F101B4
330
261
100
AcDbEntity
  8
Geo
100
AcDbLine
 10
-23.80989233347149
 20
10.8713593792197
 30
0.0
 11
-23.70989233347149
 21
10.7992077216994
 31
0.0
  0
LINE
  5
F101B6
330
261
100
AcDbEntity
  8
Geo
100
AcDbLine
 10
-23.70989233347149
 20
10.7992077216994
 30
0.0
 11
-23.60989233347149
 21
10.7279828736354
 31
0.0
  0
LINE
  5
F101B8
330
261
100
AcDbEntity
  8
Geo
100
AcDbLine
 10
-23.60989233347149
 20
10.7279828736354
 30
0.0
 11
-23.50989233347149
 21
10.6577020391302
 31
0.0
  0
LINE
  5
F101BA
330
261
100
AcDbEntity
  8
Geo
100
AcDbLine
 10
-23.50989233347149
 20
10.6577020391302
 30
0.0
 11
-23.40989233347149
 21
10.5883821942631
 31
0.0
  0
LINE
  5
F101BC
330
261
100
AcDbEntity
  8
Geo
100
AcDbLine
 10
-23.40989233347149
 20
10.5883821942631
 30
0.0
 11
-23.30989233347149
 21
10.5200400829902
 31
0.0
  0
LINE
  5
F101BE
330
261
100
AcDbEntity
  8
Geo
100
AcDbLine
 10
-23.30989233347149
 20
10.5200400829902
 30
0.0
 11
-23.2098923334715
 21
10.4526922130994
 31
0.0
  0
LINE
  5
F101C0
330
261
100
AcDbEntity
  8
Geo
100
AcDbLine
 10
-23.2098923334715
 20
10.4526922130994
 30
0.0
 11
-23.10989233347149
 21
10.3863548522233
 31
0.0
  0
LINE
  5
F101C2
330
261
100
AcDbEntity
  8
Geo
100
AcDbLine
 10
-23.10989233347149
 20
10.3863548522233
 30
0.0
 11
-23.00989233347149
 21
10.3210440239096
 31
0.0
  0
LINE
  5
F101C4
330
261
100
AcDbEntity
  8
Geo
100
AcDbLine
 10
-23.00989233347149
 20
10.3210440239096
 30
0.0
 11
-22.90989233347149
 21
10.2567755037509
 31
0.0
  0
LINE
  5
F101C6
330
261
100
AcDbEntity
  8
Geo
100
AcDbLine
 10
-22.90989233347149
 20
10.2567755037509
 30
0.0
 11
-22.80989233347149
 21
10.1935648155742
 31
0.0
  0
LINE
  5
F101C8
330
261
100
AcDbEntity
  8
Geo
100
AcDbLine
 10
-22.80989233347149
 20
10.1935648155742
 30
0.0
 11
-22.70989233347149
 21
10.1314272276907
 31
0.0
  0
LINE
  5
F101CA
330
261
100
AcDbEntity
  8
Geo
100
AcDbLine
 10
-22.70989233347149
 20
10.1314272276907
 30
0.0
 11
-22.60989233347149
 21
10.0703777492085
 31
0.0
  0
LINE
  5
F101CC
330
261
100
AcDbEntity
  8
Geo
100
AcDbLine
 10
-22.60989233347149
 20
10.0703777492085
 30
0.0
 11
-22.50989233347149
 21
10.0104311264065
 31
0.0
  0
LINE
  5
F101CE
330
261
100
AcDbEntity
  8
Geo
100
AcDbLine
 10
-22.50989233347149
 20
10.0104311264065
 30
0.0
 11
-22.40989233347149
 21
9.951601839173202
 31
0.0
  0
LINE
  5
F101D0
330
261
100
AcDbEntity
  8
Geo
100
AcDbLine
 10
-22.40989233347149
 20
9.951601839173202
 30
0.0
 11
-22.30989233347149
 21
9.893904097508404
 31
0.0
  0
LINE
  5
F101D2
330
261
100
AcDbEntity
  8
Geo
100
AcDbLine
 10
-22.30989233347149
 20
9.893904097508404
 30
0.0
 11
-22.20989233347149
 21
9.837351838091404
 31
0.0
  0
LINE
  5
F101D4
330
261
100
AcDbEntity
  8
Geo
100
AcDbLine
 10
-22.20989233347149
 20
9.837351838091404
 30
0.0
 11
-22.10989233347149
 21
9.781958720914403
 31
0.0
  0
LINE
  5
F101D6
330
261
100
AcDbEntity
  8
Geo
100
AcDbLine
 10
-22.10989233347149
 20
9.781958720914403
 30
0.0
 11
-22.00989233347149
 21
9.727738125983002
 31
0.0
  0
LINE
  5
F101D8
330
261
100
AcDbEntity
  8
Geo
100
AcDbLine
 10
-22.00989233347149
 20
9.727738125983002
 30
0.0
 11
-21.90989233347149
 21
9.674703150084402
 31
0.0
  0
LINE
  5
F101DA
330
261
100
AcDbEntity
  8
Geo
100
AcDbLine
 10
-21.90989233347149
 20
9.674703150084402
 30
0.0
 11
-21.80989233347149
 21
9.622866603623601
 31
0.0
  0
LINE
  5
F101DC
330
261
100
AcDbEntity
  8
Geo
100
AcDbLine
 10
-21.80989233347149
 20
9.622866603623601
 30
0.0
 11
-21.7098923334715
 21
9.572241007529701
 31
0.0
  0
LINE
  5
F101DE
330
261
100
AcDbEntity
  8
Geo
100
AcDbLine
 10
-21.7098923334715
 20
9.572241007529701
 30
0.0
 11
-21.60989233347149
 21
9.522838590230803
 31
0.0
  0
LINE
  5
F101E0
330
261
100
AcDbEntity
  8
Geo
100
AcDbLine
 10
-21.60989233347149
 20
9.522838590230803
 30
0.0
 11
-21.50989233347149
 21
9.474671284700903
 31
0.0
  0
LINE
  5
F101E2
330
261
100
AcDbEntity
  8
Geo
100
AcDbLine
 10
-21.50989233347149
 20
9.474671284700903
 30
0.0
 11
-21.40989233347149
 21
9.4277507255771
 31
0.0
  0
LINE
  5
F101E4
330
261
100
AcDbEntity
  8
Geo
100
AcDbLine
 10
-21.40989233347149
 20
9.4277507255771
 30
0.0
 11
-21.30989233347149
 21
9.382088246349503
 31
0.0
  0
LINE
  5
F101E6
330
261
100
AcDbEntity
  8
Geo
100
AcDbLine
 10
-21.30989233347149
 20
9.382088246349503
 30
0.0
 11
-21.20989233347149
 21
9.337694876623501
 31
0.0
  0
LINE
  5
F101E8
330
261
100
AcDbEntity
  8
Geo
100
AcDbLine
 10
-21.20989233347149
 20
9.337694876623501
 30
0.0
 11
-21.10989233347149
 21
9.294581339455902
 31
0.0
  0
LINE
  5
F101EA
330
261
100
AcDbEntity
  8
Geo
100
AcDbLine
 10
-21.10989233347149
 20
9.294581339455902
 30
0.0
 11
-21.10989233347149
 21
9.294581339455902
 31
0.0
  0
LINE
  5
F101EC
330
261
100
AcDbEntity
  8
Geo
100
AcDbLine
 10
-21.10989233347149
 20
9.294581339455902
 30
0.0
 11
-21.00989233347149
 21
9.371774542685402
 31
0.0
  0
LINE
  5
F101EE
330
261
100
AcDbEntity
  8
Geo
100
AcDbLine
 10
-21.00989233347149
 20
9.371774542685402
 30
0.0
 11
-20.90989233347149
 21
9.317284613864401
 31
0.0
  0
LINE
  5
F101F0
330
261
100
AcDbEntity
  8
Geo
100
AcDbLine
 10
-20.90989233347149
 20
9.317284613864401
 30
0.0
 11
-20.80989233347149
 21
9.2647633389951
 31
0.0
  0
LINE
  5
F101F2
330
261
100
AcDbEntity
  8
Geo
100
AcDbLine
 10
-20.80989233347149
 20
9.2647633389951
 30
0.0
 11
-20.7098923334715
 21
9.214323716635103
 31
0.0
  0
LINE
  5
F101F4
330
261
100
AcDbEntity
  8
Geo
100
AcDbLine
 10
-20.7098923334715
 20
9.214323716635103
 30
0.0
 11
-20.60989233347149
 21
9.166080105636103
 31
0.0
  0
LINE
  5
F101F6
330
261
100
AcDbEntity
  8
Geo
100
AcDbLine
 10
-20.60989233347149
 20
9.166080105636103
 30
0.0
 11
-20.50989233347149
 21
9.120148110052602
 31
0.0
  0
LINE
  5
F101F8
330
261
100
AcDbEntity
  8
Geo
100
AcDbLine
 10
-20.50989233347149
 20
9.120148110052602
 30
0.0
 11
-20.40989233347149
 21
9.076644455689901
 31
0.0
  0
LINE
  5
F101FA
330
261
100
AcDbEntity
  8
Geo
100
AcDbLine
 10
-20.40989233347149
 20
9.076644455689901
 30
0.0
 11
-20.30989233347149
 21
9.0356868581121
 31
0.0
  0
LINE
  5
F101FC
330
261
100
AcDbEntity
  8
Geo
100
AcDbLine
 10
-20.30989233347149
 20
9.0356868581121
 30
0.0
 11
-20.20989233347149
 21
8.997393881945102
 31
0.0
  0
LINE
  5
F101FE
330
261
100
AcDbEntity
  8
Geo
100
AcDbLine
 10
-20.20989233347149
 20
8.997393881945102
 30
0.0
 11
-20.10989233347149
 21
8.961884791319102
 31
0.0
  0
LINE
  5
F10200
330
261
100
AcDbEntity
  8
Geo
100
AcDbLine
 10
-20.10989233347149
 20
8.961884791319102
 30
0.0
 11
-20.00989233347149
 21
8.929279391311304
 31
0.0
  0
LINE
  5
F10202
330
261
100
AcDbEntity
  8
Geo
100
AcDbLine
 10
-20.00989233347149
 20
8.929279391311304
 30
0.0
 11
-19.90989233347149
 21
8.899697860263001
 31
0.0
  0
LINE
  5
F10204
330
261
100
AcDbEntity
  8
Geo
100
AcDbLine
 10
-19.90989233347149
 20
8.899697860263001
 30
0.0
 11
-19.80989233347149
 21
8.873260572862502
 31
0.0
  0
LINE
  5
F10206
330
261
100
AcDbEntity
  8
Geo
100
AcDbLine
 10
-19.80989233347149
 20
8.873260572862502
 30
0.0
 11
-19.70989233347149
 21
8.850087913902402
 31
0.0
  0
LINE
  5
F10208
330
261
100
AcDbEntity
  8
Geo
100
AcDbLine
 10
-19.70989233347149
 20
8.850087913902402
 30
0.0
 11
-19.60989233347149
 21
8.830300082639903
 31
0.0
  0
LINE
  5
F1020A
330
261
100
AcDbEntity
  8
Geo
100
AcDbLine
 10
-19.60989233347149
 20
8.830300082639903
 30
0.0
 11
-19.50989233347149
 21
8.814016887707502
 31
0.0
  0
LINE
  5
F1020C
330
261
100
AcDbEntity
  8
Geo
100
AcDbLine
 10
-19.50989233347149
 20
8.814016887707502
 30
0.0
 11
-19.40989233347149
 21
8.801357532546003
 31
0.0
  0
LINE
  5
F1020E
330
261
100
AcDbEntity
  8
Geo
100
AcDbLine
 10
-19.40989233347149
 20
8.801357532546003
 30
0.0
 11
-19.30989233347149
 21
8.792440391353101
 31
0.0
  0
LINE
  5
F10210
330
261
100
AcDbEntity
  8
Geo
100
AcDbLine
 10
-19.30989233347149
 20
8.792440391353101
 30
0.0
 11
-19.20989233347149
 21
8.7873827755666
 31
0.0
  0
LINE
  5
F10212
330
261
100
AcDbEntity
  8
Geo
100
AcDbLine
 10
-43.10989233347148
 20
18.7727661956521
 30
0.0
 11
-43.00989233347149
 21
18.7775820946809
 31
0.0
  0
LINE
  5
F10214
330
261
100
AcDbEntity
  8
Geo
100
AcDbLine
 10
-43.00989233347149
 20
18.7775820946809
 30
0.0
 11
-42.9098923334715
 21
18.7449264353704
 31
0.0
  0
LINE
  5
F10216
330
261
100
AcDbEntity
  8
Geo
100
AcDbLine
 10
-42.9098923334715
 20
18.7449264353704
 30
0.0
 11
-42.80989233347148
 21
18.6764767246945
 31
0.0
  0
LINE
  5
F10218
330
261
100
AcDbEntity
  8
Geo
100
AcDbLine
 10
-42.80989233347148
 20
18.6764767246945
 30
0.0
 11
-42.70989233347149
 21
18.6070510978512
 31
0.0
  0
LINE
  5
F1021A
330
261
100
AcDbEntity
  8
Geo
100
AcDbLine
 10
-42.70989233347149
 20
18.6070510978512
 30
0.0
 11
-42.60989233347149
 21
18.5366663243477
 31
0.0
  0
LINE
  5
F1021C
330
261
100
AcDbEntity
  8
Geo
100
AcDbLine
 10
-42.60989233347149
 20
18.5366663243477
 30
0.0
 11
-42.50989233347149
 21
18.4653394053697
 31
0.0
  0
LINE
  5
F1021E
330
261
100
AcDbEntity
  8
Geo
100
AcDbLine
 10
-42.50989233347149
 20
18.4653394053697
 30
0.0
 11
-42.40989233347149
 21
18.3930875696743
 31
0.0
  0
LINE
  5
F10220
330
261
100
AcDbEntity
  8
Geo
100
AcDbLine
 10
-42.40989233347149
 20
18.3930875696743
 30
0.0
 11
-42.30989233347148
 21
18.3199282694293
 31
0.0
  0
LINE
  5
F10222
330
261
100
AcDbEntity
  8
Geo
100
AcDbLine
 10
-42.30989233347148
 20
18.3199282694293
 30
0.0
 11
-42.20989233347149
 21
18.2458791759971
 31
0.0
  0
LINE
  5
F10224
330
261
100
AcDbEntity
  8
Geo
100
AcDbLine
 10
-42.20989233347149
 20
18.2458791759971
 30
0.0
 11
-42.10989233347148
 21
18.17095817566631
 31
0.0
  0
LINE
  5
F10226
330
261
100
AcDbEntity
  8
Geo
100
AcDbLine
 10
-42.10989233347148
 20
18.17095817566631
 30
0.0
 11
-42.00989233347149
 21
18.09518336533161
 31
0.0
  0
LINE
  5
F10228
330
261
100
AcDbEntity
  8
Geo
100
AcDbLine
 10
-42.00989233347149
 20
18.09518336533161
 30
0.0
 11
-41.90989233347149
 21
18.0185730481224
 31
0.0
  0
LINE
  5
F1022A
330
261
100
AcDbEntity
  8
Geo
100
AcDbLine
 10
-41.90989233347149
 20
18.0185730481224
 30
0.0
 11
-41.80989233347149
 21
17.9411457289814
 31
0.0
  0
LINE
  5
F1022C
330
261
100
AcDbEntity
  8
Geo
100
AcDbLine
 10
-41.80989233347149
 20
17.9411457289814
 30
0.0
 11
-41.70989233347149
 21
17.8629201101957
 31
0.0
  0
LINE
  5
F1022E
330
261
100
AcDbEntity
  8
Geo
100
AcDbLine
 10
-41.70989233347149
 20
17.8629201101957
 30
0.0
 11
-41.60989233347148
 21
17.7839150868782
 31
0.0
  0
LINE
  5
F10230
330
261
100
AcDbEntity
  8
Geo
100
AcDbLine
 10
-41.60989233347148
 20
17.7839150868782
 30
0.0
 11
-41.50989233347149
 21
17.7041497424046
 31
0.0
  0
LINE
  5
F10232
330
261
100
AcDbEntity
  8
Geo
100
AcDbLine
 10
-41.50989233347149
 20
17.7041497424046
 30
0.0
 11
-41.40989233347149
 21
17.6236433438032
 31
0.0
  0
LINE
  5
F10234
330
261
100
AcDbEntity
  8
Geo
100
AcDbLine
 10
-41.40989233347149
 20
17.6236433438032
 30
0.0
 11
-41.30989233347149
 21
17.5424153371011
 31
0.0
  0
LINE
  5
F10236
330
261
100
AcDbEntity
  8
Geo
100
AcDbLine
 10
-41.30989233347149
 20
17.5424153371011
 30
0.0
 11
-41.20989233347149
 21
17.4604853426273
 31
0.0
  0
LINE
  5
F10238
330
261
100
AcDbEntity
  8
Geo
100
AcDbLine
 10
-41.20989233347149
 20
17.4604853426273
 30
0.0
 11
-41.10989233347148
 21
17.3778731502736
 31
0.0
  0
LINE
  5
F1023A
330
261
100
AcDbEntity
  8
Geo
100
AcDbLine
 10
-41.10989233347148
 20
17.3778731502736
 30
0.0
 11
-41.00989233347148
 21
17.2945987147139
 31
0.0
  0
LINE
  5
F1023C
330
261
100
AcDbEntity
  8
Geo
100
AcDbLine
 10
-41.00989233347148
 20
17.2945987147139
 30
0.0
 11
-40.9098923334715
 21
17.2106821505847
 31
0.0
  0
LINE
  5
F1023E
330
261
100
AcDbEntity
  8
Geo
100
AcDbLine
 10
-40.9098923334715
 20
17.2106821505847
 30
0.0
 11
-40.80989233347149
 21
17.1261437276262
 31
0.0
  0
LINE
  5
F10240
330
261
100
AcDbEntity
  8
Geo
100
AcDbLine
 10
-40.80989233347149
 20
17.1261437276262
 30
0.0
 11
-40.70989233347149
 21
17.04100386578661
 31
0.0
  0
LINE
  5
F10242
330
261
100
AcDbEntity
  8
Geo
100
AcDbLine
 10
-40.70989233347149
 20
17.04100386578661
 30
0.0
 11
-40.60989233347148
 21
16.9552831302891
 31
0.0
  0
LINE
  5
F10244
330
261
100
AcDbEntity
  8
Geo
100
AcDbLine
 10
-40.60989233347148
 20
16.9552831302891
 30
0.0
 11
-40.50989233347149
 21
16.8690022266651
 31
0.0
  0
LINE
  5
F10246
330
261
100
AcDbEntity
  8
Geo
100
AcDbLine
 10
-40.50989233347149
 20
16.8690022266651
 30
0.0
 11
-40.4098923334715
 21
16.7821819957525
 31
0.0
  0
LINE
  5
F10248
330
261
100
AcDbEntity
  8
Geo
100
AcDbLine
 10
-40.4098923334715
 20
16.7821819957525
 30
0.0
 11
-40.30989233347148
 21
16.6948434086616
 31
0.0
  0
LINE
  5
F1024A
330
261
100
AcDbEntity
  8
Geo
100
AcDbLine
 10
-40.30989233347148
 20
16.6948434086616
 30
0.0
 11
-40.20989233347149
 21
16.60700756171
 31
0.0
  0
LINE
  5
F1024C
330
261
100
AcDbEntity
  8
Geo
100
AcDbLine
 10
-40.20989233347149
 20
16.60700756171
 30
0.0
 11
-40.10989233347149
 21
16.5186956713263
 31
0.0
  0
LINE
  5
F1024E
330
261
100
AcDbEntity
  8
Geo
100
AcDbLine
 10
-40.10989233347149
 20
16.5186956713263
 30
0.0
 11
-40.00989233347149
 21
16.429929068926
 31
0.0
  0
LINE
  5
F10250
330
261
100
AcDbEntity
  8
Geo
100
AcDbLine
 10
-40.00989233347149
 20
16.429929068926
 30
0.0
 11
-39.9098923334715
 21
16.34072919575831
 31
0.0
  0
LINE
  5
F10252
330
261
100
AcDbEntity
  8
Geo
100
AcDbLine
 10
-39.9098923334715
 20
16.34072919575831
 30
0.0
 11
-39.80989233347149
 21
16.2511175977275
 31
0.0
  0
LINE
  5
F10254
330
261
100
AcDbEntity
  8
Geo
100
AcDbLine
 10
-39.80989233347149
 20
16.2511175977275
 30
0.0
 11
-39.70989233347149
 21
16.1611159201888
 31
0.0
  0
LINE
  5
F10256
330
261
100
AcDbEntity
  8
Geo
100
AcDbLine
 10
-39.70989233347149
 20
16.1611159201888
 30
0.0
 11
-39.60989233347149
 21
16.0707459027192
 31
0.0
  0
LINE
  5
F10258
330
261
100
AcDbEntity
  8
Geo
100
AcDbLine
 10
-39.60989233347149
 20
16.0707459027192
 30
0.0
 11
-39.50989233347149
 21
15.9800293738673
 31
0.0
  0
LINE
  5
F1025A
330
261
100
AcDbEntity
  8
Geo
100
AcDbLine
 10
-39.50989233347149
 20
15.9800293738673
 30
0.0
 11
-39.4098923334715
 21
15.8889882458799
 31
0.0
  0
LINE
  5
F1025C
330
261
100
AcDbEntity
  8
Geo
100
AcDbLine
 10
-39.4098923334715
 20
15.8889882458799
 30
0.0
 11
-39.30989233347149
 21
15.7976445094099
 31
0.0
  0
LINE
  5
F1025E
330
261
100
AcDbEntity
  8
Geo
100
AcDbLine
 10
-39.30989233347149
 20
15.7976445094099
 30
0.0
 11
-39.2098923334715
 21
15.7060202282039
 31
0.0
  0
LINE
  5
F10260
330
261
100
AcDbEntity
  8
Geo
100
AcDbLine
 10
-39.2098923334715
 20
15.7060202282039
 30
0.0
 11
-39.10989233347148
 21
15.6141375337732
 31
0.0
  0
LINE
  5
F10262
330
261
100
AcDbEntity
  8
Geo
100
AcDbLine
 10
-39.10989233347148
 20
15.6141375337732
 30
0.0
 11
-39.00989233347149
 21
15.5220186200478
 31
0.0
  0
LINE
  5
F10264
330
261
100
AcDbEntity
  8
Geo
100
AcDbLine
 10
-39.00989233347149
 20
15.5220186200478
 30
0.0
 11
-38.9098923334715
 21
15.4296857380156
 31
0.0
  0
LINE
  5
F10266
330
261
100
AcDbEntity
  8
Geo
100
AcDbLine
 10
-38.9098923334715
 20
15.4296857380156
 30
0.0
 11
-38.80989233347149
 21
15.3371611903479
 31
0.0
  0
LINE
  5
F10268
330
261
100
AcDbEntity
  8
Geo
100
AcDbLine
 10
-38.80989233347149
 20
15.3371611903479
 30
0.0
 11
-38.70989233347149
 21
15.2444673260119
 31
0.0
  0
LINE
  5
F1026A
330
261
100
AcDbEntity
  8
Geo
100
AcDbLine
 10
-38.70989233347149
 20
15.2444673260119
 30
0.0
 11
-38.60989233347149
 21
15.1516265348729
 31
0.0
  0
LINE
  5
F1026C
330
261
100
AcDbEntity
  8
Geo
100
AcDbLine
 10
-38.60989233347149
 20
15.1516265348729
 30
0.0
 11
-38.50989233347149
 21
15.0586612422856
 31
0.0
  0
LINE
  5
F1026E
330
261
100
AcDbEntity
  8
Geo
100
AcDbLine
 10
-38.50989233347149
 20
15.0586612422856
 30
0.0
 11
-38.4098923334715
 21
14.9655939036777
 31
0.0
  0
LINE
  5
F10270
330
261
100
AcDbEntity
  8
Geo
100
AcDbLine
 10
-38.4098923334715
 20
14.9655939036777
 30
0.0
 11
-38.30989233347149
 21
14.8724469991257
 31
0.0
  0
LINE
  5
F10272
330
261
100
AcDbEntity
  8
Geo
100
AcDbLine
 10
-38.30989233347149
 20
14.8724469991257
 30
0.0
 11
-38.2098923334715
 21
14.7792430279251
 31
0.0
  0
LINE
  5
F10274
330
261
100
AcDbEntity
  8
Geo
100
AcDbLine
 10
-38.2098923334715
 20
14.7792430279251
 30
0.0
 11
-38.10989233347149
 21
14.6860045031553
 31
0.0
  0
LINE
  5
F10276
330
261
100
AcDbEntity
  8
Geo
100
AcDbLine
 10
-38.10989233347149
 20
14.6860045031553
 30
0.0
 11
-38.00989233347149
 21
14.5927539462424
 31
0.0
  0
LINE
  5
F10278
330
261
100
AcDbEntity
  8
Geo
100
AcDbLine
 10
-38.00989233347149
 20
14.5927539462424
 30
0.0
 11
-37.9098923334715
 21
14.4995138815184
 31
0.0
  0
LINE
  5
F1027A
330
261
100
AcDbEntity
  8
Geo
100
AcDbLine
 10
-37.9098923334715
 20
14.4995138815184
 30
0.0
 11
-37.80989233347149
 21
14.4063068307814
 31
0.0
  0
LINE
  5
F1027C
330
261
100
AcDbEntity
  8
Geo
100
AcDbLine
 10
-37.80989233347149
 20
14.4063068307814
 30
0.0
 11
-37.7098923334715
 21
14.3131553078548
 31
0.0
  0
LINE
  5
F1027E
330
261
100
AcDbEntity
  8
Geo
100
AcDbLine
 10
-37.7098923334715
 20
14.3131553078548
 30
0.0
 11
-37.60989233347149
 21
14.2200818131495
 31
0.0
  0
LINE
  5
F10280
330
261
100
AcDbEntity
  8
Geo
100
AcDbLine
 10
-37.60989233347149
 20
14.2200818131495
 30
0.0
 11
-37.50989233347149
 21
14.127108828229
 31
0.0
  0
LINE
  5
F10282
330
261
100
AcDbEntity
  8
Geo
100
AcDbLine
 10
-37.50989233347149
 20
14.127108828229
 30
0.0
 11
-37.4098923334715
 21
14.034258810379
 31
0.0
  0
LINE
  5
F10284
330
261
100
AcDbEntity
  8
Geo
100
AcDbLine
 10
-37.4098923334715
 20
14.034258810379
 30
0.0
 11
-37.30989233347149
 21
13.941554187183
 31
0.0
  0
LINE
  5
F10286
330
261
100
AcDbEntity
  8
Geo
100
AcDbLine
 10
-37.30989233347149
 20
13.941554187183
 30
0.0
 11
-37.20989233347149
 21
13.8490173511049
 31
0.0
  0
LINE
  5
F10288
330
261
100
AcDbEntity
  8
Geo
100
AcDbLine
 10
-37.20989233347149
 20
13.8490173511049
 30
0.0
 11
-37.10989233347149
 21
13.7566706540804
 31
0.0
  0
LINE
  5
F1028A
330
261
100
AcDbEntity
  8
Geo
100
AcDbLine
 10
-37.10989233347149
 20
13.7566706540804
 30
0.0
 11
-37.00989233347149
 21
13.6645364021174
 31
0.0
  0
LINE
  5
F1028C
330
261
100
AcDbEntity
  8
Geo
100
AcDbLine
 10
-37.00989233347149
 20
13.6645364021174
 30
0.0
 11
-36.9098923334715
 21
13.572636849909
 31
0.0
  0
LINE
  5
F1028E
330
261
100
AcDbEntity
  8
Geo
100
AcDbLine
 10
-36.9098923334715
 20
13.572636849909
 30
0.0
 11
-36.80989233347149
 21
13.480994195457
 31
0.0
  0
LINE
  5
F10290
330
261
100
AcDbEntity
  8
Geo
100
AcDbLine
 10
-36.80989233347149
 20
13.480994195457
 30
0.0
 11
-36.7098923334715
 21
13.3896305747106
 31
0.0
  0
LINE
  5
F10292
330
261
100
AcDbEntity
  8
Geo
100
AcDbLine
 10
-36.7098923334715
 20
13.3896305747106
 30
0.0
 11
-36.60989233347148
 21
13.2985680562196
 31
0.0
  0
LINE
  5
F10294
330
261
100
AcDbEntity
  8
Geo
100
AcDbLine
 10
-36.60989233347148
 20
13.2985680562196
 30
0.0
 11
-36.50989233347149
 21
13.2078286358035
 31
0.0
  0
LINE
  5
F10296
330
261
100
AcDbEntity
  8
Geo
100
AcDbLine
 10
-36.50989233347149
 20
13.2078286358035
 30
0.0
 11
-36.4098923334715
 21
13.1174342312387
 31
0.0
  0
LINE
  5
F10298
330
261
100
AcDbEntity
  8
Geo
100
AcDbLine
 10
-36.4098923334715
 20
13.1174342312387
 30
0.0
 11
-36.30989233347149
 21
13.0274066769641
 31
0.0
  0
LINE
  5
F1029A
330
261
100
AcDbEntity
  8
Geo
100
AcDbLine
 10
-36.30989233347149
 20
13.0274066769641
 30
0.0
 11
-36.20989233347149
 21
12.9377677188074
 31
0.0
  0
LINE
  5
F1029C
330
261
100
AcDbEntity
  8
Geo
100
AcDbLine
 10
-36.20989233347149
 20
12.9377677188074
 30
0.0
 11
-36.10989233347149
 21
12.8485390087324
 31
0.0
  0
LINE
  5
F1029E
330
261
100
AcDbEntity
  8
Geo
100
AcDbLine
 10
-36.10989233347149
 20
12.8485390087324
 30
0.0
 11
-36.00989233347149
 21
12.7597420996088
 31
0.0
  0
LINE
  5
F102A0
330
261
100
AcDbEntity
  8
Geo
100
AcDbLine
 10
-36.00989233347149
 20
12.7597420996088
 30
0.0
 11
-35.9098923334715
 21
12.6713984400065
 31
0.0
  0
LINE
  5
F102A2
330
261
100
AcDbEntity
  8
Geo
100
AcDbLine
 10
-35.9098923334715
 20
12.6713984400065
 30
0.0
 11
-35.80989233347149
 21
12.5835293690145
 31
0.0
  0
LINE
  5
F102A4
330
261
100
AcDbEntity
  8
Geo
100
AcDbLine
 10
-35.80989233347149
 20
12.5835293690145
 30
0.0
 11
-35.7098923334715
 21
12.4961561110867
 31
0.0
  0
LINE
  5
F102A6
330
261
100
AcDbEntity
  8
Geo
100
AcDbLine
 10
-35.7098923334715
 20
12.4961561110867
 30
0.0
 11
-35.60989233347149
 21
12.4092997709152
 31
0.0
  0
LINE
  5
F102A8
330
261
100
AcDbEntity
  8
Geo
100
AcDbLine
 10
-35.60989233347149
 20
12.4092997709152
 30
0.0
 11
-35.50989233347149
 21
12.3229813283325
 31
0.0
  0
LINE
  5
F102AA
330
261
100
AcDbEntity
  8
Geo
100
AcDbLine
 10
-35.50989233347149
 20
12.3229813283325
 30
0.0
 11
-35.4098923334715
 21
12.2372216332438
 31
0.0
  0
LINE
  5
F102AC
330
261
100
AcDbEntity
  8
Geo
100
AcDbLine
 10
-35.4098923334715
 20
12.2372216332438
 30
0.0
 11
-35.30989233347149
 21
12.1520414005911
 31
0.0
  0
LINE
  5
F102AE
330
261
100
AcDbEntity
  8
Geo
100
AcDbLine
 10
-35.30989233347149
 20
12.1520414005911
 30
0.0
 11
-35.2098923334715
 21
12.067461205349
 31
0.0
  0
LINE
  5
F102B0
330
261
100
AcDbEntity
  8
Geo
100
AcDbLine
 10
-35.2098923334715
 20
12.067461205349
 30
0.0
 11
-35.10989233347149
 21
11.9835014775556
 31
0.0
  0
LINE
  5
F102B2
330
261
100
AcDbEntity
  8
Geo
100
AcDbLine
 10
-35.10989233347149
 20
11.9835014775556
 30
0.0
 11
-35.00989233347149
 21
11.9001824973772
 31
0.0
  0
LINE
  5
F102B4
330
261
100
AcDbEntity
  8
Geo
100
AcDbLine
 10
-35.00989233347149
 20
11.9001824973772
 30
0.0
 11
-34.9098923334715
 21
11.8175243902097
 31
0.0
  0
LINE
  5
F102B6
330
261
100
AcDbEntity
  8
Geo
100
AcDbLine
 10
-34.9098923334715
 20
11.8175243902097
 30
0.0
 11
-34.80989233347149
 21
11.7355471218179
 31
0.0
  0
LINE
  5
F102B8
330
261
100
AcDbEntity
  8
Geo
100
AcDbLine
 10
-34.80989233347149
 20
11.7355471218179
 30
0.0
 11
-34.70989233347149
 21
11.6542704935122
 31
0.0
  0
LINE
  5
F102BA
330
261
100
AcDbEntity
  8
Geo
100
AcDbLine
 10
-34.70989233347149
 20
11.6542704935122
 30
0.0
 11
-34.60989233347149
 21
11.5737141373659
 31
0.0
  0
LINE
  5
F102BC
330
261
100
AcDbEntity
  8
Geo
100
AcDbLine
 10
-34.60989233347149
 20
11.5737141373659
 30
0.0
 11
-34.50989233347149
 21
11.4938975114733
 31
0.0
  0
LINE
  5
F102BE
330
261
100
AcDbEntity
  8
Geo
100
AcDbLine
 10
-34.50989233347149
 20
11.4938975114733
 30
0.0
 11
-34.4098923334715
 21
11.4148398952497
 31
0.0
  0
LINE
  5
F102C0
330
261
100
AcDbEntity
  8
Geo
100
AcDbLine
 10
-34.4098923334715
 20
11.4148398952497
 30
0.0
 11
-34.30989233347149
 21
11.3365603847741
 31
0.0
  0
LINE
  5
F102C2
330
261
100
AcDbEntity
  8
Geo
100
AcDbLine
 10
-34.30989233347149
 20
11.3365603847741
 30
0.0
 11
-34.2098923334715
 21
11.259077888177
 31
0.0
  0
LINE
  5
F102C4
330
261
100
AcDbEntity
  8
Geo
100
AcDbLine
 10
-34.2098923334715
 20
11.259077888177
 30
0.0
 11
-34.10989233347148
 21
11.1824111210732
 31
0.0
  0
LINE
  5
F102C6
330
261
100
AcDbEntity
  8
Geo
100
AcDbLine
 10
-34.10989233347148
 20
11.1824111210732
 30
0.0
 11
-34.00989233347149
 21
11.1065786020408
 31
0.0
  0
LINE
  5
F102C8
330
261
100
AcDbEntity
  8
Geo
100
AcDbLine
 10
-34.00989233347149
 20
11.1065786020408
 30
0.0
 11
-33.9098923334715
 21
11.0315986481486
 31
0.0
  0
LINE
  5
F102CA
330
261
100
AcDbEntity
  8
Geo
100
AcDbLine
 10
-33.9098923334715
 20
11.0315986481486
 30
0.0
 11
-33.80989233347149
 21
10.9574893705311
 31
0.0
  0
LINE
  5
F102CC
330
261
100
AcDbEntity
  8
Geo
100
AcDbLine
 10
-33.80989233347149
 20
10.9574893705311
 30
0.0
 11
-33.70989233347149
 21
10.8842686700143
 31
0.0
  0
LINE
  5
F102CE
330
261
100
AcDbEntity
  8
Geo
100
AcDbLine
 10
-33.70989233347149
 20
10.8842686700143
 30
0.0
 11
-33.60989233347149
 21
10.8119542327916
 31
0.0
  0
LINE
  5
F102D0
330
261
100
AcDbEntity
  8
Geo
100
AcDbLine
 10
-33.60989233347149
 20
10.8119542327916
 30
0.0
 11
-33.50989233347149
 21
10.7405635261519
 31
0.0
  0
LINE
  5
F102D2
330
261
100
AcDbEntity
  8
Geo
100
AcDbLine
 10
-33.50989233347149
 20
10.7405635261519
 30
0.0
 11
-33.4098923334715
 21
10.6701137942601
 31
0.0
  0
LINE
  5
F102D4
330
261
100
AcDbEntity
  8
Geo
100
AcDbLine
 10
-33.4098923334715
 20
10.6701137942601
 30
0.0
 11
-33.30989233347149
 21
10.6006220539923
 31
0.0
  0
LINE
  5
F102D6
330
261
100
AcDbEntity
  8
Geo
100
AcDbLine
 10
-33.30989233347149
 20
10.6006220539923
 30
0.0
 11
-33.2098923334715
 21
10.5321050908252
 31
0.0
  0
LINE
  5
F102D8
330
261
100
AcDbEntity
  8
Geo
100
AcDbLine
 10
-33.2098923334715
 20
10.5321050908252
 30
0.0
 11
-33.10989233347149
 21
10.4645794547815
 31
0.0
  0
LINE
  5
F102DA
330
261
100
AcDbEntity
  8
Geo
100
AcDbLine
 10
-33.10989233347149
 20
10.4645794547815
 30
0.0
 11
-33.00989233347149
 21
10.3980614564325
 31
0.0
  0
LINE
  5
F102DC
330
261
100
AcDbEntity
  8
Geo
100
AcDbLine
 10
-33.00989233347149
 20
10.3980614564325
 30
0.0
 11
-32.9098923334715
 21
10.3325671629584
 31
0.0
  0
LINE
  5
F102DE
330
261
100
AcDbEntity
  8
Geo
100
AcDbLine
 10
-32.9098923334715
 20
10.3325671629584
 30
0.0
 11
-32.80989233347149
 21
10.268112394267
 31
0.0
  0
LINE
  5
F102E0
330
261
100
AcDbEntity
  8
Geo
100
AcDbLine
 10
-32.80989233347149
 20
10.268112394267
 30
0.0
 11
-32.7098923334715
 21
10.204712719173
 31
0.0
  0
LINE
  5
F102E2
330
261
100
AcDbEntity
  8
Geo
100
AcDbLine
 10
-32.7098923334715
 20
10.204712719173
 30
0.0
 11
-32.60989233347149
 21
10.1423834516368
 31
0.0
  0
LINE
  5
F102E4
330
261
100
AcDbEntity
  8
Geo
100
AcDbLine
 10
-32.60989233347149
 20
10.1423834516368
 30
0.0
 11
-32.50989233347149
 21
10.0811396470659
 31
0.0
  0
LINE
  5
F102E6
330
261
100
AcDbEntity
  8
Geo
100
AcDbLine
 10
-32.50989233347149
 20
10.0811396470659
 30
0.0
 11
-32.4098923334715
 21
10.020996098678
 31
0.0
  0
LINE
  5
F102E8
330
261
100
AcDbEntity
  8
Geo
100
AcDbLine
 10
-32.4098923334715
 20
10.020996098678
 30
0.0
 11
-32.30989233347149
 21
9.961967333928102
 31
0.0
  0
LINE
  5
F102EA
330
261
100
AcDbEntity
  8
Geo
100
AcDbLine
 10
-32.30989233347149
 20
9.961967333928102
 30
0.0
 11
-32.20989233347149
 21
9.904067610999401
 31
0.0
  0
LINE
  5
F102EC
330
261
100
AcDbEntity
  8
Geo
100
AcDbLine
 10
-32.20989233347149
 20
9.904067610999401
 30
0.0
 11
-32.10989233347149
 21
9.847310915358702
 31
0.0
  0
LINE
  5
F102EE
330
261
100
AcDbEntity
  8
Geo
100
AcDbLine
 10
-32.10989233347149
 20
9.847310915358702
 30
0.0
 11
-32.00989233347149
 21
9.791710956379302
 31
0.0
  0
LINE
  5
F102F0
330
261
100
AcDbEntity
  8
Geo
100
AcDbLine
 10
-32.00989233347149
 20
9.791710956379302
 30
0.0
 11
-31.9098923334715
 21
9.737281164028503
 31
0.0
  0
LINE
  5
F102F2
330
261
100
AcDbEntity
  8
Geo
100
AcDbLine
 10
-31.9098923334715
 20
9.737281164028503
 30
0.0
 11
-31.80989233347149
 21
9.684034685624403
 31
0.0
  0
LINE
  5
F102F4
330
261
100
AcDbEntity
  8
Geo
100
AcDbLine
 10
-31.80989233347149
 20
9.684034685624403
 30
0.0
 11
-31.7098923334715
 21
9.631984382659803
 31
0.0
  0
LINE
  5
F102F6
330
261
100
AcDbEntity
  8
Geo
100
AcDbLine
 10
-31.7098923334715
 20
9.631984382659803
 30
0.0
 11
-31.60989233347148
 21
9.5811428276957
 31
0.0
  0
LINE
  5
F102F8
330
261
100
AcDbEntity
  8
Geo
100
AcDbLine
 10
-31.60989233347148
 20
9.5811428276957
 30
0.0
 11
-31.50989233347149
 21
9.531522301324402
 31
0.0
  0
LINE
  5
F102FA
330
261
100
AcDbEntity
  8
Geo
100
AcDbLine
 10
-31.50989233347149
 20
9.531522301324402
 30
0.0
 11
-31.4098923334715
 21
9.483134789203402
 31
0.0
  0
LINE
  5
F102FC
330
261
100
AcDbEntity
  8
Geo
100
AcDbLine
 10
-31.4098923334715
 20
9.483134789203402
 30
0.0
 11
-31.30989233347149
 21
9.435991979159702
 31
0.0
  0
LINE
  5
F102FE
330
261
100
AcDbEntity
  8
Geo
100
AcDbLine
 10
-31.30989233347149
 20
9.435991979159702
 30
0.0
 11
-31.20989233347149
 21
9.390105258367501
 31
0.0
  0
LINE
  5
F10300
330
261
100
AcDbEntity
  8
Geo
100
AcDbLine
 10
-31.20989233347149
 20
9.390105258367501
 30
0.0
 11
-31.10989233347149
 21
9.345485710596804
 31
0.0
  0
LINE
  5
F10302
330
261
100
AcDbEntity
  8
Geo
100
AcDbLine
 10
-31.10989233347149
 20
9.345485710596804
 30
0.0
 11
-31.00989233347149
 21
9.302144113537003
 31
0.0
  0
LINE
  5
F10304
330
261
100
AcDbEntity
  8
Geo
100
AcDbLine
 10
-31.00989233347149
 20
9.302144113537003
 30
0.0
 11
-30.9098923334715
 21
9.260090936192701
 31
0.0
  0
LINE
  5
F10306
330
261
100
AcDbEntity
  8
Geo
100
AcDbLine
 10
-30.9098923334715
 20
9.260090936192701
 30
0.0
 11
-30.80989233347149
 21
9.219336336355802
 31
0.0
  0
LINE
  5
F10308
330
261
100
AcDbEntity
  8
Geo
100
AcDbLine
 10
-30.80989233347149
 20
9.219336336355802
 30
0.0
 11
-30.7098923334715
 21
9.179890158151401
 31
0.0
  0
LINE
  5
F1030A
330
261
100
AcDbEntity
  8
Geo
100
AcDbLine
 10
-30.7098923334715
 20
9.179890158151401
 30
0.0
 11
-30.60989233347149
 21
9.141761929660003
 31
0.0
  0
LINE
  5
F1030C
330
261
100
AcDbEntity
  8
Geo
100
AcDbLine
 10
-30.60989233347149
 20
9.141761929660003
 30
0.0
 11
-30.50989233347149
 21
9.104960860616301
 31
0.0
  0
LINE
  5
F1030E
330
261
100
AcDbEntity
  8
Geo
100
AcDbLine
 10
-30.50989233347149
 20
9.104960860616301
 30
0.0
 11
-30.4098923334715
 21
9.069495840184501
 31
0.0
  0
LINE
  5
F10310
330
261
100
AcDbEntity
  8
Geo
100
AcDbLine
 10
-30.4098923334715
 20
9.069495840184501
 30
0.0
 11
-30.30989233347149
 21
9.035375434810902
 31
0.0
  0
LINE
  5
F10312
330
261
100
AcDbEntity
  8
Geo
100
AcDbLine
 10
-30.30989233347149
 20
9.035375434810902
 30
0.0
 11
-30.2098923334715
 21
9.002607886155301
 31
0.0
  0
LINE
  5
F10314
330
261
100
AcDbEntity
  8
Geo
100
AcDbLine
 10
-30.2098923334715
 20
9.002607886155301
 30
0.0
 11
-30.10989233347149
 21
8.971201109099501
 31
0.0
  0
LINE
  5
F10316
330
261
100
AcDbEntity
  8
Geo
100
AcDbLine
 10
-30.10989233347149
 20
8.971201109099501
 30
0.0
 11
-30.00989233347149
 21
8.941162689836003
 31
0.0
  0
LINE
  5
F10318
330
261
100
AcDbEntity
  8
Geo
100
AcDbLine
 10
-30.00989233347149
 20
8.941162689836003
 30
0.0
 11
-29.9098923334715
 21
8.912499884035803
 31
0.0
  0
LINE
  5
F1031A
330
261
100
AcDbEntity
  8
Geo
100
AcDbLine
 10
-29.9098923334715
 20
8.912499884035803
 30
0.0
 11
-29.80989233347149
 21
8.885219615094902
 31
0.0
  0
LINE
  5
F1031C
330
261
100
AcDbEntity
  8
Geo
100
AcDbLine
 10
-29.80989233347149
 20
8.885219615094902
 30
0.0
 11
-29.70989233347149
 21
8.859328472463001
 31
0.0
  0
LINE
  5
F1031E
330
261
100
AcDbEntity
  8
Geo
100
AcDbLine
 10
-29.70989233347149
 20
8.859328472463001
 30
0.0
 11
-29.60989233347149
 21
8.834832710051202
 31
0.0
  0
LINE
  5
F10320
330
261
100
AcDbEntity
  8
Geo
100
AcDbLine
 10
-29.60989233347149
 20
8.834832710051202
 30
0.0
 11
-29.50989233347149
 21
8.811738244721803
 31
0.0
  0
LINE
  5
F10322
330
261
100
AcDbEntity
  8
Geo
100
AcDbLine
 10
-29.50989233347149
 20
8.811738244721803
 30
0.0
 11
-29.4098923334715
 21
8.790050654858502
 31
0.0
  0
LINE
  5
F10324
330
261
100
AcDbEntity
  8
Geo
100
AcDbLine
 10
-29.4098923334715
 20
8.790050654858502
 30
0.0
 11
-29.30989233347149
 21
8.769775179019802
 31
0.0
  0
LINE
  5
F10326
330
261
100
AcDbEntity
  8
Geo
100
AcDbLine
 10
-29.30989233347149
 20
8.769775179019802
 30
0.0
 11
-29.2098923334715
 21
8.750916714673001
 31
0.0
  0
LINE
  5
F10328
330
261
100
AcDbEntity
  8
Geo
100
AcDbLine
 10
-29.2098923334715
 20
8.750916714673001
 30
0.0
 11
-29.10989233347148
 21
8.733479817011303
 31
0.0
  0
LINE
  5
F1032A
330
261
100
AcDbEntity
  8
Geo
100
AcDbLine
 10
-29.10989233347148
 20
8.733479817011303
 30
0.0
 11
-29.00989233347149
 21
8.717468697853803
 31
0.0
  0
LINE
  5
F1032C
330
261
100
AcDbEntity
  8
Geo
100
AcDbLine
 10
-29.00989233347149
 20
8.717468697853803
 30
0.0
 11
-28.9098923334715
 21
8.702887224628202
 31
0.0
  0
LINE
  5
F1032E
330
261
100
AcDbEntity
  8
Geo
100
AcDbLine
 10
-28.9098923334715
 20
8.702887224628202
 30
0.0
 11
-28.80989233347149
 21
8.689738919436001
 31
0.0
  0
LINE
  5
F10330
330
261
100
AcDbEntity
  8
Geo
100
AcDbLine
 10
-28.80989233347149
 20
8.689738919436001
 30
0.0
 11
-28.70989233347149
 21
8.678026958202602
 31
0.0
  0
LINE
  5
F10332
330
261
100
AcDbEntity
  8
Geo
100
AcDbLine
 10
-28.70989233347149
 20
8.678026958202602
 30
0.0
 11
-28.60989233347149
 21
8.667754169909402
 31
0.0
  0
LINE
  5
F10334
330
261
100
AcDbEntity
  8
Geo
100
AcDbLine
 10
-28.60989233347149
 20
8.667754169909402
 30
0.0
 11
-28.50989233347149
 21
8.658923035911001
 31
0.0
  0
LINE
  5
F10336
330
261
100
AcDbEntity
  8
Geo
100
AcDbLine
 10
-28.50989233347149
 20
8.658923035911001
 30
0.0
 11
-28.4098923334715
 21
8.6515356893357
 31
0.0
  0
LINE
  5
F10338
330
261
100
AcDbEntity
  8
Geo
100
AcDbLine
 10
-28.4098923334715
 20
8.6515356893357
 30
0.0
 11
-28.30989233347149
 21
8.645593914570202
 31
0.0
  0
LINE
  5
F1033A
330
261
100
AcDbEntity
  8
Geo
100
AcDbLine
 10
-28.30989233347149
 20
8.645593914570202
 30
0.0
 11
-28.2098923334715
 21
8.641099146828302
 31
0.0
  0
LINE
  5
F1033C
330
261
100
AcDbEntity
  8
Geo
100
AcDbLine
 10
-28.2098923334715
 20
8.641099146828302
 30
0.0
 11
-28.10989233347149
 21
8.638052471805101
 31
0.0
  0
LINE
  5
F1033E
330
261
100
AcDbEntity
  8
Geo
100
AcDbLine
 10
-28.10989233347149
 20
8.638052471805101
 30
0.0
 11
-28.00989233347149
 21
8.6364546254136
 31
0.0
  0
LINE
  5
F10340
330
261
100
AcDbEntity
  8
Geo
100
AcDbLine
 10
-43.10989233347148
 20
15.9521551936224
 30
0.0
 11
-43.00989233347149
 21
15.8843879770585
 31
0.0
  0
LINE
  5
F10342
330
261
100
AcDbEntity
  8
Geo
100
AcDbLine
 10
-43.00989233347149
 20
15.8843879770585
 30
0.0
 11
-42.9098923334715
 21
15.8035521630671
 31
0.0
  0
LINE
  5
F10344
330
261
100
AcDbEntity
  8
Geo
100
AcDbLine
 10
-42.9098923334715
 20
15.8035521630671
 30
0.0
 11
-42.80989233347148
 21
15.7119453315578
 31
0.0
  0
LINE
  5
F10346
330
261
100
AcDbEntity
  8
Geo
100
AcDbLine
 10
-42.80989233347148
 20
15.7119453315578
 30
0.0
 11
-42.70989233347149
 21
15.6200786556367
 31
0.0
  0
LINE
  5
F10348
330
261
100
AcDbEntity
  8
Geo
100
AcDbLine
 10
-42.70989233347149
 20
15.6200786556367
 30
0.0
 11
-42.60989233347149
 21
15.5279743253645
 31
0.0
  0
LINE
  5
F1034A
330
261
100
AcDbEntity
  8
Geo
100
AcDbLine
 10
-42.60989233347149
 20
15.5279743253645
 30
0.0
 11
-42.50989233347149
 21
15.4356545882067
 31
0.0
  0
LINE
  5
F1034C
330
261
100
AcDbEntity
  8
Geo
100
AcDbLine
 10
-42.50989233347149
 20
15.4356545882067
 30
0.0
 11
-42.40989233347149
 21
15.3431417436593
 31
0.0
  0
LINE
  5
F1034E
330
261
100
AcDbEntity
  8
Geo
100
AcDbLine
 10
-42.40989233347149
 20
15.3431417436593
 30
0.0
 11
-42.30989233347148
 21
15.2504581378628
 31
0.0
  0
LINE
  5
F10350
330
261
100
AcDbEntity
  8
Geo
100
AcDbLine
 10
-42.30989233347148
 20
15.2504581378628
 30
0.0
 11
-42.20989233347149
 21
15.1576261582045
 31
0.0
  0
LINE
  5
F10352
330
261
100
AcDbEntity
  8
Geo
100
AcDbLine
 10
-42.20989233347149
 20
15.1576261582045
 30
0.0
 11
-42.10989233347148
 21
15.0646682279107
 31
0.0
  0
LINE
  5
F10354
330
261
100
AcDbEntity
  8
Geo
100
AcDbLine
 10
-42.10989233347148
 20
15.0646682279107
 30
0.0
 11
-42.00989233347149
 21
14.9716068006309
 31
0.0
  0
LINE
  5
F10356
330
261
100
AcDbEntity
  8
Geo
100
AcDbLine
 10
-42.00989233347149
 20
14.9716068006309
 30
0.0
 11
-41.90989233347149
 21
14.8784643550136
 31
0.0
  0
LINE
  5
F10358
330
261
100
AcDbEntity
  8
Geo
100
AcDbLine
 10
-41.90989233347149
 20
14.8784643550136
 30
0.0
 11
-41.80989233347149
 21
14.7852633892773
 31
0.0
  0
LINE
  5
F1035A
330
261
100
AcDbEntity
  8
Geo
100
AcDbLine
 10
-41.80989233347149
 20
14.7852633892773
 30
0.0
 11
-41.70989233347149
 21
14.6920264157755
 31
0.0
  0
LINE
  5
F1035C
330
261
100
AcDbEntity
  8
Geo
100
AcDbLine
 10
-41.70989233347149
 20
14.6920264157755
 30
0.0
 11
-41.60989233347148
 21
14.5987759555594
 31
0.0
  0
LINE
  5
F1035E
330
261
100
AcDbEntity
  8
Geo
100
AcDbLine
 10
-41.60989233347148
 20
14.5987759555594
 30
0.0
 11
-41.50989233347149
 21
14.505534532938
 31
0.0
  0
LINE
  5
F10360
330
261
100
AcDbEntity
  8
Geo
100
AcDbLine
 10
-41.50989233347149
 20
14.505534532938
 30
0.0
 11
-41.40989233347149
 21
14.4123246700371
 31
0.0
  0
LINE
  5
F10362
330
261
100
AcDbEntity
  8
Geo
100
AcDbLine
 10
-41.40989233347149
 20
14.4123246700371
 30
0.0
 11
-41.30989233347149
 21
14.3191688813594
 31
0.0
  0
LINE
  5
F10364
330
261
100
AcDbEntity
  8
Geo
100
AcDbLine
 10
-41.30989233347149
 20
14.3191688813594
 30
0.0
 11
-41.20989233347149
 21
14.2260896683463
 31
0.0
  0
LINE
  5
F10366
330
261
100
AcDbEntity
  8
Geo
100
AcDbLine
 10
-41.20989233347149
 20
14.2260896683463
 30
0.0
 11
-41.10989233347148
 21
14.1331095139424
 31
0.0
  0
LINE
  5
F10368
330
261
100
AcDbEntity
  8
Geo
100
AcDbLine
 10
-41.10989233347148
 20
14.1331095139424
 30
0.0
 11
-41.00989233347148
 21
14.0402508771653
 31
0.0
  0
LINE
  5
F1036A
330
261
100
AcDbEntity
  8
Geo
100
AcDbLine
 10
-41.00989233347148
 20
14.0402508771653
 30
0.0
 11
-40.9098923334715
 21
13.9475361876803
 31
0.0
  0
LINE
  5
F1036C
330
261
100
AcDbEntity
  8
Geo
100
AcDbLine
 10
-40.9098923334715
 20
13.9475361876803
 30
0.0
 11
-40.80989233347149
 21
13.8549878403829
 31
0.0
  0
LINE
  5
F1036E
330
261
100
AcDbEntity
  8
Geo
100
AcDbLine
 10
-40.80989233347149
 20
13.8549878403829
 30
0.0
 11
-40.70989233347149
 21
13.7626281899889
 31
0.0
  0
LINE
  5
F10370
330
261
100
AcDbEntity
  8
Geo
100
AcDbLine
 10
-40.70989233347149
 20
13.7626281899889
 30
0.0
 11
-40.60989233347148
 21
13.6704795456355
 31
0.0
  0
LINE
  5
F10372
330
261
100
AcDbEntity
  8
Geo
100
AcDbLine
 10
-40.60989233347148
 20
13.6704795456355
 30
0.0
 11
-40.50989233347149
 21
13.578564165492
 31
0.0
  0
LINE
  5
F10374
330
261
100
AcDbEntity
  8
Geo
100
AcDbLine
 10
-40.50989233347149
 20
13.578564165492
 30
0.0
 11
-40.4098923334715
 21
13.4869042513833
 31
0.0
  0
LINE
  5
F10376
330
261
100
AcDbEntity
  8
Geo
100
AcDbLine
 10
-40.4098923334715
 20
13.4869042513833
 30
0.0
 11
-40.30989233347148
 21
13.3955219434279
 31
0.0
  0
LINE
  5
F10378
330
261
100
AcDbEntity
  8
Geo
100
AcDbLine
 10
-40.30989233347148
 20
13.3955219434279
 30
0.0
 11
-40.20989233347149
 21
13.3044393146893
 31
0.0
  0
LINE
  5
F1037A
330
261
100
AcDbEntity
  8
Geo
100
AcDbLine
 10
-40.20989233347149
 20
13.3044393146893
 30
0.0
 11
-40.10989233347149
 21
13.2136783658443
 31
0.0
  0
LINE
  5
F1037C
330
261
100
AcDbEntity
  8
Geo
100
AcDbLine
 10
-40.10989233347149
 20
13.2136783658443
 30
0.0
 11
-40.00989233347149
 21
13.1232610198697
 31
0.0
  0
LINE
  5
F1037E
330
261
100
AcDbEntity
  8
Geo
100
AcDbLine
 10
-40.00989233347149
 20
13.1232610198697
 30
0.0
 11
-39.9098923334715
 21
13.0332091167458
 31
0.0
  0
LINE
  5
F10380
330
261
100
AcDbEntity
  8
Geo
100
AcDbLine
 10
-39.9098923334715
 20
13.0332091167458
 30
0.0
 11
-39.80989233347149
 21
12.9435444081816
 31
0.0
  0
LINE
  5
F10382
330
261
100
AcDbEntity
  8
Geo
100
AcDbLine
 10
-39.80989233347149
 20
12.9435444081816
 30
0.0
 11
-39.70989233347149
 21
12.8542885523608
 31
0.0
  0
LINE
  5
F10384
330
261
100
AcDbEntity
  8
Geo
100
AcDbLine
 10
-39.70989233347149
 20
12.8542885523608
 30
0.0
 11
-39.60989233347149
 21
12.7654631087101
 31
0.0
  0
LINE
  5
F10386
330
261
100
AcDbEntity
  8
Geo
100
AcDbLine
 10
-39.60989233347149
 20
12.7654631087101
 30
0.0
 11
-39.50989233347149
 21
12.6770895326917
 31
0.0
  0
LINE
  5
F10388
330
261
100
AcDbEntity
  8
Geo
100
AcDbLine
 10
-39.50989233347149
 20
12.6770895326917
 30
0.0
 11
-39.4098923334715
 21
12.589189170621
 31
0.0
  0
LINE
  5
F1038A
330
261
100
AcDbEntity
  8
Geo
100
AcDbLine
 10
-39.4098923334715
 20
12.589189170621
 30
0.0
 11
-39.30989233347149
 21
12.5017832545101
 31
0.0
  0
LINE
  5
F1038C
330
261
100
AcDbEntity
  8
Geo
100
AcDbLine
 10
-39.30989233347149
 20
12.5017832545101
 30
0.0
 11
-39.2098923334715
 21
12.4148928969395
 31
0.0
  0
LINE
  5
F1038E
330
261
100
AcDbEntity
  8
Geo
100
AcDbLine
 10
-39.2098923334715
 20
12.4148928969395
 30
0.0
 11
-39.10989233347148
 21
12.3285390859584
 31
0.0
  0
LINE
  5
F10390
330
261
100
AcDbEntity
  8
Geo
100
AcDbLine
 10
-39.10989233347148
 20
12.3285390859584
 30
0.0
 11
-39.00989233347149
 21
12.2427426800153
 31
0.0
  0
LINE
  5
F10392
330
261
100
AcDbEntity
  8
Geo
100
AcDbLine
 10
-39.00989233347149
 20
12.2427426800153
 30
0.0
 11
-38.9098923334715
 21
12.1575244029193
 31
0.0
  0
LINE
  5
F10394
330
261
100
AcDbEntity
  8
Geo
100
AcDbLine
 10
-38.9098923334715
 20
12.1575244029193
 30
0.0
 11
-38.80989233347149
 21
12.0729048388348
 31
0.0
  0
LINE
  5
F10396
330
261
100
AcDbEntity
  8
Geo
100
AcDbLine
 10
-38.80989233347149
 20
12.0729048388348
 30
0.0
 11
-38.70989233347149
 21
11.9889044273092
 31
0.0
  0
LINE
  5
F10398
330
261
100
AcDbEntity
  8
Geo
100
AcDbLine
 10
-38.70989233347149
 20
11.9889044273092
 30
0.0
 11
-38.60989233347149
 21
11.9055434583356
 31
0.0
  0
LINE
  5
F1039A
330
261
100
AcDbEntity
  8
Geo
100
AcDbLine
 10
-38.60989233347149
 20
11.9055434583356
 30
0.0
 11
-38.50989233347149
 21
11.8228420674525
 31
0.0
  0
LINE
  5
F1039C
330
261
100
AcDbEntity
  8
Geo
100
AcDbLine
 10
-38.50989233347149
 20
11.8228420674525
 30
0.0
 11
-38.4098923334715
 21
11.7408202308795
 31
0.0
  0
LINE
  5
F1039E
330
261
100
AcDbEntity
  8
Geo
100
AcDbLine
 10
-38.4098923334715
 20
11.7408202308795
 30
0.0
 11
-38.30989233347149
 21
11.6594977606922
 31
0.0
  0
LINE
  5
F103A0
330
261
100
AcDbEntity
  8
Geo
100
AcDbLine
 10
-38.30989233347149
 20
11.6594977606922
 30
0.0
 11
-38.2098923334715
 21
11.5788943000371
 31
0.0
  0
LINE
  5
F103A2
330
261
100
AcDbEntity
  8
Geo
100
AcDbLine
 10
-38.2098923334715
 20
11.5788943000371
 30
0.0
 11
-38.10989233347149
 21
11.4990293183863
 31
0.0
  0
LINE
  5
F103A4
330
261
100
AcDbEntity
  8
Geo
100
AcDbLine
 10
-38.10989233347149
 20
11.4990293183863
 30
0.0
 11
-38.00989233347149
 21
11.4199221068352
 31
0.0
  0
LINE
  5
F103A6
330
261
100
AcDbEntity
  8
Geo
100
AcDbLine
 10
-38.00989233347149
 20
11.4199221068352
 30
0.0
 11
-37.9098923334715
 21
11.3415917734423
 31
0.0
  0
LINE
  5
F103A8
330
261
100
AcDbEntity
  8
Geo
100
AcDbLine
 10
-37.9098923334715
 20
11.3415917734423
 30
0.0
 11
-37.80989233347149
 21
11.2640572386144
 31
0.0
  0
LINE
  5
F103AA
330
261
100
AcDbEntity
  8
Geo
100
AcDbLine
 10
-37.80989233347149
 20
11.2640572386144
 30
0.0
 11
-37.7098923334715
 21
11.1873372305358
 31
0.0
  0
LINE
  5
F103AC
330
261
100
AcDbEntity
  8
Geo
100
AcDbLine
 10
-37.7098923334715
 20
11.1873372305358
 30
0.0
 11
-37.60989233347149
 21
11.1114502806449
 31
0.0
  0
LINE
  5
F103AE
330
261
100
AcDbEntity
  8
Geo
100
AcDbLine
 10
-37.60989233347149
 20
11.1114502806449
 30
0.0
 11
-37.50989233347149
 21
11.0364147191579
 31
0.0
  0
LINE
  5
F103B0
330
261
100
AcDbEntity
  8
Geo
100
AcDbLine
 10
-37.50989233347149
 20
11.0364147191579
 30
0.0
 11
-37.4098923334715
 21
10.9622486706412
 31
0.0
  0
LINE
  5
F103B2
330
261
100
AcDbEntity
  8
Geo
100
AcDbLine
 10
-37.4098923334715
 20
10.9622486706412
 30
0.0
 11
-37.30989233347149
 21
10.8889700496337
 31
0.0
  0
LINE
  5
F103B4
330
261
100
AcDbEntity
  8
Geo
100
AcDbLine
 10
-37.30989233347149
 20
10.8889700496337
 30
0.0
 11
-37.20989233347149
 21
10.8165965563191
 31
0.0
  0
LINE
  5
F103B6
330
261
100
AcDbEntity
  8
Geo
100
AcDbLine
 10
-37.20989233347149
 20
10.8165965563191
 30
0.0
 11
-37.10989233347149
 21
10.7451456722511
 31
0.0
  0
LINE
  5
F103B8
330
261
100
AcDbEntity
  8
Geo
100
AcDbLine
 10
-37.10989233347149
 20
10.7451456722511
 30
0.0
 11
-37.00989233347149
 21
10.6746346561305
 31
0.0
  0
LINE
  5
F103BA
330
261
100
AcDbEntity
  8
Geo
100
AcDbLine
 10
-37.00989233347149
 20
10.6746346561305
 30
0.0
 11
-36.9098923334715
 21
10.6050805396361
 31
0.0
  0
LINE
  5
F103BC
330
261
100
AcDbEntity
  8
Geo
100
AcDbLine
 10
-36.9098923334715
 20
10.6050805396361
 30
0.0
 11
-36.80989233347149
 21
10.5365001233113
 31
0.0
  0
LINE
  5
F103BE
330
261
100
AcDbEntity
  8
Geo
100
AcDbLine
 10
-36.80989233347149
 20
10.5365001233113
 30
0.0
 11
-36.7098923334715
 21
10.4689099725059
 31
0.0
  0
LINE
  5
F103C0
330
261
100
AcDbEntity
  8
Geo
100
AcDbLine
 10
-36.7098923334715
 20
10.4689099725059
 30
0.0
 11
-36.60989233347148
 21
10.4023264133745
 31
0.0
  0
LINE
  5
F103C2
330
261
100
AcDbEntity
  8
Geo
100
AcDbLine
 10
-36.60989233347148
 20
10.4023264133745
 30
0.0
 11
-36.50989233347149
 21
10.3367655289331
 31
0.0
  0
LINE
  5
F103C4
330
261
100
AcDbEntity
  8
Geo
100
AcDbLine
 10
-36.50989233347149
 20
10.3367655289331
 30
0.0
 11
-36.4098923334715
 21
10.2722431551746
 31
0.0
  0
LINE
  5
F103C6
330
261
100
AcDbEntity
  8
Geo
100
AcDbLine
 10
-36.4098923334715
 20
10.2722431551746
 30
0.0
 11
-36.30989233347149
 21
10.2087748772431
 31
0.0
  0
LINE
  5
F103C8
330
261
100
AcDbEntity
  8
Geo
100
AcDbLine
 10
-36.30989233347149
 20
10.2087748772431
 30
0.0
 11
-36.20989233347149
 21
10.1463760256699
 31
0.0
  0
LINE
  5
F103CA
330
261
100
AcDbEntity
  8
Geo
100
AcDbLine
 10
-36.20989233347149
 20
10.1463760256699
 30
0.0
 11
-36.10989233347149
 21
10.0850616726702
 31
0.0
  0
LINE
  5
F103CC
330
261
100
AcDbEntity
  8
Geo
100
AcDbLine
 10
-36.10989233347149
 20
10.0850616726702
 30
0.0
 11
-36.00989233347149
 21
10.0248466285027
 31
0.0
  0
LINE
  5
F103CE
330
261
100
AcDbEntity
  8
Geo
100
AcDbLine
 10
-36.00989233347149
 20
10.0248466285027
 30
0.0
 11
-35.9098923334715
 21
9.965745437891701
 31
0.0
  0
LINE
  5
F103D0
330
261
100
AcDbEntity
  8
Geo
100
AcDbLine
 10
-35.9098923334715
 20
9.965745437891701
 30
0.0
 11
-35.80989233347149
 21
9.907772376514502
 31
0.0
  0
LINE
  5
F103D2
330
261
100
AcDbEntity
  8
Geo
100
AcDbLine
 10
-35.80989233347149
 20
9.907772376514502
 30
0.0
 11
-35.7098923334715
 21
9.850941447552902
 31
0.0
  0
LINE
  5
F103D4
330
261
100
AcDbEntity
  8
Geo
100
AcDbLine
 10
-35.7098923334715
 20
9.850941447552902
 30
0.0
 11
-35.60989233347149
 21
9.795266378310701
 31
0.0
  0
LINE
  5
F103D6
330
261
100
AcDbEntity
  8
Geo
100
AcDbLine
 10
-35.60989233347149
 20
9.795266378310701
 30
0.0
 11
-35.50989233347149
 21
9.740760616897901
 31
0.0
  0
LINE
  5
F103D8
330
261
100
AcDbEntity
  8
Geo
100
AcDbLine
 10
-35.50989233347149
 20
9.740760616897901
 30
0.0
 11
-35.4098923334715
 21
9.687437328982602
 31
0.0
  0
LINE
  5
F103DA
330
261
100
AcDbEntity
  8
Geo
100
AcDbLine
 10
-35.4098923334715
 20
9.687437328982602
 30
0.0
 11
-35.30989233347149
 21
9.635309394610702
 31
0.0
  0
LINE
  5
F103DC
330
261
100
AcDbEntity
  8
Geo
100
AcDbLine
 10
-35.30989233347149
 20
9.635309394610702
 30
0.0
 11
-35.2098923334715
 21
9.584389405094803
 31
0.0
  0
LINE
  5
F103DE
330
261
100
AcDbEntity
  8
Geo
100
AcDbLine
 10
-35.2098923334715
 20
9.584389405094803
 30
0.0
 11
-35.10989233347149
 21
9.534689659972803
 31
0.0
  0
LINE
  5
F103E0
330
261
100
AcDbEntity
  8
Geo
100
AcDbLine
 10
-35.10989233347149
 20
9.534689659972803
 30
0.0
 11
-35.00989233347149
 21
9.486222164037002
 31
0.0
  0
LINE
  5
F103E2
330
261
100
AcDbEntity
  8
Geo
100
AcDbLine
 10
-35.00989233347149
 20
9.486222164037002
 30
0.0
 11
-34.9098923334715
 21
9.438998624434502
 31
0.0
  0
LINE
  5
F103E4
330
261
100
AcDbEntity
  8
Geo
100
AcDbLine
 10
-34.9098923334715
 20
9.438998624434502
 30
0.0
 11
-34.80989233347149
 21
9.393030447839302
 31
0.0
  0
LINE
  5
F103E6
330
261
100
AcDbEntity
  8
Geo
100
AcDbLine
 10
-34.80989233347149
 20
9.393030447839302
 30
0.0
 11
-34.70989233347149
 21
9.348328737696702
 31
0.0
  0
LINE
  5
F103E8
330
261
100
AcDbEntity
  8
Geo
100
AcDbLine
 10
-34.70989233347149
 20
9.348328737696702
 30
0.0
 11
-34.60989233347149
 21
9.304904291542102
 31
0.0
  0
LINE
  5
F103EA
330
261
100
AcDbEntity
  8
Geo
100
AcDbLine
 10
-34.60989233347149
 20
9.304904291542102
 30
0.0
 11
-34.50989233347149
 21
9.262767598392201
 31
0.0
  0
LINE
  5
F103EC
330
261
100
AcDbEntity
  8
Geo
100
AcDbLine
 10
-34.50989233347149
 20
9.262767598392201
 30
0.0
 11
-34.4098923334715
 21
9.221928836211601
 31
0.0
  0
LINE
  5
F103EE
330
261
100
AcDbEntity
  8
Geo
100
AcDbLine
 10
-34.4098923334715
 20
9.221928836211601
 30
0.0
 11
-34.30989233347149
 21
9.182397869454602
 31
0.0
  0
LINE
  5
F103F0
330
261
100
AcDbEntity
  8
Geo
100
AcDbLine
 10
-34.30989233347149
 20
9.182397869454602
 30
0.0
 11
-34.2098923334715
 21
9.144184246682202
 31
0.0
  0
LINE
  5
F103F2
330
261
100
AcDbEntity
  8
Geo
100
AcDbLine
 10
-34.2098923334715
 20
9.144184246682202
 30
0.0
 11
-34.10989233347148
 21
9.107297198255501
 31
0.0
  0
LINE
  5
F103F4
330
261
100
AcDbEntity
  8
Geo
100
AcDbLine
 10
-34.10989233347148
 20
9.107297198255501
 30
0.0
 11
-34.00989233347149
 21
9.071745634106902
 31
0.0
  0
LINE
  5
F103F6
330
261
100
AcDbEntity
  8
Geo
100
AcDbLine
 10
-34.00989233347149
 20
9.071745634106902
 30
0.0
 11
-33.9098923334715
 21
9.037538141587102
 31
0.0
  0
LINE
  5
F103F8
330
261
100
AcDbEntity
  8
Geo
100
AcDbLine
 10
-33.9098923334715
 20
9.037538141587102
 30
0.0
 11
-33.80989233347149
 21
9.0046829833911
 31
0.0
  0
LINE
  5
F103FA
330
261
100
AcDbEntity
  8
Geo
100
AcDbLine
 10
-33.80989233347149
 20
9.0046829833911
 30
0.0
 11
-33.70989233347149
 21
8.973188095562903
 31
0.0
  0
LINE
  5
F103FC
330
261
100
AcDbEntity
  8
Geo
100
AcDbLine
 10
-33.70989233347149
 20
8.973188095562903
 30
0.0
 11
-33.60989233347149
 21
8.943061085577701
 31
0.0
  0
LINE
  5
F103FE
330
261
100
AcDbEntity
  8
Geo
100
AcDbLine
 10
-33.60989233347149
 20
8.943061085577701
 30
0.0
 11
-33.50989233347149
 21
8.9143092305051
 31
0.0
  0
LINE
  5
F10400
330
261
100
AcDbEntity
  8
Geo
100
AcDbLine
 10
-33.50989233347149
 20
8.9143092305051
 30
0.0
 11
-33.4098923334715
 21
8.886939475250803
 31
0.0
  0
LINE
  5
F10402
330
261
100
AcDbEntity
  8
Geo
100
AcDbLine
 10
-33.4098923334715
 20
8.886939475250803
 30
0.0
 11
-33.30989233347149
 21
8.860958430879602
 31
0.0
  0
LINE
  5
F10404
330
261
100
AcDbEntity
  8
Geo
100
AcDbLine
 10
-33.30989233347149
 20
8.860958430879602
 30
0.0
 11
-33.2098923334715
 21
8.836372373018001
 31
0.0
  0
LINE
  5
F10406
330
261
100
AcDbEntity
  8
Geo
100
AcDbLine
 10
-33.2098923334715
 20
8.836372373018001
 30
0.0
 11
-33.10989233347149
 21
8.813187240338701
 31
0.0
  0
LINE
  5
F10408
330
261
100
AcDbEntity
  8
Geo
100
AcDbLine
 10
-33.10989233347149
 20
8.813187240338701
 30
0.0
 11
-33.00989233347149
 21
8.791408633126003
 31
0.0
  0
LINE
  5
F1040A
330
261
100
AcDbEntity
  8
Geo
100
AcDbLine
 10
-33.00989233347149
 20
8.791408633126003
 30
0.0
 11
-32.9098923334715
 21
8.771041811923103
 31
0.0
  0
LINE
  5
F1040C
330
261
100
AcDbEntity
  8
Geo
100
AcDbLine
 10
-32.9098923334715
 20
8.771041811923103
 30
0.0
 11
-32.80989233347149
 21
8.752091696261503
 31
0.0
  0
LINE
  5
F1040E
330
261
100
AcDbEntity
  8
Geo
100
AcDbLine
 10
-32.80989233347149
 20
8.752091696261503
 30
0.0
 11
-32.7098923334715
 21
8.734562863472602
 31
0.0
  0
LINE
  5
F10410
330
261
100
AcDbEntity
  8
Geo
100
AcDbLine
 10
-32.7098923334715
 20
8.734562863472602
 30
0.0
 11
-32.60989233347149
 21
8.718459547582101
 31
0.0
  0
LINE
  5
F10412
330
261
100
AcDbEntity
  8
Geo
100
AcDbLine
 10
-32.60989233347149
 20
8.718459547582101
 30
0.0
 11
-32.50989233347149
 21
8.703785638287103
 31
0.0
  0
LINE
  5
F10414
330
261
100
AcDbEntity
  8
Geo
100
AcDbLine
 10
-32.50989233347149
 20
8.703785638287103
 30
0.0
 11
-32.4098923334715
 21
8.690544680017101
 31
0.0
  0
LINE
  5
F10416
330
261
100
AcDbEntity
  8
Geo
100
AcDbLine
 10
-32.4098923334715
 20
8.690544680017101
 30
0.0
 11
-32.30989233347149
 21
8.678739871077302
 31
0.0
  0
LINE
  5
F10418
330
261
100
AcDbEntity
  8
Geo
100
AcDbLine
 10
-32.30989233347149
 20
8.678739871077302
 30
0.0
 11
-32.20989233347149
 21
8.668374062876202
 31
0.0
  0
LINE
  5
F1041A
330
261
100
AcDbEntity
  8
Geo
100
AcDbLine
 10
-32.20989233347149
 20
8.668374062876202
 30
0.0
 11
-32.10989233347149
 21
8.659449759237002
 31
0.0
  0
LINE
  5
F1041C
330
261
100
AcDbEntity
  8
Geo
100
AcDbLine
 10
-32.10989233347149
 20
8.659449759237002
 30
0.0
 11
-32.00989233347149
 21
8.651969115792903
 31
0.0
  0
LINE
  5
F1041E
330
261
100
AcDbEntity
  8
Geo
100
AcDbLine
 10
-32.00989233347149
 20
8.651969115792903
 30
0.0
 11
-31.9098923334715
 21
8.645933939465903
 31
0.0
  0
LINE
  5
F10420
330
261
100
AcDbEntity
  8
Geo
100
AcDbLine
 10
-31.9098923334715
 20
8.645933939465903
 30
0.0
 11
-31.80989233347149
 21
8.641345688030803
 31
0.0
  0
LINE
  5
F10422
330
261
100
AcDbEntity
  8
Geo
100
AcDbLine
 10
-31.80989233347149
 20
8.641345688030803
 30
0.0
 11
-31.7098923334715
 21
8.638205469763201
 31
0.0
  0
LINE
  5
F10424
330
261
100
AcDbEntity
  8
Geo
100
AcDbLine
 10
-31.7098923334715
 20
8.638205469763201
 30
0.0
 11
-31.60989233347148
 21
8.636514043171201
 31
0.0
  0
LINE
  5
F10426
330
261
100
AcDbEntity
  8
Geo
100
AcDbLine
 10
-43.10989233347148
 20
8.985525441919699
 30
0.0
 11
-43.00989233347149
 21
8.865693798333103
 31
0.0
  0
LINE
  5
F10428
330
261
100
AcDbEntity
  8
Geo
100
AcDbLine
 10
-43.00989233347149
 20
8.865693798333103
 30
0.0
 11
-42.9098923334715
 21
8.795173429270603
 31
0.0
  0
LINE
  5
F1042A
330
261
100
AcDbEntity
  8
Geo
100
AcDbLine
 10
-42.9098923334715
 20
8.795173429270603
 30
0.0
 11
-42.80989233347148
 21
8.774555514386102
 31
0.0
  0
LINE
  5
F1042C
330
261
100
AcDbEntity
  8
Geo
100
AcDbLine
 10
-42.80989233347148
 20
8.774555514386102
 30
0.0
 11
-42.70989233347149
 21
8.755353456320902
 31
0.0
  0
LINE
  5
F1042E
330
261
100
AcDbEntity
  8
Geo
100
AcDbLine
 10
-42.70989233347149
 20
8.755353456320902
 30
0.0
 11
-42.60989233347149
 21
8.737571893262101
 31
0.0
  0
LINE
  5
F10430
330
261
100
AcDbEntity
  8
Geo
100
AcDbLine
 10
-42.60989233347149
 20
8.737571893262101
 30
0.0
 11
-42.50989233347149
 21
8.721215120281401
 31
0.0
  0
LINE
  5
F10432
330
261
100
AcDbEntity
  8
Geo
100
AcDbLine
 10
-42.50989233347149
 20
8.721215120281401
 30
0.0
 11
-42.40989233347149
 21
8.706287088297802
 31
0.0
  0
LINE
  5
F10434
330
261
100
AcDbEntity
  8
Geo
100
AcDbLine
 10
-42.40989233347149
 20
8.706287088297802
 30
0.0
 11
-42.30989233347148
 21
8.6927914031231
 31
0.0
  0
LINE
  5
F10436
330
261
100
AcDbEntity
  8
Geo
100
AcDbLine
 10
-42.30989233347148
 20
8.6927914031231
 30
0.0
 11
-42.20989233347149
 21
8.6807313245907
 31
0.0
  0
LINE
  5
F10438
330
261
100
AcDbEntity
  8
Geo
100
AcDbLine
 10
-42.20989233347149
 20
8.6807313245907
 30
0.0
 11
-42.10989233347148
 21
8.670109765768701
 31
0.0
  0
LINE
  5
F1043A
330
261
100
AcDbEntity
  8
Geo
100
AcDbLine
 10
-42.10989233347148
 20
8.670109765768701
 30
0.0
 11
-42.00989233347149
 21
8.660929292256001
 31
0.0
  0
LINE
  5
F1043C
330
261
100
AcDbEntity
  8
Geo
100
AcDbLine
 10
-42.00989233347149
 20
8.660929292256001
 30
0.0
 11
-41.90989233347149
 21
8.653192121562401
 31
0.0
  0
LINE
  5
F1043E
330
261
100
AcDbEntity
  8
Geo
100
AcDbLine
 10
-41.90989233347149
 20
8.653192121562401
 30
0.0
 11
-41.80989233347149
 21
8.646900122573404
 31
0.0
  0
LINE
  5
F10440
330
261
100
AcDbEntity
  8
Geo
100
AcDbLine
 10
-41.80989233347149
 20
8.646900122573404
 30
0.0
 11
-41.70989233347149
 21
8.642054815098401
 31
0.0
  0
LINE
  5
F10442
330
261
100
AcDbEntity
  8
Geo
100
AcDbLine
 10
-41.70989233347149
 20
8.642054815098401
 30
0.0
 11
-41.60989233347148
 21
8.638657369503702
 31
0.0
  0
LINE
  5
F10444
330
261
100
AcDbEntity
  8
Geo
100
AcDbLine
 10
-41.60989233347148
 20
8.638657369503702
 30
0.0
 11
-41.50989233347149
 21
8.636708606429902
 31
0.0
  0
LINE
  5
F10446
330
261
100
AcDbEntity
  8
Geo
100
AcDbLine
 10
-21.30989233347149
 20
20.63549349529971
 30
0.0
 11
-21.20989233347149
 21
20.636191276839
 31
0.0
  0
LINE
  5
F10448
330
261
100
AcDbEntity
  8
Geo
100
AcDbLine
 10
-21.20989233347149
 20
20.636191276839
 30
0.0
 11
-21.10989233347149
 21
20.6354397803019
 31
0.0
  0
LINE
  5
F1044A
330
261
100
AcDbEntity
  8
Geo
100
AcDbLine
 10
-21.10989233347149
 20
20.6354397803019
 30
0.0
 11
-21.10989233347149
 21
20.6354397803019
 31
0.0
  0
LINE
  5
F1044C
330
261
100
AcDbEntity
  8
Geo
100
AcDbLine
 10
-21.10989233347149
 20
20.6354397803019
 30
0.0
 11
-21.00989233347149
 21
20.485664030758
 31
0.0
  0
LINE
  5
F1044E
330
261
100
AcDbEntity
  8
Geo
100
AcDbLine
 10
-21.00989233347149
 20
20.485664030758
 30
0.0
 11
-20.90989233347149
 21
20.4858375380216
 31
0.0
  0
LINE
  5
F10450
330
261
100
AcDbEntity
  8
Geo
100
AcDbLine
 10
-20.90989233347149
 20
20.4858375380216
 30
0.0
 11
-20.80989233347149
 21
20.4859779276605
 31
0.0
  0
LINE
  5
F10452
330
261
100
AcDbEntity
  8
Geo
100
AcDbLine
 10
-20.80989233347149
 20
20.4859779276605
 30
0.0
 11
-20.7098923334715
 21
20.4860840185884
 31
0.0
  0
LINE
  5
F10454
330
261
100
AcDbEntity
  8
Geo
100
AcDbLine
 10
-20.7098923334715
 20
20.4860840185884
 30
0.0
 11
-20.60989233347149
 21
20.4861546167222
 31
0.0
  0
LINE
  5
F10456
330
261
100
AcDbEntity
  8
Geo
100
AcDbLine
 10
-20.60989233347149
 20
20.4861546167222
 30
0.0
 11
-20.50989233347149
 21
20.4861885150054
 31
0.0
  0
LINE
  5
F10458
330
261
100
AcDbEntity
  8
Geo
100
AcDbLine
 10
-24.80989233347149
 20
20.6361899891687
 30
0.0
 11
-24.70989233347149
 21
20.63553208471711
 31
0.0
  0
LINE
  5
F1045A
330
261
100
AcDbEntity
  8
Geo
100
AcDbLine
 10
-24.70989233347149
 20
20.63553208471711
 30
0.0
 11
-24.60989233347149
 21
20.63342506141461
 31
0.0
  0
LINE
  5
F1045C
330
261
100
AcDbEntity
  8
Geo
100
AcDbLine
 10
-24.60989233347149
 20
20.63342506141461
 30
0.0
 11
-24.50989233347149
 21
20.6298694282049
 31
0.0
  0
LINE
  5
F1045E
330
261
100
AcDbEntity
  8
Geo
100
AcDbLine
 10
-24.50989233347149
 20
20.6298694282049
 30
0.0
 11
-24.4098923334715
 21
20.6248660439384
 31
0.0
  0
LINE
  5
F10460
330
261
100
AcDbEntity
  8
Geo
100
AcDbLine
 10
-24.4098923334715
 20
20.6248660439384
 30
0.0
 11
-24.30989233347149
 21
20.6184161171641
 31
0.0
  0
LINE
  5
F10462
330
261
100
AcDbEntity
  8
Geo
100
AcDbLine
 10
-24.30989233347149
 20
20.6184161171641
 30
0.0
 11
-24.2098923334715
 21
20.6105212058385
 31
0.0
  0
LINE
  5
F10464
330
261
100
AcDbEntity
  8
Geo
100
AcDbLine
 10
-24.2098923334715
 20
20.6105212058385
 30
0.0
 11
-24.10989233347148
 21
20.6011832169485
 31
0.0
  0
LINE
  5
F10466
330
261
100
AcDbEntity
  8
Geo
100
AcDbLine
 10
-24.10989233347148
 20
20.6011832169485
 30
0.0
 11
-24.00989233347149
 21
20.59040440605151
 31
0.0
  0
LINE
  5
F10468
330
261
100
AcDbEntity
  8
Geo
100
AcDbLine
 10
-24.00989233347149
 20
20.59040440605151
 30
0.0
 11
-23.90989233347149
 21
20.57818737672981
 31
0.0
  0
LINE
  5
F1046A
330
261
100
AcDbEntity
  8
Geo
100
AcDbLine
 10
-23.90989233347149
 20
20.57818737672981
 30
0.0
 11
-23.80989233347149
 21
20.5645350799625
 31
0.0
  0
LINE
  5
F1046C
330
261
100
AcDbEntity
  8
Geo
100
AcDbLine
 10
-23.80989233347149
 20
20.5645350799625
 30
0.0
 11
-23.70989233347149
 21
20.5494508134119
 31
0.0
  0
LINE
  5
F1046E
330
261
100
AcDbEntity
  8
Geo
100
AcDbLine
 10
-23.70989233347149
 20
20.5494508134119
 30
0.0
 11
-23.60989233347149
 21
20.5329382206278
 31
0.0
  0
LINE
  5
F10470
330
261
100
AcDbEntity
  8
Geo
100
AcDbLine
 10
-23.60989233347149
 20
20.5329382206278
 30
0.0
 11
-23.50989233347149
 21
20.51500129016681
 31
0.0
  0
LINE
  5
F10472
330
261
100
AcDbEntity
  8
Geo
100
AcDbLine
 10
-23.50989233347149
 20
20.51500129016681
 30
0.0
 11
-23.40989233347149
 21
20.495644354629
 31
0.0
  0
LINE
  5
F10474
330
261
100
AcDbEntity
  8
Geo
100
AcDbLine
 10
-23.40989233347149
 20
20.495644354629
 30
0.0
 11
-23.30989233347149
 21
20.47487208961181
 31
0.0
  0
LINE
  5
F10476
330
261
100
AcDbEntity
  8
Geo
100
AcDbLine
 10
-23.30989233347149
 20
20.47487208961181
 30
0.0
 11
-23.2098923334715
 21
20.4526895125799
 31
0.0
  0
LINE
  5
F10478
330
261
100
AcDbEntity
  8
Geo
100
AcDbLine
 10
-23.2098923334715
 20
20.4526895125799
 30
0.0
 11
-23.10989233347149
 21
20.4291019816542
 31
0.0
  0
LINE
  5
F1047A
330
261
100
AcDbEntity
  8
Geo
100
AcDbLine
 10
-23.10989233347149
 20
20.4291019816542
 30
0.0
 11
-23.00989233347149
 21
20.4041151943166
 31
0.0
  0
LINE
  5
F1047C
330
261
100
AcDbEntity
  8
Geo
100
AcDbLine
 10
-23.00989233347149
 20
20.4041151943166
 30
0.0
 11
-22.90989233347149
 21
20.3777351860347
 31
0.0
  0
LINE
  5
F1047E
330
261
100
AcDbEntity
  8
Geo
100
AcDbLine
 10
-22.90989233347149
 20
20.3777351860347
 30
0.0
 11
-22.80989233347149
 21
20.34996832880341
 31
0.0
  0
LINE
  5
F10480
330
261
100
AcDbEntity
  8
Geo
100
AcDbLine
 10
-22.80989233347149
 20
20.34996832880341
 30
0.0
 11
-22.70989233347149
 21
20.3208213296057
 31
0.0
  0
LINE
  5
F10482
330
261
100
AcDbEntity
  8
Geo
100
AcDbLine
 10
-22.70989233347149
 20
20.3208213296057
 30
0.0
 11
-22.60989233347149
 21
20.29030122879321
 31
0.0
  0
LINE
  5
F10484
330
261
100
AcDbEntity
  8
Geo
100
AcDbLine
 10
-22.60989233347149
 20
20.29030122879321
 30
0.0
 11
-22.50989233347149
 21
20.258415398385
 31
0.0
  0
LINE
  5
F10486
330
261
100
AcDbEntity
  8
Geo
100
AcDbLine
 10
-22.50989233347149
 20
20.258415398385
 30
0.0
 11
-22.40989233347149
 21
20.2251715402873
 31
0.0
  0
LINE
  5
F10488
330
261
100
AcDbEntity
  8
Geo
100
AcDbLine
 10
-22.40989233347149
 20
20.2251715402873
 30
0.0
 11
-22.30989233347149
 21
20.1905776844328
 31
0.0
  0
LINE
  5
F1048A
330
261
100
AcDbEntity
  8
Geo
100
AcDbLine
 10
-22.30989233347149
 20
20.1905776844328
 30
0.0
 11
-22.20989233347149
 21
20.1546421868413
 31
0.0
  0
LINE
  5
F1048C
330
261
100
AcDbEntity
  8
Geo
100
AcDbLine
 10
-22.20989233347149
 20
20.1546421868413
 30
0.0
 11
-22.10989233347149
 21
20.11737372760141
 31
0.0
  0
LINE
  5
F1048E
330
261
100
AcDbEntity
  8
Geo
100
AcDbLine
 10
-22.10989233347149
 20
20.11737372760141
 30
0.0
 11
-22.00989233347149
 21
20.0787813087735
 31
0.0
  0
LINE
  5
F10490
330
261
100
AcDbEntity
  8
Geo
100
AcDbLine
 10
-22.00989233347149
 20
20.0787813087735
 30
0.0
 11
-21.90989233347149
 21
20.03887425221591
 31
0.0
  0
LINE
  5
F10492
330
261
100
AcDbEntity
  8
Geo
100
AcDbLine
 10
-21.90989233347149
 20
20.03887425221591
 30
0.0
 11
-21.80989233347149
 21
19.9976621973326
 31
0.0
  0
LINE
  5
F10494
330
261
100
AcDbEntity
  8
Geo
100
AcDbLine
 10
-21.80989233347149
 20
19.9976621973326
 30
0.0
 11
-21.7098923334715
 21
19.95515509874531
 31
0.0
  0
LINE
  5
F10496
330
261
100
AcDbEntity
  8
Geo
100
AcDbLine
 10
-21.7098923334715
 20
19.95515509874531
 30
0.0
 11
-21.60989233347149
 21
19.9113632238887
 31
0.0
  0
LINE
  5
F10498
330
261
100
AcDbEntity
  8
Geo
100
AcDbLine
 10
-21.60989233347149
 20
19.9113632238887
 30
0.0
 11
-21.50989233347149
 21
19.8662971505307
 31
0.0
  0
LINE
  5
F1049A
330
261
100
AcDbEntity
  8
Geo
100
AcDbLine
 10
-21.50989233347149
 20
19.8662971505307
 30
0.0
 11
-21.40989233347149
 21
19.8199677642171
 31
0.0
  0
LINE
  5
F1049C
330
261
100
AcDbEntity
  8
Geo
100
AcDbLine
 10
-21.40989233347149
 20
19.8199677642171
 30
0.0
 11
-21.30989233347149
 21
19.7723862556423
 31
0.0
  0
LINE
  5
F1049E
330
261
100
AcDbEntity
  8
Geo
100
AcDbLine
 10
-21.30989233347149
 20
19.7723862556423
 30
0.0
 11
-21.20989233347149
 21
19.7235641179463
 31
0.0
  0
LINE
  5
F104A0
330
261
100
AcDbEntity
  8
Geo
100
AcDbLine
 10
-21.20989233347149
 20
19.7235641179463
 30
0.0
 11
-21.10989233347149
 21
19.67351314393861
 31
0.0
  0
LINE
  5
F104A2
330
261
100
AcDbEntity
  8
Geo
100
AcDbLine
 10
-21.10989233347149
 20
19.67351314393861
 30
0.0
 11
-21.10989233347149
 21
19.67351314393861
 31
0.0
  0
LINE
  5
F104A4
330
261
100
AcDbEntity
  8
Geo
100
AcDbLine
 10
-21.10989233347149
 20
19.67351314393861
 30
0.0
 11
-21.00989233347149
 21
19.4777687894355
 31
0.0
  0
LINE
  5
F104A6
330
261
100
AcDbEntity
  8
Geo
100
AcDbLine
 10
-21.00989233347149
 20
19.4777687894355
 30
0.0
 11
-20.90989233347149
 21
19.4048621225027
 31
0.0
  0
LINE
  5
F104A8
330
261
100
AcDbEntity
  8
Geo
100
AcDbLine
 10
-20.90989233347149
 20
19.4048621225027
 30
0.0
 11
-20.80989233347149
 21
19.3288172828488
 31
0.0
  0
LINE
  5
F104AA
330
261
100
AcDbEntity
  8
Geo
100
AcDbLine
 10
-20.80989233347149
 20
19.3288172828488
 30
0.0
 11
-20.7098923334715
 21
19.2495941147955
 31
0.0
  0
LINE
  5
F104AC
330
261
100
AcDbEntity
  8
Geo
100
AcDbLine
 10
-20.7098923334715
 20
19.2495941147955
 30
0.0
 11
-20.60989233347149
 21
19.1671553038229
 31
0.0
  0
LINE
  5
F104AE
330
261
100
AcDbEntity
  8
Geo
100
AcDbLine
 10
-20.60989233347149
 20
19.1671553038229
 30
0.0
 11
-20.50989233347149
 21
19.0814665569713
 31
0.0
  0
LINE
  5
F104B0
330
261
100
AcDbEntity
  8
Geo
100
AcDbLine
 10
-20.50989233347149
 20
19.0814665569713
 30
0.0
 11
-20.40989233347149
 21
18.99249678643
 31
0.0
  0
LINE
  5
F104B2
330
261
100
AcDbEntity
  8
Geo
100
AcDbLine
 10
-20.40989233347149
 20
18.99249678643
 30
0.0
 11
-20.30989233347149
 21
18.9002182960794
 31
0.0
  0
LINE
  5
F104B4
330
261
100
AcDbEntity
  8
Geo
100
AcDbLine
 10
-20.30989233347149
 20
18.9002182960794
 30
0.0
 11
-20.20989233347149
 21
18.8046069707294
 31
0.0
  0
LINE
  5
F104B6
330
261
100
AcDbEntity
  8
Geo
100
AcDbLine
 10
-20.20989233347149
 20
18.8046069707294
 30
0.0
 11
-20.10989233347149
 21
18.7056424677755
 31
0.0
  0
LINE
  5
F104B8
330
261
100
AcDbEntity
  8
Geo
100
AcDbLine
 10
-20.10989233347149
 20
18.7056424677755
 30
0.0
 11
-20.00989233347149
 21
18.6033084109708
 31
0.0
  0
LINE
  5
F104BA
330
261
100
AcDbEntity
  8
Geo
100
AcDbLine
 10
-20.00989233347149
 20
18.6033084109708
 30
0.0
 11
-19.90989233347149
 21
18.49759258598851
 31
0.0
  0
LINE
  5
F104BC
330
261
100
AcDbEntity
  8
Geo
100
AcDbLine
 10
-19.90989233347149
 20
18.49759258598851
 30
0.0
 11
-19.80989233347149
 21
18.3884871374238
 31
0.0
  0
LINE
  5
F104BE
330
261
100
AcDbEntity
  8
Geo
100
AcDbLine
 10
-19.80989233347149
 20
18.3884871374238
 30
0.0
 11
-19.70989233347149
 21
18.2759887668629
 31
0.0
  0
LINE
  5
F104C0
330
261
100
AcDbEntity
  8
Geo
100
AcDbLine
 10
-19.70989233347149
 20
18.2759887668629
 30
0.0
 11
-19.60989233347149
 21
18.1600989316174
 31
0.0
  0
LINE
  5
F104C2
330
261
100
AcDbEntity
  8
Geo
100
AcDbLine
 10
-19.60989233347149
 20
18.1600989316174
 30
0.0
 11
-19.50989233347149
 21
18.0408240436994
 31
0.0
  0
LINE
  5
F104C4
330
261
100
AcDbEntity
  8
Geo
100
AcDbLine
 10
-19.50989233347149
 20
18.0408240436994
 30
0.0
 11
-19.40989233347149
 21
17.9181756685864
 31
0.0
  0
LINE
  5
F104C6
330
261
100
AcDbEntity
  8
Geo
100
AcDbLine
 10
-19.40989233347149
 20
17.9181756685864
 30
0.0
 11
-19.30989233347149
 21
17.7921707232977
 31
0.0
  0
LINE
  5
F104C8
330
261
100
AcDbEntity
  8
Geo
100
AcDbLine
 10
-19.30989233347149
 20
17.7921707232977
 30
0.0
 11
-19.20989233347149
 21
17.6628316732783
 31
0.0
  0
LINE
  5
F104CA
330
261
100
AcDbEntity
  8
Geo
100
AcDbLine
 10
-19.20989233347149
 20
17.6628316732783
 30
0.0
 11
-19.10989233347149
 21
17.5301867275597
 31
0.0
  0
LINE
  5
F104CC
330
261
100
AcDbEntity
  8
Geo
100
AcDbLine
 10
-19.10989233347149
 20
17.5301867275597
 30
0.0
 11
-19.00989233347149
 21
17.3942700316396
 31
0.0
  0
LINE
  5
F104CE
330
261
100
AcDbEntity
  8
Geo
100
AcDbLine
 10
-19.00989233347149
 20
17.3942700316396
 30
0.0
 11
-18.90989233347149
 21
17.255121857496
 31
0.0
  0
LINE
  5
F104D0
330
261
100
AcDbEntity
  8
Geo
100
AcDbLine
 10
-18.90989233347149
 20
17.255121857496
 30
0.0
 11
-18.80989233347149
 21
17.1127887901251
 31
0.0
  0
LINE
  5
F104D2
330
261
100
AcDbEntity
  8
Geo
100
AcDbLine
 10
-18.80989233347149
 20
17.1127887901251
 30
0.0
 11
-18.70989233347149
 21
16.9673239099651
 31
0.0
  0
LINE
  5
F104D4
330
261
100
AcDbEntity
  8
Geo
100
AcDbLine
 10
-18.70989233347149
 20
16.9673239099651
 30
0.0
 11
-18.60989233347149
 21
16.8187869705411
 31
0.0
  0
LINE
  5
F104D6
330
261
100
AcDbEntity
  8
Geo
100
AcDbLine
 10
-18.60989233347149
 20
16.8187869705411
 30
0.0
 11
-18.50989233347149
 21
16.6672445706429
 31
0.0
  0
LINE
  5
F104D8
330
261
100
AcDbEntity
  8
Geo
100
AcDbLine
 10
-18.50989233347149
 20
16.6672445706429
 30
0.0
 11
-18.40989233347149
 21
16.5127703203192
 31
0.0
  0
LINE
  5
F104DA
330
261
100
AcDbEntity
  8
Geo
100
AcDbLine
 10
-18.40989233347149
 20
16.5127703203192
 30
0.0
 11
-18.30989233347149
 21
16.3554449999488
 31
0.0
  0
LINE
  5
F104DC
330
261
100
AcDbEntity
  8
Geo
100
AcDbLine
 10
-18.30989233347149
 20
16.3554449999488
 30
0.0
 11
-18.20989233347149
 21
16.1953567116251
 31
0.0
  0
LINE
  5
F104DE
330
261
100
AcDbEntity
  8
Geo
100
AcDbLine
 10
-18.20989233347149
 20
16.1953567116251
 30
0.0
 11
-18.10989233347149
 21
16.03260102206661
 31
0.0
  0
LINE
  5
F104E0
330
261
100
AcDbEntity
  8
Geo
100
AcDbLine
 10
-18.10989233347149
 20
16.03260102206661
 30
0.0
 11
-18.00989233347149
 21
15.867281096244
 31
0.0
  0
LINE
  5
F104E2
330
261
100
AcDbEntity
  8
Geo
100
AcDbLine
 10
-18.00989233347149
 20
15.867281096244
 30
0.0
 11
-17.90989233347149
 21
15.6995078208946
 31
0.0
  0
LINE
  5
F104E4
330
261
100
AcDbEntity
  8
Geo
100
AcDbLine
 10
-17.90989233347149
 20
15.6995078208946
 30
0.0
 11
-17.80989233347149
 21
15.529399917073
 31
0.0
  0
LINE
  5
F104E6
330
261
100
AcDbEntity
  8
Geo
100
AcDbLine
 10
-17.80989233347149
 20
15.529399917073
 30
0.0
 11
-17.70989233347149
 21
15.3570840408721
 31
0.0
  0
LINE
  5
F104E8
330
261
100
AcDbEntity
  8
Geo
100
AcDbLine
 10
-17.70989233347149
 20
15.3570840408721
 30
0.0
 11
-17.60989233347139
 21
15.182694871427
 31
0.0
  0
LINE
  5
F104EA
330
261
100
AcDbEntity
  8
Geo
100
AcDbLine
 10
-17.60989233347139
 20
15.182694871427
 30
0.0
 11
-17.5098923334714
 21
15.0063751853064
 31
0.0
  0
LINE
  5
F104EC
330
261
100
AcDbEntity
  8
Geo
100
AcDbLine
 10
-17.5098923334714
 20
15.0063751853064
 30
0.0
 11
-17.40989233347139
 21
14.8282759163752
 31
0.0
  0
LINE
  5
F104EE
330
261
100
AcDbEntity
  8
Geo
100
AcDbLine
 10
-17.40989233347139
 20
14.8282759163752
 30
0.0
 11
-17.30989233347139
 21
14.6485562002093
 31
0.0
  0
LINE
  5
F104F0
330
261
100
AcDbEntity
  8
Geo
100
AcDbLine
 10
-17.30989233347139
 20
14.6485562002093
 30
0.0
 11
-17.20989233347139
 21
14.4673834021291
 31
0.0
  0
LINE
  5
F104F2
330
261
100
AcDbEntity
  8
Geo
100
AcDbLine
 10
-17.20989233347139
 20
14.4673834021291
 30
0.0
 11
-17.10989233347139
 21
14.284933127916
 31
0.0
  0
LINE
  5
F104F4
330
261
100
AcDbEntity
  8
Geo
100
AcDbLine
 10
-17.10989233347139
 20
14.284933127916
 30
0.0
 11
-17.0098923334714
 21
14.101389216271
 31
0.0
  0
LINE
  5
F104F6
330
261
100
AcDbEntity
  8
Geo
100
AcDbLine
 10
-17.0098923334714
 20
14.101389216271
 30
0.0
 11
-16.9098923334714
 21
13.9169437120763
 31
0.0
  0
LINE
  5
F104F8
330
261
100
AcDbEntity
  8
Geo
100
AcDbLine
 10
-16.9098923334714
 20
13.9169437120763
 30
0.0
 11
-16.80989233347139
 21
13.7317968195207
 31
0.0
  0
LINE
  5
F104FA
330
261
100
AcDbEntity
  8
Geo
100
AcDbLine
 10
-16.80989233347139
 20
13.7317968195207
 30
0.0
 11
-16.70989233347139
 21
13.5461568341587
 31
0.0
  0
LINE
  5
F104FC
330
261
100
AcDbEntity
  8
Geo
100
AcDbLine
 10
-16.70989233347139
 20
13.5461568341587
 30
0.0
 11
-16.60989233347139
 21
13.3602400529804
 31
0.0
  0
LINE
  5
F104FE
330
261
100
AcDbEntity
  8
Geo
100
AcDbLine
 10
-16.60989233347139
 20
13.3602400529804
 30
0.0
 11
-16.5098923334714
 21
13.1742706615844
 31
0.0
  0
LINE
  5
F10500
330
261
100
AcDbEntity
  8
Geo
100
AcDbLine
 10
-16.5098923334714
 20
13.1742706615844
 30
0.0
 11
-16.4098923334714
 21
12.9884805975604
 31
0.0
  0
LINE
  5
F10502
330
261
100
AcDbEntity
  8
Geo
100
AcDbLine
 10
-16.4098923334714
 20
12.9884805975604
 30
0.0
 11
-16.30989233347139
 21
12.803109389212
 31
0.0
  0
LINE
  5
F10504
330
261
100
AcDbEntity
  8
Geo
100
AcDbLine
 10
-16.30989233347139
 20
12.803109389212
 30
0.0
 11
-16.20989233347139
 21
12.6184039687734
 31
0.0
  0
LINE
  5
F10506
330
261
100
AcDbEntity
  8
Geo
100
AcDbLine
 10
-16.20989233347139
 20
12.6184039687734
 30
0.0
 11
-16.10989233347149
 21
12.4346184593054
 31
0.0
  0
LINE
  5
F10508
330
261
100
AcDbEntity
  8
Geo
100
AcDbLine
 10
-34.70989233347149
 20
20.6361552818066
 30
0.0
 11
-34.60989233347149
 21
20.6357547587241
 31
0.0
  0
LINE
  5
F1050A
330
261
100
AcDbEntity
  8
Geo
100
AcDbLine
 10
-34.60989233347149
 20
20.6357547587241
 30
0.0
 11
-34.50989233347149
 21
20.6339050630045
 31
0.0
  0
LINE
  5
F1050C
330
261
100
AcDbEntity
  8
Geo
100
AcDbLine
 10
-34.50989233347149
 20
20.6339050630045
 30
0.0
 11
-34.4098923334715
 21
20.6306066414352
 31
0.0
  0
LINE
  5
F1050E
330
261
100
AcDbEntity
  8
Geo
100
AcDbLine
 10
-34.4098923334715
 20
20.6306066414352
 30
0.0
 11
-34.30989233347149
 21
20.62586029073781
 31
0.0
  0
LINE
  5
F10510
330
261
100
AcDbEntity
  8
Geo
100
AcDbLine
 10
-34.30989233347149
 20
20.62586029073781
 30
0.0
 11
-34.2098923334715
 21
20.619667157376
 31
0.0
  0
LINE
  5
F10512
330
261
100
AcDbEntity
  8
Geo
100
AcDbLine
 10
-34.2098923334715
 20
20.619667157376
 30
0.0
 11
-34.10989233347148
 21
20.6120287372786
 31
0.0
  0
LINE
  5
F10514
330
261
100
AcDbEntity
  8
Geo
100
AcDbLine
 10
-34.10989233347148
 20
20.6120287372786
 30
0.0
 11
-34.00989233347149
 21
20.6029468754782
 31
0.0
  0
LINE
  5
F10516
330
261
100
AcDbEntity
  8
Geo
100
AcDbLine
 10
-34.00989233347149
 20
20.6029468754782
 30
0.0
 11
-33.9098923334715
 21
20.5924237656654
 31
0.0
  0
LINE
  5
F10518
330
261
100
AcDbEntity
  8
Geo
100
AcDbLine
 10
-33.9098923334715
 20
20.5924237656654
 30
0.0
 11
-33.80989233347149
 21
20.580461949659
 31
0.0
  0
LINE
  5
F1051A
330
261
100
AcDbEntity
  8
Geo
100
AcDbLine
 10
-33.80989233347149
 20
20.580461949659
 30
0.0
 11
-33.70989233347149
 21
20.56706431679211
 31
0.0
  0
LINE
  5
F1051C
330
261
100
AcDbEntity
  8
Geo
100
AcDbLine
 10
-33.70989233347149
 20
20.56706431679211
 30
0.0
 11
-33.60989233347149
 21
20.5522341032141
 31
0.0
  0
LINE
  5
F1051E
330
261
100
AcDbEntity
  8
Geo
100
AcDbLine
 10
-33.60989233347149
 20
20.5522341032141
 30
0.0
 11
-33.50989233347149
 21
20.53597489110911
 31
0.0
  0
LINE
  5
F10520
330
261
100
AcDbEntity
  8
Geo
100
AcDbLine
 10
-33.50989233347149
 20
20.53597489110911
 30
0.0
 11
-33.4098923334715
 21
20.5182906078304
 31
0.0
  0
LINE
  5
F10522
330
261
100
AcDbEntity
  8
Geo
100
AcDbLine
 10
-33.4098923334715
 20
20.5182906078304
 30
0.0
 11
-33.30989233347149
 21
20.4991855249523
 31
0.0
  0
LINE
  5
F10524
330
261
100
AcDbEntity
  8
Geo
100
AcDbLine
 10
-33.30989233347149
 20
20.4991855249523
 30
0.0
 11
-33.2098923334715
 21
20.4786642572378
 31
0.0
  0
LINE
  5
F10526
330
261
100
AcDbEntity
  8
Geo
100
AcDbLine
 10
-33.2098923334715
 20
20.4786642572378
 30
0.0
 11
-33.10989233347149
 21
20.4567317615246
 31
0.0
  0
LINE
  5
F10528
330
261
100
AcDbEntity
  8
Geo
100
AcDbLine
 10
-33.10989233347149
 20
20.4567317615246
 30
0.0
 11
-33.00989233347149
 21
20.4333933355269
 31
0.0
  0
LINE
  5
F1052A
330
261
100
AcDbEntity
  8
Geo
100
AcDbLine
 10
-33.00989233347149
 20
20.4333933355269
 30
0.0
 11
-32.9098923334715
 21
20.4086546165566
 31
0.0
  0
LINE
  5
F1052C
330
261
100
AcDbEntity
  8
Geo
100
AcDbLine
 10
-32.9098923334715
 20
20.4086546165566
 30
0.0
 11
-32.80989233347149
 21
20.38252158016101
 31
0.0
  0
LINE
  5
F1052E
330
261
100
AcDbEntity
  8
Geo
100
AcDbLine
 10
-32.80989233347149
 20
20.38252158016101
 30
0.0
 11
-32.7098923334715
 21
20.3550005386799
 31
0.0
  0
LINE
  5
F10530
330
261
100
AcDbEntity
  8
Geo
100
AcDbLine
 10
-32.7098923334715
 20
20.3550005386799
 30
0.0
 11
-32.60989233347149
 21
20.32609813972051
 31
0.0
  0
LINE
  5
F10532
330
261
100
AcDbEntity
  8
Geo
100
AcDbLine
 10
-32.60989233347149
 20
20.32609813972051
 30
0.0
 11
-32.50989233347149
 21
20.295821364552
 31
0.0
  0
LINE
  5
F10534
330
261
100
AcDbEntity
  8
Geo
100
AcDbLine
 10
-32.50989233347149
 20
20.295821364552
 30
0.0
 11
-32.4098923334715
 21
20.2641775264192
 31
0.0
  0
LINE
  5
F10536
330
261
100
AcDbEntity
  8
Geo
100
AcDbLine
 10
-32.4098923334715
 20
20.2641775264192
 30
0.0
 11
-32.30989233347149
 21
20.2311742687757
 31
0.0
  0
LINE
  5
F10538
330
261
100
AcDbEntity
  8
Geo
100
AcDbLine
 10
-32.30989233347149
 20
20.2311742687757
 30
0.0
 11
-32.20989233347149
 21
20.19681956343831
 31
0.0
  0
LINE
  5
F1053A
330
261
100
AcDbEntity
  8
Geo
100
AcDbLine
 10
-32.20989233347149
 20
20.19681956343831
 30
0.0
 11
-32.10989233347149
 21
20.1611217086609
 31
0.0
  0
LINE
  5
F1053C
330
261
100
AcDbEntity
  8
Geo
100
AcDbLine
 10
-32.10989233347149
 20
20.1611217086609
 30
0.0
 11
-32.00989233347149
 21
20.12408932713
 31
0.0
  0
LINE
  5
F1053E
330
261
100
AcDbEntity
  8
Geo
100
AcDbLine
 10
-32.00989233347149
 20
20.12408932713
 30
0.0
 11
-31.9098923334715
 21
20.0857313638827
 31
0.0
  0
LINE
  5
F10540
330
261
100
AcDbEntity
  8
Geo
100
AcDbLine
 10
-31.9098923334715
 20
20.0857313638827
 30
0.0
 11
-31.80989233347149
 21
20.0460570841451
 31
0.0
  0
LINE
  5
F10542
330
261
100
AcDbEntity
  8
Geo
100
AcDbLine
 10
-31.80989233347149
 20
20.0460570841451
 30
0.0
 11
-31.7098923334715
 21
20.0050760710949
 31
0.0
  0
LINE
  5
F10544
330
261
100
AcDbEntity
  8
Geo
100
AcDbLine
 10
-31.7098923334715
 20
20.0050760710949
 30
0.0
 11
-31.60989233347148
 21
19.9627982235466
 31
0.0
  0
LINE
  5
F10546
330
261
100
AcDbEntity
  8
Geo
100
AcDbLine
 10
-31.60989233347148
 20
19.9627982235466
 30
0.0
 11
-31.50989233347149
 21
19.91923375356
 31
0.0
  0
LINE
  5
F10548
330
261
100
AcDbEntity
  8
Geo
100
AcDbLine
 10
-31.50989233347149
 20
19.91923375356
 30
0.0
 11
-31.4098923334715
 21
19.8743931839743
 31
0.0
  0
LINE
  5
F1054A
330
261
100
AcDbEntity
  8
Geo
100
AcDbLine
 10
-31.4098923334715
 20
19.8743931839743
 30
0.0
 11
-31.30989233347149
 21
19.8282873458655
 31
0.0
  0
LINE
  5
F1054C
330
261
100
AcDbEntity
  8
Geo
100
AcDbLine
 10
-31.30989233347149
 20
19.8282873458655
 30
0.0
 11
-31.20989233347149
 21
19.780927375931
 31
0.0
  0
LINE
  5
F1054E
330
261
100
AcDbEntity
  8
Geo
100
AcDbLine
 10
-31.20989233347149
 20
19.780927375931
 30
0.0
 11
-31.10989233347149
 21
19.7323247137988
 31
0.0
  0
LINE
  5
F10550
330
261
100
AcDbEntity
  8
Geo
100
AcDbLine
 10
-31.10989233347149
 20
19.7323247137988
 30
0.0
 11
-31.00989233347149
 21
19.6824910992648
 31
0.0
  0
LINE
  5
F10552
330
261
100
AcDbEntity
  8
Geo
100
AcDbLine
 10
-31.00989233347149
 20
19.6824910992648
 30
0.0
 11
-30.9098923334715
 21
19.6314385694571
 31
0.0
  0
LINE
  5
F10554
330
261
100
AcDbEntity
  8
Geo
100
AcDbLine
 10
-30.9098923334715
 20
19.6314385694571
 30
0.0
 11
-30.80989233347149
 21
19.5791794559283
 31
0.0
  0
LINE
  5
F10556
330
261
100
AcDbEntity
  8
Geo
100
AcDbLine
 10
-30.80989233347149
 20
19.5791794559283
 30
0.0
 11
-30.7098923334715
 21
19.52572638167669
 31
0.0
  0
LINE
  5
F10558
330
261
100
AcDbEntity
  8
Geo
100
AcDbLine
 10
-30.7098923334715
 20
19.52572638167669
 30
0.0
 11
-30.60989233347149
 21
19.4710922580977
 31
0.0
  0
LINE
  5
F1055A
330
261
100
AcDbEntity
  8
Geo
100
AcDbLine
 10
-30.60989233347149
 20
19.4710922580977
 30
0.0
 11
-30.50989233347149
 21
19.4152902818647
 31
0.0
  0
LINE
  5
F1055C
330
261
100
AcDbEntity
  8
Geo
100
AcDbLine
 10
-30.50989233347149
 20
19.4152902818647
 30
0.0
 11
-30.4098923334715
 21
19.3583339317418
 31
0.0
  0
LINE
  5
F1055E
330
261
100
AcDbEntity
  8
Geo
100
AcDbLine
 10
-30.4098923334715
 20
19.3583339317418
 30
0.0
 11
-30.30989233347149
 21
19.3002369653278
 31
0.0
  0
LINE
  5
F10560
330
261
100
AcDbEntity
  8
Geo
100
AcDbLine
 10
-30.30989233347149
 20
19.3002369653278
 30
0.0
 11
-30.2098923334715
 21
19.2410134157333
 31
0.0
  0
LINE
  5
F10562
330
261
100
AcDbEntity
  8
Geo
100
AcDbLine
 10
-30.2098923334715
 20
19.2410134157333
 30
0.0
 11
-30.10989233347149
 21
19.1806775881907
 31
0.0
  0
LINE
  5
F10564
330
261
100
AcDbEntity
  8
Geo
100
AcDbLine
 10
-30.10989233347149
 20
19.1806775881907
 30
0.0
 11
-30.00989233347149
 21
19.1192440565995
 31
0.0
  0
LINE
  5
F10566
330
261
100
AcDbEntity
  8
Geo
100
AcDbLine
 10
-30.00989233347149
 20
19.1192440565995
 30
0.0
 11
-29.9098923334715
 21
19.05672766000531
 31
0.0
  0
LINE
  5
F10568
330
261
100
AcDbEntity
  8
Geo
100
AcDbLine
 10
-29.9098923334715
 20
19.05672766000531
 30
0.0
 11
-29.80989233347149
 21
18.9931434990159
 31
0.0
  0
LINE
  5
F1056A
330
261
100
AcDbEntity
  8
Geo
100
AcDbLine
 10
-29.80989233347149
 20
18.9931434990159
 30
0.0
 11
-29.70989233347149
 21
18.9285069321536
 31
0.0
  0
LINE
  5
F1056C
330
261
100
AcDbEntity
  8
Geo
100
AcDbLine
 10
-29.70989233347149
 20
18.9285069321536
 30
0.0
 11
-29.60989233347149
 21
18.8628335721458
 31
0.0
  0
LINE
  5
F1056E
330
261
100
AcDbEntity
  8
Geo
100
AcDbLine
 10
-29.60989233347149
 20
18.8628335721458
 30
0.0
 11
-29.50989233347149
 21
18.7961392821532
 31
0.0
  0
LINE
  5
F10570
330
261
100
AcDbEntity
  8
Geo
100
AcDbLine
 10
-29.50989233347149
 20
18.7961392821532
 30
0.0
 11
-29.4098923334715
 21
18.7284401719384
 31
0.0
  0
LINE
  5
F10572
330
261
100
AcDbEntity
  8
Geo
100
AcDbLine
 10
-29.4098923334715
 20
18.7284401719384
 30
0.0
 11
-29.30989233347149
 21
18.659752593975
 31
0.0
  0
LINE
  5
F10574
330
261
100
AcDbEntity
  8
Geo
100
AcDbLine
 10
-29.30989233347149
 20
18.659752593975
 30
0.0
 11
-29.2098923334715
 21
18.59009313949711
 31
0.0
  0
LINE
  5
F10576
330
261
100
AcDbEntity
  8
Geo
100
AcDbLine
 10
-29.2098923334715
 20
18.59009313949711
 30
0.0
 11
-29.10989233347148
 21
18.519478634492
 31
0.0
  0
LINE
  5
F10578
330
261
100
AcDbEntity
  8
Geo
100
AcDbLine
 10
-29.10989233347148
 20
18.519478634492
 30
0.0
 11
-29.00989233347149
 21
18.4479261356361
 31
0.0
  0
LINE
  5
F1057A
330
261
100
AcDbEntity
  8
Geo
100
AcDbLine
 10
-29.00989233347149
 20
18.4479261356361
 30
0.0
 11
-28.9098923334715
 21
18.3754529261748
 31
0.0
  0
LINE
  5
F1057C
330
261
100
AcDbEntity
  8
Geo
100
AcDbLine
 10
-28.9098923334715
 20
18.3754529261748
 30
0.0
 11
-28.80989233347149
 21
18.3020765117478
 31
0.0
  0
LINE
  5
F1057E
330
261
100
AcDbEntity
  8
Geo
100
AcDbLine
 10
-28.80989233347149
 20
18.3020765117478
 30
0.0
 11
-28.70989233347149
 21
18.22781461616061
 31
0.0
  0
LINE
  5
F10580
330
261
100
AcDbEntity
  8
Geo
100
AcDbLine
 10
-28.70989233347149
 20
18.22781461616061
 30
0.0
 11
-28.60989233347149
 21
18.1526851771034
 31
0.0
  0
LINE
  5
F10582
330
261
100
AcDbEntity
  8
Geo
100
AcDbLine
 10
-28.60989233347149
 20
18.1526851771034
 30
0.0
 11
-28.50989233347149
 21
18.0767063418185
 31
0.0
  0
LINE
  5
F10584
330
261
100
AcDbEntity
  8
Geo
100
AcDbLine
 10
-28.50989233347149
 20
18.0767063418185
 30
0.0
 11
-28.4098923334715
 21
17.9998964627167
 31
0.0
  0
LINE
  5
F10586
330
261
100
AcDbEntity
  8
Geo
100
AcDbLine
 10
-28.4098923334715
 20
17.9998964627167
 30
0.0
 11
-28.30989233347149
 21
17.9222740929444
 31
0.0
  0
LINE
  5
F10588
330
261
100
AcDbEntity
  8
Geo
100
AcDbLine
 10
-28.30989233347149
 20
17.9222740929444
 30
0.0
 11
-28.2098923334715
 21
17.8438579819022
 31
0.0
  0
LINE
  5
F1058A
330
261
100
AcDbEntity
  8
Geo
100
AcDbLine
 10
-28.2098923334715
 20
17.8438579819022
 30
0.0
 11
-28.10989233347149
 21
17.764667070716
 31
0.0
  0
LINE
  5
F1058C
330
261
100
AcDbEntity
  8
Geo
100
AcDbLine
 10
-28.10989233347149
 20
17.764667070716
 30
0.0
 11
-28.00989233347149
 21
17.6847204876618
 31
0.0
  0
LINE
  5
F1058E
330
261
100
AcDbEntity
  8
Geo
100
AcDbLine
 10
-28.00989233347149
 20
17.6847204876618
 30
0.0
 11
-27.9098923334715
 21
17.6040375435454
 31
0.0
  0
LINE
  5
F10590
330
261
100
AcDbEntity
  8
Geo
100
AcDbLine
 10
-27.9098923334715
 20
17.6040375435454
 30
0.0
 11
-27.80989233347149
 21
17.5226377270379
 31
0.0
  0
LINE
  5
F10592
330
261
100
AcDbEntity
  8
Geo
100
AcDbLine
 10
-27.80989233347149
 20
17.5226377270379
 30
0.0
 11
-27.7098923334715
 21
17.4405406999685
 31
0.0
  0
LINE
  5
F10594
330
261
100
AcDbEntity
  8
Geo
100
AcDbLine
 10
-27.7098923334715
 20
17.4405406999685
 30
0.0
 11
-27.60989233347149
 21
17.3577662925748
 31
0.0
  0
LINE
  5
F10596
330
261
100
AcDbEntity
  8
Geo
100
AcDbLine
 10
-27.60989233347149
 20
17.3577662925748
 30
0.0
 11
-27.50989233347149
 21
17.2743344987133
 31
0.0
  0
LINE
  5
F10598
330
261
100
AcDbEntity
  8
Geo
100
AcDbLine
 10
-27.50989233347149
 20
17.2743344987133
 30
0.0
 11
-27.4098923334715
 21
17.1902654710299
 31
0.0
  0
LINE
  5
F1059A
330
261
100
AcDbEntity
  8
Geo
100
AcDbLine
 10
-27.4098923334715
 20
17.1902654710299
 30
0.0
 11
-27.30989233347149
 21
17.1055795160919
 31
0.0
  0
LINE
  5
F1059C
330
261
100
AcDbEntity
  8
Geo
100
AcDbLine
 10
-27.30989233347149
 20
17.1055795160919
 30
0.0
 11
-27.20989233347149
 21
17.0202970894829
 31
0.0
  0
LINE
  5
F1059E
330
261
100
AcDbEntity
  8
Geo
100
AcDbLine
 10
-27.20989233347149
 20
17.0202970894829
 30
0.0
 11
-27.10989233347149
 21
16.9344387908625
 31
0.0
  0
LINE
  5
F105A0
330
261
100
AcDbEntity
  8
Geo
100
AcDbLine
 10
-27.10989233347149
 20
16.9344387908625
 30
0.0
 11
-27.00989233347149
 21
16.8480253589899
 31
0.0
  0
LINE
  5
F105A2
330
261
100
AcDbEntity
  8
Geo
100
AcDbLine
 10
-27.00989233347149
 20
16.8480253589899
 30
0.0
 11
-26.9098923334715
 21
16.7610776667145
 31
0.0
  0
LINE
  5
F105A4
330
261
100
AcDbEntity
  8
Geo
100
AcDbLine
 10
-26.9098923334715
 20
16.7610776667145
 30
0.0
 11
-26.80989233347149
 21
16.6736167159346
 31
0.0
  0
LINE
  5
F105A6
330
261
100
AcDbEntity
  8
Geo
100
AcDbLine
 10
-26.80989233347149
 20
16.6736167159346
 30
0.0
 11
-26.7098923334715
 21
16.5856636325243
 31
0.0
  0
LINE
  5
F105A8
330
261
100
AcDbEntity
  8
Geo
100
AcDbLine
 10
-26.7098923334715
 20
16.5856636325243
 30
0.0
 11
-26.60989233347148
 21
16.4972396612303
 31
0.0
  0
LINE
  5
F105AA
330
261
100
AcDbEntity
  8
Geo
100
AcDbLine
 10
-26.60989233347148
 20
16.4972396612303
 30
0.0
 11
-26.50989233347149
 21
16.4083661605406
 31
0.0
  0
LINE
  5
F105AC
330
261
100
AcDbEntity
  8
Geo
100
AcDbLine
 10
-26.50989233347149
 20
16.4083661605406
 30
0.0
 11
-26.4098923334715
 21
16.3190645975255
 31
0.0
  0
LINE
  5
F105AE
330
261
100
AcDbEntity
  8
Geo
100
AcDbLine
 10
-26.4098923334715
 20
16.3190645975255
 30
0.0
 11
-26.30989233347149
 21
16.22935654265219
 31
0.0
  0
LINE
  5
F105B0
330
261
100
AcDbEntity
  8
Geo
100
AcDbLine
 10
-26.30989233347149
 20
16.22935654265219
 30
0.0
 11
-26.20989233347149
 21
16.1392636645744
 31
0.0
  0
LINE
  5
F105B2
330
261
100
AcDbEntity
  8
Geo
100
AcDbLine
 10
-26.20989233347149
 20
16.1392636645744
 30
0.0
 11
-26.10989233347149
 21
16.0488077248985
 31
0.0
  0
LINE
  5
F105B4
330
261
100
AcDbEntity
  8
Geo
100
AcDbLine
 10
-26.10989233347149
 20
16.0488077248985
 30
0.0
 11
-26.00989233347149
 21
15.9580105729272
 31
0.0
  0
LINE
  5
F105B6
330
261
100
AcDbEntity
  8
Geo
100
AcDbLine
 10
-26.00989233347149
 20
15.9580105729272
 30
0.0
 11
-25.9098923334715
 21
15.8668941403815
 31
0.0
  0
LINE
  5
F105B8
330
261
100
AcDbEntity
  8
Geo
100
AcDbLine
 10
-25.9098923334715
 20
15.8668941403815
 30
0.0
 11
-25.80989233347149
 21
15.7754804361039
 31
0.0
  0
LINE
  5
F105BA
330
261
100
AcDbEntity
  8
Geo
100
AcDbLine
 10
-25.80989233347149
 20
15.7754804361039
 30
0.0
 11
-25.7098923334715
 21
15.6837915407414
 31
0.0
  0
LINE
  5
F105BC
330
261
100
AcDbEntity
  8
Geo
100
AcDbLine
 10
-25.7098923334715
 20
15.6837915407414
 30
0.0
 11
-25.60989233347149
 21
15.5918496014127
 31
0.0
  0
LINE
  5
F105BE
330
261
100
AcDbEntity
  8
Geo
100
AcDbLine
 10
-25.60989233347149
 20
15.5918496014127
 30
0.0
 11
-25.50989233347149
 21
15.4996768263581
 31
0.0
  0
LINE
  5
F105C0
330
261
100
AcDbEntity
  8
Geo
100
AcDbLine
 10
-25.50989233347149
 20
15.4996768263581
 30
0.0
 11
-25.4098923334715
 21
15.4072954795756
 31
0.0
  0
LINE
  5
F105C2
330
261
100
AcDbEntity
  8
Geo
100
AcDbLine
 10
-25.4098923334715
 20
15.4072954795756
 30
0.0
 11
-25.30989233347149
 21
15.3147278754429
 31
0.0
  0
LINE
  5
F105C4
330
261
100
AcDbEntity
  8
Geo
100
AcDbLine
 10
-25.30989233347149
 20
15.3147278754429
 30
0.0
 11
-25.2098923334715
 21
15.2219963733275
 31
0.0
  0
LINE
  5
F105C6
330
261
100
AcDbEntity
  8
Geo
100
AcDbLine
 10
-25.2098923334715
 20
15.2219963733275
 30
0.0
 11
-25.10989233347149
 21
15.1291233721857
 31
0.0
  0
LINE
  5
F105C8
330
261
100
AcDbEntity
  8
Geo
100
AcDbLine
 10
-25.10989233347149
 20
15.1291233721857
 30
0.0
 11
-25.00989233347149
 21
15.0361313051526
 31
0.0
  0
LINE
  5
F105CA
330
261
100
AcDbEntity
  8
Geo
100
AcDbLine
 10
-25.00989233347149
 20
15.0361313051526
 30
0.0
 11
-24.9098923334715
 21
14.9430426341231
 31
0.0
  0
LINE
  5
F105CC
330
261
100
AcDbEntity
  8
Geo
100
AcDbLine
 10
-24.9098923334715
 20
14.9430426341231
 30
0.0
 11
-24.80989233347149
 21
14.8498798443265
 31
0.0
  0
LINE
  5
F105CE
330
261
100
AcDbEntity
  8
Geo
100
AcDbLine
 10
-24.80989233347149
 20
14.8498798443265
 30
0.0
 11
-24.70989233347149
 21
14.7566654388952
 31
0.0
  0
LINE
  5
F105D0
330
261
100
AcDbEntity
  8
Geo
100
AcDbLine
 10
-24.70989233347149
 20
14.7566654388952
 30
0.0
 11
-24.60989233347149
 21
14.6634219334292
 31
0.0
  0
LINE
  5
F105D2
330
261
100
AcDbEntity
  8
Geo
100
AcDbLine
 10
-24.60989233347149
 20
14.6634219334292
 30
0.0
 11
-24.50989233347149
 21
14.5701718505575
 31
0.0
  0
LINE
  5
F105D4
330
261
100
AcDbEntity
  8
Geo
100
AcDbLine
 10
-24.50989233347149
 20
14.5701718505575
 30
0.0
 11
-24.4098923334715
 21
14.4769377144976
 31
0.0
  0
LINE
  5
F105D6
330
261
100
AcDbEntity
  8
Geo
100
AcDbLine
 10
-24.4098923334715
 20
14.4769377144976
 30
0.0
 11
-24.30989233347149
 21
14.3837420456156
 31
0.0
  0
LINE
  5
F105D8
330
261
100
AcDbEntity
  8
Geo
100
AcDbLine
 10
-24.30989233347149
 20
14.3837420456156
 30
0.0
 11
-24.2098923334715
 21
14.2906073549856
 31
0.0
  0
LINE
  5
F105DA
330
261
100
AcDbEntity
  8
Geo
100
AcDbLine
 10
-24.2098923334715
 20
14.2906073549856
 30
0.0
 11
-24.10989233347148
 21
14.1975561389528
 31
0.0
  0
LINE
  5
F105DC
330
261
100
AcDbEntity
  8
Geo
100
AcDbLine
 10
-24.10989233347148
 20
14.1975561389528
 30
0.0
 11
-24.00989233347149
 21
14.1046108736993
 31
0.0
  0
LINE
  5
F105DE
330
261
100
AcDbEntity
  8
Geo
100
AcDbLine
 10
-24.00989233347149
 20
14.1046108736993
 30
0.0
 11
-23.90989233347149
 21
14.0117940098152
 31
0.0
  0
LINE
  5
F105E0
330
261
100
AcDbEntity
  8
Geo
100
AcDbLine
 10
-23.90989233347149
 20
14.0117940098152
 30
0.0
 11
-23.80989233347149
 21
13.9191279668759
 31
0.0
  0
LINE
  5
F105E2
330
261
100
AcDbEntity
  8
Geo
100
AcDbLine
 10
-23.80989233347149
 20
13.9191279668759
 30
0.0
 11
-23.70989233347149
 21
13.8266351280262
 31
0.0
  0
LINE
  5
F105E4
330
261
100
AcDbEntity
  8
Geo
100
AcDbLine
 10
-23.70989233347149
 20
13.8266351280262
 30
0.0
 11
-23.60989233347149
 21
13.7343378345745
 31
0.0
  0
LINE
  5
F105E6
330
261
100
AcDbEntity
  8
Geo
100
AcDbLine
 10
-23.60989233347149
 20
13.7343378345745
 30
0.0
 11
-23.50989233347149
 21
13.6422583805956
 31
0.0
  0
LINE
  5
F105E8
330
261
100
AcDbEntity
  8
Geo
100
AcDbLine
 10
-23.50989233347149
 20
13.6422583805956
 30
0.0
 11
-23.40989233347149
 21
13.5504190075461
 31
0.0
  0
LINE
  5
F105EA
330
261
100
AcDbEntity
  8
Geo
100
AcDbLine
 10
-23.40989233347149
 20
13.5504190075461
 30
0.0
 11
-23.30989233347149
 21
13.458841898892
 31
0.0
  0
LINE
  5
F105EC
330
261
100
AcDbEntity
  8
Geo
100
AcDbLine
 10
-23.30989233347149
 20
13.458841898892
 30
0.0
 11
-23.2098923334715
 21
13.3675491747499
 31
0.0
  0
LINE
  5
F105EE
330
261
100
AcDbEntity
  8
Geo
100
AcDbLine
 10
-23.2098923334715
 20
13.3675491747499
 30
0.0
 11
-23.10989233347149
 21
13.276562886545
 31
0.0
  0
LINE
  5
F105F0
330
261
100
AcDbEntity
  8
Geo
100
AcDbLine
 10
-23.10989233347149
 20
13.276562886545
 30
0.0
 11
-23.00989233347149
 21
13.1859050116835
 31
0.0
  0
LINE
  5
F105F2
330
261
100
AcDbEntity
  8
Geo
100
AcDbLine
 10
-23.00989233347149
 20
13.1859050116835
 30
0.0
 11
-22.90989233347149
 21
13.0955974482447
 31
0.0
  0
LINE
  5
F105F4
330
261
100
AcDbEntity
  8
Geo
100
AcDbLine
 10
-22.90989233347149
 20
13.0955974482447
 30
0.0
 11
-22.80989233347149
 21
13.0056620096916
 31
0.0
  0
LINE
  5
F105F6
330
261
100
AcDbEntity
  8
Geo
100
AcDbLine
 10
-22.80989233347149
 20
13.0056620096916
 30
0.0
 11
-22.70989233347149
 21
12.9161204196015
 31
0.0
  0
LINE
  5
F105F8
330
261
100
AcDbEntity
  8
Geo
100
AcDbLine
 10
-22.70989233347149
 20
12.9161204196015
 30
0.0
 11
-22.60989233347149
 21
12.8269943064194
 31
0.0
  0
LINE
  5
F105FA
330
261
100
AcDbEntity
  8
Geo
100
AcDbLine
 10
-22.60989233347149
 20
12.8269943064194
 30
0.0
 11
-22.50989233347149
 21
12.738305198233
 31
0.0
  0
LINE
  5
F105FC
330
261
100
AcDbEntity
  8
Geo
100
AcDbLine
 10
-22.50989233347149
 20
12.738305198233
 30
0.0
 11
-22.40989233347149
 21
12.6500745175732
 31
0.0
  0
LINE
  5
F105FE
330
261
100
AcDbEntity
  8
Geo
100
AcDbLine
 10
-22.40989233347149
 20
12.6500745175732
 30
0.0
 11
-22.30989233347149
 21
12.5623235762396
 31
0.0
  0
LINE
  5
F10600
330
261
100
AcDbEntity
  8
Geo
100
AcDbLine
 10
-22.30989233347149
 20
12.5623235762396
 30
0.0
 11
-22.20989233347149
 21
12.4750735701521
 31
0.0
  0
LINE
  5
F10602
330
261
100
AcDbEntity
  8
Geo
100
AcDbLine
 10
-22.20989233347149
 20
12.4750735701521
 30
0.0
 11
-22.10989233347149
 21
12.3883455742319
 31
0.0
  0
LINE
  5
F10604
330
261
100
AcDbEntity
  8
Geo
100
AcDbLine
 10
-22.10989233347149
 20
12.3883455742319
 30
0.0
 11
-22.00989233347149
 21
12.3021605373104
 31
0.0
  0
LINE
  5
F10606
330
261
100
AcDbEntity
  8
Geo
100
AcDbLine
 10
-22.00989233347149
 20
12.3021605373104
 30
0.0
 11
-21.90989233347149
 21
12.216539277069
 31
0.0
  0
LINE
  5
F10608
330
261
100
AcDbEntity
  8
Geo
100
AcDbLine
 10
-21.90989233347149
 20
12.216539277069
 30
0.0
 11
-21.80989233347149
 21
12.1315024750114
 31
0.0
  0
LINE
  5
F1060A
330
261
100
AcDbEntity
  8
Geo
100
AcDbLine
 10
-21.80989233347149
 20
12.1315024750114
 30
0.0
 11
-21.7098923334715
 21
12.0470706714671
 31
0.0
  0
LINE
  5
F1060C
330
261
100
AcDbEntity
  8
Geo
100
AcDbLine
 10
-21.7098923334715
 20
12.0470706714671
 30
0.0
 11
-21.60989233347149
 21
11.9632642606305
 31
0.0
  0
LINE
  5
F1060E
330
261
100
AcDbEntity
  8
Geo
100
AcDbLine
 10
-21.60989233347149
 20
11.9632642606305
 30
0.0
 11
-21.50989233347149
 21
11.880103485635
 31
0.0
  0
LINE
  5
F10610
330
261
100
AcDbEntity
  8
Geo
100
AcDbLine
 10
-21.50989233347149
 20
11.880103485635
 30
0.0
 11
-21.40989233347149
 21
11.7976084336626
 31
0.0
  0
LINE
  5
F10612
330
261
100
AcDbEntity
  8
Geo
100
AcDbLine
 10
-21.40989233347149
 20
11.7976084336626
 30
0.0
 11
-21.30989233347149
 21
11.7157990310925
 31
0.0
  0
LINE
  5
F10614
330
261
100
AcDbEntity
  8
Geo
100
AcDbLine
 10
-21.30989233347149
 20
11.7157990310925
 30
0.0
 11
-21.20989233347149
 21
11.6346950386878
 31
0.0
  0
LINE
  5
F10616
330
261
100
AcDbEntity
  8
Geo
100
AcDbLine
 10
-21.20989233347149
 20
11.6346950386878
 30
0.0
 11
-21.10989233347149
 21
11.5543160468225
 31
0.0
  0
LINE
  5
F10618
330
261
100
AcDbEntity
  8
Geo
100
AcDbLine
 10
-21.10989233347149
 20
11.5543160468225
 30
0.0
 11
-21.10989233347149
 21
11.5543160468225
 31
0.0
  0
LINE
  5
F1061A
330
261
100
AcDbEntity
  8
Geo
100
AcDbLine
 10
-21.10989233347149
 20
11.5543160468225
 30
0.0
 11
-21.00989233347149
 21
11.6434217555457
 31
0.0
  0
LINE
  5
F1061C
330
261
100
AcDbEntity
  8
Geo
100
AcDbLine
 10
-21.00989233347149
 20
11.6434217555457
 30
0.0
 11
-20.90989233347149
 21
11.6556356926741
 31
0.0
  0
LINE
  5
F1061E
330
261
100
AcDbEntity
  8
Geo
100
AcDbLine
 10
-20.90989233347149
 20
11.6556356926741
 30
0.0
 11
-20.80989233347149
 21
11.6680052690225
 31
0.0
  0
LINE
  5
F10620
330
261
100
AcDbEntity
  8
Geo
100
AcDbLine
 10
-20.80989233347149
 20
11.6680052690225
 30
0.0
 11
-20.7098923334715
 21
11.680531010102
 31
0.0
  0
LINE
  5
F10622
330
261
100
AcDbEntity
  8
Geo
100
AcDbLine
 10
-20.7098923334715
 20
11.680531010102
 30
0.0
 11
-20.60989233347149
 21
11.6932134429419
 31
0.0
  0
LINE
  5
F10624
330
261
100
AcDbEntity
  8
Geo
100
AcDbLine
 10
-20.60989233347149
 20
11.6932134429419
 30
0.0
 11
-20.50989233347149
 21
11.7060530959367
 31
0.0
  0
LINE
  5
F10626
330
261
100
AcDbEntity
  8
Geo
100
AcDbLine
 10
-20.50989233347149
 20
11.7060530959367
 30
0.0
 11
-20.40989233347149
 21
11.7190504986909
 31
0.0
  0
LINE
  5
F10628
330
261
100
AcDbEntity
  8
Geo
100
AcDbLine
 10
-20.40989233347149
 20
11.7190504986909
 30
0.0
 11
-20.30989233347149
 21
11.732206181862
 31
0.0
  0
LINE
  5
F1062A
330
261
100
AcDbEntity
  8
Geo
100
AcDbLine
 10
-20.30989233347149
 20
11.732206181862
 30
0.0
 11
-20.20989233347149
 21
11.7455206770016
 31
0.0
  0
LINE
  5
F1062C
330
261
100
AcDbEntity
  8
Geo
100
AcDbLine
 10
-20.20989233347149
 20
11.7455206770016
 30
0.0
 11
-20.10989233347149
 21
11.7589945163937
 31
0.0
  0
LINE
  5
F1062E
330
261
100
AcDbEntity
  8
Geo
100
AcDbLine
 10
-20.10989233347149
 20
11.7589945163937
 30
0.0
 11
-20.00989233347149
 21
11.7726282328914
 31
0.0
  0
LINE
  5
F10630
330
261
100
AcDbEntity
  8
Geo
100
AcDbLine
 10
-20.00989233347149
 20
11.7726282328914
 30
0.0
 11
-19.90989233347149
 21
11.7864223597514
 31
0.0
  0
LINE
  5
F10632
330
261
100
AcDbEntity
  8
Geo
100
AcDbLine
 10
-19.90989233347149
 20
11.7864223597514
 30
0.0
 11
-19.80989233347149
 21
11.8003774304659
 31
0.0
  0
LINE
  5
F10634
330
261
100
AcDbEntity
  8
Geo
100
AcDbLine
 10
-19.80989233347149
 20
11.8003774304659
 30
0.0
 11
-19.70989233347149
 21
11.8144939785932
 31
0.0
  0
LINE
  5
F10636
330
261
100
AcDbEntity
  8
Geo
100
AcDbLine
 10
-19.70989233347149
 20
11.8144939785932
 30
0.0
 11
-19.60989233347149
 21
11.8287725375851
 31
0.0
  0
LINE
  5
F10638
330
261
100
AcDbEntity
  8
Geo
100
AcDbLine
 10
-19.60989233347149
 20
11.8287725375851
 30
0.0
 11
-19.50989233347149
 21
11.8432136406131
 31
0.0
  0
LINE
  5
F1063A
330
261
100
AcDbEntity
  8
Geo
100
AcDbLine
 10
-19.50989233347149
 20
11.8432136406131
 30
0.0
 11
-19.40989233347149
 21
11.8578178203916
 31
0.0
  0
LINE
  5
F1063C
330
261
100
AcDbEntity
  8
Geo
100
AcDbLine
 10
-19.40989233347149
 20
11.8578178203916
 30
0.0
 11
-19.30989233347149
 21
11.8725856089993
 31
0.0
  0
LINE
  5
F1063E
330
261
100
AcDbEntity
  8
Geo
100
AcDbLine
 10
-19.30989233347149
 20
11.8725856089993
 30
0.0
 11
-19.20989233347149
 21
11.8875175376989
 31
0.0
  0
LINE
  5
F10640
330
261
100
AcDbEntity
  8
Geo
100
AcDbLine
 10
-19.20989233347149
 20
11.8875175376989
 30
0.0
 11
-19.10989233347149
 21
11.9026141367531
 31
0.0
  0
LINE
  5
F10642
330
261
100
AcDbEntity
  8
Geo
100
AcDbLine
 10
-19.10989233347149
 20
11.9026141367531
 30
0.0
 11
-19.00989233347149
 21
11.9178759352403
 31
0.0
  0
LINE
  5
F10644
330
261
100
AcDbEntity
  8
Geo
100
AcDbLine
 10
-19.00989233347149
 20
11.9178759352403
 30
0.0
 11
-18.90989233347149
 21
11.9333034608664
 31
0.0
  0
LINE
  5
F10646
330
261
100
AcDbEntity
  8
Geo
100
AcDbLine
 10
-18.90989233347149
 20
11.9333034608664
 30
0.0
 11
-18.80989233347149
 21
11.9488972397755
 31
0.0
  0
LINE
  5
F10648
330
261
100
AcDbEntity
  8
Geo
100
AcDbLine
 10
-18.80989233347149
 20
11.9488972397755
 30
0.0
 11
-18.70989233347149
 21
11.9646577963579
 31
0.0
  0
LINE
  5
F1064A
330
261
100
AcDbEntity
  8
Geo
100
AcDbLine
 10
-18.70989233347149
 20
11.9646577963579
 30
0.0
 11
-18.60989233347149
 21
11.9805856530556
 31
0.0
  0
LINE
  5
F1064C
330
261
100
AcDbEntity
  8
Geo
100
AcDbLine
 10
-18.60989233347149
 20
11.9805856530556
 30
0.0
 11
-18.50989233347149
 21
11.9966813301664
 31
0.0
  0
LINE
  5
F1064E
330
261
100
AcDbEntity
  8
Geo
100
AcDbLine
 10
-18.50989233347149
 20
11.9966813301664
 30
0.0
 11
-18.40989233347149
 21
12.0129453456448
 31
0.0
  0
LINE
  5
F10650
330
261
100
AcDbEntity
  8
Geo
100
AcDbLine
 10
-18.40989233347149
 20
12.0129453456448
 30
0.0
 11
-18.30989233347149
 21
12.029378214901
 31
0.0
  0
LINE
  5
F10652
330
261
100
AcDbEntity
  8
Geo
100
AcDbLine
 10
-18.30989233347149
 20
12.029378214901
 30
0.0
 11
-18.20989233347149
 21
12.0459804505981
 31
0.0
  0
LINE
  5
F10654
330
261
100
AcDbEntity
  8
Geo
100
AcDbLine
 10
-18.20989233347149
 20
12.0459804505981
 30
0.0
 11
-18.10989233347149
 21
12.0627525624463
 31
0.0
  0
LINE
  5
F10656
330
261
100
AcDbEntity
  8
Geo
100
AcDbLine
 10
-18.10989233347149
 20
12.0627525624463
 30
0.0
 11
-18.00989233347149
 21
12.0796950569951
 31
0.0
  0
LINE
  5
F10658
330
261
100
AcDbEntity
  8
Geo
100
AcDbLine
 10
-18.00989233347149
 20
12.0796950569951
 30
0.0
 11
-17.90989233347149
 21
12.0968084374235
 31
0.0
  0
LINE
  5
F1065A
330
261
100
AcDbEntity
  8
Geo
100
AcDbLine
 10
-17.90989233347149
 20
12.0968084374235
 30
0.0
 11
-17.80989233347149
 21
12.1140932033275
 31
0.0
  0
LINE
  5
F1065C
330
261
100
AcDbEntity
  8
Geo
100
AcDbLine
 10
-17.80989233347149
 20
12.1140932033275
 30
0.0
 11
-17.70989233347149
 21
12.1315498505055
 31
0.0
  0
LINE
  5
F1065E
330
261
100
AcDbEntity
  8
Geo
100
AcDbLine
 10
-17.70989233347149
 20
12.1315498505055
 30
0.0
 11
-17.60989233347139
 21
12.1491788707416
 31
0.0
  0
LINE
  5
F10660
330
261
100
AcDbEntity
  8
Geo
100
AcDbLine
 10
-17.60989233347139
 20
12.1491788707416
 30
0.0
 11
-17.5098923334714
 21
12.1669807515862
 31
0.0
  0
LINE
  5
F10662
330
261
100
AcDbEntity
  8
Geo
100
AcDbLine
 10
-17.5098923334714
 20
12.1669807515862
 30
0.0
 11
-17.40989233347139
 21
12.1849559761347
 31
0.0
  0
LINE
  5
F10664
330
261
100
AcDbEntity
  8
Geo
100
AcDbLine
 10
-17.40989233347139
 20
12.1849559761347
 30
0.0
 11
-17.30989233347139
 21
12.2031050228035
 31
0.0
  0
LINE
  5
F10666
330
261
100
AcDbEntity
  8
Geo
100
AcDbLine
 10
-17.30989233347139
 20
12.2031050228035
 30
0.0
 11
-17.20989233347139
 21
12.2214283651042
 31
0.0
  0
LINE
  5
F10668
330
261
100
AcDbEntity
  8
Geo
100
AcDbLine
 10
-17.20989233347139
 20
12.2214283651042
 30
0.0
 11
-17.10989233347139
 21
12.239926471415
 31
0.0
  0
LINE
  5
F1066A
330
261
100
AcDbEntity
  8
Geo
100
AcDbLine
 10
-17.10989233347139
 20
12.239926471415
 30
0.0
 11
-17.0098923334714
 21
12.2585998047503
 31
0.0
  0
LINE
  5
F1066C
330
261
100
AcDbEntity
  8
Geo
100
AcDbLine
 10
-17.0098923334714
 20
12.2585998047503
 30
0.0
 11
-16.9098923334714
 21
12.2774488225274
 31
0.0
  0
LINE
  5
F1066E
330
261
100
AcDbEntity
  8
Geo
100
AcDbLine
 10
-16.9098923334714
 20
12.2774488225274
 30
0.0
 11
-16.80989233347139
 21
12.2964739763315
 31
0.0
  0
LINE
  5
F10670
330
261
100
AcDbEntity
  8
Geo
100
AcDbLine
 10
-16.80989233347139
 20
12.2964739763315
 30
0.0
 11
-16.70989233347139
 21
12.3156757116782
 31
0.0
  0
LINE
  5
F10672
330
261
100
AcDbEntity
  8
Geo
100
AcDbLine
 10
-16.70989233347139
 20
12.3156757116782
 30
0.0
 11
-16.60989233347139
 21
12.3350544677732
 31
0.0
  0
LINE
  5
F10674
330
261
100
AcDbEntity
  8
Geo
100
AcDbLine
 10
-16.60989233347139
 20
12.3350544677732
 30
0.0
 11
-16.5098923334714
 21
12.3546106772708
 31
0.0
  0
LINE
  5
F10676
330
261
100
AcDbEntity
  8
Geo
100
AcDbLine
 10
-16.5098923334714
 20
12.3546106772708
 30
0.0
 11
-16.4098923334714
 21
12.3743447660289
 31
0.0
  0
LINE
  5
F10678
330
261
100
AcDbEntity
  8
Geo
100
AcDbLine
 10
-16.4098923334714
 20
12.3743447660289
 30
0.0
 11
-16.30989233347139
 21
12.3942571528625
 31
0.0
  0
LINE
  5
F1067A
330
261
100
AcDbEntity
  8
Geo
100
AcDbLine
 10
-16.30989233347139
 20
12.3942571528625
 30
0.0
 11
-16.20989233347139
 21
12.4143482492948
 31
0.0
  0
LINE
  5
F1067C
330
261
100
AcDbEntity
  8
Geo
100
AcDbLine
 10
-16.20989233347139
 20
12.4143482492948
 30
0.0
 11
-16.10989233347149
 21
12.4346184593054
 31
0.0
  0
LINE
  5
F1067E
330
261
100
AcDbEntity
  8
Geo
100
AcDbLine
 10
-43.10989233347148
 20
18.1498304978152
 30
0.0
 11
-43.00989233347149
 21
18.1366544099687
 31
0.0
  0
LINE
  5
F10680
330
261
100
AcDbEntity
  8
Geo
100
AcDbLine
 10
-43.10989233347148
 20
8.8904673540637
 30
0.0
 11
-43.00989233347149
 21
8.781259986262304
 31
0.0
  0
LINE
  5
F10682
330
261
100
AcDbEntity
  8
Geo
100
AcDbLine
 10
-43.00989233347149
 20
18.1366544099687
 30
0.0
 11
-42.9098923334715
 21
18.0913636948258
 31
0.0
  0
LINE
  5
F10684
330
261
100
AcDbEntity
  8
Geo
100
AcDbLine
 10
-43.00989233347149
 20
8.781259986262304
 30
0.0
 11
-42.9098923334715
 21
8.722402790251502
 31
0.0
  0
LINE
  5
F10686
330
261
100
AcDbEntity
  8
Geo
100
AcDbLine
 10
-42.9098923334715
 20
18.0913636948258
 30
0.0
 11
-42.80989233347148
 21
18.0158227409462
 31
0.0
  0
LINE
  5
F10688
330
261
100
AcDbEntity
  8
Geo
100
AcDbLine
 10
-42.9098923334715
 20
8.722402790251502
 30
0.0
 11
-42.80989233347148
 21
8.714175153733902
 31
0.0
  0
LINE
  5
F1068A
330
261
100
AcDbEntity
  8
Geo
100
AcDbLine
 10
-42.80989233347148
 20
18.0158227409462
 30
0.0
 11
-42.70989233347149
 21
17.9394654494617
 31
0.0
  0
LINE
  5
F1068C
330
261
100
AcDbEntity
  8
Geo
100
AcDbLine
 10
-42.80989233347148
 20
8.714175153733902
 30
0.0
 11
-42.70989233347149
 21
8.707377958691701
 31
0.0
  0
LINE
  5
F1068E
330
261
100
AcDbEntity
  8
Geo
100
AcDbLine
 10
-42.70989233347149
 20
17.9394654494617
 30
0.0
 11
-42.60989233347149
 21
17.8623102641978
 31
0.0
  0
LINE
  5
F10690
330
261
100
AcDbEntity
  8
Geo
100
AcDbLine
 10
-42.70989233347149
 20
8.707377958691701
 30
0.0
 11
-42.60989233347149
 21
8.702012846962501
 31
0.0
  0
LINE
  5
F10692
330
261
100
AcDbEntity
  8
Geo
100
AcDbLine
 10
-42.60989233347149
 20
17.8623102641978
 30
0.0
 11
-42.50989233347149
 21
17.7843758217082
 31
0.0
  0
LINE
  5
F10694
330
261
100
AcDbEntity
  8
Geo
100
AcDbLine
 10
-42.60989233347149
 20
8.702012846962501
 30
0.0
 11
-42.50989233347149
 21
8.698081114469601
 31
0.0
  0
LINE
  5
F10696
330
261
100
AcDbEntity
  8
Geo
100
AcDbLine
 10
-42.50989233347149
 20
17.7843758217082
 30
0.0
 11
-42.40989233347149
 21
17.7056809467737
 31
0.0
  0
LINE
  5
F10698
330
261
100
AcDbEntity
  8
Geo
100
AcDbLine
 10
-42.50989233347149
 20
8.698081114469601
 30
0.0
 11
-42.40989233347149
 21
8.695583710908602
 31
0.0
  0
LINE
  5
F1069A
330
261
100
AcDbEntity
  8
Geo
100
AcDbLine
 10
-42.40989233347149
 20
17.7056809467737
 30
0.0
 11
-42.30989233347148
 21
17.6262446478544
 31
0.0
  0
LINE
  5
F1069C
330
261
100
AcDbEntity
  8
Geo
100
AcDbLine
 10
-42.40989233347149
 20
8.695583710908602
 30
0.0
 11
-42.30989233347148
 21
8.694521239518103
 31
0.0
  0
LINE
  5
F1069E
330
261
100
AcDbEntity
  8
Geo
100
AcDbLine
 10
-42.30989233347148
 20
17.6262446478544
 30
0.0
 11
-42.20989233347149
 21
17.546086112499
 31
0.0
  0
LINE
  5
F106A0
330
261
100
AcDbEntity
  8
Geo
100
AcDbLine
 10
-42.20989233347149
 20
17.546086112499
 30
0.0
 11
-42.10989233347148
 21
17.4652247027095
 31
0.0
  0
LINE
  5
F106A2
330
261
100
AcDbEntity
  8
Geo
100
AcDbLine
 10
-42.10989233347148
 20
17.4652247027095
 30
0.0
 11
-42.00989233347149
 21
17.3836799502649
 31
0.0
  0
LINE
  5
F106A4
330
261
100
AcDbEntity
  8
Geo
100
AcDbLine
 10
-42.00989233347149
 20
17.3836799502649
 30
0.0
 11
-41.90989233347149
 21
17.3014715520029
 31
0.0
  0
LINE
  5
F106A6
330
261
100
AcDbEntity
  8
Geo
100
AcDbLine
 10
-41.90989233347149
 20
17.3014715520029
 30
0.0
 11
-41.80989233347149
 21
17.2186193650627
 31
0.0
  0
LINE
  5
F106A8
330
261
100
AcDbEntity
  8
Geo
100
AcDbLine
 10
-41.80989233347149
 20
17.2186193650627
 30
0.0
 11
-41.70989233347149
 21
17.1351434020879
 31
0.0
  0
LINE
  5
F106AA
330
261
100
AcDbEntity
  8
Geo
100
AcDbLine
 10
-41.70989233347149
 20
17.1351434020879
 30
0.0
 11
-41.60989233347148
 21
17.0510638263934
 31
0.0
  0
LINE
  5
F106AC
330
261
100
AcDbEntity
  8
Geo
100
AcDbLine
 10
-41.60989233347148
 20
17.0510638263934
 30
0.0
 11
-41.50989233347149
 21
16.96640094709431
 31
0.0
  0
LINE
  5
F106AE
330
261
100
AcDbEntity
  8
Geo
100
AcDbLine
 10
-41.50989233347149
 20
16.96640094709431
 30
0.0
 11
-41.40989233347149
 21
16.8811752142005
 31
0.0
  0
LINE
  5
F106B0
330
261
100
AcDbEntity
  8
Geo
100
AcDbLine
 10
-41.40989233347149
 20
16.8811752142005
 30
0.0
 11
-41.30989233347149
 21
16.7954072136772
 31
0.0
  0
LINE
  5
F106B2
330
261
100
AcDbEntity
  8
Geo
100
AcDbLine
 10
-41.30989233347149
 20
16.7954072136772
 30
0.0
 11
-41.20989233347149
 21
16.7091176624725
 31
0.0
  0
LINE
  5
F106B4
330
261
100
AcDbEntity
  8
Geo
100
AcDbLine
 10
-41.20989233347149
 20
16.7091176624725
 30
0.0
 11
-41.10989233347148
 21
16.6223274035131
 31
0.0
  0
LINE
  5
F106B6
330
261
100
AcDbEntity
  8
Geo
100
AcDbLine
 10
-41.10989233347148
 20
16.6223274035131
 30
0.0
 11
-41.00989233347148
 21
16.5350574006696
 31
0.0
  0
LINE
  5
F106B8
330
261
100
AcDbEntity
  8
Geo
100
AcDbLine
 10
-41.00989233347148
 20
16.5350574006696
 30
0.0
 11
-40.9098923334715
 21
16.4473287336934
 31
0.0
  0
LINE
  5
F106BA
330
261
100
AcDbEntity
  8
Geo
100
AcDbLine
 10
-40.9098923334715
 20
16.4473287336934
 30
0.0
 11
-40.80989233347149
 21
16.3591625931242
 31
0.0
  0
LINE
  5
F106BC
330
261
100
AcDbEntity
  8
Geo
100
AcDbLine
 10
-40.80989233347149
 20
16.3591625931242
 30
0.0
 11
-40.70989233347149
 21
16.270580275172
 31
0.0
  0
LINE
  5
F106BE
330
261
100
AcDbEntity
  8
Geo
100
AcDbLine
 10
-40.70989233347149
 20
16.270580275172
 30
0.0
 11
-40.60989233347148
 21
16.181603176573
 31
0.0
  0
LINE
  5
F106C0
330
261
100
AcDbEntity
  8
Geo
100
AcDbLine
 10
-40.60989233347148
 20
16.181603176573
 30
0.0
 11
-40.50989233347149
 21
16.092252789421
 31
0.0
  0
LINE
  5
F106C2
330
261
100
AcDbEntity
  8
Geo
100
AcDbLine
 10
-40.50989233347149
 20
16.092252789421
 30
0.0
 11
-40.4098923334715
 21
16.0025506959765
 31
0.0
  0
LINE
  5
F106C4
330
261
100
AcDbEntity
  8
Geo
100
AcDbLine
 10
-40.4098923334715
 20
16.0025506959765
 30
0.0
 11
-40.30989233347148
 21
15.9125185634534
 31
0.0
  0
LINE
  5
F106C6
330
261
100
AcDbEntity
  8
Geo
100
AcDbLine
 10
-40.30989233347148
 20
15.9125185634534
 30
0.0
 11
-40.20989233347149
 21
15.8221781387851
 31
0.0
  0
LINE
  5
F106C8
330
261
100
AcDbEntity
  8
Geo
100
AcDbLine
 10
-40.20989233347149
 20
15.8221781387851
 30
0.0
 11
-40.10989233347149
 21
15.7315512433721
 31
0.0
  0
LINE
  5
F106CA
330
261
100
AcDbEntity
  8
Geo
100
AcDbLine
 10
-40.10989233347149
 20
15.7315512433721
 30
0.0
 11
-40.00989233347149
 21
15.6406597678106
 31
0.0
  0
LINE
  5
F106CC
330
261
100
AcDbEntity
  8
Geo
100
AcDbLine
 10
-40.00989233347149
 20
15.6406597678106
 30
0.0
 11
-39.9098923334715
 21
15.5495256666055
 31
0.0
  0
LINE
  5
F106CE
330
261
100
AcDbEntity
  8
Geo
100
AcDbLine
 10
-39.9098923334715
 20
15.5495256666055
 30
0.0
 11
-39.80989233347149
 21
15.4581709528667
 31
0.0
  0
LINE
  5
F106D0
330
261
100
AcDbEntity
  8
Geo
100
AcDbLine
 10
-39.80989233347149
 20
15.4581709528667
 30
0.0
 11
-39.70989233347149
 21
15.3666176929926
 31
0.0
  0
LINE
  5
F106D2
330
261
100
AcDbEntity
  8
Geo
100
AcDbLine
 10
-39.70989233347149
 20
15.3666176929926
 30
0.0
 11
-39.60989233347149
 21
15.2748880013393
 31
0.0
  0
LINE
  5
F106D4
330
261
100
AcDbEntity
  8
Geo
100
AcDbLine
 10
-39.60989233347149
 20
15.2748880013393
 30
0.0
 11
-39.50989233347149
 21
15.1830040348797
 31
0.0
  0
LINE
  5
F106D6
330
261
100
AcDbEntity
  8
Geo
100
AcDbLine
 10
-39.50989233347149
 20
15.1830040348797
 30
0.0
 11
-39.4098923334715
 21
15.0909879878511
 31
0.0
  0
LINE
  5
F106D8
330
261
100
AcDbEntity
  8
Geo
100
AcDbLine
 10
-39.4098923334715
 20
15.0909879878511
 30
0.0
 11
-39.30989233347149
 21
14.9988620863942
 31
0.0
  0
LINE
  5
F106DA
330
261
100
AcDbEntity
  8
Geo
100
AcDbLine
 10
-39.30989233347149
 20
14.9988620863942
 30
0.0
 11
-39.2098923334715
 21
14.906648583185
 31
0.0
  0
LINE
  5
F106DC
330
261
100
AcDbEntity
  8
Geo
100
AcDbLine
 10
-39.2098923334715
 20
14.906648583185
 30
0.0
 11
-39.10989233347148
 21
14.814369752059
 31
0.0
  0
LINE
  5
F106DE
330
261
100
AcDbEntity
  8
Geo
100
AcDbLine
 10
-39.10989233347148
 20
14.814369752059
 30
0.0
 11
-39.00989233347149
 21
14.7220478826318
 31
0.0
  0
LINE
  5
F106E0
330
261
100
AcDbEntity
  8
Geo
100
AcDbLine
 10
-39.00989233347149
 20
14.7220478826318
 30
0.0
 11
-38.9098923334715
 21
14.6297052749143
 31
0.0
  0
LINE
  5
F106E2
330
261
100
AcDbEntity
  8
Geo
100
AcDbLine
 10
-38.9098923334715
 20
14.6297052749143
 30
0.0
 11
-38.80989233347149
 21
14.5373642339272
 31
0.0
  0
LINE
  5
F106E4
330
261
100
AcDbEntity
  8
Geo
100
AcDbLine
 10
-38.80989233347149
 20
14.5373642339272
 30
0.0
 11
-38.70989233347149
 21
14.4450470643122
 31
0.0
  0
LINE
  5
F106E6
330
261
100
AcDbEntity
  8
Geo
100
AcDbLine
 10
-38.70989233347149
 20
14.4450470643122
 30
0.0
 11
-38.60989233347149
 21
14.3527760649454
 31
0.0
  0
LINE
  5
F106E8
330
261
100
AcDbEntity
  8
Geo
100
AcDbLine
 10
-38.60989233347149
 20
14.3527760649454
 30
0.0
 11
-38.50989233347149
 21
14.2605735235504
 31
0.0
  0
LINE
  5
F106EA
330
261
100
AcDbEntity
  8
Geo
100
AcDbLine
 10
-38.50989233347149
 20
14.2605735235504
 30
0.0
 11
-38.4098923334715
 21
14.168461711315
 31
0.0
  0
LINE
  5
F106EC
330
261
100
AcDbEntity
  8
Geo
100
AcDbLine
 10
-38.4098923334715
 20
14.168461711315
 30
0.0
 11
-38.30989233347149
 21
14.076462877512
 31
0.0
  0
LINE
  5
F106EE
330
261
100
AcDbEntity
  8
Geo
100
AcDbLine
 10
-38.30989233347149
 20
14.076462877512
 30
0.0
 11
-38.2098923334715
 21
13.9845992441244
 31
0.0
  0
LINE
  5
F106F0
330
261
100
AcDbEntity
  8
Geo
100
AcDbLine
 10
-38.2098923334715
 20
13.9845992441244
 30
0.0
 11
-38.10989233347149
 21
13.892893000478
 31
0.0
  0
LINE
  5
F106F2
330
261
100
AcDbEntity
  8
Geo
100
AcDbLine
 10
-38.10989233347149
 20
13.892893000478
 30
0.0
 11
-38.00989233347149
 21
13.8013662978819
 31
0.0
  0
LINE
  5
F106F4
330
261
100
AcDbEntity
  8
Geo
100
AcDbLine
 10
-38.00989233347149
 20
13.8013662978819
 30
0.0
 11
-37.9098923334715
 21
13.7100412442775
 31
0.0
  0
LINE
  5
F106F6
330
261
100
AcDbEntity
  8
Geo
100
AcDbLine
 10
-37.9098923334715
 20
13.7100412442775
 30
0.0
 11
-37.80989233347149
 21
13.6189398988988
 31
0.0
  0
LINE
  5
F106F8
330
261
100
AcDbEntity
  8
Geo
100
AcDbLine
 10
-37.80989233347149
 20
13.6189398988988
 30
0.0
 11
-37.7098923334715
 21
13.5280842669438
 31
0.0
  0
LINE
  5
F106FA
330
261
100
AcDbEntity
  8
Geo
100
AcDbLine
 10
-37.7098923334715
 20
13.5280842669438
 30
0.0
 11
-37.60989233347149
 21
13.4374962942593
 31
0.0
  0
LINE
  5
F106FC
330
261
100
AcDbEntity
  8
Geo
100
AcDbLine
 10
-37.60989233347149
 20
13.4374962942593
 30
0.0
 11
-37.50989233347149
 21
13.34719786204
 31
0.0
  0
LINE
  5
F106FE
330
261
100
AcDbEntity
  8
Geo
100
AcDbLine
 10
-37.50989233347149
 20
13.34719786204
 30
0.0
 11
-37.4098923334715
 21
13.2572107815432
 31
0.0
  0
LINE
  5
F10700
330
261
100
AcDbEntity
  8
Geo
100
AcDbLine
 10
-37.4098923334715
 20
13.2572107815432
 30
0.0
 11
-37.30989233347149
 21
13.1675567888203
 31
0.0
  0
LINE
  5
F10702
330
261
100
AcDbEntity
  8
Geo
100
AcDbLine
 10
-37.30989233347149
 20
13.1675567888203
 30
0.0
 11
-37.20989233347149
 21
13.0782575394665
 31
0.0
  0
LINE
  5
F10704
330
261
100
AcDbEntity
  8
Geo
100
AcDbLine
 10
-37.20989233347149
 20
13.0782575394665
 30
0.0
 11
-37.10989233347149
 21
12.9893346033901
 31
0.0
  0
LINE
  5
F10706
330
261
100
AcDbEntity
  8
Geo
100
AcDbLine
 10
-37.10989233347149
 20
12.9893346033901
 30
0.0
 11
-37.00989233347149
 21
12.9008094596023
 31
0.0
  0
LINE
  5
F10708
330
261
100
AcDbEntity
  8
Geo
100
AcDbLine
 10
-37.00989233347149
 20
12.9008094596023
 30
0.0
 11
-36.9098923334715
 21
12.8127034910289
 31
0.0
  0
LINE
  5
F1070A
330
261
100
AcDbEntity
  8
Geo
100
AcDbLine
 10
-36.9098923334715
 20
12.8127034910289
 30
0.0
 11
-36.80989233347149
 21
12.7250379793457
 31
0.0
  0
LINE
  5
F1070C
330
261
100
AcDbEntity
  8
Geo
100
AcDbLine
 10
-36.80989233347149
 20
12.7250379793457
 30
0.0
 11
-36.7098923334715
 21
12.6378340998376
 31
0.0
  0
LINE
  5
F1070E
330
261
100
AcDbEntity
  8
Geo
100
AcDbLine
 10
-36.7098923334715
 20
12.6378340998376
 30
0.0
 11
-36.60989233347148
 21
12.5511129162838
 31
0.0
  0
LINE
  5
F10710
330
261
100
AcDbEntity
  8
Geo
100
AcDbLine
 10
-36.60989233347148
 20
12.5511129162838
 30
0.0
 11
-36.50989233347149
 21
12.4648953758704
 31
0.0
  0
LINE
  5
F10712
330
261
100
AcDbEntity
  8
Geo
100
AcDbLine
 10
-36.50989233347149
 20
12.4648953758704
 30
0.0
 11
-36.4098923334715
 21
12.3792023041299
 31
0.0
  0
LINE
  5
F10714
330
261
100
AcDbEntity
  8
Geo
100
AcDbLine
 10
-36.4098923334715
 20
12.3792023041299
 30
0.0
 11
-36.30989233347149
 21
12.2940543999115
 31
0.0
  0
LINE
  5
F10716
330
261
100
AcDbEntity
  8
Geo
100
AcDbLine
 10
-36.30989233347149
 20
12.2940543999115
 30
0.0
 11
-36.20989233347149
 21
12.2094722303814
 31
0.0
  0
LINE
  5
F10718
330
261
100
AcDbEntity
  8
Geo
100
AcDbLine
 10
-36.20989233347149
 20
12.2094722303814
 30
0.0
 11
-36.10989233347149
 21
12.1254762260544
 31
0.0
  0
LINE
  5
F1071A
330
261
100
AcDbEntity
  8
Geo
100
AcDbLine
 10
-36.10989233347149
 20
12.1254762260544
 30
0.0
 11
-36.00989233347149
 21
12.0420866758591
 31
0.0
  0
LINE
  5
F1071C
330
261
100
AcDbEntity
  8
Geo
100
AcDbLine
 10
-36.00989233347149
 20
12.0420866758591
 30
0.0
 11
-35.9098923334715
 21
11.9593237222376
 31
0.0
  0
LINE
  5
F1071E
330
261
100
AcDbEntity
  8
Geo
100
AcDbLine
 10
-35.9098923334715
 20
11.9593237222376
 30
0.0
 11
-35.80989233347149
 21
11.8772073562798
 31
0.0
  0
LINE
  5
F10720
330
261
100
AcDbEntity
  8
Geo
100
AcDbLine
 10
-35.80989233347149
 20
11.8772073562798
 30
0.0
 11
-35.7098923334715
 21
11.7957574128946
 31
0.0
  0
LINE
  5
F10722
330
261
100
AcDbEntity
  8
Geo
100
AcDbLine
 10
-35.7098923334715
 20
11.7957574128946
 30
0.0
 11
-35.60989233347149
 21
11.7149935660191
 31
0.0
  0
LINE
  5
F10724
330
261
100
AcDbEntity
  8
Geo
100
AcDbLine
 10
-35.60989233347149
 20
11.7149935660191
 30
0.0
 11
-35.50989233347149
 21
11.6349353238662
 31
0.0
  0
LINE
  5
F10726
330
261
100
AcDbEntity
  8
Geo
100
AcDbLine
 10
-35.50989233347149
 20
11.6349353238662
 30
0.0
 11
-35.4098923334715
 21
11.5556020242125
 31
0.0
  0
LINE
  5
F10728
330
261
100
AcDbEntity
  8
Geo
100
AcDbLine
 10
-35.50989233347149
 20
20.5777992011475
 30
0.0
 11
-35.4098923334715
 21
20.5765351302264
 31
0.0
  0
LINE
  5
F1072A
330
261
100
AcDbEntity
  8
Geo
100
AcDbLine
 10
-35.4098923334715
 20
11.5556020242125
 30
0.0
 11
-35.30989233347149
 21
11.4770128297275
 31
0.0
  0
LINE
  5
F1072C
330
261
100
AcDbEntity
  8
Geo
100
AcDbLine
 10
-35.4098923334715
 20
20.5765351302264
 30
0.0
 11
-35.30989233347149
 21
20.57383619095361
 31
0.0
  0
LINE
  5
F1072E
330
261
100
AcDbEntity
  8
Geo
100
AcDbLine
 10
-35.30989233347149
 20
11.4770128297275
 30
0.0
 11
-35.2098923334715
 21
11.3991867233447
 31
0.0
  0
LINE
  5
F10730
330
261
100
AcDbEntity
  8
Geo
100
AcDbLine
 10
-35.30989233347149
 20
20.57383619095361
 30
0.0
 11
-35.2098923334715
 21
20.5697030352483
 31
0.0
  0
LINE
  5
F10732
330
261
100
AcDbEntity
  8
Geo
100
AcDbLine
 10
-35.2098923334715
 20
11.3991867233447
 30
0.0
 11
-35.10989233347149
 21
11.3221425036766
 31
0.0
  0
LINE
  5
F10734
330
261
100
AcDbEntity
  8
Geo
100
AcDbLine
 10
-35.2098923334715
 20
20.5697030352483
 30
0.0
 11
-35.10989233347149
 21
20.564136661459
 31
0.0
  0
LINE
  5
F10736
330
261
100
AcDbEntity
  8
Geo
100
AcDbLine
 10
-35.10989233347149
 20
11.3221425036766
 30
0.0
 11
-35.00989233347149
 21
11.2458987804736
 31
0.0
  0
LINE
  5
F10738
330
261
100
AcDbEntity
  8
Geo
100
AcDbLine
 10
-35.10989233347149
 20
20.564136661459
 30
0.0
 11
-35.00989233347149
 21
20.557138414123
 31
0.0
  0
LINE
  5
F1073A
330
261
100
AcDbEntity
  8
Geo
100
AcDbLine
 10
-35.00989233347149
 20
11.2458987804736
 30
0.0
 11
-34.9098923334715
 21
11.1704739701294
 31
0.0
  0
LINE
  5
F1073C
330
261
100
AcDbEntity
  8
Geo
100
AcDbLine
 10
-35.00989233347149
 20
20.557138414123
 30
0.0
 11
-34.9098923334715
 21
20.5487099836416
 31
0.0
  0
LINE
  5
F1073E
330
261
100
AcDbEntity
  8
Geo
100
AcDbLine
 10
-34.9098923334715
 20
11.1704739701294
 30
0.0
 11
-34.80989233347149
 21
11.0958862912319
 31
0.0
  0
LINE
  5
F10740
330
261
100
AcDbEntity
  8
Geo
100
AcDbLine
 10
-34.9098923334715
 20
20.5487099836416
 30
0.0
 11
-34.80989233347149
 21
20.5388534058713
 31
0.0
  0
LINE
  5
F10742
330
261
100
AcDbEntity
  8
Geo
100
AcDbLine
 10
-34.80989233347149
 20
11.0958862912319
 30
0.0
 11
-34.70989233347149
 21
11.0221537601633
 31
0.0
  0
LINE
  5
F10744
330
261
100
AcDbEntity
  8
Geo
100
AcDbLine
 10
-34.80989233347149
 20
20.5388534058713
 30
0.0
 11
-34.70989233347149
 21
20.5275710616327
 31
0.0
  0
LINE
  5
F10746
330
261
100
AcDbEntity
  8
Geo
100
AcDbLine
 10
-34.70989233347149
 20
11.0221537601633
 30
0.0
 11
-34.60989233347149
 21
10.9492941867476
 31
0.0
  0
LINE
  5
F10748
330
261
100
AcDbEntity
  8
Geo
100
AcDbLine
 10
-34.70989233347149
 20
20.5275710616327
 30
0.0
 11
-34.60989233347149
 21
20.5148656761348
 31
0.0
  0
LINE
  5
F1074A
330
261
100
AcDbEntity
  8
Geo
100
AcDbLine
 10
-34.60989233347149
 20
10.9492941867476
 30
0.0
 11
-34.50989233347149
 21
10.8773251699495
 31
0.0
  0
LINE
  5
F1074C
330
261
100
AcDbEntity
  8
Geo
100
AcDbLine
 10
-34.60989233347149
 20
20.5148656761348
 30
0.0
 11
-34.50989233347149
 21
20.5007403183173
 31
0.0
  0
LINE
  5
F1074E
330
261
100
AcDbEntity
  8
Geo
100
AcDbLine
 10
-34.50989233347149
 20
10.8773251699495
 30
0.0
 11
-34.4098923334715
 21
10.8062640936227
 31
0.0
  0
LINE
  5
F10750
330
261
100
AcDbEntity
  8
Geo
100
AcDbLine
 10
-34.50989233347149
 20
20.5007403183173
 30
0.0
 11
-34.4098923334715
 21
20.4851984001088
 31
0.0
  0
LINE
  5
F10752
330
261
100
AcDbEntity
  8
Geo
100
AcDbLine
 10
-34.4098923334715
 20
10.8062640936227
 30
0.0
 11
-34.30989233347149
 21
10.7361281223111
 31
0.0
  0
LINE
  5
F10754
330
261
100
AcDbEntity
  8
Geo
100
AcDbLine
 10
-34.4098923334715
 20
20.4851984001088
 30
0.0
 11
-34.30989233347149
 21
20.46824367560311
 31
0.0
  0
LINE
  5
F10756
330
261
100
AcDbEntity
  8
Geo
100
AcDbLine
 10
-34.30989233347149
 20
10.7361281223111
 30
0.0
 11
-34.2098923334715
 21
10.6669341971032
 31
0.0
  0
LINE
  5
F10758
330
261
100
AcDbEntity
  8
Geo
100
AcDbLine
 10
-34.30989233347149
 20
20.46824367560311
 30
0.0
 11
-34.2098923334715
 21
20.449880240152
 31
0.0
  0
LINE
  5
F1075A
330
261
100
AcDbEntity
  8
Geo
100
AcDbLine
 10
-34.2098923334715
 20
10.6669341971032
 30
0.0
 11
-34.10989233347148
 21
10.5986990315393
 31
0.0
  0
LINE
  5
F1075C
330
261
100
AcDbEntity
  8
Geo
100
AcDbLine
 10
-34.2098923334715
 20
20.449880240152
 30
0.0
 11
-34.10989233347148
 21
20.4301125293766
 31
0.0
  0
LINE
  5
F1075E
330
261
100
AcDbEntity
  8
Geo
100
AcDbLine
 10
-34.10989233347148
 20
10.5986990315393
 30
0.0
 11
-34.00989233347149
 21
10.5314391075752
 31
0.0
  0
LINE
  5
F10760
330
261
100
AcDbEntity
  8
Geo
100
AcDbLine
 10
-34.10989233347148
 20
20.4301125293766
 30
0.0
 11
-34.00989233347149
 21
20.4089453180952
 31
0.0
  0
LINE
  5
F10762
330
261
100
AcDbEntity
  8
Geo
100
AcDbLine
 10
-34.00989233347149
 20
10.5314391075752
 30
0.0
 11
-33.9098923334715
 21
10.4651706716003
 31
0.0
  0
LINE
  5
F10764
330
261
100
AcDbEntity
  8
Geo
100
AcDbLine
 10
-34.00989233347149
 20
20.4089453180952
 30
0.0
 11
-33.9098923334715
 21
20.3863837191707
 31
0.0
  0
LINE
  5
F10766
330
261
100
AcDbEntity
  8
Geo
100
AcDbLine
 10
-33.9098923334715
 20
10.4651706716003
 30
0.0
 11
-33.80989233347149
 21
10.3999097305138
 31
0.0
  0
LINE
  5
F10768
330
261
100
AcDbEntity
  8
Geo
100
AcDbLine
 10
-33.9098923334715
 20
20.3863837191707
 30
0.0
 11
-33.80989233347149
 21
20.3624331822751
 31
0.0
  0
LINE
  5
F1076A
330
261
100
AcDbEntity
  8
Geo
100
AcDbLine
 10
-33.80989233347149
 20
10.3999097305138
 30
0.0
 11
-33.70989233347149
 21
10.3356720478584
 31
0.0
  0
LINE
  5
F1076C
330
261
100
AcDbEntity
  8
Geo
100
AcDbLine
 10
-33.80989233347149
 20
20.3624331822751
 30
0.0
 11
-33.70989233347149
 21
20.3370994925732
 31
0.0
  0
LINE
  5
F1076E
330
261
100
AcDbEntity
  8
Geo
100
AcDbLine
 10
-33.70989233347149
 20
10.3356720478584
 30
0.0
 11
-33.60989233347149
 21
10.2724731400121
 31
0.0
  0
LINE
  5
F10770
330
261
100
AcDbEntity
  8
Geo
100
AcDbLine
 10
-33.70989233347149
 20
20.3370994925732
 30
0.0
 11
-33.60989233347149
 21
20.3103887693256
 31
0.0
  0
LINE
  5
F10772
330
261
100
AcDbEntity
  8
Geo
100
AcDbLine
 10
-33.60989233347149
 20
10.2724731400121
 30
0.0
 11
-33.50989233347149
 21
10.2103282724409
 31
0.0
  0
LINE
  5
F10774
330
261
100
AcDbEntity
  8
Geo
100
AcDbLine
 10
-33.60989233347149
 20
20.3103887693256
 30
0.0
 11
-33.50989233347149
 21
20.28230746441
 31
0.0
  0
LINE
  5
F10776
330
261
100
AcDbEntity
  8
Geo
100
AcDbLine
 10
-33.50989233347149
 20
10.2103282724409
 30
0.0
 11
-33.4098923334715
 21
10.1492524560111
 31
0.0
  0
LINE
  5
F10778
330
261
100
AcDbEntity
  8
Geo
100
AcDbLine
 10
-33.50989233347149
 20
20.28230746441
 30
0.0
 11
-33.4098923334715
 21
20.2528623607634
 31
0.0
  0
LINE
  5
F1077A
330
261
100
AcDbEntity
  8
Geo
100
AcDbLine
 10
-33.4098923334715
 20
10.1492524560111
 30
0.0
 11
-33.30989233347149
 21
10.0892604433635
 31
0.0
  0
LINE
  5
F1077C
330
261
100
AcDbEntity
  8
Geo
100
AcDbLine
 10
-33.4098923334715
 20
20.2528623607634
 30
0.0
 11
-33.30989233347149
 21
20.2220605707432
 31
0.0
  0
LINE
  5
F1077E
330
261
100
AcDbEntity
  8
Geo
100
AcDbLine
 10
-33.30989233347149
 20
10.0892604433635
 30
0.0
 11
-33.2098923334715
 21
10.0303667253503
 31
0.0
  0
LINE
  5
F10780
330
261
100
AcDbEntity
  8
Geo
100
AcDbLine
 10
-33.30989233347149
 20
20.2220605707432
 30
0.0
 11
-33.2098923334715
 21
20.18990953440961
 31
0.0
  0
LINE
  5
F10782
330
261
100
AcDbEntity
  8
Geo
100
AcDbLine
 10
-33.2098923334715
 20
10.0303667253503
 30
0.0
 11
-33.10989233347149
 21
9.972585527534402
 31
0.0
  0
LINE
  5
F10784
330
261
100
AcDbEntity
  8
Geo
100
AcDbLine
 10
-33.2098923334715
 20
20.18990953440961
 30
0.0
 11
-33.10989233347149
 21
20.1564170177283
 31
0.0
  0
LINE
  5
F10786
330
261
100
AcDbEntity
  8
Geo
100
AcDbLine
 10
-33.10989233347149
 20
9.972585527534402
 30
0.0
 11
-33.00989233347149
 21
9.915930806753602
 31
0.0
  0
LINE
  5
F10788
330
261
100
AcDbEntity
  8
Geo
100
AcDbLine
 10
-33.10989233347149
 20
20.1564170177283
 30
0.0
 11
-33.00989233347149
 21
20.1215911106946
 31
0.0
  0
LINE
  5
F1078A
330
261
100
AcDbEntity
  8
Geo
100
AcDbLine
 10
-33.00989233347149
 20
9.915930806753602
 30
0.0
 11
-32.9098923334715
 21
9.860416247749201
 31
0.0
  0
LINE
  5
F1078C
330
261
100
AcDbEntity
  8
Geo
100
AcDbLine
 10
-33.00989233347149
 20
20.1215911106946
 30
0.0
 11
-32.9098923334715
 21
20.0854402253794
 31
0.0
  0
LINE
  5
F1078E
330
261
100
AcDbEntity
  8
Geo
100
AcDbLine
 10
-32.9098923334715
 20
9.860416247749201
 30
0.0
 11
-32.80989233347149
 21
9.8060552598607
 31
0.0
  0
LINE
  5
F10790
330
261
100
AcDbEntity
  8
Geo
100
AcDbLine
 10
-32.9098923334715
 20
20.0854402253794
 30
0.0
 11
-32.80989233347149
 21
20.0479730938974
 31
0.0
  0
LINE
  5
F10792
330
261
100
AcDbEntity
  8
Geo
100
AcDbLine
 10
-32.80989233347149
 20
9.8060552598607
 30
0.0
 11
-32.7098923334715
 21
9.752860973786601
 31
0.0
  0
LINE
  5
F10794
330
261
100
AcDbEntity
  8
Geo
100
AcDbLine
 10
-32.80989233347149
 20
20.0479730938974
 30
0.0
 11
-32.7098923334715
 21
20.0091987662977
 31
0.0
  0
LINE
  5
F10796
330
261
100
AcDbEntity
  8
Geo
100
AcDbLine
 10
-32.7098923334715
 20
9.752860973786601
 30
0.0
 11
-32.60989233347149
 21
9.700846238412902
 31
0.0
  0
LINE
  5
F10798
330
261
100
AcDbEntity
  8
Geo
100
AcDbLine
 10
-32.7098923334715
 20
20.0091987662977
 30
0.0
 11
-32.60989233347149
 21
19.9691266083778
 31
0.0
  0
LINE
  5
F1079A
330
261
100
AcDbEntity
  8
Geo
100
AcDbLine
 10
-32.60989233347149
 20
9.700846238412902
 30
0.0
 11
-32.50989233347149
 21
9.650023617709502
 31
0.0
  0
LINE
  5
F1079C
330
261
100
AcDbEntity
  8
Geo
100
AcDbLine
 10
-32.60989233347149
 20
19.9691266083778
 30
0.0
 11
-32.50989233347149
 21
19.9277662994214
 31
0.0
  0
LINE
  5
F1079E
330
261
100
AcDbEntity
  8
Geo
100
AcDbLine
 10
-32.50989233347149
 20
9.650023617709502
 30
0.0
 11
-32.4098923334715
 21
9.600405387695001
 31
0.0
  0
LINE
  5
F107A0
330
261
100
AcDbEntity
  8
Geo
100
AcDbLine
 10
-32.50989233347149
 20
19.9277662994214
 30
0.0
 11
-32.4098923334715
 21
19.8851278298604
 31
0.0
  0
LINE
  5
F107A2
330
261
100
AcDbEntity
  8
Geo
100
AcDbLine
 10
-32.4098923334715
 20
9.600405387695001
 30
0.0
 11
-32.30989233347149
 21
9.5520035334722
 31
0.0
  0
LINE
  5
F107A4
330
261
100
AcDbEntity
  8
Geo
100
AcDbLine
 10
-32.4098923334715
 20
19.8851278298604
 30
0.0
 11
-32.30989233347149
 21
19.8412214988619
 31
0.0
  0
LINE
  5
F107A6
330
261
100
AcDbEntity
  8
Geo
100
AcDbLine
 10
-32.30989233347149
 20
9.5520035334722
 30
0.0
 11
-32.20989233347149
 21
9.504829746332601
 31
0.0
  0
LINE
  5
F107A8
330
261
100
AcDbEntity
  8
Geo
100
AcDbLine
 10
-32.30989233347149
 20
19.8412214988619
 30
0.0
 11
-32.20989233347149
 21
19.79605791184
 31
0.0
  0
LINE
  5
F107AA
330
261
100
AcDbEntity
  8
Geo
100
AcDbLine
 10
-32.20989233347149
 20
9.504829746332601
 30
0.0
 11
-32.10989233347149
 21
9.458895420932602
 31
0.0
  0
LINE
  5
F107AC
330
261
100
AcDbEntity
  8
Geo
100
AcDbLine
 10
-32.20989233347149
 20
19.79605791184
 30
0.0
 11
-32.10989233347149
 21
19.7496479778946
 31
0.0
  0
LINE
  5
F107AE
330
261
100
AcDbEntity
  8
Geo
100
AcDbLine
 10
-32.10989233347149
 20
9.458895420932602
 30
0.0
 11
-32.00989233347149
 21
9.414211652541101
 31
0.0
  0
LINE
  5
F107B0
330
261
100
AcDbEntity
  8
Geo
100
AcDbLine
 10
-32.10989233347149
 20
19.7496479778946
 30
0.0
 11
-32.00989233347149
 21
19.7020029071762
 31
0.0
  0
LINE
  5
F107B2
330
261
100
AcDbEntity
  8
Geo
100
AcDbLine
 10
-32.00989233347149
 20
9.414211652541101
 30
0.0
 11
-31.9098923334715
 21
9.370789234359502
 31
0.0
  0
LINE
  5
F107B4
330
261
100
AcDbEntity
  8
Geo
100
AcDbLine
 10
-32.00989233347149
 20
19.7020029071762
 30
0.0
 11
-31.9098923334715
 21
19.6531342081779
 31
0.0
  0
LINE
  5
F107B6
330
261
100
AcDbEntity
  8
Geo
100
AcDbLine
 10
-31.9098923334715
 20
9.370789234359502
 30
0.0
 11
-31.80989233347149
 21
9.3286386549147
 31
0.0
  0
LINE
  5
F107B8
330
261
100
AcDbEntity
  8
Geo
100
AcDbLine
 10
-31.9098923334715
 20
19.6531342081779
 30
0.0
 11
-31.80989233347149
 21
19.603053684956
 31
0.0
  0
LINE
  5
F107BA
330
261
100
AcDbEntity
  8
Geo
100
AcDbLine
 10
-31.80989233347149
 20
9.3286386549147
 30
0.0
 11
-31.7098923334715
 21
9.287770095525603
 31
0.0
  0
LINE
  5
F107BC
330
261
100
AcDbEntity
  8
Geo
100
AcDbLine
 10
-31.80989233347149
 20
19.603053684956
 30
0.0
 11
-31.7098923334715
 21
19.5517734342784
 31
0.0
  0
LINE
  5
F107BE
330
261
100
AcDbEntity
  8
Geo
100
AcDbLine
 10
-31.7098923334715
 20
9.287770095525603
 30
0.0
 11
-31.60989233347148
 21
9.248193427843803
 31
0.0
  0
LINE
  5
F107C0
330
261
100
AcDbEntity
  8
Geo
100
AcDbLine
 10
-31.7098923334715
 20
19.5517734342784
 30
0.0
 11
-31.60989233347148
 21
19.4993058427026
 31
0.0
  0
LINE
  5
F107C2
330
261
100
AcDbEntity
  8
Geo
100
AcDbLine
 10
-31.60989233347148
 20
9.248193427843803
 30
0.0
 11
-31.50989233347149
 21
9.209918211469201
 31
0.0
  0
LINE
  5
F107C4
330
261
100
AcDbEntity
  8
Geo
100
AcDbLine
 10
-31.60989233347148
 20
19.4993058427026
 30
0.0
 11
-31.50989233347149
 21
19.4456635835844
 31
0.0
  0
LINE
  5
F107C6
330
261
100
AcDbEntity
  8
Geo
100
AcDbLine
 10
-31.50989233347149
 20
9.209918211469201
 30
0.0
 11
-31.4098923334715
 21
9.172953691640699
 31
0.0
  0
LINE
  5
F107C8
330
261
100
AcDbEntity
  8
Geo
100
AcDbLine
 10
-31.50989233347149
 20
19.4456635835844
 30
0.0
 11
-31.4098923334715
 21
19.3908596140159
 31
0.0
  0
LINE
  5
F107CA
330
261
100
AcDbEntity
  8
Geo
100
AcDbLine
 10
-31.4098923334715
 20
9.172953691640699
 30
0.0
 11
-31.30989233347149
 21
9.137308797003502
 31
0.0
  0
LINE
  5
F107CC
330
261
100
AcDbEntity
  8
Geo
100
AcDbLine
 10
-31.4098923334715
 20
19.3908596140159
 30
0.0
 11
-31.30989233347149
 21
19.3349071716962
 31
0.0
  0
LINE
  5
F107CE
330
261
100
AcDbEntity
  8
Geo
100
AcDbLine
 10
-31.30989233347149
 20
9.137308797003502
 30
0.0
 11
-31.20989233347149
 21
9.102992137452003
 31
0.0
  0
LINE
  5
F107D0
330
261
100
AcDbEntity
  8
Geo
100
AcDbLine
 10
-31.30989233347149
 20
19.3349071716962
 30
0.0
 11
-31.20989233347149
 21
19.277819771734
 31
0.0
  0
LINE
  5
F107D2
330
261
100
AcDbEntity
  8
Geo
100
AcDbLine
 10
-31.20989233347149
 20
9.102992137452003
 30
0.0
 11
-31.10989233347149
 21
9.070012002050201
 31
0.0
  0
LINE
  5
F107D4
330
261
100
AcDbEntity
  8
Geo
100
AcDbLine
 10
-31.20989233347149
 20
19.277819771734
 30
0.0
 11
-31.10989233347149
 21
19.2196112033826
 31
0.0
  0
LINE
  5
F107D6
330
261
100
AcDbEntity
  8
Geo
100
AcDbLine
 10
-31.10989233347149
 20
9.070012002050201
 30
0.0
 11
-31.00989233347149
 21
9.038376357029701
 31
0.0
  0
LINE
  5
F107D8
330
261
100
AcDbEntity
  8
Geo
100
AcDbLine
 10
-31.10989233347149
 20
19.2196112033826
 30
0.0
 11
-31.00989233347149
 21
19.1602955267096
 31
0.0
  0
LINE
  5
F107DA
330
261
100
AcDbEntity
  8
Geo
100
AcDbLine
 10
-31.00989233347149
 20
9.038376357029701
 30
0.0
 11
-30.9098923334715
 21
9.008092843865304
 31
0.0
  0
LINE
  5
F107DC
330
261
100
AcDbEntity
  8
Geo
100
AcDbLine
 10
-31.00989233347149
 20
19.1602955267096
 30
0.0
 11
-30.9098923334715
 21
19.0998870692007
 31
0.0
  0
LINE
  5
F107DE
330
261
100
AcDbEntity
  8
Geo
100
AcDbLine
 10
-30.9098923334715
 20
9.008092843865304
 30
0.0
 11
-30.80989233347149
 21
8.9791687774291
 31
0.0
  0
LINE
  5
F107E0
330
261
100
AcDbEntity
  8
Geo
100
AcDbLine
 10
-30.9098923334715
 20
19.0998870692007
 30
0.0
 11
-30.80989233347149
 21
19.0384004222985
 31
0.0
  0
LINE
  5
F107E2
330
261
100
AcDbEntity
  8
Geo
100
AcDbLine
 10
-30.80989233347149
 20
8.9791687774291
 30
0.0
 11
-30.7098923334715
 21
8.951611144224102
 31
0.0
  0
LINE
  5
F107E4
330
261
100
AcDbEntity
  8
Geo
100
AcDbLine
 10
-30.80989233347149
 20
19.0384004222985
 30
0.0
 11
-30.7098923334715
 21
18.9758504378786
 31
0.0
  0
LINE
  5
F107E6
330
261
100
AcDbEntity
  8
Geo
100
AcDbLine
 10
-30.7098923334715
 20
8.951611144224102
 30
0.0
 11
-30.60989233347149
 21
8.9254266006962
 31
0.0
  0
LINE
  5
F107E8
330
261
100
AcDbEntity
  8
Geo
100
AcDbLine
 10
-30.7098923334715
 20
18.9758504378786
 30
0.0
 11
-30.60989233347149
 21
18.9122522246618
 31
0.0
  0
LINE
  5
F107EA
330
261
100
AcDbEntity
  8
Geo
100
AcDbLine
 10
-30.60989233347149
 20
8.9254266006962
 30
0.0
 11
-30.50989233347149
 21
8.900621471626402
 31
0.0
  0
LINE
  5
F107EC
330
261
100
AcDbEntity
  8
Geo
100
AcDbLine
 10
-30.60989233347149
 20
18.9122522246618
 30
0.0
 11
-30.50989233347149
 21
18.8476211445648
 31
0.0
  0
LINE
  5
F107EE
330
261
100
AcDbEntity
  8
Geo
100
AcDbLine
 10
-30.50989233347149
 20
8.900621471626402
 30
0.0
 11
-30.4098923334715
 21
8.877201748603201
 31
0.0
  0
LINE
  5
F107F0
330
261
100
AcDbEntity
  8
Geo
100
AcDbLine
 10
-30.50989233347149
 20
18.8476211445648
 30
0.0
 11
-30.4098923334715
 21
18.7819728089894
 31
0.0
  0
LINE
  5
F107F2
330
261
100
AcDbEntity
  8
Geo
100
AcDbLine
 10
-30.4098923334715
 20
8.877201748603201
 30
0.0
 11
-30.30989233347149
 21
8.855173088575403
 31
0.0
  0
LINE
  5
F107F4
330
261
100
AcDbEntity
  8
Geo
100
AcDbLine
 10
-30.4098923334715
 20
18.7819728089894
 30
0.0
 11
-30.30989233347149
 21
18.7153230750519
 31
0.0
  0
LINE
  5
F107F6
330
261
100
AcDbEntity
  8
Geo
100
AcDbLine
 10
-30.30989233347149
 20
8.855173088575403
 30
0.0
 11
-30.2098923334715
 21
8.834540812485601
 31
0.0
  0
LINE
  5
F107F8
330
261
100
AcDbEntity
  8
Geo
100
AcDbLine
 10
-30.30989233347149
 20
18.7153230750519
 30
0.0
 11
-30.2098923334715
 21
18.6476880417526
 31
0.0
  0
LINE
  5
F107FA
330
261
100
AcDbEntity
  8
Geo
100
AcDbLine
 10
-30.2098923334715
 20
8.834540812485601
 30
0.0
 11
-30.10989233347149
 21
8.815309903984903
 31
0.0
  0
LINE
  5
F107FC
330
261
100
AcDbEntity
  8
Geo
100
AcDbLine
 10
-30.2098923334715
 20
18.6476880417526
 30
0.0
 11
-30.10989233347149
 21
18.5790840460875
 31
0.0
  0
LINE
  5
F107FE
330
261
100
AcDbEntity
  8
Geo
100
AcDbLine
 10
-30.10989233347149
 20
8.815309903984903
 30
0.0
 11
-30.00989233347149
 21
8.797485008229102
 31
0.0
  0
LINE
  5
F10800
330
261
100
AcDbEntity
  8
Geo
100
AcDbLine
 10
-30.10989233347149
 20
18.5790840460875
 30
0.0
 11
-30.00989233347149
 21
18.5095276591016
 31
0.0
  0
LINE
  5
F10802
330
261
100
AcDbEntity
  8
Geo
100
AcDbLine
 10
-30.00989233347149
 20
8.797485008229102
 30
0.0
 11
-29.9098923334715
 21
8.781070430756901
 31
0.0
  0
LINE
  5
F10804
330
261
100
AcDbEntity
  8
Geo
100
AcDbLine
 10
-30.00989233347149
 20
18.5095276591016
 30
0.0
 11
-29.9098923334715
 21
18.4390356818867
 31
0.0
  0
LINE
  5
F10806
330
261
100
AcDbEntity
  8
Geo
100
AcDbLine
 10
-29.9098923334715
 20
8.781070430756901
 30
0.0
 11
-29.80989233347149
 21
8.7660701364497
 31
0.0
  0
LINE
  5
F10808
330
261
100
AcDbEntity
  8
Geo
100
AcDbLine
 10
-29.9098923334715
 20
18.4390356818867
 30
0.0
 11
-29.80989233347149
 21
18.3676251415232
 31
0.0
  0
LINE
  5
F1080A
330
261
100
AcDbEntity
  8
Geo
100
AcDbLine
 10
-29.80989233347149
 20
8.7660701364497
 30
0.0
 11
-29.70989233347149
 21
8.752487748573804
 31
0.0
  0
LINE
  5
F1080C
330
261
100
AcDbEntity
  8
Geo
100
AcDbLine
 10
-29.80989233347149
 20
18.3676251415232
 30
0.0
 11
-29.70989233347149
 21
18.2953132869668
 31
0.0
  0
LINE
  5
F1080E
330
261
100
AcDbEntity
  8
Geo
100
AcDbLine
 10
-29.70989233347149
 20
8.752487748573804
 30
0.0
 11
-29.60989233347149
 21
8.740326547905501
 31
0.0
  0
LINE
  5
F10810
330
261
100
AcDbEntity
  8
Geo
100
AcDbLine
 10
-29.70989233347149
 20
18.2953132869668
 30
0.0
 11
-29.60989233347149
 21
18.2221175848825
 31
0.0
  0
LINE
  5
F10812
330
261
100
AcDbEntity
  8
Geo
100
AcDbLine
 10
-29.60989233347149
 20
8.740326547905501
 30
0.0
 11
-29.50989233347149
 21
8.729589471938702
 31
0.0
  0
LINE
  5
F10814
330
261
100
AcDbEntity
  8
Geo
100
AcDbLine
 10
-29.60989233347149
 20
18.2221175848825
 30
0.0
 11
-29.50989233347149
 21
18.1480557154253
 31
0.0
  0
LINE
  5
F10816
330
261
100
AcDbEntity
  8
Geo
100
AcDbLine
 10
-29.50989233347149
 20
8.729589471938702
 30
0.0
 11
-29.4098923334715
 21
8.720279114174804
 31
0.0
  0
LINE
  5
F10818
330
261
100
AcDbEntity
  8
Geo
100
AcDbLine
 10
-29.50989233347149
 20
18.1480557154253
 30
0.0
 11
-29.4098923334715
 21
18.07314556797011
 31
0.0
  0
LINE
  5
F1081A
330
261
100
AcDbEntity
  8
Geo
100
AcDbLine
 10
-29.4098923334715
 20
8.720279114174804
 30
0.0
 11
-29.30989233347149
 21
8.712397723496904
 31
0.0
  0
LINE
  5
F1081C
330
261
100
AcDbEntity
  8
Geo
100
AcDbLine
 10
-29.4098923334715
 20
18.07314556797011
 30
0.0
 11
-29.30989233347149
 21
17.9974052367899
 31
0.0
  0
LINE
  5
F1081E
330
261
100
AcDbEntity
  8
Geo
100
AcDbLine
 10
-29.30989233347149
 20
8.712397723496904
 30
0.0
 11
-29.2098923334715
 21
8.705947203626102
 31
0.0
  0
LINE
  5
F10820
330
261
100
AcDbEntity
  8
Geo
100
AcDbLine
 10
-29.30989233347149
 20
17.9974052367899
 30
0.0
 11
-29.2098923334715
 21
17.9208530166858
 31
0.0
  0
LINE
  5
F10822
330
261
100
AcDbEntity
  8
Geo
100
AcDbLine
 10
-29.2098923334715
 20
8.705947203626102
 30
0.0
 11
-29.10989233347148
 21
8.700929112662002
 31
0.0
  0
LINE
  5
F10824
330
261
100
AcDbEntity
  8
Geo
100
AcDbLine
 10
-29.2098923334715
 20
17.9208530166858
 30
0.0
 11
-29.10989233347148
 21
17.8435073985676
 31
0.0
  0
LINE
  5
F10826
330
261
100
AcDbEntity
  8
Geo
100
AcDbLine
 10
-29.10989233347148
 20
8.700929112662002
 30
0.0
 11
-29.00989233347149
 21
8.6973446627062
 31
0.0
  0
LINE
  5
F10828
330
261
100
AcDbEntity
  8
Geo
100
AcDbLine
 10
-29.10989233347148
 20
17.8435073985676
 30
0.0
 11
-29.00989233347149
 21
17.7653870649874
 31
0.0
  0
LINE
  5
F1082A
330
261
100
AcDbEntity
  8
Geo
100
AcDbLine
 10
-29.00989233347149
 20
8.6973446627062
 30
0.0
 11
-28.9098923334715
 21
8.695194719569501
 31
0.0
  0
LINE
  5
F1082C
330
261
100
AcDbEntity
  8
Geo
100
AcDbLine
 10
-29.00989233347149
 20
17.7653870649874
 30
0.0
 11
-28.9098923334715
 21
17.6865108856272
 31
0.0
  0
LINE
  5
F1082E
330
261
100
AcDbEntity
  8
Geo
100
AcDbLine
 10
-28.9098923334715
 20
17.6865108856272
 30
0.0
 11
-28.80989233347149
 21
17.6068979127408
 31
0.0
  0
LINE
  5
F10830
330
261
100
AcDbEntity
  8
Geo
100
AcDbLine
 10
-28.80989233347149
 20
17.6068979127408
 30
0.0
 11
-28.70989233347149
 21
17.5265673765515
 31
0.0
  0
LINE
  5
F10832
330
261
100
AcDbEntity
  8
Geo
100
AcDbLine
 10
-28.70989233347149
 20
17.5265673765515
 30
0.0
 11
-28.60989233347149
 21
17.4455386806078
 31
0.0
  0
LINE
  5
F10834
330
261
100
AcDbEntity
  8
Geo
100
AcDbLine
 10
-28.60989233347149
 20
17.4455386806078
 30
0.0
 11
-28.50989233347149
 21
17.3638313970958
 31
0.0
  0
LINE
  5
F10836
330
261
100
AcDbEntity
  8
Geo
100
AcDbLine
 10
-28.50989233347149
 20
17.3638313970958
 30
0.0
 11
-28.4098923334715
 21
17.28146526211211
 31
0.0
  0
LINE
  5
F10838
330
261
100
AcDbEntity
  8
Geo
100
AcDbLine
 10
-28.4098923334715
 20
17.28146526211211
 30
0.0
 11
-28.30989233347149
 21
17.1984601708966
 31
0.0
  0
LINE
  5
F1083A
330
261
100
AcDbEntity
  8
Geo
100
AcDbLine
 10
-28.30989233347149
 20
17.1984601708966
 30
0.0
 11
-28.2098923334715
 21
17.1148361730265
 31
0.0
  0
LINE
  5
F1083C
330
261
100
AcDbEntity
  8
Geo
100
AcDbLine
 10
-28.2098923334715
 20
17.1148361730265
 30
0.0
 11
-28.10989233347149
 21
17.0306134675738
 31
0.0
  0
LINE
  5
F1083E
330
261
100
AcDbEntity
  8
Geo
100
AcDbLine
 10
-28.10989233347149
 20
17.0306134675738
 30
0.0
 11
-28.00989233347149
 21
16.9458123982261
 31
0.0
  0
LINE
  5
F10840
330
261
100
AcDbEntity
  8
Geo
100
AcDbLine
 10
-28.00989233347149
 20
16.9458123982261
 30
0.0
 11
-27.9098923334715
 21
16.8604534483727
 31
0.0
  0
LINE
  5
F10842
330
261
100
AcDbEntity
  8
Geo
100
AcDbLine
 10
-27.9098923334715
 20
16.8604534483727
 30
0.0
 11
-27.80989233347149
 21
16.7745572361569
 31
0.0
  0
LINE
  5
F10844
330
261
100
AcDbEntity
  8
Geo
100
AcDbLine
 10
-27.80989233347149
 20
16.7745572361569
 30
0.0
 11
-27.7098923334715
 21
16.6881445094957
 31
0.0
  0
LINE
  5
F10846
330
261
100
AcDbEntity
  8
Geo
100
AcDbLine
 10
-27.7098923334715
 20
16.6881445094957
 30
0.0
 11
-27.60989233347149
 21
16.6012361410685
 31
0.0
  0
LINE
  5
F10848
330
261
100
AcDbEntity
  8
Geo
100
AcDbLine
 10
-27.60989233347149
 20
16.6012361410685
 30
0.0
 11
-27.50989233347149
 21
16.5138531232748
 31
0.0
  0
LINE
  5
F1084A
330
261
100
AcDbEntity
  8
Geo
100
AcDbLine
 10
-27.50989233347149
 20
16.5138531232748
 30
0.0
 11
-27.4098923334715
 21
16.4260165631643
 31
0.0
  0
LINE
  5
F1084C
330
261
100
AcDbEntity
  8
Geo
100
AcDbLine
 10
-27.4098923334715
 20
16.4260165631643
 30
0.0
 11
-27.30989233347149
 21
16.337747677338
 31
0.0
  0
LINE
  5
F1084E
330
261
100
AcDbEntity
  8
Geo
100
AcDbLine
 10
-27.30989233347149
 20
16.337747677338
 30
0.0
 11
-27.20989233347149
 21
16.2490677868236
 31
0.0
  0
LINE
  5
F10850
330
261
100
AcDbEntity
  8
Geo
100
AcDbLine
 10
-27.20989233347149
 20
16.2490677868236
 30
0.0
 11
-27.10989233347149
 21
16.1599983119255
 31
0.0
  0
LINE
  5
F10852
330
261
100
AcDbEntity
  8
Geo
100
AcDbLine
 10
-27.10989233347149
 20
16.1599983119255
 30
0.0
 11
-27.00989233347149
 21
16.0705607670508
 31
0.0
  0
LINE
  5
F10854
330
261
100
AcDbEntity
  8
Geo
100
AcDbLine
 10
-27.00989233347149
 20
16.0705607670508
 30
0.0
 11
-26.9098923334715
 21
15.9807767555125
 31
0.0
  0
LINE
  5
F10856
330
261
100
AcDbEntity
  8
Geo
100
AcDbLine
 10
-26.9098923334715
 20
15.9807767555125
 30
0.0
 11
-26.80989233347149
 21
15.8906679643116
 31
0.0
  0
LINE
  5
F10858
330
261
100
AcDbEntity
  8
Geo
100
AcDbLine
 10
-26.80989233347149
 20
15.8906679643116
 30
0.0
 11
-26.7098923334715
 21
15.8002561588981
 31
0.0
  0
LINE
  5
F1085A
330
261
100
AcDbEntity
  8
Geo
100
AcDbLine
 10
-26.7098923334715
 20
15.8002561588981
 30
0.0
 11
-26.60989233347148
 21
15.7095631779141
 31
0.0
  0
LINE
  5
F1085C
330
261
100
AcDbEntity
  8
Geo
100
AcDbLine
 10
-26.60989233347148
 20
15.7095631779141
 30
0.0
 11
-26.50989233347149
 21
15.6186109279189
 31
0.0
  0
LINE
  5
F1085E
330
261
100
AcDbEntity
  8
Geo
100
AcDbLine
 10
-26.50989233347149
 20
15.6186109279189
 30
0.0
 11
-26.4098923334715
 21
15.527421378097
 31
0.0
  0
LINE
  5
F10860
330
261
100
AcDbEntity
  8
Geo
100
AcDbLine
 10
-26.4098923334715
 20
15.527421378097
 30
0.0
 11
-26.30989233347149
 21
15.4360165549517
 31
0.0
  0
LINE
  5
F10862
330
261
100
AcDbEntity
  8
Geo
100
AcDbLine
 10
-26.30989233347149
 20
15.4360165549517
 30
0.0
 11
-26.20989233347149
 21
15.3444185369851
 31
0.0
  0
LINE
  5
F10864
330
261
100
AcDbEntity
  8
Geo
100
AcDbLine
 10
-26.20989233347149
 20
15.3444185369851
 30
0.0
 11
-26.10989233347149
 21
15.2526494493647
 31
0.0
  0
LINE
  5
F10866
330
261
100
AcDbEntity
  8
Geo
100
AcDbLine
 10
-26.10989233347149
 20
15.2526494493647
 30
0.0
 11
-26.00989233347149
 21
15.1607314585791
 31
0.0
  0
LINE
  5
F10868
330
261
100
AcDbEntity
  8
Geo
100
AcDbLine
 10
-26.00989233347149
 20
15.1607314585791
 30
0.0
 11
-25.9098923334715
 21
15.0686867670842
 31
0.0
  0
LINE
  5
F1086A
330
261
100
AcDbEntity
  8
Geo
100
AcDbLine
 10
-25.9098923334715
 20
15.0686867670842
 30
0.0
 11
-25.80989233347149
 21
14.9765376079396
 31
0.0
  0
LINE
  5
F1086C
330
261
100
AcDbEntity
  8
Geo
100
AcDbLine
 10
-25.80989233347149
 20
14.9765376079396
 30
0.0
 11
-25.7098923334715
 21
14.8843062394391
 31
0.0
  0
LINE
  5
F1086E
330
261
100
AcDbEntity
  8
Geo
100
AcDbLine
 10
-25.7098923334715
 20
14.8843062394391
 30
0.0
 11
-25.60989233347149
 21
14.7920149397336
 31
0.0
  0
LINE
  5
F10870
330
261
100
AcDbEntity
  8
Geo
100
AcDbLine
 10
-25.60989233347149
 20
14.7920149397336
 30
0.0
 11
-25.50989233347149
 21
14.6996860014502
 31
0.0
  0
LINE
  5
F10872
330
261
100
AcDbEntity
  8
Geo
100
AcDbLine
 10
-25.50989233347149
 20
14.6996860014502
 30
0.0
 11
-25.4098923334715
 21
14.6073417263076
 31
0.0
  0
LINE
  5
F10874
330
261
100
AcDbEntity
  8
Geo
100
AcDbLine
 10
-25.4098923334715
 20
14.6073417263076
 30
0.0
 11
-25.30989233347149
 21
14.5150044197289
 31
0.0
  0
LINE
  5
F10876
330
261
100
AcDbEntity
  8
Geo
100
AcDbLine
 10
-25.30989233347149
 20
14.5150044197289
 30
0.0
 11
-25.2098923334715
 21
14.422696385454
 31
0.0
  0
LINE
  5
F10878
330
261
100
AcDbEntity
  8
Geo
100
AcDbLine
 10
-25.2098923334715
 20
14.422696385454
 30
0.0
 11
-25.10989233347149
 21
14.3304399201524
 31
0.0
  0
LINE
  5
F1087A
330
261
100
AcDbEntity
  8
Geo
100
AcDbLine
 10
-25.10989233347149
 20
14.3304399201524
 30
0.0
 11
-25.00989233347149
 21
14.2382573080369
 31
0.0
  0
LINE
  5
F1087C
330
261
100
AcDbEntity
  8
Geo
100
AcDbLine
 10
-25.00989233347149
 20
14.2382573080369
 30
0.0
 11
-24.9098923334715
 21
14.1461708154817
 31
0.0
  0
LINE
  5
F1087E
330
261
100
AcDbEntity
  8
Geo
100
AcDbLine
 10
-24.9098923334715
 20
14.1461708154817
 30
0.0
 11
-24.80989233347149
 21
14.0542026856434
 31
0.0
  0
LINE
  5
F10880
330
261
100
AcDbEntity
  8
Geo
100
AcDbLine
 10
-24.80989233347149
 20
14.0542026856434
 30
0.0
 11
-24.70989233347149
 21
13.9623751330887
 31
0.0
  0
LINE
  5
F10882
330
261
100
AcDbEntity
  8
Geo
100
AcDbLine
 10
-24.70989233347149
 20
13.9623751330887
 30
0.0
 11
-24.60989233347149
 21
13.8707103384283
 31
0.0
  0
LINE
  5
F10884
330
261
100
AcDbEntity
  8
Geo
100
AcDbLine
 10
-24.60989233347149
 20
13.8707103384283
 30
0.0
 11
-24.50989233347149
 21
13.7792304429594
 31
0.0
  0
LINE
  5
F10886
330
261
100
AcDbEntity
  8
Geo
100
AcDbLine
 10
-24.50989233347149
 20
13.7792304429594
 30
0.0
 11
-24.4098923334715
 21
13.6879575433174
 31
0.0
  0
LINE
  5
F10888
330
261
100
AcDbEntity
  8
Geo
100
AcDbLine
 10
-24.4098923334715
 20
13.6879575433174
 30
0.0
 11
-24.30989233347149
 21
13.5969136861385
 31
0.0
  0
LINE
  5
F1088A
330
261
100
AcDbEntity
  8
Geo
100
AcDbLine
 10
-24.30989233347149
 20
13.5969136861385
 30
0.0
 11
-24.2098923334715
 21
13.5061208627347
 31
0.0
  0
LINE
  5
F1088C
330
261
100
AcDbEntity
  8
Geo
100
AcDbLine
 10
-24.2098923334715
 20
13.5061208627347
 30
0.0
 11
-24.10989233347148
 21
13.4156010037816
 31
0.0
  0
LINE
  5
F1088E
330
261
100
AcDbEntity
  8
Geo
100
AcDbLine
 10
-24.10989233347148
 20
13.4156010037816
 30
0.0
 11
-24.00989233347149
 21
13.3253759740215
 31
0.0
  0
LINE
  5
F10890
330
261
100
AcDbEntity
  8
Geo
100
AcDbLine
 10
-24.00989233347149
 20
13.3253759740215
 30
0.0
 11
-23.90989233347149
 21
13.2354675669813
 31
0.0
  0
LINE
  5
F10892
330
261
100
AcDbEntity
  8
Geo
100
AcDbLine
 10
-23.90989233347149
 20
13.2354675669813
 30
0.0
 11
-23.80989233347149
 21
13.1458974997092
 31
0.0
  0
LINE
  5
F10894
330
261
100
AcDbEntity
  8
Geo
100
AcDbLine
 10
-23.80989233347149
 20
13.1458974997092
 30
0.0
 11
-23.70989233347149
 21
13.0566874075287
 31
0.0
  0
LINE
  5
F10896
330
261
100
AcDbEntity
  8
Geo
100
AcDbLine
 10
-23.70989233347149
 20
13.0566874075287
 30
0.0
 11
-23.60989233347149
 21
12.9678588388123
 31
0.0
  0
LINE
  5
F10898
330
261
100
AcDbEntity
  8
Geo
100
AcDbLine
 10
-23.60989233347149
 20
12.9678588388123
 30
0.0
 11
-23.50989233347149
 21
12.8794332497772
 31
0.0
  0
LINE
  5
F1089A
330
261
100
AcDbEntity
  8
Geo
100
AcDbLine
 10
-23.50989233347149
 20
12.8794332497772
 30
0.0
 11
-23.40989233347149
 21
12.7914319993021
 31
0.0
  0
LINE
  5
F1089C
330
261
100
AcDbEntity
  8
Geo
100
AcDbLine
 10
-23.40989233347149
 20
12.7914319993021
 30
0.0
 11
-23.30989233347149
 21
12.7038763437685
 31
0.0
  0
LINE
  5
F1089E
330
261
100
AcDbEntity
  8
Geo
100
AcDbLine
 10
-23.30989233347149
 20
12.7038763437685
 30
0.0
 11
-23.2098923334715
 21
12.6167874319259
 31
0.0
  0
LINE
  5
F108A0
330
261
100
AcDbEntity
  8
Geo
100
AcDbLine
 10
-23.2098923334715
 20
12.6167874319259
 30
0.0
 11
-23.10989233347149
 21
12.5301862997837
 31
0.0
  0
LINE
  5
F108A2
330
261
100
AcDbEntity
  8
Geo
100
AcDbLine
 10
-23.10989233347149
 20
12.5301862997837
 30
0.0
 11
-23.00989233347149
 21
12.4440938655296
 31
0.0
  0
LINE
  5
F108A4
330
261
100
AcDbEntity
  8
Geo
100
AcDbLine
 10
-23.00989233347149
 20
12.4440938655296
 30
0.0
 11
-22.90989233347149
 21
12.3585309244776
 31
0.0
  0
LINE
  5
F108A6
330
261
100
AcDbEntity
  8
Geo
100
AcDbLine
 10
-22.90989233347149
 20
12.3585309244776
 30
0.0
 11
-22.80989233347149
 21
12.2735181440442
 31
0.0
  0
LINE
  5
F108A8
330
261
100
AcDbEntity
  8
Geo
100
AcDbLine
 10
-22.80989233347149
 20
12.2735181440442
 30
0.0
 11
-22.70989233347149
 21
12.1890760587568
 31
0.0
  0
LINE
  5
F108AA
330
261
100
AcDbEntity
  8
Geo
100
AcDbLine
 10
-22.70989233347149
 20
12.1890760587568
 30
0.0
 11
-22.60989233347149
 21
12.1052250652934
 31
0.0
  0
LINE
  5
F108AC
330
261
100
AcDbEntity
  8
Geo
100
AcDbLine
 10
-22.60989233347149
 20
12.1052250652934
 30
0.0
 11
-22.50989233347149
 21
12.0219854175558
 31
0.0
  0
LINE
  5
F108AE
330
261
100
AcDbEntity
  8
Geo
100
AcDbLine
 10
-22.50989233347149
 20
12.0219854175558
 30
0.0
 11
-22.40989233347149
 21
11.9393772217778
 31
0.0
  0
LINE
  5
F108B0
330
261
100
AcDbEntity
  8
Geo
100
AcDbLine
 10
-22.40989233347149
 20
11.9393772217778
 30
0.0
 11
-22.30989233347149
 21
11.8574204316679
 31
0.0
  0
LINE
  5
F108B2
330
261
100
AcDbEntity
  8
Geo
100
AcDbLine
 10
-22.30989233347149
 20
11.8574204316679
 30
0.0
 11
-22.20989233347149
 21
11.7761348435901
 31
0.0
  0
LINE
  5
F108B4
330
261
100
AcDbEntity
  8
Geo
100
AcDbLine
 10
-22.20989233347149
 20
11.7761348435901
 30
0.0
 11
-22.10989233347149
 21
11.6955400917822
 31
0.0
  0
LINE
  5
F108B6
330
261
100
AcDbEntity
  8
Geo
100
AcDbLine
 10
-22.10989233347149
 20
11.6955400917822
 30
0.0
 11
-22.00989233347149
 21
11.6156556436126
 31
0.0
  0
LINE
  5
F108B8
330
261
100
AcDbEntity
  8
Geo
100
AcDbLine
 10
-22.00989233347149
 20
20.5776247662952
 30
0.0
 11
-21.90989233347149
 21
20.57601316702891
 31
0.0
  0
LINE
  5
F108BA
330
261
100
AcDbEntity
  8
Geo
100
AcDbLine
 10
-22.00989233347149
 20
11.6156556436126
 30
0.0
 11
-21.90989233347149
 21
11.5365007948788
 31
0.0
  0
LINE
  5
F108BC
330
261
100
AcDbEntity
  8
Geo
100
AcDbLine
 10
-21.90989233347149
 20
20.57601316702891
 30
0.0
 11
-21.80989233347149
 21
20.5729668254893
 31
0.0
  0
LINE
  5
F108BE
330
261
100
AcDbEntity
  8
Geo
100
AcDbLine
 10
-21.90989233347149
 20
11.5365007948788
 30
0.0
 11
-21.80989233347149
 21
11.458094665146
 31
0.0
  0
LINE
  5
F108C0
330
261
100
AcDbEntity
  8
Geo
100
AcDbLine
 10
-21.80989233347149
 20
20.5729668254893
 30
0.0
 11
-21.7098923334715
 21
20.5684864775092
 31
0.0
  0
LINE
  5
F108C2
330
261
100
AcDbEntity
  8
Geo
100
AcDbLine
 10
-21.80989233347149
 20
11.458094665146
 30
0.0
 11
-21.7098923334715
 21
11.3804561931292
 31
0.0
  0
LINE
  5
F108C4
330
261
100
AcDbEntity
  8
Geo
100
AcDbLine
 10
-21.7098923334715
 20
20.5684864775092
 30
0.0
 11
-21.60989233347149
 21
20.5625732053002
 31
0.0
  0
LINE
  5
F108C6
330
261
100
AcDbEntity
  8
Geo
100
AcDbLine
 10
-21.7098923334715
 20
11.3804561931292
 30
0.0
 11
-21.60989233347149
 21
11.3036041321183
 31
0.0
  0
LINE
  5
F108C8
330
261
100
AcDbEntity
  8
Geo
100
AcDbLine
 10
-21.60989233347149
 20
20.5625732053002
 30
0.0
 11
-21.50989233347149
 21
20.5552284371918
 31
0.0
  0
LINE
  5
F108CA
330
261
100
AcDbEntity
  8
Geo
100
AcDbLine
 10
-21.60989233347149
 20
11.3036041321183
 30
0.0
 11
-21.50989233347149
 21
11.2275570454488
 31
0.0
  0
LINE
  5
F108CC
330
261
100
AcDbEntity
  8
Geo
100
AcDbLine
 10
-21.50989233347149
 20
20.5552284371918
 30
0.0
 11
-21.40989233347149
 21
20.54645394728581
 31
0.0
  0
LINE
  5
F108CE
330
261
100
AcDbEntity
  8
Geo
100
AcDbLine
 10
-21.50989233347149
 20
11.2275570454488
 30
0.0
 11
-21.40989233347149
 21
11.1523333020171
 31
0.0
  0
LINE
  5
F108D0
330
261
100
AcDbEntity
  8
Geo
100
AcDbLine
 10
-21.40989233347149
 20
20.54645394728581
 30
0.0
 11
-21.30989233347149
 21
20.53625185502831
 31
0.0
  0
LINE
  5
F108D2
330
261
100
AcDbEntity
  8
Geo
100
AcDbLine
 10
-21.40989233347149
 20
11.1523333020171
 30
0.0
 11
-21.30989233347149
 21
11.0779510718446
 31
0.0
  0
LINE
  5
F108D4
330
261
100
AcDbEntity
  8
Geo
100
AcDbLine
 10
-21.30989233347149
 20
20.53625185502831
 30
0.0
 11
-21.20989233347149
 21
20.5246246246973
 31
0.0
  0
LINE
  5
F108D6
330
261
100
AcDbEntity
  8
Geo
100
AcDbLine
 10
-21.30989233347149
 20
11.0779510718446
 30
0.0
 11
-21.20989233347149
 21
11.0044283216877
 31
0.0
  0
LINE
  5
F108D8
330
261
100
AcDbEntity
  8
Geo
100
AcDbLine
 10
-21.20989233347149
 20
20.5246246246973
 30
0.0
 11
-21.20989233347149
 21
20.636191276839
 31
0.0
  0
LINE
  5
F108DA
330
261
100
AcDbEntity
  8
Geo
100
AcDbLine
 10
-21.20989233347149
 20
20.5246246246973
 30
0.0
 11
-21.20989233347149
 21
19.7235641179463
 31
0.0
  0
LINE
  5
F108DC
330
261
100
AcDbEntity
  8
Geo
100
AcDbLine
 10
-21.20989233347149
 20
11.0044283216877
 30
0.0
 11
-21.20989233347149
 21
11.6346950386878
 31
0.0
  0
LINE
  5
F108DE
330
261
100
AcDbEntity
  8
Geo
100
AcDbLine
 10
-21.20989233347149
 20
11.0044283216877
 30
0.0
 11
-21.20989233347149
 21
9.337694876623501
 31
0.0
  0
LINE
  5
F108E0
330
261
100
AcDbEntity
  8
Geo
100
AcDbLine
 10
-43.10989233347148
 20
14.6361915257108
 30
0.0
 11
-43.10989233347148
 21
14.6361915257108
 31
0.0
  0
LINE
  5
F108E2
330
261
100
AcDbEntity
  8
Geo
100
AcDbLine
 10
-43.10989233347148
 20
14.6361915257108
 30
0.0
 11
-43.10989233347148
 21
14.6361915257108
 31
0.0
  0
LINE
  5
F108E4
330
261
100
AcDbEntity
  8
Geo
100
AcDbLine
 10
39.8901076665285
 20
19.9361915257108
 30
0.0
 11
39.8901076665285
 21
14.6361915257108
 31
0.0
  0
LINE
  5
F108E6
330
261
100
AcDbEntity
  8
Geo
100
AcDbLine
 10
-43.10989233347148
 20
14.6361915257108
 30
0.0
 11
-43.10989233347148
 21
8.786191525710803
 31
0.0
  0
LINE
  5
F108E8
330
261
100
AcDbEntity
  8
Geo
100
AcDbLine
 10
-43.10989233347148
 20
8.786191525710803
 30
0.0
 11
-42.95989233347149
 21
8.636191525710803
 31
0.0
  0
LINE
  5
F108EA
330
261
100
AcDbEntity
  8
Geo
100
AcDbLine
 10
-42.95989233347149
 20
8.636191525710803
 30
0.0
 11
-21.10989233347149
 21
8.636191525710803
 31
0.0
  0
LINE
  5
F108EC
330
261
100
AcDbEntity
  8
Geo
100
AcDbLine
 10
-21.10989233347149
 20
8.636191525710803
 30
0.0
 11
-21.10989233347149
 21
8.786191525710803
 31
0.0
  0
LINE
  5
F108EE
330
261
100
AcDbEntity
  8
Geo
100
AcDbLine
 10
-21.10989233347149
 20
8.786191525710803
 30
0.0
 11
-9.109892333471492
 21
8.786191525710803
 31
0.0
  0
LINE
  5
F108F0
330
261
100
AcDbEntity
  8
Geo
100
AcDbLine
 10
-5.109892333471492
 20
8.786191525710803
 30
0.0
 11
-5.109892333471492
 21
8.636191525710803
 31
0.0
  0
LINE
  5
F108F2
330
261
100
AcDbEntity
  8
Geo
100
AcDbLine
 10
-9.109892333471492
 20
8.636191525710803
 30
0.0
 11
39.1901076665285
 21
8.636191525710803
 31
0.0
  0
LINE
  5
F108F4
330
261
100
AcDbEntity
  8
Geo
100
AcDbLine
 10
39.1901076665285
 20
8.636191525710803
 30
0.0
 11
39.8901076665285
 21
9.336191525710804
 31
0.0
  0
LINE
  5
F108F6
330
261
100
AcDbEntity
  8
Geo
100
AcDbLine
 10
-43.10989233347148
 20
20.4861915257108
 30
0.0
 11
-43.10989233347148
 21
8.786191525710803
 31
0.0
  0
LINE
  5
F108F8
330
261
100
AcDbEntity
  8
Geo
100
AcDbLine
 10
-42.95989233347149
 20
20.63619152571081
 30
0.0
 11
-42.95989233347149
 21
8.636191525710803
 31
0.0
  0
LINE
  5
F108FA
330
261
100
AcDbEntity
  8
Geo
100
AcDbLine
 10
-21.10989233347149
 20
20.63619152571081
 30
0.0
 11
-21.10989233347149
 21
8.636191525710803
 31
0.0
  0
LINE
  5
F108FC
330
261
100
AcDbEntity
  8
Geo
100
AcDbLine
 10
-21.10989233347149
 20
20.4861915257108
 30
0.0
 11
-21.10989233347149
 21
8.786191525710803
 31
0.0
  0
LINE
  5
F108FE
330
261
100
AcDbEntity
  8
Geo
100
AcDbLine
 10
-5.109892333471492
 20
20.4861915257108
 30
0.0
 11
-5.109892333471492
 21
8.786191525710803
 31
0.0
  0
LINE
  5
F10902
330
261
100
AcDbEntity
  8
Geo
100
AcDbLine
 10
39.1901076665285
 20
20.63619152571081
 30
0.0
 11
39.1901076665285
 21
8.636191525710803
 31
0.0
  0
LINE
  5
F10904
330
261
100
AcDbEntity
  8
Geo
100
AcDbLine
 10
39.8901076665285
 20
19.9361915257108
 30
0.0
 11
39.8901076665285
 21
9.336191525710804
 31
0.0
  0
LWPOLYLINE
  5
F1096A
330
261
100
AcDbEntity
  8
Rahmen
100
AcDbPolyline
 90
        4
 70
     1
 43
0.0
 10
-134.650259067358
 20
99.8316062176166
 10
143.354922279793
 20
99.8316062176166
 10
143.354922279793
 20
-100.103626943005
 10
-134.650259067358
 20
-100.103626943005
  0
TEXT
  5
F1096C
330
261
100
AcDbEntity
  8
Text
100
AcDbText
 10
-133.562176165803
 20
-99.60362694300521
 30
0.0
 40
1.0
  1
ISBESketcher
100
AcDbText
  0
LWPOLYLINE
  5
F1096E
330
261
100
AcDbEntity
  8
Rahmen
100
AcDbPolyline
 90
        4
 70
     1
 43
0.0
 10
103.367875647668
 20
-97.11139896373062
 10
143.354922279793
 20
-97.11139896373062
 10
143.354922279793
 20
-100.103626943005
 10
103.367875647668
 20
-100.103626943005
  0
TEXT
  5
F10970
330
261
100
AcDbEntity
  8
Text
100
AcDbText
 10
104.455958549223
 20
-98.11139896373061
 30
0.0
 40
0.75
  1
Ers. durch:
100
AcDbText
  0
TEXT
  5
F10972
330
261
100
AcDbEntity
  8
Text
100
AcDbText
 10
125.945595854922
 20
-98.11139896373061
 30
0.0
 40
0.75
  1
K.-H. Maier
100
AcDbText
  0
LWPOLYLINE
  5
F10974
330
261
100
AcDbEntity
  8
Rahmen
100
AcDbPolyline
 90
        4
 70
     1
 43
0.0
 10
63.380829015544
 20
-97.11139896373062
 10
103.367875647668
 20
-97.11139896373062
 10
103.367875647668
 20
-100.103626943005
 10
63.380829015544
 20
-100.103626943005
  0
TEXT
  5
F10976
330
261
100
AcDbEntity
  8
Text
100
AcDbText
 10
64.46891191709839
 20
-98.11139896373061
 30
0.0
 40
0.75
  1
Ers. für:
100
AcDbText
  0
TEXT
  5
F10978
330
261
100
AcDbEntity
  8
Text
100
AcDbText
 10
91.39896373056991
 20
-99.4715025906736
 30
0.0
 40
0.75
  1

100
AcDbText
  0
LWPOLYLINE
  5
F1097A
330
261
100
AcDbEntity
  8
Rahmen
100
AcDbPolyline
 90
        4
 70
     1
 43
0.0
 10
130.025906735751
 20
-94.119170984456
 10
143.354922279793
 20
-94.119170984456
 10
143.354922279793
 20
-97.11139896373062
 10
130.025906735751
 20
-97.11139896373062
  0
TEXT
  5
F1097C
330
261
100
AcDbEntity
  8
Text
100
AcDbText
 10
131.113989637306
 20
-95.119170984456
 30
0.0
 40
0.75
  1
Blätter
100
AcDbText
  0
TEXT
  5
F1097E
330
261
100
AcDbEntity
  8
Text
100
AcDbText
 10
141.178756476684
 20
-96.479274611399
 30
0.0
 40
0.75
  1

100
AcDbText
  0
LWPOLYLINE
  5
F10980
330
261
100
AcDbEntity
  8
Rahmen
100
AcDbPolyline
 90
        4
 70
     1
 43
0.0
 10
130.025906735751
 20
-91.12694300518128
 10
143.354922279793
 20
-91.12694300518128
 10
143.354922279793
 20
-94.119170984456
 10
130.025906735751
 20
-94.119170984456
  0
TEXT
  5
F10982
330
261
100
AcDbEntity
  8
Text
100
AcDbText
 10
131.113989637306
 20
-92.12694300518128
 30
0.0
 40
0.75
  1
Blatt
100
AcDbText
  0
TEXT
  5
F10984
330
261
100
AcDbEntity
  8
Text
100
AcDbText
 10
141.178756476684
 20
-93.48704663212428
 30
0.0
 40
0.75
  1

100
AcDbText
  0
LWPOLYLINE
  5
F10986
330
261
100
AcDbEntity
  8
Rahmen
100
AcDbPolyline
 90
        4
 70
     1
 43
0.0
 10
63.380829015544
 20
-91.12694300518128
 10
130.025906735751
 20
-91.12694300518128
 10
130.025906735751
 20
-97.11139896373062
 10
63.380829015544
 20
-97.11139896373062
  0
TEXT
  5
F10988
330
261
100
AcDbEntity
  8
Text
100
AcDbText
 10
64.46891191709839
 20
-92.12694300518128
 30
0.0
 40
0.75
  1
Datum:
100
AcDbText
  0
TEXT
  5
F1098A
330
261
100
AcDbEntity
  8
Text
100
AcDbText
 10
91.67098445595859
 20
-95.119170984456
 30
0.0
 40
0.75
  1
25.11.2014
100
AcDbText
  0
LWPOLYLINE
  5
F1098C
330
261
100
AcDbEntity
  8
Rahmen
100
AcDbPolyline
 90
        4
 70
     1
 43
0.0
 10
63.380829015544
 20
-85.14248704663208
 10
143.354922279793
 20
-85.14248704663208
 10
143.354922279793
 20
-91.12694300518128
 10
63.380829015544
 20
-91.12694300518128
  0
TEXT
  5
F1098E
330
261
100
AcDbEntity
  8
Text
100
AcDbText
 10
-208.09585492228
 20
103.0
 30
0.0
 40
1.5
  1

100
AcDbText
  0
TEXT
  5
F10990
330
261
100
AcDbEntity
  8
Text
100
AcDbText
 10
94.119170984456
 20
-89.01986183074269
 30
0.0
 40
2.5
  1
2035-120
100
AcDbText
  0
LWPOLYLINE
  5
F10992
330
261
100
AcDbEntity
  8
Rahmen
100
AcDbPolyline
 90
        4
 70
     1
 43
0.0
 10
103.367875647668
 20
-79.1580310880829
 10
143.354922279793
 20
-79.1580310880829
 10
143.354922279793
 20
-85.14248704663208
 10
103.367875647668
 20
-85.14248704663208
  0
TEXT
  5
F10994
330
261
100
AcDbEntity
  8
Text
100
AcDbText
 10
104.455958549223
 20
-80.1580310880829
 30
0.0
 40
0.75
  1
Zu bearb. Material:
100
AcDbText
  0
TEXT
  5
F10996
330
261
100
AcDbEntity
  8
Text
100
AcDbText
 10
123.225388601036
 20
-84.5103626943005
 30
0.0
 40
0.75
  1

100
AcDbText
  0
LWPOLYLINE
  5
F10998
330
261
100
AcDbEntity
  8
Rahmen
100
AcDbPolyline
 90
        4
 70
     1
 43
0.0
 10
63.380829015544
 20
-79.1580310880829
 10
103.367875647668
 20
-79.1580310880829
 10
103.367875647668
 20
-85.14248704663208
 10
63.380829015544
 20
-85.14248704663208
  0
TEXT
  5
F1099A
330
261
100
AcDbEntity
  8
Text
100
AcDbText
 10
64.46891191709839
 20
-80.1580310880829
 30
0.0
 40
0.75
  1
Werkstoff:
100
AcDbText
  0
TEXT
  5
F1099C
330
261
100
AcDbEntity
  8
Text
100
AcDbText
 10
83.23834196891191
 20
-84.5103626943005
 30
0.0
 40
0.75
  1

100
AcDbText
  0
LWPOLYLINE
  5
F1099E
330
261
100
AcDbEntity
  8
Rahmen
100
AcDbPolyline
 90
        4
 70
     1
 43
0.0
 10
103.367875647668
 20
-76.16580310880831
 10
143.354922279793
 20
-76.16580310880831
 10
143.354922279793
 20
-79.1580310880829
 10
103.367875647668
 20
-79.1580310880829
  0
TEXT
  5
F109A0
330
261
100
AcDbEntity
  8
Text
100
AcDbText
 10
-208.09585492228
 20
103.0
 30
0.0
 40
1.5
  1

100
AcDbText
  0
TEXT
  5
F109A2
330
261
100
AcDbEntity
  8
Text
100
AcDbText
 10
123.225388601036
 20
-78.52590673575129
 30
0.0
 40
0.75
  1

100
AcDbText
  0
LWPOLYLINE
  5
F109A4
330
261
100
AcDbEntity
  8
Rahmen
100
AcDbPolyline
 90
        4
 70
     1
 43
0.0
 10
63.380829015544
 20
-76.16580310880831
 10
103.367875647668
 20
-76.16580310880831
 10
103.367875647668
 20
-79.1580310880829
 10
63.380829015544
 20
-79.1580310880829
  0
TEXT
  5
F109A6
330
261
100
AcDbEntity
  8
Text
100
AcDbText
 10
64.46891191709839
 20
-77.1658031088083
 30
0.0
 40
0.75
  1
Maßstab:
100
AcDbText
  0
TEXT
  5
F109A8
330
261
100
AcDbEntity
  8
Text
100
AcDbText
 10
89.49481865284978
 20
-77.1658031088083
 30
0.0
 40
0.75
  1
1 : 1
100
AcDbText
  0
LINE
  5
F10B81
330
261
100
AcDbEntity
  8
0
100
AcDbLine
 10
-9.109892333471492
 20
8.636191525710803
 30
0.0
 11
-9.109892333471492
 21
20.63619152571081
 31
0.0
  0
VIEWPORT
  5
294
102
{ACAD_XDICTIONARY
360
F10BEA
102
}
330
25D
100
AcDbEntity
 67
     1
  8
0
 60
     1
100
AcDbViewport
 10
0.0
 20
0.0
 30
0.0
 40
10.0
 41
10.0
 68
    -1
 69
     1
 12
0.0
 22
0.0
 13
0.0
 23
0.0
 14
1.0
 24
1.0
 15
0.0
 25
0.0
 16
0.0
 26
0.0
 36
1.0
 17
0.0
 27
0.0
 37
0.0
 42
0.0
 43
0.0
 44
0.0
 45
10.0
 50
0.0
 51
0.0000000000007958
 72
   100
 90
    32800
  1

281
     0
 71
     0
 74
     0
110
0.0
120
0.0
130
0.0
111
1.0
121
0.0
131
0.0
112
0.0
122
1.0
132
0.0
 79
     0
146
0.0
1001
VD_INVISIBLE_NOT_FOR_READ
1000
VD_INVISIBLE_NOT_FOR_READ
1001
GENIUS_GENSCREG_15
1000
PF
1040
1.0
1000
DF
1040
1.0
1000
MIN
1011
-5.0
1021
-5.0
1031
0.0
1000
MAX
1011
5.0
1021
5.0
1031
0.0
1000
FLAGS
1070
     4
1001
GENIUS_GENODEF_13
1002
{
1000
HIER
1070
     0
1002
}
1002
{
1000
MANEDIT
1070
     0
1002
}
1002
{
1000
NOSEL
1070
     0
1002
}
1002
{
1000
BEHIND
1070
     0
1002
}
1002
{
1000
OTHER
1070
     0
1002
}
1002
{
1000
REACTOR
1002
}
1001
GENIUS_GENOBJ-N-SDF_13
1002
{
1000
OWNER
1000
GEN
1002
}
  0
VIEWPORT
  5
295
102
{ACAD_XDICTIONARY
360
F10BEC
102
}
330
25D
100
AcDbEntity
 67
     1
  8
0
 60
     1
100
AcDbViewport
 10
0.0
 20
0.0
 30
0.0
 40
10.0
 41
10.0
 68
     0
 69
     2
 12
0.0
 22
0.0
 13
0.0
 23
0.0
 14
1.0
 24
1.0
 15
0.0
 25
0.0
 16
0.0
 26
0.0
 36
1.0
 17
0.0
 27
0.0
 37
0.0
 42
0.0
 43
0.0
 44
0.0
 45
10.0
 50
0.0
 51
0.0000000000007958
 72
   100
 90
   163872
  1

281
     0
 71
     0
 74
     0
110
0.0
120
0.0
130
0.0
111
1.0
121
0.0
131
0.0
112
0.0
122
1.0
132
0.0
 79
     0
146
0.0
1001
VD_INVISIBLE_NOT_FOR_READ
1000
VD_INVISIBLE_NOT_FOR_READ
1001
GENIUS_GENSCREG_15
1000
PF
1040
1.0
1000
DF
1040
1.0
1000
MIN
1011
-5.0
1021
-5.0
1031
0.0
1000
MAX
1011
5.0
1021
5.0
1031
0.0
1000
FLAGS
1070
     4
1001
GENIUS_GENODEF_13
1002
{
1000
HIER
1070
     0
1002
}
1002
{
1000
MANEDIT
1070
     0
1002
}
1002
{
1000
NOSEL
1070
     0
1002
}
1002
{
1000
BEHIND
1070
     0
1002
}
1002
{
1000
OTHER
1070
     0
1002
}
1002
{
1000
REACTOR
1002
}
1001
GENIUS_GENOBJ-N-SDF_13
1002
{
1000
OWNER
1000
GEN
1002
}
  0
ENDSEC
  0
SECTION
  2
OBJECTS
  0
DICTIONARY
  5
13
330
0
100
AcDbDictionary
281
     1
  3
ACAD_COLOR
350
FA7
  3
ACAD_GROUP
350
14
  3
ACAD_LAYOUT
350
FCF
  3
ACAD_MATERIAL
350
F7A
  3
ACAD_MLEADERSTYLE
350
FCD
  3
ACAD_MLINESTYLE
350
16
  3
ACAD_PLOTSETTINGS
350
17
  3
ACAD_PLOTSTYLENAME
350
18
  3
ACAD_SCALELIST
350
FAB
  3
ACAD_TABLESTYLE
350
FA8
  3
ACAD_VISUALSTYLE
350
F93
  3
ACDB_RECOMPOSE_DATA
350
F10BE8
  3
AcDbVariableDictionary
350
F10BDF
  3
AcmDictionary
350
F109FF
  3
AMG
350
F109B3
  3
AMGSNAPSETTINGS
350
F10A8C
  3
DWGPROPS
350
F10BE9
  0
DICTIONARY
  5
F10BD5
330
252
100
AcDbDictionary
280
     1
281
     1
  3
ADSK_XREC_LAYER_RECONCILED
360
F10BD6
  0
DICTIONARY
  5
F10BD7
330
23F
100
AcDbDictionary
280
     1
281
     1
  3
ADSK_XREC_LAYER_RECONCILED
360
F10BD8
  0
DICTIONARY
  5
F10BD9
330
240
100
AcDbDictionary
280
     1
281
     1
  3
ADSK_XREC_LAYER_RECONCILED
360
F10BDA
  0
DICTIONARY
  5
F10BDB
330
241
100
AcDbDictionary
280
     1
281
     1
  3
ADSK_XREC_LAYER_RECONCILED
360
F10BDC
  0
DICTIONARY
  5
F10BDD
330
57E
100
AcDbDictionary
280
     1
281
     1
  3
ADSK_XREC_LAYER_RECONCILED
360
F10BDE
  0
DICTIONARY
  5
F10BEE
330
296
100
AcDbDictionary
280
     1
281
     1
  3
ACAD_XREC_ROUNDTRIP
360
F10BEF
  0
DICTIONARY
  5
F10BF0
330
297
100
AcDbDictionary
280
     1
281
     1
  3
ACAD_XREC_ROUNDTRIP
360
F10BF1
  0
DICTIONARY
  5
F10BEA
330
294
100
AcDbDictionary
280
     1
281
     1
  3
ACAD_XREC_ROUNDTRIP
360
F10BEB
  0
DICTIONARY
  5
F10BEC
330
295
100
AcDbDictionary
280
     1
281
     1
  3
ACAD_XREC_ROUNDTRIP
360
F10BED
  0
DICTIONARY
  5
FA7
102
{ACAD_REACTORS
330
13
102
}
330
13
100
AcDbDictionary
281
     1
  0
DICTIONARY
  5
14
330
13
100
AcDbDictionary
281
     1
  0
DICTIONARY
  5
FCF
102
{ACAD_REACTORS
330
13
102
}
330
13
100
AcDbDictionary
281
     1
  3
Layout1
350
FD1
  3
Model
350
FD0
  0
DICTIONARY
  5
F7A
102
{ACAD_REACTORS
330
13
102
}
330
13
100
AcDbDictionary
281
     1
  3
ByBlock
350
F83
  3
ByLayer
350
F7B
  3
Global
350
F8B
  0
DICTIONARY
  5
FCD
102
{ACAD_REACTORS
330
13
102
}
330
13
100
AcDbDictionary
281
     1
  3
Standard
350
FCE
  0
DICTIONARY
  5
16
330
13
100
AcDbDictionary
281
     1
  3
Standard
350
FAA
  0
DICTIONARY
  5
17
102
{ACAD_REACTORS
330
13
102
}
330
13
100
AcDbDictionary
281
     1
  0
ACDBDICTIONARYWDFLT
  5
18
102
{ACAD_REACTORS
330
13
102
}
330
13
100
AcDbDictionary
281
     1
  3
Normal
350
19
100
AcDbDictionaryWithDefault
340
19
  0
DICTIONARY
  5
FAB
102
{ACAD_REACTORS
330
13
102
}
330
13
100
AcDbDictionary
281
     1
  3
A0
350
FAC
  3
A1
350
FAD
  3
A2
350
FAE
  3
A3
350
FAF
  3
A4
350
FB0
  3
A5
350
FB1
  3
A6
350
FB2
  3
A7
350
FB3
  3
A8
350
FB4
  3
A9
350
FB5
  3
B0
350
FB6
  3
B1
350
FB7
  3
B2
350
FB8
  3
B3
350
FB9
  3
B4
350
FBA
  3
B5
350
FBB
  3
B6
350
FBC
  3
B7
350
FBD
  3
B8
350
FBE
  3
B9
350
FBF
  3
C0
350
FC0
  3
C1
350
FC1
  3
C2
350
FC2
  3
C3
350
FC3
  3
C4
350
FC4
  3
C5
350
FC5
  3
C6
350
FC6
  3
C7
350
FC7
  3
C8
350
FC8
  3
C9
350
FC9
  3
D0
350
FCA
  3
D1
350
FCB
  3
D2
350
FCC
  0
DICTIONARY
  5
FA8
102
{ACAD_REACTORS
330
13
102
}
330
13
100
AcDbDictionary
281
     1
  3
Standard
350
FA9
  0
DICTIONARY
  5
F93
102
{ACAD_REACTORS
330
13
102
}
330
13
100
AcDbDictionary
281
     1
  3
2dWireframe
350
F99
  3
3D Hidden
350
F9B
  3
3dWireframe
350
F9A
  3
Basic
350
F98
  3
Brighten
350
F9F
  3
ColorChange
350
FA3
  3
Conceptual
350
F9C
  3
Dim
350
F9E
  3
EdgeColorOff
350
FA6
  3
Facepattern
350
FA2
  3
Flat
350
F94
  3
FlatWithEdges
350
F95
  3
Gouraud
350
F96
  3
GouraudWithEdges
350
F97
  3
Hidden
350
F109AB
  3
JitterOff
350
FA4
  3
Linepattern
350
FA1
  3
OverhangOff
350
FA5
  3
Realistic
350
F9D
  3
Shaded
350
F109B0
  3
Shaded with edges
350
F109AF
  3
Shades of Gray
350
F109AC
  3
Sketchy
350
F109AD
  3
Thicken
350
FA0
  3
Wireframe
350
F109AA
  3
X-Ray
350
F109AE
  0
XRECORD
  5
F10BE8
102
{ACAD_REACTORS
330
13
102
}
330
13
100
AcDbXrecord
280
     1
 90
        1
330
FA9
  0
DICTIONARY
  5
F10BDF
102
{ACAD_REACTORS
330
13
102
}
330
13
100
AcDbDictionary
281
     1
  3
CANNOSCALE
350
F10BE2
  3
CMLEADERSTYLE
350
F10BE1
  3
CTABLESTYLE
350
F10BE0
  3
DIMASSOC
350
F10BE5
  3
INDEXCTL
350
F10BE4
  3
SORTENTS
350
F10BE3
  3
XCLIPFRAME
350
F10BE6
  0
DICTIONARY
  5
F109FF
102
{ACAD_REACTORS
330
13
102
}
330
13
100
AcDbDictionary
281
     1
  3
AcmStdDictionary
350
F10A0A
  0
DICTIONARY
  5
F109B3
102
{ACAD_REACTORS
330
13
102
}
330
13
100
AcDbDictionary
281
     1
  0
DICTIONARY
  5
F10A8C
102
{ACAD_REACTORS
330
13
102
}
330
13
100
AcDbDictionary
281
     1
  0
XRECORD
  5
F10BE9
102
{ACAD_REACTORS
330
13
102
}
330
13
100
AcDbXrecord
280
     1
  1
DWGPROPS COOKIE
  2

  3

  4

  6

  7

  8
Steigner
  9

300
=
301
=
302
=
303
=
304
=
305
=
306
=
307
=
308
=
309
=
 40
0.002401099537037
 41
2456987.551211574
 42
2456987.55361044
  1

 90
        0
  0
XRECORD
  5
F10BD6
102
{ACAD_REACTORS
330
F10BD5
102
}
330
F10BD5
100
AcDbXrecord
280
     1
290
     1
  0
XRECORD
  5
F10BD8
102
{ACAD_REACTORS
330
F10BD7
102
}
330
F10BD7
100
AcDbXrecord
280
     1
290
     1
  0
XRECORD
  5
F10BDA
102
{ACAD_REACTORS
330
F10BD9
102
}
330
F10BD9
100
AcDbXrecord
280
     1
290
     1
  0
XRECORD
  5
F10BDC
102
{ACAD_REACTORS
330
F10BDB
102
}
330
F10BDB
100
AcDbXrecord
280
     1
290
     1
  0
XRECORD
  5
F10BDE
102
{ACAD_REACTORS
330
F10BDD
102
}
330
F10BDD
100
AcDbXrecord
280
     1
290
     1
  0
XRECORD
  5
F10BEF
102
{ACAD_REACTORS
330
F10BEE
102
}
330
F10BEE
100
AcDbXrecord
280
     1
102
SHADEPLOT
 70
     0
  0
XRECORD
  5
F10BF1
102
{ACAD_REACTORS
330
F10BF0
102
}
330
F10BF0
100
AcDbXrecord
280
     1
102
SHADEPLOT
 70
     0
  0
XRECORD
  5
F10BEB
102
{ACAD_REACTORS
330
F10BEA
102
}
330
F10BEA
100
AcDbXrecord
280
     1
102
SHADEPLOT
 70
     0
  0
XRECORD
  5
F10BED
102
{ACAD_REACTORS
330
F10BEC
102
}
330
F10BEC
100
AcDbXrecord
280
     1
102
SHADEPLOT
 70
     0
  0
LAYOUT
  5
FD1
102
{ACAD_XDICTIONARY
360
F10C1B
102
}
102
{ACAD_REACTORS
330
FCF
102
}
330
FCF
100
AcDbPlotSettings
  1

  2
Microsoft XPS Document Writer
  4

  6

 40
0.0
 41
0.0
 42
0.0
 43
0.0
 44
0.0
 45
0.0
 46
0.0
 47
0.0
 48
0.0
 49
0.0
140
0.0
141
0.0
142
1.0
143
1.0
 70
   688
 72
     0
 73
     0
 74
     5
  7

 75
    16
147
1.0
148
0.0
149
0.0
100
AcDbLayout
  1
Layout1
 70
     1
 71
     1
 10
0.0
 20
0.0
 11
12.0
 21
9.0
 12
0.0
 22
0.0
 32
0.0
 14
1.000000000000000E+20
 24
1.000000000000000E+20
 34
1.000000000000000E+20
 15
-1.000000000000000E+20
 25
-1.000000000000000E+20
 35
-1.000000000000000E+20
146
0.0
 13
0.0
 23
0.0
 33
0.0
 16
1.0
 26
0.0
 36
0.0
 17
0.0
 27
1.0
 37
0.0
 76
     0
330
25D
  0
LAYOUT
  5
FD0
102
{ACAD_XDICTIONARY
360
F10C19
102
}
102
{ACAD_REACTORS
330
FCF
102
}
330
FCF
100
AcDbPlotSettings
  1

  2
Microsoft XPS Document Writer
  4

  6

 40
0.0
 41
0.0
 42
0.0
 43
0.0
 44
0.0
 45
0.0
 46
0.0
 47
0.0
 48
0.0
 49
0.0
140
0.0
141
0.0
142
1.0
143
1.0
 70
  1712
 72
     0
 73
     0
 74
     0
  7

 75
     0
147
1.0
148
0.0
149
0.0
100
AcDbLayout
  1
Model
 70
     1
 71
     0
 10
0.0
 20
0.0
 11
12.0
 21
9.0
 12
0.0
 22
0.0
 32
0.0
 14
0.0
 24
0.0
 34
0.0
 15
0.0
 25
0.0
 35
0.0
146
0.0
 13
0.0
 23
0.0
 33
0.0
 16
1.0
 26
0.0
 36
0.0
 17
0.0
 27
1.0
 37
0.0
 76
     0
330
261
331
26B
  0
MATERIAL
  5
F83
102
{ACAD_XDICTIONARY
360
F84
102
}
102
{ACAD_REACTORS
330
F7A
102
}
330
F7A
100
AcDbMaterial
  1
ByBlock
 72
     0
 43
0.0208333333333333
 43
0.0
 43
0.0
 43
0.0
 43
0.0
 43
0.0208333333333333
 43
0.0
 43
0.0
 43
0.0
 43
0.0
 43
1.0
 43
0.0
 43
0.0
 43
0.0
 43
0.0
 43
1.0
 77
     0
 47
0.0208333333333333
 47
0.0
 47
0.0
 47
0.0
 47
0.0
 47
0.0208333333333333
 47
0.0
 47
0.0
 47
0.0
 47
0.0
 47
1.0
 47
0.0
 47
0.0
 47
0.0
 47
0.0
 47
1.0
171
     0
 49
0.0208333333333333
 49
0.0
 49
0.0
 49
0.0
 49
0.0
 49
0.0208333333333333
 49
0.0
 49
0.0
 49
0.0
 49
0.0
 49
1.0
 49
0.0
 49
0.0
 49
0.0
 49
0.0
 49
1.0
175
     0
142
0.0208333333333333
142
0.0
142
0.0
142
0.0
142
0.0
142
0.0208333333333333
142
0.0
142
0.0
142
0.0
142
0.0
142
1.0
142
0.0
142
0.0
142
0.0
142
0.0
142
1.0
179
     0
144
0.0208333333333333
144
0.0
144
0.0
144
0.0
144
0.0
144
0.0208333333333333
144
0.0
144
0.0
144
0.0
144
0.0
144
1.0
144
0.0
144
0.0
144
0.0
144
0.0
144
1.0
147
0.0208333333333333
147
0.0
147
0.0
147
0.0
147
0.0
147
0.0208333333333333
147
0.0
147
0.0
147
0.0
147
0.0
147
1.0
147
0.0
147
0.0
147
0.0
147
0.0
147
1.0
  0
MATERIAL
  5
F7B
102
{ACAD_XDICTIONARY
360
F7C
102
}
102
{ACAD_REACTORS
330
F7A
102
}
330
F7A
100
AcDbMaterial
  1
ByLayer
 72
     0
 43
0.0208333333333333
 43
0.0
 43
0.0
 43
0.0
 43
0.0
 43
0.0208333333333333
 43
0.0
 43
0.0
 43
0.0
 43
0.0
 43
1.0
 43
0.0
 43
0.0
 43
0.0
 43
0.0
 43
1.0
 77
     0
 47
0.0208333333333333
 47
0.0
 47
0.0
 47
0.0
 47
0.0
 47
0.0208333333333333
 47
0.0
 47
0.0
 47
0.0
 47
0.0
 47
1.0
 47
0.0
 47
0.0
 47
0.0
 47
0.0
 47
1.0
171
     0
 49
0.0208333333333333
 49
0.0
 49
0.0
 49
0.0
 49
0.0
 49
0.0208333333333333
 49
0.0
 49
0.0
 49
0.0
 49
0.0
 49
1.0
 49
0.0
 49
0.0
 49
0.0
 49
0.0
 49
1.0
175
     0
142
0.0208333333333333
142
0.0
142
0.0
142
0.0
142
0.0
142
0.0208333333333333
142
0.0
142
0.0
142
0.0
142
0.0
142
1.0
142
0.0
142
0.0
142
0.0
142
0.0
142
1.0
179
     0
144
0.0208333333333333
144
0.0
144
0.0
144
0.0
144
0.0
144
0.0208333333333333
144
0.0
144
0.0
144
0.0
144
0.0
144
1.0
144
0.0
144
0.0
144
0.0
144
0.0
144
1.0
147
0.0208333333333333
147
0.0
147
0.0
147
0.0
147
0.0
147
0.0208333333333333
147
0.0
147
0.0
147
0.0
147
0.0
147
1.0
147
0.0
147
0.0
147
0.0
147
0.0
147
1.0
  0
MATERIAL
  5
F8B
102
{ACAD_XDICTIONARY
360
F8C
102
}
102
{ACAD_REACTORS
330
F7A
102
}
330
F7A
100
AcDbMaterial
  1
Global
 72
     0
 43
0.0208333333333333
 43
0.0
 43
0.0
 43
0.0
 43
0.0
 43
0.0208333333333333
 43
0.0
 43
0.0
 43
0.0
 43
0.0
 43
1.0
 43
0.0
 43
0.0
 43
0.0
 43
0.0
 43
1.0
 77
     0
 47
0.0208333333333333
 47
0.0
 47
0.0
 47
0.0
 47
0.0
 47
0.0208333333333333
 47
0.0
 47
0.0
 47
0.0
 47
0.0
 47
1.0
 47
0.0
 47
0.0
 47
0.0
 47
0.0
 47
1.0
171
     0
 49
0.0208333333333333
 49
0.0
 49
0.0
 49
0.0
 49
0.0
 49
0.0208333333333333
 49
0.0
 49
0.0
 49
0.0
 49
0.0
 49
1.0
 49
0.0
 49
0.0
 49
0.0
 49
0.0
 49
1.0
175
     0
142
0.0208333333333333
142
0.0
142
0.0
142
0.0
142
0.0
142
0.0208333333333333
142
0.0
142
0.0
142
0.0
142
0.0
142
1.0
142
0.0
142
0.0
142
0.0
142
0.0
142
1.0
179
     0
144
0.0208333333333333
144
0.0
144
0.0
144
0.0
144
0.0
144
0.0208333333333333
144
0.0
144
0.0
144
0.0
144
0.0
144
1.0
144
0.0
144
0.0
144
0.0
144
0.0
144
1.0
147
0.0208333333333333
147
0.0
147
0.0
147
0.0
147
0.0
147
0.0208333333333333
147
0.0
147
0.0
147
0.0
147
0.0
147
1.0
147
0.0
147
0.0
147
0.0
147
0.0
147
1.0
  0
MLEADERSTYLE
  5
FCE
102
{ACAD_REACTORS
330
FCD
102
}
330
FCD
100
AcDbMLeaderStyle
170
     2
171
     1
172
     0
 90
        2
 40
0.0
 41
0.0
173
     1
 91
-1056964608
340
256
 92
       -2
290
     1
 42
0.09
291
     1
 43
0.36
  3
Standard
 44
0.18
300

342
253
174
     1
178
     6
175
     1
176
     0
 93
-1056964608
 45
0.18
292
     0
297
     0
 46
0.18
 94
-1056964608
 47
1.0
 49
1.0
140
1.0
293
     1
141
0.0
294
     1
177
     0
142
1.0
295
     0
296
     0
143
0.125
1001
ACAD_MLEADERVER
1070
     2
  0
MLINESTYLE
  5
FAA
102
{ACAD_REACTORS
330
16
102
}
330
16
100
AcDbMlineStyle
  2
STANDARD
 70
     0
  3

 62
   256
 51
90.0
 52
90.0
 71
     2
 49
0.5
 62
   256
  6
BYLAYER
 49
-0.5
 62
   256
  6
BYLAYER
  0
ACDBPLACEHOLDER
  5
19
102
{ACAD_REACTORS
330
18
102
}
330
18
  0
SCALE
  5
FAC
102
{ACAD_REACTORS
330
FAB
102
}
330
FAB
100
AcDbScale
 70
     0
300
1:1
140
1.0
141
1.0
290
     1
  0
SCALE
  5
FAD
102
{ACAD_REACTORS
330
FAB
102
}
330
FAB
100
AcDbScale
 70
     0
300
1:2
140
1.0
141
2.0
290
     0
  0
SCALE
  5
FAE
102
{ACAD_REACTORS
330
FAB
102
}
330
FAB
100
AcDbScale
 70
     0
300
1:4
140
1.0
141
4.0
290
     0
  0
SCALE
  5
FAF
102
{ACAD_REACTORS
330
FAB
102
}
330
FAB
100
AcDbScale
 70
     0
300
1:5
140
1.0
141
5.0
290
     0
  0
SCALE
  5
FB0
102
{ACAD_REACTORS
330
FAB
102
}
330
FAB
100
AcDbScale
 70
     0
300
1:8
140
1.0
141
8.0
290
     0
  0
SCALE
  5
FB1
102
{ACAD_REACTORS
330
FAB
102
}
330
FAB
100
AcDbScale
 70
     0
300
1:10
140
1.0
141
10.0
290
     0
  0
SCALE
  5
FB2
102
{ACAD_REACTORS
330
FAB
102
}
330
FAB
100
AcDbScale
 70
     0
300
1:16
140
1.0
141
16.0
290
     0
  0
SCALE
  5
FB3
102
{ACAD_REACTORS
330
FAB
102
}
330
FAB
100
AcDbScale
 70
     0
300
1:20
140
1.0
141
20.0
290
     0
  0
SCALE
  5
FB4
102
{ACAD_REACTORS
330
FAB
102
}
330
FAB
100
AcDbScale
 70
     0
300
1:30
140
1.0
141
30.0
290
     0
  0
SCALE
  5
FB5
102
{ACAD_REACTORS
330
FAB
102
}
330
FAB
100
AcDbScale
 70
     0
300
1:40
140
1.0
141
40.0
290
     0
  0
SCALE
  5
FB6
102
{ACAD_REACTORS
330
FAB
102
}
330
FAB
100
AcDbScale
 70
     0
300
1:50
140
1.0
141
50.0
290
     0
  0
SCALE
  5
FB7
102
{ACAD_REACTORS
330
FAB
102
}
330
FAB
100
AcDbScale
 70
     0
300
1:100
140
1.0
141
100.0
290
     0
  0
SCALE
  5
FB8
102
{ACAD_REACTORS
330
FAB
102
}
330
FAB
100
AcDbScale
 70
     0
300
2:1
140
2.0
141
1.0
290
     0
  0
SCALE
  5
FB9
102
{ACAD_REACTORS
330
FAB
102
}
330
FAB
100
AcDbScale
 70
     0
300
4:1
140
4.0
141
1.0
290
     0
  0
SCALE
  5
FBA
102
{ACAD_REACTORS
330
FAB
102
}
330
FAB
100
AcDbScale
 70
     0
300
8:1
140
8.0
141
1.0
290
     0
  0
SCALE
  5
FBB
102
{ACAD_REACTORS
330
FAB
102
}
330
FAB
100
AcDbScale
 70
     0
300
10:1
140
10.0
141
1.0
290
     0
  0
SCALE
  5
FBC
102
{ACAD_REACTORS
330
FAB
102
}
330
FAB
100
AcDbScale
 70
     0
300
100:1
140
100.0
141
1.0
290
     0
  0
SCALE
  5
FBD
102
{ACAD_REACTORS
330
FAB
102
}
330
FAB
100
AcDbScale
 70
     0
300
1/128" = 1'-0"
140
0.0078125
141
12.0
290
     0
  0
SCALE
  5
FBE
102
{ACAD_REACTORS
330
FAB
102
}
330
FAB
100
AcDbScale
 70
     0
300
1/64" = 1'-0"
140
0.015625
141
12.0
290
     0
  0
SCALE
  5
FBF
102
{ACAD_REACTORS
330
FAB
102
}
330
FAB
100
AcDbScale
 70
     0
300
1/32" = 1'-0"
140
0.03125
141
12.0
290
     0
  0
SCALE
  5
FC0
102
{ACAD_REACTORS
330
FAB
102
}
330
FAB
100
AcDbScale
 70
     0
300
1/16" = 1'-0"
140
0.0625
141
12.0
290
     0
  0
SCALE
  5
FC1
102
{ACAD_REACTORS
330
FAB
102
}
330
FAB
100
AcDbScale
 70
     0
300
3/32" = 1'-0"
140
0.09375
141
12.0
290
     0
  0
SCALE
  5
FC2
102
{ACAD_REACTORS
330
FAB
102
}
330
FAB
100
AcDbScale
 70
     0
300
1/8" = 1'-0"
140
0.125
141
12.0
290
     0
  0
SCALE
  5
FC3
102
{ACAD_REACTORS
330
FAB
102
}
330
FAB
100
AcDbScale
 70
     0
300
3/16" = 1'-0"
140
0.1875
141
12.0
290
     0
  0
SCALE
  5
FC4
102
{ACAD_REACTORS
330
FAB
102
}
330
FAB
100
AcDbScale
 70
     0
300
1/4" = 1'-0"
140
0.25
141
12.0
290
     0
  0
SCALE
  5
FC5
102
{ACAD_REACTORS
330
FAB
102
}
330
FAB
100
AcDbScale
 70
     0
300
3/8" = 1'-0"
140
0.375
141
12.0
290
     0
  0
SCALE
  5
FC6
102
{ACAD_REACTORS
330
FAB
102
}
330
FAB
100
AcDbScale
 70
     0
300
1/2" = 1'-0"
140
0.5
141
12.0
290
     0
  0
SCALE
  5
FC7
102
{ACAD_REACTORS
330
FAB
102
}
330
FAB
100
AcDbScale
 70
     0
300
3/4" = 1'-0"
140
0.75
141
12.0
290
     0
  0
SCALE
  5
FC8
102
{ACAD_REACTORS
330
FAB
102
}
330
FAB
100
AcDbScale
 70
     0
300
1" = 1'-0"
140
1.0
141
12.0
290
     0
  0
SCALE
  5
FC9
102
{ACAD_REACTORS
330
FAB
102
}
330
FAB
100
AcDbScale
 70
     0
300
1-1/2" = 1'-0"
140
1.5
141
12.0
290
     0
  0
SCALE
  5
FCA
102
{ACAD_REACTORS
330
FAB
102
}
330
FAB
100
AcDbScale
 70
     0
300
3" = 1'-0"
140
3.0
141
12.0
290
     0
  0
SCALE
  5
FCB
102
{ACAD_REACTORS
330
FAB
102
}
330
FAB
100
AcDbScale
 70
     0
300
6" = 1'-0"
140
6.0
141
12.0
290
     0
  0
SCALE
  5
FCC
102
{ACAD_REACTORS
330
FAB
102
}
330
FAB
100
AcDbScale
 70
     0
300
1'-0" = 1'-0"
140
12.0
141
12.0
290
     0
  0
TABLESTYLE
  5
FA9
102
{ACAD_XDICTIONARY
360
FF8
102
}
102
{ACAD_REACTORS
330
FA8
102
}
330
FA8
100
AcDbTableStyle
  3
Standard
 70
     0
 71
     0
 40
0.06
 41
0.06
280
     0
281
     0
  7
Standard
140
0.18
170
     2
 62
     0
 63
     7
283
     0
274
    -2
284
     1
 64
     0
275
    -2
285
     1
 65
     0
276
    -2
286
     1
 66
     0
277
    -2
287
     1
 67
     0
278
    -2
288
     1
 68
     0
279
    -2
289
     1
 69
     0
  7
Standard
140
0.25
170
     5
 62
     0
 63
     7
283
     0
274
    -2
284
     1
 64
     0
275
    -2
285
     1
 65
     0
276
    -2
286
     1
 66
     0
277
    -2
287
     1
 67
     0
278
    -2
288
     1
 68
     0
279
    -2
289
     1
 69
     0
  7
Standard
140
0.18
170
     5
 62
     0
 63
     7
283
     0
274
    -2
284
     1
 64
     0
275
    -2
285
     1
 65
     0
276
    -2
286
     1
 66
     0
277
    -2
287
     1
 67
     0
278
    -2
288
     1
 68
     0
279
    -2
289
     1
 69
     0
  0
VISUALSTYLE
  5
F99
102
{ACAD_XDICTIONARY
360
F10BFC
102
}
102
{ACAD_REACTORS
330
F93
102
}
330
F93
100
AcDbVisualStyle
  2

 70
     4
 71
     0
 72
     2
 73
     0
 90
        0
 40
-0.6
 41
-30.0
 62
     5
 63
     7
 74
     1
 91
        4
 64
     7
 65
   257
 75
     1
175
     1
 42
1.0
 92
        0
 66
   257
 43
1.0
 76
     1
 77
     6
 78
     2
 67
     7
 79
     5
170
     0
171
     0
290
     0
174
     0
 93
        1
 44
0.0
173
     0
291
     0
 45
0.0
1001
ACAD
1000
AcDbSavedByObjectVersion
1070
     0
  0
VISUALSTYLE
  5
F9B
102
{ACAD_XDICTIONARY
360
F10C00
102
}
102
{ACAD_REACTORS
330
F93
102
}
330
F93
100
AcDbVisualStyle
  2

 70
     6
 71
     1
 72
     2
 73
     2
 90
        0
 40
-0.6
 41
-30.0
 62
     5
 63
     7
 74
     2
 91
        2
 64
     7
 65
   257
 75
     2
175
     1
 42
179.0
 92
        0
 66
   257
 43
1.0
 76
     1
 77
     6
 78
     2
 67
     7
 79
     3
170
     0
171
     0
290
     0
174
     0
 93
        1
 44
0.0
173
     0
291
     0
 45
0.0
1001
ACAD
1000
AcDbSavedByObjectVersion
1070
     0
  0
VISUALSTYLE
  5
F9A
102
{ACAD_XDICTIONARY
360
F10BFE
102
}
102
{ACAD_REACTORS
330
F93
102
}
330
F93
100
AcDbVisualStyle
  2

 70
     5
 71
     0
 72
     2
 73
     0
 90
        0
 40
-0.6
 41
-30.0
 62
     5
 63
     7
 74
     1
 91
        4
 64
     7
 65
   257
 75
     1
175
     1
 42
1.0
 92
        0
 66
   257
 43
1.0
 76
     1
 77
     6
 78
     2
 67
     7
 79
     5
170
     0
171
     0
290
     0
174
     0
 93
        1
 44
0.0
173
     0
291
     0
 45
0.0
1001
ACAD
1000
AcDbSavedByObjectVersion
1070
     0
  0
VISUALSTYLE
  5
F98
102
{ACAD_XDICTIONARY
360
F10BFA
102
}
102
{ACAD_REACTORS
330
F93
102
}
330
F93
100
AcDbVisualStyle
  2

 70
     7
 71
     1
 72
     0
 73
     1
 90
        0
 40
-0.6
 41
-30.0
 62
     5
 63
     7
 74
     0
 91
        4
 64
     7
 65
   257
 75
     1
175
     1
 42
1.0
 92
        8
 66
     7
 43
1.0
 76
     1
 77
     6
 78
     2
 67
     7
 79
     5
170
     0
171
     0
290
     0
174
     0
 93
        1
 44
0.0
173
     0
291
     1
 45
0.0
1001
ACAD
1000
AcDbSavedByObjectVersion
1070
     0
  0
VISUALSTYLE
  5
F9F
102
{ACAD_XDICTIONARY
360
F10C08
102
}
102
{ACAD_REACTORS
330
F93
102
}
330
F93
100
AcDbVisualStyle
  2

 70
    12
 71
     2
 72
     2
 73
     0
 90
        0
 40
-0.6
 41
-30.0
 62
     5
 63
     7
 74
     1
 91
        4
 64
     7
 65
   257
 75
     1
175
     1
 42
1.0
 92
        8
 66
     7
 43
1.0
 76
     1
 77
     6
 78
     2
 67
     7
 79
     5
170
     0
171
     0
290
     0
174
     0
 93
        1
 44
50.0
173
     0
291
     1
 45
0.0
1001
ACAD
1000
AcDbSavedByObjectVersion
1070
     0
  0
VISUALSTYLE
  5
FA3
102
{ACAD_XDICTIONARY
360
F10C10
102
}
102
{ACAD_REACTORS
330
F93
102
}
330
F93
100
AcDbVisualStyle
  2

 70
    16
 71
     2
 72
     2
 73
     3
 90
        0
 40
-0.6
 41
-30.0
 62
     5
 63
     8
 74
     1
 91
        4
 64
     7
 65
   257
 75
     1
175
     1
 42
1.0
 92
        8
 66
     8
 43
1.0
 76
     1
 77
     6
 78
     2
 67
     7
 79
     5
170
     0
171
     0
290
     0
174
     0
 93
        1
 44
0.0
173
     0
291
     1
 45
0.0
1001
ACAD
1000
AcDbSavedByObjectVersion
1070
     0
  0
VISUALSTYLE
  5
F9C
102
{ACAD_XDICTIONARY
360
F10C02
102
}
102
{ACAD_REACTORS
330
F93
102
}
330
F93
100
AcDbVisualStyle
  2

 70
     9
 71
     3
 72
     2
 73
     0
 90
        0
 40
-0.6
 41
-30.0
 62
     5
 63
     7
 74
     2
 91
        2
 64
     7
 65
   257
 75
     1
175
     1
 42
179.0
 92
        8
 66
     7
 43
1.0
 76
     1
 77
     6
 78
     2
 67
     7
 79
     3
170
     0
171
     0
290
     0
174
     0
 93
        1
 44
0.0
173
     0
291
     0
 45
0.0
1001
ACAD
1000
AcDbSavedByObjectVersion
1070
     0
  0
VISUALSTYLE
  5
F9E
102
{ACAD_XDICTIONARY
360
F10C06
102
}
102
{ACAD_REACTORS
330
F93
102
}
330
F93
100
AcDbVisualStyle
  2

 70
    11
 71
     2
 72
     2
 73
     0
 90
        0
 40
-0.6
 41
-30.0
 62
     5
 63
     7
 74
     1
 91
        4
 64
     7
 65
   257
 75
     1
175
     1
 42
1.0
 92
        8
 66
     7
 43
1.0
 76
     1
 77
     6
 78
     2
 67
     7
 79
     5
170
     0
171
     0
290
     0
174
     0
 93
        1
 44
-50.0
173
     0
291
     1
 45
0.0
1001
ACAD
1000
AcDbSavedByObjectVersion
1070
     0
  0
VISUALSTYLE
  5
FA6
102
{ACAD_XDICTIONARY
360
F10C16
102
}
102
{ACAD_REACTORS
330
F93
102
}
330
F93
100
AcDbVisualStyle
  2

 70
    22
 71
     2
 72
     2
 73
     0
 90
        0
 40
-0.6
 41
-30.0
 62
     5
 63
     7
 74
     1
 91
        4
 64
     7
 65
   257
 75
     1
175
     1
 42
1.0
 92
        8
 66
     7
 43
1.0
 76
     1
 77
     6
 78
     2
 67
     7
 79
     5
170
     0
171
     0
290
     0
174
     0
 93
        1
 44
0.0
173
     0
291
     1
 45
0.0
1001
ACAD
1000
AcDbSavedByObjectVersion
1070
     0
  0
VISUALSTYLE
  5
FA2
102
{ACAD_XDICTIONARY
360
F10C0E
102
}
102
{ACAD_REACTORS
330
F93
102
}
330
F93
100
AcDbVisualStyle
  2

 70
    15
 71
     2
 72
     2
 73
     0
 90
        0
 40
-0.6
 41
-30.0
 62
     5
 63
     7
 74
     1
 91
        4
 64
     7
 65
   257
 75
     1
175
     1
 42
1.0
 92
        8
 66
     7
 43
1.0
 76
     1
 77
     6
 78
     2
 67
     7
 79
     5
170
     0
171
     0
290
     0
174
     0
 93
        1
 44
0.0
173
     0
291
     1
 45
0.0
1001
ACAD
1000
AcDbSavedByObjectVersion
1070
     0
  0
VISUALSTYLE
  5
F94
102
{ACAD_XDICTIONARY
360
F10BF2
102
}
102
{ACAD_REACTORS
330
F93
102
}
330
F93
100
AcDbVisualStyle
  2

 70
     0
 71
     2
 72
     1
 73
     1
 90
        2
 40
-0.6
 41
30.0
 62
     5
 63
     7
 74
     0
 91
        4
 64
     7
 65
   257
 75
     1
175
     1
 42
1.0
 92
        8
 66
     7
 43
1.0
 76
     1
 77
     6
 78
     2
 67
     7
 79
     5
170
     0
171
     0
290
     0
174
     0
 93
       13
 44
0.0
173
     0
291
     1
 45
0.0
1001
ACAD
1000
AcDbSavedByObjectVersion
1070
     0
  0
VISUALSTYLE
  5
F95
102
{ACAD_XDICTIONARY
360
F10BF4
102
}
102
{ACAD_REACTORS
330
F93
102
}
330
F93
100
AcDbVisualStyle
  2

 70
     1
 71
     2
 72
     1
 73
     1
 90
        2
 40
-0.6
 41
30.0
 62
     5
 63
     7
 74
     1
 91
        4
 64
     7
 65
   257
 75
     1
175
     1
 42
1.0
 92
        0
 66
   257
 43
1.0
 76
     1
 77
     6
 78
     2
 67
     7
 79
     5
170
     0
171
     0
290
     0
174
     0
 93
       13
 44
0.0
173
     0
291
     1
 45
0.0
1001
ACAD
1000
AcDbSavedByObjectVersion
1070
     0
  0
VISUALSTYLE
  5
F96
102
{ACAD_XDICTIONARY
360
F10BF6
102
}
102
{ACAD_REACTORS
330
F93
102
}
330
F93
100
AcDbVisualStyle
  2

 70
     2
 71
     2
 72
     2
 73
     1
 90
        2
 40
-0.6
 41
30.0
 62
     5
 63
     7
 74
     0
 91
        4
 64
     7
 65
   257
 75
     1
175
     1
 42
1.0
 92
        0
 66
     7
 43
1.0
 76
     1
 77
     6
 78
     2
 67
     7
 79
     5
170
     0
171
     0
290
     0
174
     0
 93
       13
 44
0.0
173
     0
291
     1
 45
0.0
1001
ACAD
1000
AcDbSavedByObjectVersion
1070
     0
  0
VISUALSTYLE
  5
F97
102
{ACAD_XDICTIONARY
360
F10BF8
102
}
102
{ACAD_REACTORS
330
F93
102
}
330
F93
100
AcDbVisualStyle
  2

 70
     3
 71
     2
 72
     2
 73
     1
 90
        2
 40
-0.6
 41
30.0
 62
     5
 63
     7
 74
     1
 91
        4
 64
     7
 65
   257
 75
     1
175
     1
 42
1.0
 92
        0
 66
   257
 43
1.0
 76
     1
 77
     6
 78
     2
 67
     7
 79
     5
170
     0
171
     0
290
     0
174
     0
 93
       13
 44
0.0
173
     0
291
     1
 45
0.0
1001
ACAD
1000
AcDbSavedByObjectVersion
1070
     0
  0
VISUALSTYLE
  5
F109AB
102
{ACAD_XDICTIONARY
360
F10C1F
102
}
102
{ACAD_REACTORS
330
F93
102
}
330
F93
100
AcDbVisualStyle
  2
Hidden
 70
     6
 71
     1
 72
     2
 73
     2
 90
        0
 40
-0.6
 41
-30.0
 62
     5
 63
     7
 74
     2
 91
        2
 64
     7
 65
   257
 75
     2
175
     1
 42
40.0
 92
        0
 66
   257
 43
1.0
 76
     1
 77
     6
 78
     2
 67
     7
 79
     3
170
     0
171
     0
290
     0
174
     0
 93
        1
 44
0.0
173
     0
291
     0
 45
0.0
1001
ACAD
1000
AcDbSavedByObjectVersion
1070
     0
  0
VISUALSTYLE
  5
FA4
102
{ACAD_XDICTIONARY
360
F10C12
102
}
102
{ACAD_REACTORS
330
F93
102
}
330
F93
100
AcDbVisualStyle
  2

 70
    20
 71
     2
 72
     2
 73
     0
 90
        0
 40
-0.6
 41
-30.0
 62
     5
 63
     7
 74
     1
 91
        4
 64
     7
 65
   257
 75
     1
175
     1
 42
1.0
 92
       10
 66
     7
 43
1.0
 76
     1
 77
     6
 78
     2
 67
     7
 79
     5
170
     0
171
     0
290
     0
174
     0
 93
        1
 44
0.0
173
     0
291
     1
 45
0.0
1001
ACAD
1000
AcDbSavedByObjectVersion
1070
     0
  0
VISUALSTYLE
  5
FA1
102
{ACAD_XDICTIONARY
360
F10C0C
102
}
102
{ACAD_REACTORS
330
F93
102
}
330
F93
100
AcDbVisualStyle
  2

 70
    14
 71
     2
 72
     2
 73
     0
 90
        0
 40
-0.6
 41
-30.0
 62
     5
 63
     7
 74
     1
 91
        4
 64
     7
 65
   257
 75
     7
175
     7
 42
1.0
 92
        8
 66
     7
 43
1.0
 76
     1
 77
     6
 78
     2
 67
     7
 79
     5
170
     0
171
     0
290
     0
174
     0
 93
        1
 44
0.0
173
     0
291
     1
 45
0.0
1001
ACAD
1000
AcDbSavedByObjectVersion
1070
     0
  0
VISUALSTYLE
  5
FA5
102
{ACAD_XDICTIONARY
360
F10C14
102
}
102
{ACAD_REACTORS
330
F93
102
}
330
F93
100
AcDbVisualStyle
  2

 70
    21
 71
     2
 72
     2
 73
     0
 90
        0
 40
-0.6
 41
-30.0
 62
     5
 63
     7
 74
     1
 91
        4
 64
     7
 65
   257
 75
     1
175
     1
 42
1.0
 92
        9
 66
     7
 43
1.0
 76
     1
 77
     6
 78
     2
 67
     7
 79
     5
170
     0
171
     0
290
     0
174
     0
 93
        1
 44
0.0
173
     0
291
     1
 45
0.0
1001
ACAD
1000
AcDbSavedByObjectVersion
1070
     0
  0
VISUALSTYLE
  5
F9D
102
{ACAD_XDICTIONARY
360
F10C04
102
}
102
{ACAD_REACTORS
330
F93
102
}
330
F93
100
AcDbVisualStyle
  2

 70
     8
 71
     2
 72
     2
 73
     0
 90
        0
 40
-0.6
 41
-30.0
 62
     5
 63
     7
 74
     1
 91
        0
 64
     7
 65
   257
 75
     1
175
     1
 42
1.0
 92
        8
 66
     8
 43
1.0
 76
     1
 77
     6
 78
     2
 67
     7
 79
     5
170
     0
171
     0
290
     0
174
     0
 93
       13
 44
0.0
173
     0
291
     0
 45
0.0
1001
ACAD
1000
AcDbSavedByObjectVersion
1070
     0
  0
VISUALSTYLE
  5
F109B0
102
{ACAD_XDICTIONARY
360
F10C29
102
}
102
{ACAD_REACTORS
330
F93
102
}
330
F93
100
AcDbVisualStyle
  2
Shaded
 70
    27
 71
     2
 72
     2
 73
     1
 90
        2
 40
-0.6
 41
30.0
 62
     5
 63
     7
 74
     0
 91
        4
 64
     7
 65
   257
 75
     1
175
     1
 42
1.0
 92
        8
 66
   257
 43
1.0
 76
     1
 77
     6
 78
     2
 67
     8
 79
     3
170
     0
171
     0
290
     0
174
     0
 93
        5
 44
0.0
173
     0
291
     0
 45
0.0
1001
ACAD
1000
AcDbSavedByObjectVersion
1070
     0
  0
VISUALSTYLE
  5
F109AF
102
{ACAD_XDICTIONARY
360
F10C27
102
}
102
{ACAD_REACTORS
330
F93
102
}
330
F93
100
AcDbVisualStyle
  2
Shaded with edges
 70
    26
 71
     2
 72
     2
 73
     1
 90
        2
 40
-0.6
 41
30.0
 62
     5
 63
     7
 74
     1
 91
       10
 64
     7
 65
   257
 75
     2
175
     1
 42
1.0
 92
        8
 66
   257
 43
1.0
 76
     1
 77
     6
 78
     2
 67
     7
 79
     3
170
     0
171
     0
290
     0
174
     0
 93
        5
 44
0.0
173
     0
291
     0
 45
0.0
1001
ACAD
1000
AcDbSavedByObjectVersion
1070
     0
  0
VISUALSTYLE
  5
F109AC
102
{ACAD_XDICTIONARY
360
F10C21
102
}
102
{ACAD_REACTORS
330
F93
102
}
330
F93
100
AcDbVisualStyle
  2
Shades of Gray
 70
    23
 71
     2
 72
     2
 73
     3
 90
        0
 40
-0.6
 41
-30.0
 62
     5
 63
     7
 74
     2
 91
        2
 64
     7
 65
     7
 75
     1
175
     1
 42
40.0
 92
        8
 66
     7
 43
1.0
 76
     1
 77
     6
 78
     2
 67
     7
 79
     3
170
     0
171
     0
290
     0
174
     0
 93
        1
 44
0.0
173
     0
291
     0
 45
0.0
1001
ACAD
1000
AcDbSavedByObjectVersion
1070
     0
  0
VISUALSTYLE
  5
F109AD
102
{ACAD_XDICTIONARY
360
F10C23
102
}
102
{ACAD_REACTORS
330
F93
102
}
330
F93
100
AcDbVisualStyle
  2
Sketchy
 70
    24
 71
     1
 72
     2
 73
     2
 90
        0
 40
-0.6
 41
-30.0
 62
     5
 63
     7
 74
     2
 91
        2
 64
     7
 65
     7
 75
     1
175
     1
 42
40.0
 92
       11
 66
     7
 43
1.0
 76
     1
 77
     6
 78
     2
 67
     7
 79
     6
170
     0
171
     0
290
     0
174
     0
 93
        1
 44
0.0
173
     0
291
     0
 45
0.0
1001
ACAD
1000
AcDbSavedByObjectVersion
1070
     0
  0
VISUALSTYLE
  5
FA0
102
{ACAD_XDICTIONARY
360
F10C0A
102
}
102
{ACAD_REACTORS
330
F93
102
}
330
F93
100
AcDbVisualStyle
  2

 70
    13
 71
     2
 72
     2
 73
     0
 90
        0
 40
-0.6
 41
-30.0
 62
     5
 63
     7
 74
     1
 91
        4
 64
     7
 65
   257
 75
     1
175
     1
 42
1.0
 92
       12
 66
     7
 43
1.0
 76
     1
 77
     6
 78
     2
 67
     7
 79
     5
170
     0
171
     0
290
     0
174
     0
 93
        1
 44
0.0
173
     0
291
     1
 45
0.0
1001
ACAD
1000
AcDbSavedByObjectVersion
1070
     0
  0
VISUALSTYLE
  5
F109AA
102
{ACAD_XDICTIONARY
360
F10C1D
102
}
102
{ACAD_REACTORS
330
F93
102
}
330
F93
100
AcDbVisualStyle
  2
Wireframe
 70
     5
 71
     0
 72
     2
 73
     0
 90
        0
 40
-0.6
 41
-30.0
 62
     5
 63
     7
 74
     1
 91
        4
 64
     7
 65
   257
 75
     1
175
     1
 42
1.0
 92
        0
 66
   257
 43
1.0
 76
     1
 77
     6
 78
     2
 67
     7
 79
     3
170
     0
171
     0
290
     0
174
     0
 93
        1
 44
0.0
173
     0
291
     0
 45
0.0
1001
ACAD
1000
AcDbSavedByObjectVersion
1070
     0
  0
VISUALSTYLE
  5
F109AE
102
{ACAD_XDICTIONARY
360
F10C25
102
}
102
{ACAD_REACTORS
330
F93
102
}
330
F93
100
AcDbVisualStyle
  2
X-Ray
 70
    25
 71
     2
 72
     2
 73
     1
 90
        1
 40
0.5
 41
-30.0
 62
     5
 63
     7
 74
     1
 91
        0
 64
     7
 65
   257
 75
     1
175
     1
 42
1.0
 92
        8
 66
     7
 43
1.0
 76
     1
 77
     6
 78
     2
 67
     7
 79
     3
170
     0
171
     0
290
     0
174
     0
 93
       13
 44
0.0
173
     0
291
     0
 45
0.0
1001
ACAD
1000
AcDbSavedByObjectVersion
1070
     0
  0
DICTIONARYVAR
  5
F10BE2
102
{ACAD_REACTORS
330
F10BDF
102
}
330
F10BDF
100
DictionaryVariables
280
     0
  1
1:1
  0
DICTIONARYVAR
  5
F10BE1
102
{ACAD_REACTORS
330
F10BDF
102
}
330
F10BDF
100
DictionaryVariables
280
     0
  1
STANDARD
  0
DICTIONARYVAR
  5
F10BE0
102
{ACAD_REACTORS
330
F10BDF
102
}
330
F10BDF
100
DictionaryVariables
280
     0
  1
STANDARD
  0
DICTIONARYVAR
  5
F10BE5
102
{ACAD_REACTORS
330
F10BDF
102
}
330
F10BDF
100
DictionaryVariables
280
     0
  1
1
  0
DICTIONARYVAR
  5
F10BE4
102
{ACAD_REACTORS
330
F10BDF
102
}
330
F10BDF
100
DictionaryVariables
280
     0
  1
0
  0
DICTIONARYVAR
  5
F10BE3
102
{ACAD_REACTORS
330
F10BDF
102
}
330
F10BDF
100
DictionaryVariables
280
     0
  1
127
  0
DICTIONARYVAR
  5
F10BE6
102
{ACAD_REACTORS
330
F10BDF
102
}
330
F10BDF
100
DictionaryVariables
280
     0
  1
2
  0
DICTIONARY
  5
F10A0A
102
{ACAD_REACTORS
330
F109FF
102
}
330
F109FF
100
AcDbDictionary
281
     1
  0
DICTIONARY
  5
F10C1B
330
FD1
100
AcDbDictionary
280
     1
281
     1
  3
ACAD_XREC_ROUNDTRIP
360
F10C1C
  0
DICTIONARY
  5
F10C19
330
FD0
100
AcDbDictionary
280
     1
281
     1
  3
ACAD_XREC_ROUNDTRIP
360
F10C1A
  0
DICTIONARY
  5
F84
330
F83
100
AcDbDictionary
280
     1
281
     1
  3
ACAD_XREC_ROUNDTRIP
360
FFF
  3
BUMPTILE
360
F86
  3
DIFFUSETILE
360
F85
  3
OPACITYTILE
360
F89
  3
REFLECTIONTILE
360
F88
  3
REFRACTIONTILE
360
F8A
  3
SPECULARTILE
360
F87
  0
DICTIONARY
  5
F7C
330
F7B
100
AcDbDictionary
280
     1
281
     1
  3
ACAD_XREC_ROUNDTRIP
360
FFE
  3
BUMPTILE
360
F7E
  3
DIFFUSETILE
360
F7D
  3
OPACITYTILE
360
F81
  3
REFLECTIONTILE
360
F80
  3
REFRACTIONTILE
360
F82
  3
SPECULARTILE
360
F7F
  0
DICTIONARY
  5
F8C
330
F8B
100
AcDbDictionary
280
     1
281
     1
  3
ACAD_XREC_ROUNDTRIP
360
1000
  3
BUMPTILE
360
F8E
  3
DIFFUSETILE
360
F8D
  3
OPACITYTILE
360
F91
  3
REFLECTIONTILE
360
F90
  3
REFRACTIONTILE
360
F92
  3
SPECULARTILE
360
F8F
  0
DICTIONARY
  5
FF8
330
FA9
100
AcDbDictionary
280
     1
281
     1
  3
ACAD_ROUNDTRIP_2008_TABLESTYLE_CELLSTYLEMAP
360
F10BE7
  3
ACAD_XREC_ROUNDTRIP
360
F10C18
  0
DICTIONARY
  5
F10BFC
330
F99
100
AcDbDictionary
280
     1
281
     1
  3
ACAD_XREC_ROUNDTRIP
360
F10BFD
  0
DICTIONARY
  5
F10C00
330
F9B
100
AcDbDictionary
280
     1
281
     1
  3
ACAD_XREC_ROUNDTRIP
360
F10C01
  0
DICTIONARY
  5
F10BFE
330
F9A
100
AcDbDictionary
280
     1
281
     1
  3
ACAD_XREC_ROUNDTRIP
360
F10BFF
  0
DICTIONARY
  5
F10BFA
330
F98
100
AcDbDictionary
280
     1
281
     1
  3
ACAD_XREC_ROUNDTRIP
360
F10BFB
  0
DICTIONARY
  5
F10C08
330
F9F
100
AcDbDictionary
280
     1
281
     1
  3
ACAD_XREC_ROUNDTRIP
360
F10C09
  0
DICTIONARY
  5
F10C10
330
FA3
100
AcDbDictionary
280
     1
281
     1
  3
ACAD_XREC_ROUNDTRIP
360
F10C11
  0
DICTIONARY
  5
F10C02
330
F9C
100
AcDbDictionary
280
     1
281
     1
  3
ACAD_XREC_ROUNDTRIP
360
F10C03
  0
DICTIONARY
  5
F10C06
330
F9E
100
AcDbDictionary
280
     1
281
     1
  3
ACAD_XREC_ROUNDTRIP
360
F10C07
  0
DICTIONARY
  5
F10C16
330
FA6
100
AcDbDictionary
280
     1
281
     1
  3
ACAD_XREC_ROUNDTRIP
360
F10C17
  0
DICTIONARY
  5
F10C0E
330
FA2
100
AcDbDictionary
280
     1
281
     1
  3
ACAD_XREC_ROUNDTRIP
360
F10C0F
  0
DICTIONARY
  5
F10BF2
330
F94
100
AcDbDictionary
280
     1
281
     1
  3
ACAD_XREC_ROUNDTRIP
360
F10BF3
  0
DICTIONARY
  5
F10BF4
330
F95
100
AcDbDictionary
280
     1
281
     1
  3
ACAD_XREC_ROUNDTRIP
360
F10BF5
  0
DICTIONARY
  5
F10BF6
330
F96
100
AcDbDictionary
280
     1
281
     1
  3
ACAD_XREC_ROUNDTRIP
360
F10BF7
  0
DICTIONARY
  5
F10BF8
330
F97
100
AcDbDictionary
280
     1
281
     1
  3
ACAD_XREC_ROUNDTRIP
360
F10BF9
  0
DICTIONARY
  5
F10C1F
330
F109AB
100
AcDbDictionary
280
     1
281
     1
  3
ACAD_XREC_ROUNDTRIP
360
F10C20
  0
DICTIONARY
  5
F10C12
330
FA4
100
AcDbDictionary
280
     1
281
     1
  3
ACAD_XREC_ROUNDTRIP
360
F10C13
  0
DICTIONARY
  5
F10C0C
330
FA1
100
AcDbDictionary
280
     1
281
     1
  3
ACAD_XREC_ROUNDTRIP
360
F10C0D
  0
DICTIONARY
  5
F10C14
330
FA5
100
AcDbDictionary
280
     1
281
     1
  3
ACAD_XREC_ROUNDTRIP
360
F10C15
  0
DICTIONARY
  5
F10C04
330
F9D
100
AcDbDictionary
280
     1
281
     1
  3
ACAD_XREC_ROUNDTRIP
360
F10C05
  0
DICTIONARY
  5
F10C29
330
F109B0
100
AcDbDictionary
280
     1
281
     1
  3
ACAD_XREC_ROUNDTRIP
360
F10C2A
  0
DICTIONARY
  5
F10C27
330
F109AF
100
AcDbDictionary
280
     1
281
     1
  3
ACAD_XREC_ROUNDTRIP
360
F10C28
  0
DICTIONARY
  5
F10C21
330
F109AC
100
AcDbDictionary
280
     1
281
     1
  3
ACAD_XREC_ROUNDTRIP
360
F10C22
  0
DICTIONARY
  5
F10C23
330
F109AD
100
AcDbDictionary
280
     1
281
     1
  3
ACAD_XREC_ROUNDTRIP
360
F10C24
  0
DICTIONARY
  5
F10C0A
330
FA0
100
AcDbDictionary
280
     1
281
     1
  3
ACAD_XREC_ROUNDTRIP
360
F10C0B
  0
DICTIONARY
  5
F10C1D
330
F109AA
100
AcDbDictionary
280
     1
281
     1
  3
ACAD_XREC_ROUNDTRIP
360
F10C1E
  0
DICTIONARY
  5
F10C25
330
F109AE
100
AcDbDictionary
280
     1
281
     1
  3
ACAD_XREC_ROUNDTRIP
360
F10C26
  0
XRECORD
  5
F10C1C
102
{ACAD_REACTORS
330
F10C1B
102
}
330
F10C1B
100
AcDbXrecord
280
     1
102
SHADEPLOT
 70
     0
102
SHADEPLOTRESLEVEL
 70
     2
102
SHADEPLOTCUSTOMDPI
 70
   300
  0
XRECORD
  5
F10C1A
102
{ACAD_REACTORS
330
F10C19
102
}
330
F10C19
100
AcDbXrecord
280
     1
102
SHADEPLOT
 70
     0
102
SHADEPLOTRESLEVEL
 70
     2
102
SHADEPLOTCUSTOMDPI
 70
   300
  0
XRECORD
  5
FFF
102
{ACAD_REACTORS
330
F84
102
}
330
F84
100
AcDbXrecord
280
     1
102
MATERIAL
148
0.0
149
0.0
149
0.0
 93
        0
 94
      127
282
     0
 72
     0
 77
     0
171
     0
175
     0
179
     0
273
     0
  0
XRECORD
  5
F86
102
{ACAD_REACTORS
330
F84
102
}
330
F84
100
AcDbXrecord
280
     1
270
     1
271
     1
  0
XRECORD
  5
F85
102
{ACAD_REACTORS
330
F84
102
}
330
F84
100
AcDbXrecord
280
     1
270
     1
271
     1
  0
XRECORD
  5
F89
102
{ACAD_REACTORS
330
F84
102
}
330
F84
100
AcDbXrecord
280
     1
270
     1
271
     1
  0
XRECORD
  5
F88
102
{ACAD_REACTORS
330
F84
102
}
330
F84
100
AcDbXrecord
280
     1
270
     1
271
     1
  0
XRECORD
  5
F8A
102
{ACAD_REACTORS
330
F84
102
}
330
F84
100
AcDbXrecord
280
     1
270
     1
271
     1
  0
XRECORD
  5
F87
102
{ACAD_REACTORS
330
F84
102
}
330
F84
100
AcDbXrecord
280
     1
270
     1
271
     1
  0
XRECORD
  5
FFE
102
{ACAD_REACTORS
330
F7C
102
}
330
F7C
100
AcDbXrecord
280
     1
102
MATERIAL
148
0.0
149
0.0
149
0.0
 93
        0
 94
      127
282
     0
 72
     0
 77
     0
171
     0
175
     0
179
     0
273
     0
  0
XRECORD
  5
F7E
102
{ACAD_REACTORS
330
F7C
102
}
330
F7C
100
AcDbXrecord
280
     1
270
     1
271
     1
  0
XRECORD
  5
F7D
102
{ACAD_REACTORS
330
F7C
102
}
330
F7C
100
AcDbXrecord
280
     1
270
     1
271
     1
  0
XRECORD
  5
F81
102
{ACAD_REACTORS
330
F7C
102
}
330
F7C
100
AcDbXrecord
280
     1
270
     1
271
     1
  0
XRECORD
  5
F80
102
{ACAD_REACTORS
330
F7C
102
}
330
F7C
100
AcDbXrecord
280
     1
270
     1
271
     1
  0
XRECORD
  5
F82
102
{ACAD_REACTORS
330
F7C
102
}
330
F7C
100
AcDbXrecord
280
     1
270
     1
271
     1
  0
XRECORD
  5
F7F
102
{ACAD_REACTORS
330
F7C
102
}
330
F7C
100
AcDbXrecord
280
     1
270
     1
271
     1
  0
XRECORD
  5
1000
102
{ACAD_REACTORS
330
F8C
102
}
330
F8C
100
AcDbXrecord
280
     1
102
MATERIAL
148
0.0
149
0.0
149
0.0
 93
        0
 94
      127
282
     0
 72
     0
 77
     0
171
     0
175
     0
179
     0
273
     0
  0
XRECORD
  5
F8E
102
{ACAD_REACTORS
330
F8C
102
}
330
F8C
100
AcDbXrecord
280
     1
270
     1
271
     1
  0
XRECORD
  5
F8D
102
{ACAD_REACTORS
330
F8C
102
}
330
F8C
100
AcDbXrecord
280
     1
270
     1
271
     1
  0
XRECORD
  5
F91
102
{ACAD_REACTORS
330
F8C
102
}
330
F8C
100
AcDbXrecord
280
     1
270
     1
271
     1
  0
XRECORD
  5
F90
102
{ACAD_REACTORS
330
F8C
102
}
330
F8C
100
AcDbXrecord
280
     1
270
     1
271
     1
  0
XRECORD
  5
F92
102
{ACAD_REACTORS
330
F8C
102
}
330
F8C
100
AcDbXrecord
280
     1
270
     1
271
     1
  0
XRECORD
  5
F8F
102
{ACAD_REACTORS
330
F8C
102
}
330
F8C
100
AcDbXrecord
280
     1
270
     1
271
     1
  0
CELLSTYLEMAP
  5
F10BE7
102
{ACAD_REACTORS
330
FF8
102
}
330
FF8
100
AcDbCellStyleMap
 90
        3
300
CELLSTYLE
  1
TABLEFORMAT_BEGIN
 90
        5
170
     1
 91
        0
 92
    32768
 62
   257
 93
        1
300
CONTENTFORMAT
  1
CONTENTFORMAT_BEGIN
 90
        0
 91
        0
 92
      512
 93
        0
300

 40
0.0
140
1.0
 94
        5
 62
     0
340
253
144
0.25
309
CONTENTFORMAT_END
171
     1
301
MARGIN
  1
CELLMARGIN_BEGIN
 40
0.06
 40
0.06
 40
0.06
 40
0.06
 40
0.18
 40
0.18
309
CELLMARGIN_END
 94
        6
 95
        1
302
GRIDFORMAT
  1
GRIDFORMAT_BEGIN
 90
        0
 91
        1
 62
     0
 92
       -2
340
0
 93
        0
 40
0.045
309
GRIDFORMAT_END
 95
        2
302
GRIDFORMAT
  1
GRIDFORMAT_BEGIN
 90
        0
 91
        1
 62
     0
 92
       -2
340
0
 93
        0
 40
0.045
309
GRIDFORMAT_END
 95
        4
302
GRIDFORMAT
  1
GRIDFORMAT_BEGIN
 90
        0
 91
        1
 62
     0
 92
       -2
340
0
 93
        0
 40
0.045
309
GRIDFORMAT_END
 95
        8
302
GRIDFORMAT
  1
GRIDFORMAT_BEGIN
 90
        0
 91
        1
 62
     0
 92
       -2
340
0
 93
        0
 40
0.045
309
GRIDFORMAT_END
 95
       16
302
GRIDFORMAT
  1
GRIDFORMAT_BEGIN
 90
        0
 91
        1
 62
     0
 92
       -2
340
0
 93
        0
 40
0.045
309
GRIDFORMAT_END
 95
       32
302
GRIDFORMAT
  1
GRIDFORMAT_BEGIN
 90
        0
 91
        1
 62
     0
 92
       -2
340
0
 93
        0
 40
0.045
309
GRIDFORMAT_END
309
TABLEFORMAT_END
  1
CELLSTYLE_BEGIN
 90
        1
 91
        1
300
_TITLE
309
CELLSTYLE_END
300
CELLSTYLE
  1
TABLEFORMAT_BEGIN
 90
        5
170
     1
 91
        0
 92
        0
 62
   257
 93
        1
300
CONTENTFORMAT
  1
CONTENTFORMAT_BEGIN
 90
        0
 91
        0
 92
      512
 93
        0
300

 40
0.0
140
1.0
 94
        5
 62
     0
340
253
144
0.18
309
CONTENTFORMAT_END
171
     1
301
MARGIN
  1
CELLMARGIN_BEGIN
 40
0.06
 40
0.06
 40
0.06
 40
0.06
 40
0.18
 40
0.18
309
CELLMARGIN_END
 94
        6
 95
        1
302
GRIDFORMAT
  1
GRIDFORMAT_BEGIN
 90
        0
 91
        1
 62
     0
 92
       -2
340
0
 93
        0
 40
0.045
309
GRIDFORMAT_END
 95
        2
302
GRIDFORMAT
  1
GRIDFORMAT_BEGIN
 90
        0
 91
        1
 62
     0
 92
       -2
340
0
 93
        0
 40
0.045
309
GRIDFORMAT_END
 95
        4
302
GRIDFORMAT
  1
GRIDFORMAT_BEGIN
 90
        0
 91
        1
 62
     0
 92
       -2
340
0
 93
        0
 40
0.045
309
GRIDFORMAT_END
 95
        8
302
GRIDFORMAT
  1
GRIDFORMAT_BEGIN
 90
        0
 91
        1
 62
     0
 92
       -2
340
0
 93
        0
 40
0.045
309
GRIDFORMAT_END
 95
       16
302
GRIDFORMAT
  1
GRIDFORMAT_BEGIN
 90
        0
 91
        1
 62
     0
 92
       -2
340
0
 93
        0
 40
0.045
309
GRIDFORMAT_END
 95
       32
302
GRIDFORMAT
  1
GRIDFORMAT_BEGIN
 90
        0
 91
        1
 62
     0
 92
       -2
340
0
 93
        0
 40
0.045
309
GRIDFORMAT_END
309
TABLEFORMAT_END
  1
CELLSTYLE_BEGIN
 90
        2
 91
        1
300
_HEADER
309
CELLSTYLE_END
300
CELLSTYLE
  1
TABLEFORMAT_BEGIN
 90
        5
170
     1
 91
        0
 92
        0
 62
   257
 93
        1
300
CONTENTFORMAT
  1
CONTENTFORMAT_BEGIN
 90
        0
 91
        0
 92
      512
 93
        0
300

 40
0.0
140
1.0
 94
        2
 62
     0
340
253
144
0.18
309
CONTENTFORMAT_END
171
     1
301
MARGIN
  1
CELLMARGIN_BEGIN
 40
0.06
 40
0.06
 40
0.06
 40
0.06
 40
0.18
 40
0.18
309
CELLMARGIN_END
 94
        6
 95
        1
302
GRIDFORMAT
  1
GRIDFORMAT_BEGIN
 90
        0
 91
        1
 62
     0
 92
       -2
340
0
 93
        0
 40
0.045
309
GRIDFORMAT_END
 95
        2
302
GRIDFORMAT
  1
GRIDFORMAT_BEGIN
 90
        0
 91
        1
 62
     0
 92
       -2
340
0
 93
        0
 40
0.045
309
GRIDFORMAT_END
 95
        4
302
GRIDFORMAT
  1
GRIDFORMAT_BEGIN
 90
        0
 91
        1
 62
     0
 92
       -2
340
0
 93
        0
 40
0.045
309
GRIDFORMAT_END
 95
        8
302
GRIDFORMAT
  1
GRIDFORMAT_BEGIN
 90
        0
 91
        1
 62
     0
 92
       -2
340
0
 93
        0
 40
0.045
309
GRIDFORMAT_END
 95
       16
302
GRIDFORMAT
  1
GRIDFORMAT_BEGIN
 90
        0
 91
        1
 62
     0
 92
       -2
340
0
 93
        0
 40
0.045
309
GRIDFORMAT_END
 95
       32
302
GRIDFORMAT
  1
GRIDFORMAT_BEGIN
 90
        0
 91
        1
 62
     0
 92
       -2
340
0
 93
        0
 40
0.045
309
GRIDFORMAT_END
309
TABLEFORMAT_END
  1
CELLSTYLE_BEGIN
 90
        3
 91
        2
300
_DATA
309
CELLSTYLE_END
  0
XRECORD
  5
F10C18
102
{ACAD_REACTORS
330
FF8
102
}
330
FF8
100
AcDbXrecord
280
     1
102
ACAD_ROUNDTRIP_PRE2007_TABLESTYLE
 90
      512
 91
        0
  1

 92
      512
 93
        0
  2

 94
      512
 95
        0
  3

  0
XRECORD
  5
F10BFD
102
{ACAD_REACTORS
330
F10BFC
102
}
330
F10BFC
100
AcDbXrecord
280
     1
102
RTVSPropertyOp0
 70
     1
102
RTVSPropertyOp1
 70
     1
102
RTVSPropertyOp2
 70
     1
102
RTVSPropertyOp3
 70
     1
102
RTVSPropertyOp4
 70
     1
102
RTVSPropertyOp5
 70
     1
102
RTVSPropertyOp6
 70
     1
102
RTVSPropertyOp7
 70
     1
102
RTVSPropertyOp8
 70
     1
102
RTVSPropertyOp9
 70
     1
102
RTVSPropertyOp10
 70
     1
102
RTVSPropertyOp11
 70
     1
102
RTVSPropertyOp12
 70
     1
102
RTVSPropertyOp13
 70
     1
102
RTVSPropertyOp14
 70
     1
102
RTVSPropertyOp15
 70
     1
102
RTVSPropertyOp16
 70
     1
102
RTVSPropertyOp17
 70
     1
102
RTVSPropertyOp18
 70
     1
102
RTVSPropertyOp19
 70
     1
102
RTVSPropertyOp20
 70
     1
102
RTVSPropertyOp21
 70
     1
102
RTVSPropertyOp22
 70
     1
102
RTVSPropertyOp23
 70
     1
102
RTVSPropertyOp24
 70
     1
102
RTVSPropertyOp25
 70
     1
102
RTVSPropertyOp26
 70
     1
102
RTVSPropertyOp27
 70
     1
102
RTVSPropertyOp28
 70
     1
102
RTVSPropertyOp29
 70
     1
102
RTVSPropertyOp30
 70
     1
102
RTVSPropertyOp31
 70
     1
102
RTVSPropertyOp32
 70
     1
  0
XRECORD
  5
F10C01
102
{ACAD_REACTORS
330
F10C00
102
}
330
F10C00
100
AcDbXrecord
280
     1
102
RTVSPropertyOp0
 70
     1
102
RTVSPropertyOp1
 70
     1
102
RTVSPropertyOp2
 70
     1
102
RTVSPropertyOp3
 70
     1
102
RTVSPropertyOp4
 70
     1
102
RTVSPropertyOp5
 70
     1
102
RTVSPropertyOp6
 70
     1
102
RTVSPropertyOp7
 70
     1
102
RTVSPropertyOp8
 70
     1
102
RTVSPropertyOp9
 70
     1
102
RTVSPropertyOp10
 70
     1
102
RTVSPropertyOp11
 70
     1
102
RTVSPropertyOp12
 70
     1
102
RTVSPropertyOp13
 70
     1
102
RTVSPropertyOp14
 70
     1
102
RTVSPropertyOp15
 70
     1
102
RTVSPropertyOp16
 70
     1
102
RTVSPropertyOp17
 70
     1
102
RTVSPropertyOp18
 70
     1
102
RTVSPropertyOp19
 70
     1
102
RTVSPropertyOp20
 70
     1
102
RTVSPropertyOp21
 70
     1
102
RTVSPropertyOp22
 70
     1
102
RTVSPropertyOp23
 70
     1
102
RTVSPropertyOp24
 70
     1
102
RTVSPropertyOp25
 70
     1
102
RTVSPropertyOp26
 70
     1
102
RTVSPropertyOp27
 70
     1
102
RTVSPropertyOp28
 70
     1
102
RTVSPropertyOp29
 70
     1
102
RTVSPropertyOp30
 70
     1
102
RTVSPropertyOp31
 70
     1
102
RTVSPropertyOp32
 70
     1
  0
XRECORD
  5
F10BFF
102
{ACAD_REACTORS
330
F10BFE
102
}
330
F10BFE
100
AcDbXrecord
280
     1
102
RTVSPropertyOp0
 70
     1
102
RTVSPropertyOp1
 70
     1
102
RTVSPropertyOp2
 70
     1
102
RTVSPropertyOp3
 70
     1
102
RTVSPropertyOp4
 70
     1
102
RTVSPropertyOp5
 70
     1
102
RTVSPropertyOp6
 70
     1
102
RTVSPropertyOp7
 70
     1
102
RTVSPropertyOp8
 70
     1
102
RTVSPropertyOp9
 70
     1
102
RTVSPropertyOp10
 70
     1
102
RTVSPropertyOp11
 70
     1
102
RTVSPropertyOp12
 70
     1
102
RTVSPropertyOp13
 70
     1
102
RTVSPropertyOp14
 70
     1
102
RTVSPropertyOp15
 70
     1
102
RTVSPropertyOp16
 70
     1
102
RTVSPropertyOp17
 70
     1
102
RTVSPropertyOp18
 70
     1
102
RTVSPropertyOp19
 70
     1
102
RTVSPropertyOp20
 70
     1
102
RTVSPropertyOp21
 70
     1
102
RTVSPropertyOp22
 70
     1
102
RTVSPropertyOp23
 70
     1
102
RTVSPropertyOp24
 70
     1
102
RTVSPropertyOp25
 70
     1
102
RTVSPropertyOp26
 70
     1
102
RTVSPropertyOp27
 70
     1
102
RTVSPropertyOp28
 70
     1
102
RTVSPropertyOp29
 70
     1
102
RTVSPropertyOp30
 70
     1
102
RTVSPropertyOp31
 70
     1
102
RTVSPropertyOp32
 70
     1
  0
XRECORD
  5
F10BFB
102
{ACAD_REACTORS
330
F10BFA
102
}
330
F10BFA
100
AcDbXrecord
280
     1
102
RTVSPropertyOp0
 70
     1
102
RTVSPropertyOp1
 70
     1
102
RTVSPropertyOp2
 70
     1
102
RTVSPropertyOp3
 70
     1
102
RTVSPropertyOp4
 70
     1
102
RTVSPropertyOp5
 70
     1
102
RTVSPropertyOp6
 70
     1
102
RTVSPropertyOp7
 70
     1
102
RTVSPropertyOp8
 70
     1
102
RTVSPropertyOp9
 70
     1
102
RTVSPropertyOp10
 70
     1
102
RTVSPropertyOp11
 70
     1
102
RTVSPropertyOp12
 70
     1
102
RTVSPropertyOp13
 70
     1
102
RTVSPropertyOp14
 70
     1
102
RTVSPropertyOp15
 70
     1
102
RTVSPropertyOp16
 70
     1
102
RTVSPropertyOp17
 70
     1
102
RTVSPropertyOp18
 70
     1
102
RTVSPropertyOp19
 70
     1
102
RTVSPropertyOp20
 70
     1
102
RTVSPropertyOp21
 70
     1
102
RTVSPropertyOp22
 70
     1
102
RTVSPropertyOp23
 70
     1
102
RTVSPropertyOp24
 70
     1
102
RTVSPropertyOp25
 70
     1
102
RTVSPropertyOp26
 70
     1
102
RTVSPropertyOp27
 70
     1
102
RTVSPropertyOp28
 70
     1
102
RTVSPropertyOp29
 70
     1
102
RTVSPropertyOp30
 70
     1
102
RTVSPropertyOp31
 70
     1
102
RTVSPropertyOp32
 70
     1
  0
XRECORD
  5
F10C09
102
{ACAD_REACTORS
330
F10C08
102
}
330
F10C08
100
AcDbXrecord
280
     1
102
RTVSPropertyOp0
 70
     1
102
RTVSPropertyOp1
 70
     1
102
RTVSPropertyOp2
 70
     1
102
RTVSPropertyOp3
 70
     1
102
RTVSPropertyOp4
 70
     1
102
RTVSPropertyOp5
 70
     1
102
RTVSPropertyOp6
 70
     1
102
RTVSPropertyOp7
 70
     1
102
RTVSPropertyOp8
 70
     1
102
RTVSPropertyOp9
 70
     1
102
RTVSPropertyOp10
 70
     1
102
RTVSPropertyOp11
 70
     1
102
RTVSPropertyOp12
 70
     1
102
RTVSPropertyOp13
 70
     1
102
RTVSPropertyOp14
 70
     1
102
RTVSPropertyOp15
 70
     1
102
RTVSPropertyOp16
 70
     1
102
RTVSPropertyOp17
 70
     1
102
RTVSPropertyOp18
 70
     1
102
RTVSPropertyOp19
 70
     1
102
RTVSPropertyOp20
 70
     1
102
RTVSPropertyOp21
 70
     1
102
RTVSPropertyOp22
 70
     1
102
RTVSPropertyOp23
 70
     1
102
RTVSPropertyOp24
 70
     1
102
RTVSPropertyOp25
 70
     1
102
RTVSPropertyOp26
 70
     1
102
RTVSPropertyOp27
 70
     1
102
RTVSPropertyOp28
 70
     1
102
RTVSPropertyOp29
 70
     1
102
RTVSPropertyOp30
 70
     1
102
RTVSPropertyOp31
 70
     1
102
RTVSPropertyOp32
 70
     1
  0
XRECORD
  5
F10C11
102
{ACAD_REACTORS
330
F10C10
102
}
330
F10C10
100
AcDbXrecord
280
     1
102
RTVSPropertyOp0
 70
     1
102
RTVSPropertyOp1
 70
     1
102
RTVSPropertyOp2
 70
     1
102
RTVSPropertyOp3
 70
     1
102
RTVSPropertyOp4
 70
     1
102
RTVSPropertyOp5
 70
     1
102
RTVSPropertyOp6
 70
     1
102
RTVSPropertyOp7
 70
     1
102
RTVSPropertyOp8
 70
     1
102
RTVSPropertyOp9
 70
     1
102
RTVSPropertyOp10
 70
     1
102
RTVSPropertyOp11
 70
     1
102
RTVSPropertyOp12
 70
     1
102
RTVSPropertyOp13
 70
     1
102
RTVSPropertyOp14
 70
     1
102
RTVSPropertyOp15
 70
     1
102
RTVSPropertyOp16
 70
     1
102
RTVSPropertyOp17
 70
     1
102
RTVSPropertyOp18
 70
     1
102
RTVSPropertyOp19
 70
     1
102
RTVSPropertyOp20
 70
     1
102
RTVSPropertyOp21
 70
     1
102
RTVSPropertyOp22
 70
     1
102
RTVSPropertyOp23
 70
     1
102
RTVSPropertyOp24
 70
     1
102
RTVSPropertyOp25
 70
     1
102
RTVSPropertyOp26
 70
     1
102
RTVSPropertyOp27
 70
     1
102
RTVSPropertyOp28
 70
     1
102
RTVSPropertyOp29
 70
     1
102
RTVSPropertyOp30
 70
     1
102
RTVSPropertyOp31
 70
     1
102
RTVSPropertyOp32
 70
     1
  0
XRECORD
  5
F10C03
102
{ACAD_REACTORS
330
F10C02
102
}
330
F10C02
100
AcDbXrecord
280
     1
102
RTVSPropertyOp0
 70
     1
102
RTVSPropertyOp1
 70
     1
102
RTVSPropertyOp2
 70
     1
102
RTVSPropertyOp3
 70
     1
102
RTVSPropertyOp4
 70
     1
102
RTVSPropertyOp5
 70
     1
102
RTVSPropertyOp6
 70
     1
102
RTVSPropertyOp7
 70
     1
102
RTVSPropertyOp8
 70
     1
102
RTVSPropertyOp9
 70
     1
102
RTVSPropertyOp10
 70
     1
102
RTVSPropertyOp11
 70
     1
102
RTVSPropertyOp12
 70
     1
102
RTVSPropertyOp13
 70
     1
102
RTVSPropertyOp14
 70
     1
102
RTVSPropertyOp15
 70
     1
102
RTVSPropertyOp16
 70
     1
102
RTVSPropertyOp17
 70
     1
102
RTVSPropertyOp18
 70
     1
102
RTVSPropertyOp19
 70
     1
102
RTVSPropertyOp20
 70
     1
102
RTVSPropertyOp21
 70
     1
102
RTVSPropertyOp22
 70
     1
102
RTVSPropertyOp23
 70
     1
102
RTVSPropertyOp24
 70
     1
102
RTVSPropertyOp25
 70
     1
102
RTVSPropertyOp26
 70
     1
102
RTVSPropertyOp27
 70
     1
102
RTVSPropertyOp28
 70
     1
102
RTVSPropertyOp29
 70
     1
102
RTVSPropertyOp30
 70
     1
102
RTVSPropertyOp31
 70
     1
102
RTVSPropertyOp32
 70
     1
  0
XRECORD
  5
F10C07
102
{ACAD_REACTORS
330
F10C06
102
}
330
F10C06
100
AcDbXrecord
280
     1
102
RTVSPropertyOp0
 70
     1
102
RTVSPropertyOp1
 70
     1
102
RTVSPropertyOp2
 70
     1
102
RTVSPropertyOp3
 70
     1
102
RTVSPropertyOp4
 70
     1
102
RTVSPropertyOp5
 70
     1
102
RTVSPropertyOp6
 70
     1
102
RTVSPropertyOp7
 70
     1
102
RTVSPropertyOp8
 70
     1
102
RTVSPropertyOp9
 70
     1
102
RTVSPropertyOp10
 70
     1
102
RTVSPropertyOp11
 70
     1
102
RTVSPropertyOp12
 70
     1
102
RTVSPropertyOp13
 70
     1
102
RTVSPropertyOp14
 70
     1
102
RTVSPropertyOp15
 70
     1
102
RTVSPropertyOp16
 70
     1
102
RTVSPropertyOp17
 70
     1
102
RTVSPropertyOp18
 70
     1
102
RTVSPropertyOp19
 70
     1
102
RTVSPropertyOp20
 70
     1
102
RTVSPropertyOp21
 70
     1
102
RTVSPropertyOp22
 70
     1
102
RTVSPropertyOp23
 70
     1
102
RTVSPropertyOp24
 70
     1
102
RTVSPropertyOp25
 70
     1
102
RTVSPropertyOp26
 70
     1
102
RTVSPropertyOp27
 70
     1
102
RTVSPropertyOp28
 70
     1
102
RTVSPropertyOp29
 70
     1
102
RTVSPropertyOp30
 70
     1
102
RTVSPropertyOp31
 70
     1
102
RTVSPropertyOp32
 70
     1
  0
XRECORD
  5
F10C17
102
{ACAD_REACTORS
330
F10C16
102
}
330
F10C16
100
AcDbXrecord
280
     1
102
RTVSPropertyOp0
 70
     0
102
RTVSPropertyOp1
 70
     0
102
RTVSPropertyOp2
 70
     0
102
RTVSPropertyOp3
 70
     0
102
RTVSPropertyOp4
 70
     0
102
RTVSPropertyOp5
 70
     0
102
RTVSPropertyOp6
 70
     0
102
RTVSPropertyOp7
 70
     0
102
RTVSPropertyOp8
 70
     0
102
RTVSPropertyOp9
 70
     0
102
RTVSPropertyOp10
 70
     0
102
RTVSPropertyOp11
 70
     0
102
RTVSPropertyOp12
 70
     0
102
RTVSPropertyOp13
 70
     0
102
RTVSPropertyOp14
 70
     2
102
RTVSPropertyOp15
 70
     0
102
RTVSPropertyOp16
 70
     0
102
RTVSPropertyOp17
 70
     0
102
RTVSPropertyOp18
 70
     0
102
RTVSPropertyOp19
 70
     0
102
RTVSPropertyOp20
 70
     0
102
RTVSPropertyOp21
 70
     0
102
RTVSPropertyOp22
 70
     0
102
RTVSPropertyOp23
 70
     0
102
RTVSPropertyOp24
 70
     0
102
RTVSPropertyOp25
 70
     0
102
RTVSPropertyOp26
 70
     0
102
RTVSPropertyOp27
 70
     0
102
RTVSPropertyOp28
 70
     1
102
RTVSPropertyOp29
 70
     1
102
RTVSPropertyOp30
 70
     1
102
RTVSPropertyOp31
 70
     1
102
RTVSPropertyOp32
 70
     1
  0
XRECORD
  5
F10C0F
102
{ACAD_REACTORS
330
F10C0E
102
}
330
F10C0E
100
AcDbXrecord
280
     1
102
RTVSPropertyOp0
 70
     1
102
RTVSPropertyOp1
 70
     1
102
RTVSPropertyOp2
 70
     1
102
RTVSPropertyOp3
 70
     1
102
RTVSPropertyOp4
 70
     1
102
RTVSPropertyOp5
 70
     1
102
RTVSPropertyOp6
 70
     1
102
RTVSPropertyOp7
 70
     1
102
RTVSPropertyOp8
 70
     1
102
RTVSPropertyOp9
 70
     1
102
RTVSPropertyOp10
 70
     1
102
RTVSPropertyOp11
 70
     1
102
RTVSPropertyOp12
 70
     1
102
RTVSPropertyOp13
 70
     1
102
RTVSPropertyOp14
 70
     1
102
RTVSPropertyOp15
 70
     1
102
RTVSPropertyOp16
 70
     1
102
RTVSPropertyOp17
 70
     1
102
RTVSPropertyOp18
 70
     1
102
RTVSPropertyOp19
 70
     1
102
RTVSPropertyOp20
 70
     1
102
RTVSPropertyOp21
 70
     1
102
RTVSPropertyOp22
 70
     1
102
RTVSPropertyOp23
 70
     1
102
RTVSPropertyOp24
 70
     1
102
RTVSPropertyOp25
 70
     1
102
RTVSPropertyOp26
 70
     1
102
RTVSPropertyOp27
 70
     1
102
RTVSPropertyOp28
 70
     1
102
RTVSPropertyOp29
 70
     1
102
RTVSPropertyOp30
 70
     1
102
RTVSPropertyOp31
 70
     1
102
RTVSPropertyOp32
 70
     1
  0
XRECORD
  5
F10BF3
102
{ACAD_REACTORS
330
F10BF2
102
}
330
F10BF2
100
AcDbXrecord
280
     1
102
RTVSPropertyOp0
 70
     1
102
RTVSPropertyOp1
 70
     1
102
RTVSPropertyOp2
 70
     1
102
RTVSPropertyOp3
 70
     1
102
RTVSPropertyOp4
 70
     1
102
RTVSPropertyOp5
 70
     1
102
RTVSPropertyOp6
 70
     1
102
RTVSPropertyOp7
 70
     1
102
RTVSPropertyOp8
 70
     1
102
RTVSPropertyOp9
 70
     1
102
RTVSPropertyOp10
 70
     1
102
RTVSPropertyOp11
 70
     1
102
RTVSPropertyOp12
 70
     1
102
RTVSPropertyOp13
 70
     1
102
RTVSPropertyOp14
 70
     1
102
RTVSPropertyOp15
 70
     1
102
RTVSPropertyOp16
 70
     1
102
RTVSPropertyOp17
 70
     1
102
RTVSPropertyOp18
 70
     1
102
RTVSPropertyOp19
 70
     1
102
RTVSPropertyOp20
 70
     1
102
RTVSPropertyOp21
 70
     1
102
RTVSPropertyOp22
 70
     1
102
RTVSPropertyOp23
 70
     1
102
RTVSPropertyOp24
 70
     1
102
RTVSPropertyOp25
 70
     1
102
RTVSPropertyOp26
 70
     1
102
RTVSPropertyOp27
 70
     1
102
RTVSPropertyOp28
 70
     1
102
RTVSPropertyOp29
 70
     1
102
RTVSPropertyOp30
 70
     1
102
RTVSPropertyOp31
 70
     1
102
RTVSPropertyOp32
 70
     1
  0
XRECORD
  5
F10BF5
102
{ACAD_REACTORS
330
F10BF4
102
}
330
F10BF4
100
AcDbXrecord
280
     1
102
RTVSPropertyOp0
 70
     1
102
RTVSPropertyOp1
 70
     1
102
RTVSPropertyOp2
 70
     1
102
RTVSPropertyOp3
 70
     1
102
RTVSPropertyOp4
 70
     1
102
RTVSPropertyOp5
 70
     1
102
RTVSPropertyOp6
 70
     1
102
RTVSPropertyOp7
 70
     1
102
RTVSPropertyOp8
 70
     1
102
RTVSPropertyOp9
 70
     1
102
RTVSPropertyOp10
 70
     1
102
RTVSPropertyOp11
 70
     1
102
RTVSPropertyOp12
 70
     1
102
RTVSPropertyOp13
 70
     1
102
RTVSPropertyOp14
 70
     1
102
RTVSPropertyOp15
 70
     1
102
RTVSPropertyOp16
 70
     1
102
RTVSPropertyOp17
 70
     1
102
RTVSPropertyOp18
 70
     1
102
RTVSPropertyOp19
 70
     1
102
RTVSPropertyOp20
 70
     1
102
RTVSPropertyOp21
 70
     1
102
RTVSPropertyOp22
 70
     1
102
RTVSPropertyOp23
 70
     1
102
RTVSPropertyOp24
 70
     1
102
RTVSPropertyOp25
 70
     1
102
RTVSPropertyOp26
 70
     1
102
RTVSPropertyOp27
 70
     1
102
RTVSPropertyOp28
 70
     1
102
RTVSPropertyOp29
 70
     1
102
RTVSPropertyOp30
 70
     1
102
RTVSPropertyOp31
 70
     1
102
RTVSPropertyOp32
 70
     1
  0
XRECORD
  5
F10BF7
102
{ACAD_REACTORS
330
F10BF6
102
}
330
F10BF6
100
AcDbXrecord
280
     1
102
RTVSPropertyOp0
 70
     1
102
RTVSPropertyOp1
 70
     1
102
RTVSPropertyOp2
 70
     1
102
RTVSPropertyOp3
 70
     1
102
RTVSPropertyOp4
 70
     1
102
RTVSPropertyOp5
 70
     1
102
RTVSPropertyOp6
 70
     1
102
RTVSPropertyOp7
 70
     1
102
RTVSPropertyOp8
 70
     1
102
RTVSPropertyOp9
 70
     1
102
RTVSPropertyOp10
 70
     1
102
RTVSPropertyOp11
 70
     1
102
RTVSPropertyOp12
 70
     1
102
RTVSPropertyOp13
 70
     1
102
RTVSPropertyOp14
 70
     1
102
RTVSPropertyOp15
 70
     1
102
RTVSPropertyOp16
 70
     1
102
RTVSPropertyOp17
 70
     1
102
RTVSPropertyOp18
 70
     1
102
RTVSPropertyOp19
 70
     1
102
RTVSPropertyOp20
 70
     1
102
RTVSPropertyOp21
 70
     1
102
RTVSPropertyOp22
 70
     1
102
RTVSPropertyOp23
 70
     1
102
RTVSPropertyOp24
 70
     1
102
RTVSPropertyOp25
 70
     1
102
RTVSPropertyOp26
 70
     1
102
RTVSPropertyOp27
 70
     1
102
RTVSPropertyOp28
 70
     1
102
RTVSPropertyOp29
 70
     1
102
RTVSPropertyOp30
 70
     1
102
RTVSPropertyOp31
 70
     1
102
RTVSPropertyOp32
 70
     1
  0
XRECORD
  5
F10BF9
102
{ACAD_REACTORS
330
F10BF8
102
}
330
F10BF8
100
AcDbXrecord
280
     1
102
RTVSPropertyOp0
 70
     1
102
RTVSPropertyOp1
 70
     1
102
RTVSPropertyOp2
 70
     1
102
RTVSPropertyOp3
 70
     1
102
RTVSPropertyOp4
 70
     1
102
RTVSPropertyOp5
 70
     1
102
RTVSPropertyOp6
 70
     1
102
RTVSPropertyOp7
 70
     1
102
RTVSPropertyOp8
 70
     1
102
RTVSPropertyOp9
 70
     1
102
RTVSPropertyOp10
 70
     1
102
RTVSPropertyOp11
 70
     1
102
RTVSPropertyOp12
 70
     1
102
RTVSPropertyOp13
 70
     1
102
RTVSPropertyOp14
 70
     1
102
RTVSPropertyOp15
 70
     1
102
RTVSPropertyOp16
 70
     1
102
RTVSPropertyOp17
 70
     1
102
RTVSPropertyOp18
 70
     1
102
RTVSPropertyOp19
 70
     1
102
RTVSPropertyOp20
 70
     1
102
RTVSPropertyOp21
 70
     1
102
RTVSPropertyOp22
 70
     1
102
RTVSPropertyOp23
 70
     1
102
RTVSPropertyOp24
 70
     1
102
RTVSPropertyOp25
 70
     1
102
RTVSPropertyOp26
 70
     1
102
RTVSPropertyOp27
 70
     1
102
RTVSPropertyOp28
 70
     1
102
RTVSPropertyOp29
 70
     1
102
RTVSPropertyOp30
 70
     1
102
RTVSPropertyOp31
 70
     1
102
RTVSPropertyOp32
 70
     1
  0
XRECORD
  5
F10C20
102
{ACAD_REACTORS
330
F10C1F
102
}
330
F10C1F
100
AcDbXrecord
280
     1
102
RTVSPropertyOp0
 70
     1
102
RTVSPropertyOp1
 70
     1
102
RTVSPropertyOp2
 70
     1
102
RTVSPropertyOp3
 70
     1
102
RTVSPropertyOp4
 70
     1
102
RTVSPropertyOp5
 70
     1
102
RTVSPropertyOp6
 70
     1
102
RTVSPropertyOp7
 70
     1
102
RTVSPropertyOp8
 70
     1
102
RTVSPropertyOp9
 70
     1
102
RTVSPropertyOp10
 70
     1
102
RTVSPropertyOp11
 70
     1
102
RTVSPropertyOp12
 70
     1
102
RTVSPropertyOp13
 70
     1
102
RTVSPropertyOp14
 70
     1
102
RTVSPropertyOp15
 70
     1
102
RTVSPropertyOp16
 70
     1
102
RTVSPropertyOp17
 70
     1
102
RTVSPropertyOp18
 70
     1
102
RTVSPropertyOp19
 70
     1
102
RTVSPropertyOp20
 70
     1
102
RTVSPropertyOp21
 70
     1
102
RTVSPropertyOp22
 70
     1
102
RTVSPropertyOp23
 70
     1
102
RTVSPropertyOp24
 70
     1
102
RTVSPropertyOp25
 70
     1
102
RTVSPropertyOp26
 70
     1
102
RTVSPropertyOp27
 70
     1
102
RTVSPropertyOp28
 70
     1
102
RTVSPropertyOp29
 70
     1
102
RTVSPropertyOp30
 70
     1
102
RTVSPropertyOp31
 70
     1
102
RTVSPropertyOp32
 70
     1
  0
XRECORD
  5
F10C13
102
{ACAD_REACTORS
330
F10C12
102
}
330
F10C12
100
AcDbXrecord
280
     1
102
RTVSPropertyOp0
 70
     0
102
RTVSPropertyOp1
 70
     0
102
RTVSPropertyOp2
 70
     0
102
RTVSPropertyOp3
 70
     0
102
RTVSPropertyOp4
 70
     0
102
RTVSPropertyOp5
 70
     0
102
RTVSPropertyOp6
 70
     0
102
RTVSPropertyOp7
 70
     0
102
RTVSPropertyOp8
 70
     0
102
RTVSPropertyOp9
 70
     0
102
RTVSPropertyOp10
 70
     0
102
RTVSPropertyOp11
 70
     0
102
RTVSPropertyOp12
 70
     0
102
RTVSPropertyOp13
 70
     0
102
RTVSPropertyOp14
 70
     2
102
RTVSPropertyOp15
 70
     0
102
RTVSPropertyOp16
 70
     0
102
RTVSPropertyOp17
 70
     0
102
RTVSPropertyOp18
 70
     0
102
RTVSPropertyOp19
 70
     0
102
RTVSPropertyOp20
 70
     0
102
RTVSPropertyOp21
 70
     0
102
RTVSPropertyOp22
 70
     0
102
RTVSPropertyOp23
 70
     0
102
RTVSPropertyOp24
 70
     0
102
RTVSPropertyOp25
 70
     0
102
RTVSPropertyOp26
 70
     0
102
RTVSPropertyOp27
 70
     0
102
RTVSPropertyOp28
 70
     1
102
RTVSPropertyOp29
 70
     1
102
RTVSPropertyOp30
 70
     1
102
RTVSPropertyOp31
 70
     1
102
RTVSPropertyOp32
 70
     1
  0
XRECORD
  5
F10C0D
102
{ACAD_REACTORS
330
F10C0C
102
}
330
F10C0C
100
AcDbXrecord
280
     1
102
RTVSPropertyOp0
 70
     1
102
RTVSPropertyOp1
 70
     1
102
RTVSPropertyOp2
 70
     1
102
RTVSPropertyOp3
 70
     1
102
RTVSPropertyOp4
 70
     1
102
RTVSPropertyOp5
 70
     1
102
RTVSPropertyOp6
 70
     1
102
RTVSPropertyOp7
 70
     1
102
RTVSPropertyOp8
 70
     1
102
RTVSPropertyOp9
 70
     1
102
RTVSPropertyOp10
 70
     1
102
RTVSPropertyOp11
 70
     1
102
RTVSPropertyOp12
 70
     1
102
RTVSPropertyOp13
 70
     1
102
RTVSPropertyOp14
 70
     1
102
RTVSPropertyOp15
 70
     1
102
RTVSPropertyOp16
 70
     1
102
RTVSPropertyOp17
 70
     1
102
RTVSPropertyOp18
 70
     1
102
RTVSPropertyOp19
 70
     1
102
RTVSPropertyOp20
 70
     1
102
RTVSPropertyOp21
 70
     1
102
RTVSPropertyOp22
 70
     1
102
RTVSPropertyOp23
 70
     1
102
RTVSPropertyOp24
 70
     1
102
RTVSPropertyOp25
 70
     1
102
RTVSPropertyOp26
 70
     1
102
RTVSPropertyOp27
 70
     1
102
RTVSPropertyOp28
 70
     1
102
RTVSPropertyOp29
 70
     1
102
RTVSPropertyOp30
 70
     1
102
RTVSPropertyOp31
 70
     1
102
RTVSPropertyOp32
 70
     1
  0
XRECORD
  5
F10C15
102
{ACAD_REACTORS
330
F10C14
102
}
330
F10C14
100
AcDbXrecord
280
     1
102
RTVSPropertyOp0
 70
     0
102
RTVSPropertyOp1
 70
     0
102
RTVSPropertyOp2
 70
     0
102
RTVSPropertyOp3
 70
     0
102
RTVSPropertyOp4
 70
     0
102
RTVSPropertyOp5
 70
     0
102
RTVSPropertyOp6
 70
     0
102
RTVSPropertyOp7
 70
     0
102
RTVSPropertyOp8
 70
     0
102
RTVSPropertyOp9
 70
     0
102
RTVSPropertyOp10
 70
     0
102
RTVSPropertyOp11
 70
     0
102
RTVSPropertyOp12
 70
     0
102
RTVSPropertyOp13
 70
     0
102
RTVSPropertyOp14
 70
     2
102
RTVSPropertyOp15
 70
     0
102
RTVSPropertyOp16
 70
     0
102
RTVSPropertyOp17
 70
     0
102
RTVSPropertyOp18
 70
     0
102
RTVSPropertyOp19
 70
     0
102
RTVSPropertyOp20
 70
     0
102
RTVSPropertyOp21
 70
     0
102
RTVSPropertyOp22
 70
     0
102
RTVSPropertyOp23
 70
     0
102
RTVSPropertyOp24
 70
     0
102
RTVSPropertyOp25
 70
     0
102
RTVSPropertyOp26
 70
     0
102
RTVSPropertyOp27
 70
     0
102
RTVSPropertyOp28
 70
     1
102
RTVSPropertyOp29
 70
     1
102
RTVSPropertyOp30
 70
     1
102
RTVSPropertyOp31
 70
     1
102
RTVSPropertyOp32
 70
     1
  0
XRECORD
  5
F10C05
102
{ACAD_REACTORS
330
F10C04
102
}
330
F10C04
100
AcDbXrecord
280
     1
102
RTVSPropertyOp0
 70
     1
102
RTVSPropertyOp1
 70
     1
102
RTVSPropertyOp2
 70
     1
102
RTVSPropertyOp3
 70
     1
102
RTVSPropertyOp4
 70
     1
102
RTVSPropertyOp5
 70
     1
102
RTVSPropertyOp6
 70
     1
102
RTVSPropertyOp7
 70
     1
102
RTVSPropertyOp8
 70
     1
102
RTVSPropertyOp9
 70
     1
102
RTVSPropertyOp10
 70
     1
102
RTVSPropertyOp11
 70
     1
102
RTVSPropertyOp12
 70
     1
102
RTVSPropertyOp13
 70
     1
102
RTVSPropertyOp14
 70
     1
102
RTVSPropertyOp15
 70
     1
102
RTVSPropertyOp16
 70
     1
102
RTVSPropertyOp17
 70
     1
102
RTVSPropertyOp18
 70
     1
102
RTVSPropertyOp19
 70
     1
102
RTVSPropertyOp20
 70
     1
102
RTVSPropertyOp21
 70
     1
102
RTVSPropertyOp22
 70
     1
102
RTVSPropertyOp23
 70
     1
102
RTVSPropertyOp24
 70
     1
102
RTVSPropertyOp25
 70
     1
102
RTVSPropertyOp26
 70
     1
102
RTVSPropertyOp27
 70
     1
102
RTVSPropertyOp28
 70
     1
102
RTVSPropertyOp29
 70
     1
102
RTVSPropertyOp30
 70
     1
102
RTVSPropertyOp31
 70
     1
102
RTVSPropertyOp32
 70
     1
  0
XRECORD
  5
F10C2A
102
{ACAD_REACTORS
330
F10C29
102
}
330
F10C29
100
AcDbXrecord
280
     1
102
RTVSPropertyOp0
 70
     1
102
RTVSPropertyOp1
 70
     1
102
RTVSPropertyOp2
 70
     1
102
RTVSPropertyOp3
 70
     1
102
RTVSPropertyOp4
 70
     1
102
RTVSPropertyOp5
 70
     1
102
RTVSPropertyOp6
 70
     1
102
RTVSPropertyOp7
 70
     1
102
RTVSPropertyOp8
 70
     1
102
RTVSPropertyOp9
 70
     1
102
RTVSPropertyOp10
 70
     1
102
RTVSPropertyOp11
 70
     1
102
RTVSPropertyOp12
 70
     1
102
RTVSPropertyOp13
 70
     1
102
RTVSPropertyOp14
 70
     1
102
RTVSPropertyOp15
 70
     1
102
RTVSPropertyOp16
 70
     1
102
RTVSPropertyOp17
 70
     1
102
RTVSPropertyOp18
 70
     1
102
RTVSPropertyOp19
 70
     1
102
RTVSPropertyOp20
 70
     1
102
RTVSPropertyOp21
 70
     1
102
RTVSPropertyOp22
 70
     1
102
RTVSPropertyOp23
 70
     1
102
RTVSPropertyOp24
 70
     1
102
RTVSPropertyOp25
 70
     1
102
RTVSPropertyOp26
 70
     1
102
RTVSPropertyOp27
 70
     1
102
RTVSPropertyOp28
 70
     1
102
RTVSPropertyOp29
 70
     1
102
RTVSPropertyOp30
 70
     1
102
RTVSPropertyOp31
 70
     1
102
RTVSPropertyOp32
 70
     1
  0
XRECORD
  5
F10C28
102
{ACAD_REACTORS
330
F10C27
102
}
330
F10C27
100
AcDbXrecord
280
     1
102
RTVSPropertyOp0
 70
     1
102
RTVSPropertyOp1
 70
     1
102
RTVSPropertyOp2
 70
     1
102
RTVSPropertyOp3
 70
     1
102
RTVSPropertyOp4
 70
     1
102
RTVSPropertyOp5
 70
     1
102
RTVSPropertyOp6
 70
     1
102
RTVSPropertyOp7
 70
     1
102
RTVSPropertyOp8
 70
     1
102
RTVSPropertyOp9
 70
     1
102
RTVSPropertyOp10
 70
     1
102
RTVSPropertyOp11
 70
     1
102
RTVSPropertyOp12
 70
     1
102
RTVSPropertyOp13
 70
     1
102
RTVSPropertyOp14
 70
     1
102
RTVSPropertyOp15
 70
     1
102
RTVSPropertyOp16
 70
     1
102
RTVSPropertyOp17
 70
     1
102
RTVSPropertyOp18
 70
     1
102
RTVSPropertyOp19
 70
     1
102
RTVSPropertyOp20
 70
     1
102
RTVSPropertyOp21
 70
     1
102
RTVSPropertyOp22
 70
     1
102
RTVSPropertyOp23
 70
     1
102
RTVSPropertyOp24
 70
     1
102
RTVSPropertyOp25
 70
     1
102
RTVSPropertyOp26
 70
     1
102
RTVSPropertyOp27
 70
     1
102
RTVSPropertyOp28
 70
     1
102
RTVSPropertyOp29
 70
     1
102
RTVSPropertyOp30
 70
     1
102
RTVSPropertyOp31
 70
     1
102
RTVSPropertyOp32
 70
     1
  0
XRECORD
  5
F10C22
102
{ACAD_REACTORS
330
F10C21
102
}
330
F10C21
100
AcDbXrecord
280
     1
102
RTVSPropertyOp0
 70
     1
102
RTVSPropertyOp1
 70
     1
102
RTVSPropertyOp2
 70
     1
102
RTVSPropertyOp3
 70
     1
102
RTVSPropertyOp4
 70
     1
102
RTVSPropertyOp5
 70
     1
102
RTVSPropertyOp6
 70
     1
102
RTVSPropertyOp7
 70
     1
102
RTVSPropertyOp8
 70
     1
102
RTVSPropertyOp9
 70
     1
102
RTVSPropertyOp10
 70
     1
102
RTVSPropertyOp11
 70
     1
102
RTVSPropertyOp12
 70
     1
102
RTVSPropertyOp13
 70
     1
102
RTVSPropertyOp14
 70
     1
102
RTVSPropertyOp15
 70
     1
102
RTVSPropertyOp16
 70
     1
102
RTVSPropertyOp17
 70
     1
102
RTVSPropertyOp18
 70
     1
102
RTVSPropertyOp19
 70
     1
102
RTVSPropertyOp20
 70
     1
102
RTVSPropertyOp21
 70
     1
102
RTVSPropertyOp22
 70
     1
102
RTVSPropertyOp23
 70
     1
102
RTVSPropertyOp24
 70
     1
102
RTVSPropertyOp25
 70
     1
102
RTVSPropertyOp26
 70
     1
102
RTVSPropertyOp27
 70
     1
102
RTVSPropertyOp28
 70
     1
102
RTVSPropertyOp29
 70
     1
102
RTVSPropertyOp30
 70
     1
102
RTVSPropertyOp31
 70
     1
102
RTVSPropertyOp32
 70
     1
  0
XRECORD
  5
F10C24
102
{ACAD_REACTORS
330
F10C23
102
}
330
F10C23
100
AcDbXrecord
280
     1
102
RTVSPropertyOp0
 70
     1
102
RTVSPropertyOp1
 70
     1
102
RTVSPropertyOp2
 70
     1
102
RTVSPropertyOp3
 70
     1
102
RTVSPropertyOp4
 70
     1
102
RTVSPropertyOp5
 70
     1
102
RTVSPropertyOp6
 70
     1
102
RTVSPropertyOp7
 70
     1
102
RTVSPropertyOp8
 70
     1
102
RTVSPropertyOp9
 70
     1
102
RTVSPropertyOp10
 70
     1
102
RTVSPropertyOp11
 70
     1
102
RTVSPropertyOp12
 70
     1
102
RTVSPropertyOp13
 70
     1
102
RTVSPropertyOp14
 70
     1
102
RTVSPropertyOp15
 70
     1
102
RTVSPropertyOp16
 70
     1
102
RTVSPropertyOp17
 70
     1
102
RTVSPropertyOp18
 70
     1
102
RTVSPropertyOp19
 70
     1
102
RTVSPropertyOp20
 70
     1
102
RTVSPropertyOp21
 70
     1
102
RTVSPropertyOp22
 70
     1
102
RTVSPropertyOp23
 70
     1
102
RTVSPropertyOp24
 70
     1
102
RTVSPropertyOp25
 70
     1
102
RTVSPropertyOp26
 70
     1
102
RTVSPropertyOp27
 70
     1
102
RTVSPropertyOp28
 70
     1
102
RTVSPropertyOp29
 70
     1
102
RTVSPropertyOp30
 70
     1
102
RTVSPropertyOp31
 70
     1
102
RTVSPropertyOp32
 70
     1
  0
XRECORD
  5
F10C0B
102
{ACAD_REACTORS
330
F10C0A
102
}
330
F10C0A
100
AcDbXrecord
280
     1
102
RTVSPropertyOp0
 70
     1
102
RTVSPropertyOp1
 70
     1
102
RTVSPropertyOp2
 70
     1
102
RTVSPropertyOp3
 70
     1
102
RTVSPropertyOp4
 70
     1
102
RTVSPropertyOp5
 70
     1
102
RTVSPropertyOp6
 70
     1
102
RTVSPropertyOp7
 70
     1
102
RTVSPropertyOp8
 70
     1
102
RTVSPropertyOp9
 70
     1
102
RTVSPropertyOp10
 70
     1
102
RTVSPropertyOp11
 70
     1
102
RTVSPropertyOp12
 70
     1
102
RTVSPropertyOp13
 70
     1
102
RTVSPropertyOp14
 70
     1
102
RTVSPropertyOp15
 70
     1
102
RTVSPropertyOp16
 70
     1
102
RTVSPropertyOp17
 70
     1
102
RTVSPropertyOp18
 70
     1
102
RTVSPropertyOp19
 70
     1
102
RTVSPropertyOp20
 70
     1
102
RTVSPropertyOp21
 70
     1
102
RTVSPropertyOp22
 70
     1
102
RTVSPropertyOp23
 70
     1
102
RTVSPropertyOp24
 70
     1
102
RTVSPropertyOp25
 70
     1
102
RTVSPropertyOp26
 70
     1
102
RTVSPropertyOp27
 70
     1
102
RTVSPropertyOp28
 70
     1
102
RTVSPropertyOp29
 70
     1
102
RTVSPropertyOp30
 70
     1
102
RTVSPropertyOp31
 70
     1
102
RTVSPropertyOp32
 70
     1
  0
XRECORD
  5
F10C1E
102
{ACAD_REACTORS
330
F10C1D
102
}
330
F10C1D
100
AcDbXrecord
280
     1
102
RTVSPropertyOp0
 70
     1
102
RTVSPropertyOp1
 70
     1
102
RTVSPropertyOp2
 70
     1
102
RTVSPropertyOp3
 70
     1
102
RTVSPropertyOp4
 70
     1
102
RTVSPropertyOp5
 70
     1
102
RTVSPropertyOp6
 70
     1
102
RTVSPropertyOp7
 70
     1
102
RTVSPropertyOp8
 70
     1
102
RTVSPropertyOp9
 70
     1
102
RTVSPropertyOp10
 70
     1
102
RTVSPropertyOp11
 70
     1
102
RTVSPropertyOp12
 70
     1
102
RTVSPropertyOp13
 70
     1
102
RTVSPropertyOp14
 70
     1
102
RTVSPropertyOp15
 70
     1
102
RTVSPropertyOp16
 70
     1
102
RTVSPropertyOp17
 70
     1
102
RTVSPropertyOp18
 70
     1
102
RTVSPropertyOp19
 70
     1
102
RTVSPropertyOp20
 70
     1
102
RTVSPropertyOp21
 70
     1
102
RTVSPropertyOp22
 70
     1
102
RTVSPropertyOp23
 70
     1
102
RTVSPropertyOp24
 70
     1
102
RTVSPropertyOp25
 70
     1
102
RTVSPropertyOp26
 70
     1
102
RTVSPropertyOp27
 70
     1
102
RTVSPropertyOp28
 70
     1
102
RTVSPropertyOp29
 70
     1
102
RTVSPropertyOp30
 70
     1
102
RTVSPropertyOp31
 70
     1
102
RTVSPropertyOp32
 70
     1
  0
XRECORD
  5
F10C26
102
{ACAD_REACTORS
330
F10C25
102
}
330
F10C25
100
AcDbXrecord
280
     1
102
RTVSPropertyOp0
 70
     1
102
RTVSPropertyOp1
 70
     1
102
RTVSPropertyOp2
 70
     1
102
RTVSPropertyOp3
 70
     1
102
RTVSPropertyOp4
 70
     1
102
RTVSPropertyOp5
 70
     1
102
RTVSPropertyOp6
 70
     1
102
RTVSPropertyOp7
 70
     1
102
RTVSPropertyOp8
 70
     1
102
RTVSPropertyOp9
 70
     1
102
RTVSPropertyOp10
 70
     1
102
RTVSPropertyOp11
 70
     1
102
RTVSPropertyOp12
 70
     1
102
RTVSPropertyOp13
 70
     1
102
RTVSPropertyOp14
 70
     1
102
RTVSPropertyOp15
 70
     1
102
RTVSPropertyOp16
 70
     1
102
RTVSPropertyOp17
 70
     1
102
RTVSPropertyOp18
 70
     1
102
RTVSPropertyOp19
 70
     1
102
RTVSPropertyOp20
 70
     1
102
RTVSPropertyOp21
 70
     1
102
RTVSPropertyOp22
 70
     1
102
RTVSPropertyOp23
 70
     1
102
RTVSPropertyOp24
 70
     1
102
RTVSPropertyOp25
 70
     1
102
RTVSPropertyOp26
 70
     1
102
RTVSPropertyOp27
 70
     1
102
RTVSPropertyOp28
 70
     1
102
RTVSPropertyOp29
 70
     1
102
RTVSPropertyOp30
 70
     1
102
RTVSPropertyOp31
 70
     1
102
RTVSPropertyOp32
 70
     1
  0
ENDSEC
  0
EOF
